 0
SECTION
 2
HEADER
 9
$ACADVER
 1
AC1003
 9
$EXTMIN
 10
975.614746
 20
-3086.299316
 9
$EXTMAX
 10
2905.614746
 20
-1704.299316
 9
$LIMMIN
 10
975.613746
 20
-3086.300316
 9
$LIMMAX
 10
2905.615746
 20
-1704.298316
 9
$SNAPUNIT
 10
1
 20
1
 9
$SNAPBASE
 10
0
 20
0
 9
$GRIDMODE
 70
0
 9
$GRIDUNIT
 10
0
 20
0
 9
$LTSCALE
 40
32.166667
 9
$TEXTSIZE
 40
3.2
 9
$DIMTAD
 70
0
 9
$LUNITS
 70
2
 9
$LUPREC
 70
4
 9
$FILLETRAD
 40
0
 9
$AUNITS
 70
0
 9
$AUPREC
 70
0
 0
ENDSEC
 0
SECTION
 2
TABLES
 0
TABLE
 2
LTYPE
 70
5
 0
LTYPE
 2
CONTINUOUS
 70
64
 3
Solid-Line
 72
65
 73
0
 40
0
 0
LTYPE
 2
DASHED
 70
64
 3
DASHED
 72
65
 73
2
 40
.75
 49
.5
 49
-.25
 0
LTYPE
 2
HIDDEN
 70
64
 3
HIDDEN
 72
65
 73
2
 40
.375
 49
.25
 49
-.125
 0
LTYPE
 2
CENTER
 70
64
 3
CENTER
 72
65
 73
4
 40
2
 49
1.25
 49
-.25
 49
.25
 49
-.25
 0
LTYPE
 2
PHANTOM
 70
64
 3
PHANTOM
 72
65
 73
6
 40
2.5
 49
1.25
 49
-.25
 49
.25
 49
-.25
 49
.25
 49
-.25
 0
ENDTAB
 0
TABLE
 2
LAYER
 70
11
 0
LAYER
 2
001
 70
0
 62
7
 6
CONTINUOUS
 0
LAYER
 2
006
 70
0
 62
7
 6
CONTINUOUS
 0
LAYER
 2
011
 70
0
 62
7
 6
CONTINUOUS
 0
LAYER
 2
019
 70
0
 62
7
 6
CONTINUOUS
 0
LAYER
 2
021
 70
0
 62
7
 6
CONTINUOUS
 0
LAYER
 2
031
 70
0
 62
7
 6
CONTINUOUS
 0
LAYER
 2
051
 70
0
 62
7
 6
CONTINUOUS
 0
LAYER
 2
061
 70
0
 62
7
 6
CONTINUOUS
 0
LAYER
 2
071
 70
0
 62
7
 6
CONTINUOUS
 0
LAYER
 2
081
 70
0
 62
7
 6
CONTINUOUS
 0
LAYER
 2
091
 70
0
 62
7
 6
CONTINUOUS
 0
ENDTAB
 0
TABLE
 2
STYLE
 70
2
 0
STYLE
 2
STANDARD
 70
0
 40
0
 41
1
 50
0
 71
0
 42
.2
 3
TXT
 4
BIGFONT
 0
STYLE
 2
TATEGAKI
 70
4
 40
1
 41
1
 50
0
 71
0
 42
.2
 3
TXT
 4
BIGFONT
 0
ENDTAB
 0
ENDSEC
 0
SECTION
 2
BLOCKS
 0
BLOCK
 8
0
 2
ARROW
 70
0
 10
0
 20
0
 0
POLYLINE
 8
0
 6
CONTINUOUS
 62
0
 66
1
 0
VERTEX
 8
0
 6
CONTINUOUS
 62
0
 10
10.000000
 20
2.679492
 0
VERTEX
 8
0
 6
CONTINUOUS
 62
0
 10
0.0
 20
0.0
 0
VERTEX
 8
0
 6
CONTINUOUS
 62
0
 10
10.000000
 20
-2.679492
 0
SEQEND
 8
0
 0
ENDBLK
 8
0
 0
BLOCK
 8
011
 2
*D0
 70
1
 10
0.0
 20
0.0
 0
LINE
 8
011
 10
1213.376103
 20
-2183.631635
 11
1213.376103
 21
-2313.831496
 0
LINE
 8
011
 10
1537.376104
 20
-2183.631635
 11
1537.376104
 21
-2313.831496
 0
LINE
 8
011
 10
1213.376103
 20
-2308.831496
 11
1537.376104
 21
-2308.831496
 0
INSERT
 8
011
 62
7
 2
ARROW
 6
BYBLOCK
 10
1213.376103
 20
-2308.831496
 41
1.000000
 42
1.000000
 0
INSERT
 8
011
 62
7
 2
ARROW
 6
BYBLOCK
 10
1537.376104
 20
-2308.831496
 41
1.000000
 42
1.000000
 50
180.000000
 0
TEXT
 8
011
 10
1356.237331
 20
-2303.831496
 40
16.000000
 1
324
 41
0.656250
 7
STANDARD
 0
POINT
 8
011
 10
1213.376103
 20
-2178.631635
 0
POINT
 8
011
 10
1537.376104
 20
-2178.631635
 0
POINT
 8
011
 10
1537.376104
 20
-2308.831496
 0
ENDBLK
 8
011
 0
BLOCK
 8
011
 2
*D1
 70
1
 10
0.0
 20
0.0
 0
LINE
 8
011
 10
1197.706360
 20
-1998.631637
 11
1167.737337
 21
-1998.631637
 0
LINE
 8
011
 10
1172.737325
 20
-2201.631637
 11
1172.737337
 21
-1998.631637
 0
INSERT
 8
011
 62
7
 2
ARROW
 6
BYBLOCK
 10
1172.737325
 20
-2201.631637
 41
1.000000
 42
1.000000
 50
90.000000
 0
INSERT
 8
011
 62
7
 2
ARROW
 6
BYBLOCK
 10
1172.737337
 20
-1998.631637
 41
1.000000
 42
1.000000
 50
270.000000
 0
TEXT
 8
011
 10
1167.737331
 20
-2110.331496
 40
16.000000
 1
203
 50
90.000003
 41
0.694853
 7
STANDARD
 0
POINT
 8
011
 10
1157.614746
 20
-2201.631637
 0
POINT
 8
011
 10
1202.706360
 20
-1998.631637
 0
POINT
 8
011
 10
1172.737337
 20
-1998.631637
 0
ENDBLK
 8
011
 0
BLOCK
 8
011
 2
*D2
 70
1
 10
0.0
 20
0.0
 0
LINE
 8
011
 10
1509.376103
 20
-2201.631637
 11
1102.737331
 21
-2201.631637
 0
LINE
 8
011
 10
1491.713391
 20
-1854.631634
 11
1102.737331
 21
-1854.631634
 0
LINE
 8
011
 10
1107.737331
 20
-2201.631637
 11
1107.737331
 21
-1854.631634
 0
INSERT
 8
011
 62
7
 2
ARROW
 6
BYBLOCK
 10
1107.737331
 20
-2201.631637
 41
1.000000
 42
1.000000
 50
90.000000
 0
INSERT
 8
011
 62
7
 2
ARROW
 6
BYBLOCK
 10
1107.737331
 20
-1854.631634
 41
1.000000
 42
1.000000
 50
270.000000
 0
TEXT
 8
011
 10
1102.737331
 20
-2020.331496
 40
16.000000
 1
347
 50
90.000003
 41
0.656250
 7
STANDARD
 0
POINT
 8
011
 10
1514.376103
 20
-2201.631637
 0
POINT
 8
011
 10
1496.713391
 20
-1854.631634
 0
POINT
 8
011
 10
1107.737331
 20
-1854.631634
 0
ENDBLK
 8
011
 0
BLOCK
 8
011
 2
*D3
 70
1
 10
0.0
 20
0.0
 0
LINE
 8
011
 10
1936.297905
 20
-2645.584157
 11
1667.737331
 21
-2645.584157
 0
LINE
 8
011
 10
1938.895665
 20
-2468.084157
 11
1667.737331
 21
-2468.084158
 0
LINE
 8
011
 10
1672.737331
 20
-2645.584157
 11
1672.737331
 21
-2468.084158
 0
INSERT
 8
011
 62
7
 2
ARROW
 6
BYBLOCK
 10
1672.737331
 20
-2645.584157
 41
1.000000
 42
1.000000
 50
90.000000
 0
INSERT
 8
011
 62
7
 2
ARROW
 6
BYBLOCK
 10
1672.737331
 20
-2468.084158
 41
1.000000
 42
1.000000
 50
270.000000
 0
TEXT
 8
011
 10
1667.737331
 20
-2585.831496
 40
16.000000
 1
177.5
 50
90.000003
 41
0.820313
 7
STANDARD
 0
POINT
 8
011
 10
1941.297905
 20
-2645.584157
 0
POINT
 8
011
 10
1943.895665
 20
-2468.084157
 0
POINT
 8
011
 10
1672.737331
 20
-2468.084158
 0
ENDBLK
 8
011
 0
BLOCK
 8
011
 2
*D4
 70
1
 10
0.0
 20
0.0
 0
LINE
 8
011
 10
1889.357905
 20
-2614.584157
 11
1712.737331
 21
-2614.584157
 0
LINE
 8
011
 10
1938.895665
 20
-2468.084157
 11
1712.737331
 21
-2468.084158
 0
LINE
 8
011
 10
1717.737331
 20
-2614.584157
 11
1717.737331
 21
-2468.084158
 0
INSERT
 8
011
 62
7
 2
ARROW
 6
BYBLOCK
 10
1717.737331
 20
-2614.584157
 41
1.000000
 42
1.000000
 50
90.000000
 0
INSERT
 8
011
 62
7
 2
ARROW
 6
BYBLOCK
 10
1717.737331
 20
-2468.084158
 41
1.000000
 42
1.000000
 50
270.000000
 0
TEXT
 8
011
 10
1712.737331
 20
-2570.831496
 40
16.000000
 1
146.5
 50
90.000003
 41
0.820313
 7
STANDARD
 0
POINT
 8
011
 10
1894.357905
 20
-2614.584157
 0
POINT
 8
011
 10
1943.895665
 20
-2468.084157
 0
POINT
 8
011
 10
1717.737331
 20
-2468.084158
 0
ENDBLK
 8
011
 0
BLOCK
 8
011
 2
*D5
 70
1
 10
0.0
 20
0.0
 0
LINE
 8
011
 10
1840.954570
 20
-2519.584157
 11
1752.737331
 21
-2519.584157
 0
LINE
 8
011
 10
1938.895665
 20
-2468.084157
 11
1752.737331
 21
-2468.084158
 0
LINE
 8
011
 10
1757.737331
 20
-2519.584157
 11
1757.737331
 21
-2468.084158
 0
INSERT
 8
011
 62
7
 2
ARROW
 6
BYBLOCK
 10
1757.737331
 20
-2519.584157
 41
1.000000
 42
1.000000
 50
90.000000
 0
INSERT
 8
011
 62
7
 2
ARROW
 6
BYBLOCK
 10
1757.737331
 20
-2468.084158
 41
1.000000
 42
1.000000
 50
270.000000
 0
TEXT
 8
011
 10
1752.737331
 20
-2515.581496
 40
16.000000
 1
51.5
 50
90.000003
 41
0.875000
 7
STANDARD
 0
POINT
 8
011
 10
1845.954570
 20
-2519.584157
 0
POINT
 8
011
 10
1943.895665
 20
-2468.084157
 0
POINT
 8
011
 10
1757.737331
 20
-2468.084158
 0
ENDBLK
 8
011
 0
BLOCK
 8
011
 2
*D6
 70
1
 10
0.0
 20
0.0
 0
LINE
 8
011
 10
1840.954570
 20
-2519.584157
 11
1792.737331
 21
-2519.584157
 0
LINE
 8
011
 10
1859.506677
 20
-2503.584157
 11
1792.737331
 21
-2503.584157
 0
LINE
 8
011
 10
1797.737331
 20
-2519.584157
 11
1797.737331
 21
-2503.584157
 0
INSERT
 8
011
 62
7
 2
ARROW
 6
BYBLOCK
 10
1797.737331
 20
-2519.584157
 41
1.000000
 42
1.000000
 50
270.000000
 0
INSERT
 8
011
 62
7
 2
ARROW
 6
BYBLOCK
 10
1797.737331
 20
-2503.584157
 41
1.000000
 42
1.000000
 50
90.000000
 0
TEXT
 8
011
 10
1792.737331
 20
-2555.081496
 40
16.000000
 1
16
 50
90.000003
 41
0.787500
 7
STANDARD
 0
POINT
 8
011
 10
1845.954570
 20
-2519.584157
 0
POINT
 8
011
 10
1864.506677
 20
-2503.584157
 0
POINT
 8
011
 10
1797.737331
 20
-2503.584157
 0
LINE
 8
011
 10
1797.737331
 20
-2519.584157
 11
1797.737331
 21
-2555.081496
 0
LINE
 8
011
 10
1797.737331
 20
-2503.584157
 11
1797.737331
 21
-2488.584157
 0
ENDBLK
 8
011
 0
BLOCK
 8
011
 2
*D7
 70
1
 10
0.0
 20
0.0
 0
LINE
 8
011
 10
2187.761241
 20
-2519.584157
 11
2257.737331
 21
-2519.584157
 0
LINE
 8
011
 10
2189.857905
 20
-2495.584157
 11
2257.737331
 21
-2495.584153
 0
LINE
 8
011
 10
2252.737331
 20
-2519.584157
 11
2252.737331
 21
-2495.584153
 0
INSERT
 8
011
 62
7
 2
ARROW
 6
BYBLOCK
 10
2252.737331
 20
-2519.584157
 41
1.000000
 42
1.000000
 50
270.000000
 0
INSERT
 8
011
 62
7
 2
ARROW
 6
BYBLOCK
 10
2252.737331
 20
-2495.584153
 41
1.000000
 42
1.000000
 50
90.000000
 0
TEXT
 8
011
 10
2247.737331
 20
-2485.081496
 40
16.000000
 1
24
 50
90.000003
 41
0.656250
 7
STANDARD
 0
POINT
 8
011
 10
2182.761241
 20
-2519.584157
 0
POINT
 8
011
 10
2184.857905
 20
-2495.584157
 0
POINT
 8
011
 10
2252.737331
 20
-2495.584153
 0
LINE
 8
011
 10
2252.737331
 20
-2519.584157
 11
2252.737331
 21
-2534.584157
 0
LINE
 8
011
 10
2252.737331
 20
-2495.584153
 11
2252.737331
 21
-2462.581496
 0
ENDBLK
 8
011
 0
BLOCK
 8
011
 2
*D8
 70
1
 10
0.0
 20
0.0
 0
LINE
 8
011
 10
1874.357905
 20
-2599.584157
 11
1874.357905
 21
-2763.831496
 0
LINE
 8
011
 10
2043.857905
 20
-2517.299316
 11
2043.857905
 21
-2763.831496
 0
LINE
 8
011
 10
1874.357905
 20
-2758.831496
 11
2043.857905
 21
-2758.831496
 0
INSERT
 8
011
 62
7
 2
ARROW
 6
BYBLOCK
 10
1874.357905
 20
-2758.831496
 41
1.000000
 42
1.000000
 0
INSERT
 8
011
 62
7
 2
ARROW
 6
BYBLOCK
 10
2043.857905
 20
-2758.831496
 41
1.000000
 42
1.000000
 50
180.000000
 0
TEXT
 8
011
 10
1935.737332
 20
-2753.831496
 40
16.000000
 1
169.5
 41
0.820313
 7
STANDARD
 0
POINT
 8
011
 10
1874.357905
 20
-2594.584157
 0
POINT
 8
011
 10
2043.857905
 20
-2512.299316
 0
POINT
 8
011
 10
2043.857905
 20
-2758.831496
 0
ENDBLK
 8
011
 0
BLOCK
 8
031
 2
*D9
 70
1
 10
0.0
 20
0.0
 0
LINE
 8
031
 10
1712.552180
 20
-1917.962967
 11
1712.552180
 21
-1881.964574
 0
LINE
 8
031
 10
1828.152180
 20
-1917.962967
 11
1828.152180
 21
-1881.964574
 0
LINE
 8
031
 10
1712.552180
 20
-1885.964574
 11
1828.152180
 21
-1885.964574
 0
INSERT
 8
031
 62
7
 2
ARROW
 6
BYBLOCK
 10
1712.552180
 20
-1885.964574
 41
1.000000
 42
1.000000
 0
INSERT
 8
031
 62
7
 2
ARROW
 6
BYBLOCK
 10
1828.152180
 20
-1885.964574
 41
1.000000
 42
1.000000
 50
180.000000
 0
TEXT
 8
031
 10
1751.152180
 20
-1881.964574
 40
12.799999
 1
289
 41
0.656250
 7
STANDARD
 0
TEXT
 8
031
 10
1776.352179
 20
-1871.964574
 40
10.000000
 1
+4
 41
0.600000
 7
STANDARD
 0
TEXT
 8
031
 10
1782.352179
 20
-1883.964574
 40
10.000000
 1
0
 41
0.720000
 7
STANDARD
 0
POINT
 8
031
 10
1712.552180
 20
-1921.962967
 0
POINT
 8
031
 10
1828.152180
 20
-1921.962967
 0
POINT
 8
031
 10
1828.152180
 20
-1885.964574
 0
ENDBLK
 8
031
 0
BLOCK
 8
031
 2
*D10
 70
1
 10
0.0
 20
0.0
 0
LINE
 8
031
 10
1710.552180
 20
-2035.562967
 11
1659.725319
 21
-2035.562967
 0
LINE
 8
031
 10
1710.552180
 20
-1919.962967
 11
1659.725319
 21
-1919.962967
 0
LINE
 8
031
 10
1663.725319
 20
-2035.562967
 11
1663.725319
 21
-1919.962967
 0
INSERT
 8
031
 62
7
 2
ARROW
 6
BYBLOCK
 10
1663.725319
 20
-2035.562967
 41
1.000000
 42
1.000000
 50
90.000000
 0
INSERT
 8
031
 62
7
 2
ARROW
 6
BYBLOCK
 10
1663.725319
 20
-1919.962967
 41
1.000000
 42
1.000000
 50
270.000000
 0
TEXT
 8
031
 10
1659.725320
 20
-1996.962967
 40
12.799999
 1
289
 50
90.000003
 41
0.656250
 7
STANDARD
 0
TEXT
 8
031
 10
1649.725319
 20
-1971.762968
 40
10.000000
 1
+4
 50
90.000003
 41
0.600000
 7
STANDARD
 0
TEXT
 8
031
 10
1661.725319
 20
-1965.762968
 40
10.000000
 1
0
 50
90.000003
 41
0.720000
 7
STANDARD
 0
POINT
 8
031
 10
1714.552180
 20
-2035.562967
 0
POINT
 8
031
 10
1714.552180
 20
-1919.962967
 0
POINT
 8
031
 10
1663.725319
 20
-1919.962967
 0
ENDBLK
 8
031
 0
BLOCK
 8
031
 2
*D11
 70
1
 10
0.0
 20
0.0
 0
LINE
 8
031
 10
1710.552180
 20
-2059.162967
 11
1659.725319
 21
-2059.162967
 0
LINE
 8
031
 10
1710.552180
 20
-2035.562967
 11
1659.725319
 21
-2035.562967
 0
LINE
 8
031
 10
1663.725319
 20
-2059.162967
 11
1663.725319
 21
-2035.562967
 0
INSERT
 8
031
 62
7
 2
ARROW
 6
BYBLOCK
 10
1663.725319
 20
-2059.162967
 41
1.000000
 42
1.000000
 50
270.000000
 0
INSERT
 8
031
 62
7
 2
ARROW
 6
BYBLOCK
 10
1663.725319
 20
-2035.562967
 41
1.000000
 42
1.000000
 50
90.000000
 0
TEXT
 8
031
 10
1659.725321
 20
-2122.762966
 40
12.799999
 1
Ａ＋５９以上
 50
90.000003
 41
0.546875
 7
STANDARD
 0
POINT
 8
031
 10
1714.552180
 20
-2059.162967
 0
POINT
 8
031
 10
1714.552180
 20
-2035.562967
 0
POINT
 8
031
 10
1663.725319
 20
-2035.562967
 0
LINE
 8
031
 10
1663.725319
 20
-2059.162967
 11
1663.725319
 21
-2122.762966
 0
LINE
 8
031
 10
1663.725319
 20
-2035.562967
 11
1663.725319
 21
-2023.562967
 0
ENDBLK
 8
031
 0
BLOCK
 8
031
 2
*D12
 70
1
 10
0.0
 20
0.0
 0
LINE
 8
031
 10
1884.952180
 20
-2059.162967
 11
1855.525319
 21
-2059.162967
 0
LINE
 8
031
 10
1884.952180
 20
-2035.562967
 11
1855.525319
 21
-2035.562967
 0
LINE
 8
031
 10
1859.525319
 20
-2059.162967
 11
1859.525319
 21
-2035.562967
 0
INSERT
 8
031
 62
7
 2
ARROW
 6
BYBLOCK
 10
1859.525319
 20
-2059.162967
 41
1.000000
 42
1.000000
 50
270.000000
 0
INSERT
 8
031
 62
7
 2
ARROW
 6
BYBLOCK
 10
1859.525319
 20
-2035.562967
 41
1.000000
 42
1.000000
 50
90.000000
 0
TEXT
 8
031
 10
1855.525321
 20
-2122.762966
 40
12.799999
 1
Ａ＋５９以上
 50
90.000003
 41
0.546875
 7
STANDARD
 0
POINT
 8
031
 10
1888.952180
 20
-2059.162967
 0
POINT
 8
031
 10
1888.952180
 20
-2035.562967
 0
POINT
 8
031
 10
1859.525319
 20
-2035.562967
 0
LINE
 8
031
 10
1859.525319
 20
-2059.162967
 11
1859.525319
 21
-2122.762966
 0
LINE
 8
031
 10
1859.525319
 20
-2035.562967
 11
1859.525319
 21
-2023.562967
 0
ENDBLK
 8
031
 0
BLOCK
 8
031
 2
*D13
 70
1
 10
0.0
 20
0.0
 0
LINE
 8
031
 10
1886.952180
 20
-1909.562967
 11
1886.952180
 21
-1880.964574
 0
LINE
 8
031
 10
2002.552180
 20
-1909.562967
 11
2002.552180
 21
-1880.964574
 0
LINE
 8
031
 10
1886.952180
 20
-1884.964574
 11
2002.552180
 21
-1884.964574
 0
INSERT
 8
031
 62
7
 2
ARROW
 6
BYBLOCK
 10
1886.952180
 20
-1884.964574
 41
1.000000
 42
1.000000
 0
INSERT
 8
031
 62
7
 2
ARROW
 6
BYBLOCK
 10
2002.552180
 20
-1884.964574
 41
1.000000
 42
1.000000
 50
180.000000
 0
TEXT
 8
031
 10
1925.552180
 20
-1880.964574
 40
12.799999
 1
270
 41
0.694853
 7
STANDARD
 0
TEXT
 8
031
 10
1950.752179
 20
-1870.964574
 40
10.000000
 1
+4
 41
0.600000
 7
STANDARD
 0
TEXT
 8
031
 10
1956.752179
 20
-1882.964574
 40
10.000000
 1
0
 41
0.720000
 7
STANDARD
 0
POINT
 8
031
 10
1886.952180
 20
-1913.562967
 0
POINT
 8
031
 10
2002.552180
 20
-1913.562967
 0
POINT
 8
031
 10
2002.552180
 20
-1884.964574
 0
ENDBLK
 8
031
 0
BLOCK
 8
031
 2
*D14
 70
1
 10
0.0
 20
0.0
 0
LINE
 8
031
 10
1884.952180
 20
-2035.562967
 11
1855.525319
 21
-2035.562967
 0
LINE
 8
031
 10
1884.952180
 20
-1911.562967
 11
1855.525319
 21
-1911.562967
 0
LINE
 8
031
 10
1859.525319
 20
-2035.562967
 11
1859.525319
 21
-1911.562967
 0
INSERT
 8
031
 62
7
 2
ARROW
 6
BYBLOCK
 10
1859.525319
 20
-2035.562967
 41
1.000000
 42
1.000000
 50
90.000000
 0
INSERT
 8
031
 62
7
 2
ARROW
 6
BYBLOCK
 10
1859.525319
 20
-1911.562967
 41
1.000000
 42
1.000000
 50
270.000000
 0
TEXT
 8
031
 10
1855.525320
 20
-1992.762966
 40
12.799999
 1
310
 50
90.000003
 41
0.787500
 7
STANDARD
 0
TEXT
 8
031
 10
1845.525319
 20
-1967.562968
 40
10.000000
 1
+4
 50
90.000003
 41
0.600000
 7
STANDARD
 0
TEXT
 8
031
 10
1857.525319
 20
-1961.562967
 40
10.000000
 1
0
 50
90.000003
 41
0.720000
 7
STANDARD
 0
POINT
 8
031
 10
1888.952180
 20
-2035.562967
 0
POINT
 8
031
 10
1888.952180
 20
-1911.562967
 0
POINT
 8
031
 10
1859.525319
 20
-1911.562967
 0
ENDBLK
 8
031
 0
BLOCK
 8
031
 2
*D15
 70
1
 10
0.0
 20
0.0
 0
LINE
 8
031
 10
2121.552180
 20
-2035.562967
 11
2150.525319
 21
-2035.562967
 0
LINE
 8
031
 10
2146.525319
 20
-2071.562967
 11
2146.525319
 21
-2035.562967
 0
INSERT
 8
031
 62
7
 2
ARROW
 6
BYBLOCK
 10
2146.525319
 20
-2071.562967
 41
1.000000
 42
1.000000
 50
270.000000
 0
INSERT
 8
031
 62
7
 2
ARROW
 6
BYBLOCK
 10
2146.525319
 20
-2035.562967
 41
1.000000
 42
1.000000
 50
90.000000
 0
TEXT
 8
031
 10
2142.525319
 20
-2021.364574
 40
12.799999
 1
５９以上
 50
90.000003
 41
0.546875
 7
STANDARD
 0
POINT
 8
031
 10
2125.552180
 20
-2071.562967
 0
POINT
 8
031
 10
2117.552180
 20
-2035.562967
 0
POINT
 8
031
 10
2146.525319
 20
-2035.562967
 0
LINE
 8
031
 10
2146.525319
 20
-2071.562967
 11
2146.525319
 21
-2083.562967
 0
LINE
 8
031
 10
2146.525319
 20
-2035.562967
 11
2146.525319
 21
-1986.564575
 0
ENDBLK
 8
031
 0
BLOCK
 8
031
 2
*D16
 70
1
 10
0.0
 20
0.0
 0
LINE
 8
031
 10
2123.552180
 20
-2083.562967
 11
2251.466531
 21
-2083.562967
 0
LINE
 8
031
 10
2189.552180
 20
-2071.562967
 11
2251.466531
 21
-2071.562967
 0
LINE
 8
031
 10
2247.466531
 20
-2083.562967
 11
2247.466531
 21
-2071.562967
 0
INSERT
 8
031
 62
7
 2
ARROW
 6
BYBLOCK
 10
2247.466531
 20
-2083.562967
 41
1.000000
 42
1.000000
 50
270.000000
 0
INSERT
 8
031
 62
7
 2
ARROW
 6
BYBLOCK
 10
2247.466531
 20
-2071.562967
 41
1.000000
 42
1.000000
 50
90.000000
 0
TEXT
 8
031
 10
2243.466531
 20
-2045.537210
 40
12.799999
 1
A
 50
90.000003
 41
0.656250
 7
STANDARD
 0
POINT
 8
031
 10
2119.552180
 20
-2083.562967
 0
POINT
 8
031
 10
2185.552180
 20
-2071.562967
 0
POINT
 8
031
 10
2247.466531
 20
-2071.562967
 0
LINE
 8
031
 10
2247.466531
 20
-2083.562967
 11
2247.466531
 21
-2095.562967
 0
LINE
 8
031
 10
2247.466531
 20
-2071.562967
 11
2247.466531
 21
-2035.937209
 0
ENDBLK
 8
031
 0
BLOCK
 8
0
 2
DOT
 70
0
 10
0
 20
0
 0
POLYLINE
 8
0
 6
CONTINUOUS
 62
0
 66
1
 70
1
 40
2.000000
 41
2.000000
 0
VERTEX
 8
0
 6
CONTINUOUS
 62
0
 10
0.0
 20
1.000000
 42
1
 0
VERTEX
 8
0
 6
CONTINUOUS
 62
0
 10
0.0
 20
-1.000000
 42
1
 0
SEQEND
 8
0
 0
ENDBLK
 8
0
 0
BLOCK
 8
031
 2
*D17
 70
1
 10
0.0
 20
0.0
 0
LINE
 8
031
 10
2097.552180
 20
-2083.562967
 11
2073.757812
 21
-2083.562967
 0
LINE
 8
031
 10
2101.552180
 20
-2063.562967
 11
2073.757812
 21
-2063.562967
 0
LINE
 8
031
 10
2077.757812
 20
-2083.562967
 11
2077.757812
 21
-2063.562967
 0
INSERT
 8
031
 62
7
 2
ARROW
 6
BYBLOCK
 10
2077.757812
 20
-2083.562967
 41
1.000000
 42
1.000000
 50
270.000000
 0
INSERT
 8
031
 62
7
 2
DOT
 6
BYBLOCK
 10
2077.757812
 20
-2063.562967
 41
1.000000
 42
1.000000
 0
TEXT
 8
031
 10
2073.757812
 20
-2127.329246
 40
12.799999
 1
水切り部
 50
90.000003
 41
0.546875
 7
STANDARD
 0
POINT
 8
031
 10
2101.552180
 20
-2083.562967
 0
POINT
 8
031
 10
2105.552180
 20
-2063.562967
 0
POINT
 8
031
 10
2077.757812
 20
-2063.562967
 0
LINE
 8
031
 10
2077.757812
 20
-2083.562967
 11
2077.757812
 21
-2127.329246
 0
LINE
 8
031
 10
2077.757812
 20
-2063.562967
 11
2077.757812
 21
-2059.562967
 0
ENDBLK
 8
031
 0
BLOCK
 8
031
 2
*D18
 70
1
 10
0.0
 20
0.0
 0
LINE
 8
031
 10
2105.552180
 20
-1893.962967
 11
2105.552180
 21
-1847.349200
 0
LINE
 8
031
 10
2117.552180
 20
-1881.962967
 11
2117.552180
 21
-1847.349200
 0
LINE
 8
031
 10
2105.552180
 20
-1851.349200
 11
2117.552180
 21
-1851.349200
 0
INSERT
 8
031
 62
7
 2
ARROW
 6
BYBLOCK
 10
2105.552180
 20
-1851.349200
 41
1.000000
 42
1.000000
 50
180.000000
 0
INSERT
 8
031
 62
7
 2
ARROW
 6
BYBLOCK
 10
2117.552180
 20
-1851.349200
 41
1.000000
 42
1.000000
 0
POINT
 8
031
 10
2105.552180
 20
-1897.962967
 0
POINT
 8
031
 10
2117.552180
 20
-1885.962967
 0
POINT
 8
031
 10
2117.552180
 20
-1851.349200
 0
LINE
 8
031
 10
2105.552180
 20
-1851.349200
 11
2093.552180
 21
-1851.349200
 0
LINE
 8
031
 10
2117.552180
 20
-1851.349200
 11
2140.400504
 21
-1851.349200
 0
ENDBLK
 8
031
 0
BLOCK
 8
031
 2
*D19
 70
1
 10
0.0
 20
0.0
 0
LINE
 8
031
 10
2101.552180
 20
-2063.562967
 11
2073.757813
 21
-2063.562967
 0
LINE
 8
031
 10
2101.552180
 20
-2035.562967
 11
2073.757813
 21
-2035.562967
 0
LINE
 8
031
 10
2077.757813
 20
-2063.562967
 11
2077.757812
 21
-2035.562967
 0
INSERT
 8
031
 62
7
 2
DOT
 6
BYBLOCK
 10
2077.757813
 20
-2063.562967
 41
1.000000
 42
1.000000
 0
INSERT
 8
031
 62
7
 2
ARROW
 6
BYBLOCK
 10
2077.757812
 20
-2035.562967
 41
1.000000
 42
1.000000
 50
90.000000
 0
TEXT
 8
031
 10
2073.757813
 20
-2023.562967
 40
12.799999
 1
３５以上
 50
90.000003
 41
0.546875
 7
STANDARD
 0
POINT
 8
031
 10
2105.552180
 20
-2063.562967
 0
POINT
 8
031
 10
2105.552180
 20
-2035.562967
 0
POINT
 8
031
 10
2077.757812
 20
-2035.562967
 0
LINE
 8
031
 10
2077.757813
 20
-2063.562967
 11
2077.757813
 21
-2067.562967
 0
LINE
 8
031
 10
2077.757812
 20
-2035.562967
 11
2077.757812
 21
-1988.762967
 0
ENDBLK
 8
031
 0
BLOCK
 8
031
 2
*D20
 70
1
 10
0.0
 20
0.0
 0
LINE
 8
031
 10
2105.552180
 20
-1891.962967
 11
2105.552180
 21
-1905.929246
 0
LINE
 8
031
 10
2185.552180
 20
-2059.562967
 11
2185.552180
 21
-1897.929246
 0
LINE
 8
031
 10
2105.552180
 20
-1901.929246
 11
2185.552180
 21
-1901.929246
 0
INSERT
 8
031
 62
7
 2
ARROW
 6
BYBLOCK
 10
2105.552180
 20
-1901.929246
 41
1.000000
 42
1.000000
 0
INSERT
 8
031
 62
7
 2
ARROW
 6
BYBLOCK
 10
2185.552180
 20
-1901.929246
 41
1.000000
 42
1.000000
 50
180.000000
 0
TEXT
 8
031
 10
2129.157813
 20
-1897.929246
 40
12.799999
 1
１６０以上
 41
0.546875
 7
STANDARD
 0
POINT
 8
031
 10
2105.552180
 20
-1887.962967
 0
POINT
 8
031
 10
2185.552180
 20
-2063.562967
 0
POINT
 8
031
 10
2185.552180
 20
-1901.929246
 0
ENDBLK
 8
031
 0
BLOCK
 8
031
 2
*D21
 70
1
 10
0.0
 20
0.0
 0
LINE
 8
031
 10
1375.376104
 20
-2218.891943
 11
1375.376104
 21
-2258.831496
 0
LINE
 8
031
 10
1440.376104
 20
-2238.916675
 11
1440.376104
 21
-2258.831496
 0
LINE
 8
031
 10
1375.376104
 20
-2253.831496
 11
1440.376104
 21
-2253.831496
 0
INSERT
 8
031
 62
7
 2
ARROW
 6
BYBLOCK
 10
1375.376104
 20
-2253.831496
 41
1.000000
 42
1.000000
 0
INSERT
 8
031
 62
7
 2
ARROW
 6
BYBLOCK
 10
1440.376104
 20
-2253.831496
 41
1.000000
 42
1.000000
 50
180.000000
 0
TEXT
 8
031
 10
1396.626104
 20
-2248.831496
 40
16.000000
 1
65
 41
0.656250
 7
STANDARD
 0
POINT
 8
031
 10
1375.376104
 20
-2213.891943
 0
POINT
 8
031
 10
1440.376104
 20
-2233.916675
 0
POINT
 8
031
 10
1440.376104
 20
-2253.831496
 0
ENDBLK
 8
031
 0
BLOCK
 8
031
 2
*D22
 70
1
 10
0.0
 20
0.0
 0
LINE
 8
031
 10
1217.176104
 20
-2646.584157
 11
1217.176104
 21
-2833.831496
 0
LINE
 8
031
 10
1533.576104
 20
-2646.584157
 11
1533.576104
 21
-2833.831496
 0
LINE
 8
031
 10
1217.176104
 20
-2828.831496
 11
1533.576104
 21
-2828.831496
 0
INSERT
 8
031
 62
7
 2
ARROW
 6
BYBLOCK
 10
1217.176104
 20
-2828.831496
 41
1.000000
 42
1.000000
 0
INSERT
 8
031
 62
7
 2
ARROW
 6
BYBLOCK
 10
1533.576104
 20
-2828.831496
 41
1.000000
 42
1.000000
 50
180.000000
 0
TEXT
 8
031
 10
1356.237331
 20
-2823.831496
 40
16.000000
 1
316
 41
0.738281
 7
STANDARD
 0
POINT
 8
031
 10
1217.176104
 20
-2641.584157
 0
POINT
 8
031
 10
1533.576104
 20
-2641.584157
 0
POINT
 8
031
 10
1533.576104
 20
-2828.831496
 0
ENDBLK
 8
031
 0
BLOCK
 8
031
 2
*D23
 70
1
 10
0.0
 20
0.0
 0
LINE
 8
031
 10
1233.876104
 20
-2534.584157
 11
1233.876104
 21
-2798.831496
 0
LINE
 8
031
 10
1516.876104
 20
-2534.584157
 11
1516.876104
 21
-2798.831496
 0
LINE
 8
031
 10
1233.876104
 20
-2793.831496
 11
1516.876104
 21
-2793.831496
 0
INSERT
 8
031
 62
7
 2
ARROW
 6
BYBLOCK
 10
1233.876104
 20
-2793.831496
 41
1.000000
 42
1.000000
 0
INSERT
 8
031
 62
7
 2
ARROW
 6
BYBLOCK
 10
1516.876104
 20
-2793.831496
 41
1.000000
 42
1.000000
 50
180.000000
 0
TEXT
 8
031
 10
1324.737333
 20
-2788.831496
 40
16.000000
 1
２８３（Ａタイプ）
 41
0.546875
 7
STANDARD
 0
POINT
 8
031
 10
1233.876104
 20
-2529.584157
 0
POINT
 8
031
 10
1516.876104
 20
-2529.584157
 0
POINT
 8
031
 10
1516.876104
 20
-2793.831496
 0
ENDBLK
 8
031
 0
BLOCK
 8
031
 2
*D24
 70
1
 10
0.0
 20
0.0
 0
LINE
 8
031
 10
1375.376104
 20
-2681.584157
 11
1375.376104
 21
-2713.831496
 0
LINE
 8
031
 10
1463.376104
 20
-2655.584157
 11
1463.376104
 21
-2713.831496
 0
LINE
 8
031
 10
1375.376104
 20
-2708.831496
 11
1463.376104
 21
-2708.831496
 0
INSERT
 8
031
 62
7
 2
ARROW
 6
BYBLOCK
 10
1375.376104
 20
-2708.831496
 41
1.000000
 42
1.000000
 0
INSERT
 8
031
 62
7
 2
ARROW
 6
BYBLOCK
 10
1463.376104
 20
-2708.831496
 41
1.000000
 42
1.000000
 50
180.000000
 0
TEXT
 8
031
 10
1406.487331
 20
-2703.831496
 40
16.000000
 1
88
 41
0.656250
 7
STANDARD
 0
POINT
 8
031
 10
1375.376104
 20
-2676.584157
 0
POINT
 8
031
 10
1463.376104
 20
-2650.584157
 0
POINT
 8
031
 10
1463.376104
 20
-2708.831496
 0
ENDBLK
 8
031
 0
BLOCK
 8
031
 2
*D25
 70
1
 10
0.0
 20
0.0
 0
LINE
 8
031
 10
1244.376104
 20
-2599.584157
 11
1244.376104
 21
-2758.831496
 0
LINE
 8
031
 10
1506.376104
 20
-2599.584157
 11
1506.376104
 21
-2758.831496
 0
LINE
 8
031
 10
1244.376104
 20
-2753.831496
 11
1506.376104
 21
-2753.831496
 0
INSERT
 8
031
 62
7
 2
ARROW
 6
BYBLOCK
 10
1244.376104
 20
-2753.831496
 41
1.000000
 42
1.000000
 0
INSERT
 8
031
 62
7
 2
ARROW
 6
BYBLOCK
 10
1506.376104
 20
-2753.831496
 41
1.000000
 42
1.000000
 50
180.000000
 0
TEXT
 8
031
 10
1356.237331
 20
-2748.831496
 40
16.000000
 1
262
 41
0.656250
 7
STANDARD
 0
POINT
 8
031
 10
1244.376104
 20
-2594.584157
 0
POINT
 8
031
 10
1506.376104
 20
-2594.584157
 0
POINT
 8
031
 10
1506.376104
 20
-2753.831496
 0
ENDBLK
 8
031
 0
BLOCK
 8
031
 2
*D26
 70
1
 10
0.0
 20
0.0
 0
LINE
 8
031
 10
1233.876104
 20
-2534.584157
 11
1233.876104
 21
-2758.831496
 0
LINE
 8
031
 10
1244.376104
 20
-2599.584157
 11
1244.376104
 21
-2758.831496
 0
LINE
 8
031
 10
1233.876104
 20
-2753.831496
 11
1244.376104
 21
-2753.831496
 0
INSERT
 8
031
 62
7
 2
ARROW
 6
BYBLOCK
 10
1233.876104
 20
-2753.831496
 41
1.000000
 42
1.000000
 50
180.000000
 0
INSERT
 8
031
 62
7
 2
ARROW
 6
BYBLOCK
 10
1244.376104
 20
-2753.831496
 41
1.000000
 42
1.000000
 0
TEXT
 8
031
 10
1160.987332
 20
-2748.831496
 40
16.000000
 1
10.5
 41
0.926471
 7
STANDARD
 0
POINT
 8
031
 10
1233.876104
 20
-2529.584157
 0
POINT
 8
031
 10
1244.376104
 20
-2594.584157
 0
POINT
 8
031
 10
1244.376104
 20
-2753.831496
 0
LINE
 8
031
 10
1233.876104
 20
-2753.831496
 11
1160.987332
 21
-2753.831496
 0
LINE
 8
031
 10
1244.376104
 20
-2753.831496
 11
1259.376104
 21
-2753.831496
 0
ENDBLK
 8
031
 0
BLOCK
 8
031
 2
*D27
 70
1
 10
0.0
 20
0.0
 0
LINE
 8
031
 10
1889.357905
 20
-2614.584157
 11
1752.737331
 21
-2614.584157
 0
LINE
 8
031
 10
1819.357905
 20
-2519.584157
 11
1752.737331
 21
-2519.584157
 0
LINE
 8
031
 10
1757.737331
 20
-2614.584157
 11
1757.737331
 21
-2519.584157
 0
INSERT
 8
031
 62
7
 2
ARROW
 6
BYBLOCK
 10
1757.737331
 20
-2614.584157
 41
1.000000
 42
1.000000
 50
90.000000
 0
INSERT
 8
031
 62
7
 2
ARROW
 6
BYBLOCK
 10
1757.737331
 20
-2519.584157
 41
1.000000
 42
1.000000
 50
270.000000
 0
TEXT
 8
031
 10
1752.737331
 20
-2575.081496
 40
16.000000
 1
95
 50
90.000003
 41
0.656250
 7
STANDARD
 0
POINT
 8
031
 10
1894.357905
 20
-2614.584157
 0
POINT
 8
031
 10
1824.357905
 20
-2519.584157
 0
POINT
 8
031
 10
1757.737331
 20
-2519.584157
 0
ENDBLK
 8
031
 0
BLOCK
 8
031
 2
*D28
 70
1
 10
0.0
 20
0.0
 0
LINE
 8
031
 10
2070.657905
 20
-2666.584157
 11
2202.737331
 21
-2666.584157
 0
LINE
 8
031
 10
2197.737331
 20
-2666.584157
 11
2197.737331
 21
-2559.584157
 0
INSERT
 8
031
 62
7
 2
ARROW
 6
BYBLOCK
 10
2197.737331
 20
-2666.584157
 41
1.000000
 42
1.000000
 50
90.000000
 0
INSERT
 8
031
 62
7
 2
ARROW
 6
BYBLOCK
 10
2197.737331
 20
-2559.584157
 41
1.000000
 42
1.000000
 50
270.000000
 0
TEXT
 8
031
 10
2192.737331
 20
-2635.331496
 40
16.000000
 1
107
 50
90.000003
 41
0.787500
 7
STANDARD
 0
POINT
 8
031
 10
2065.657905
 20
-2666.584157
 0
POINT
 8
031
 10
2207.357905
 20
-2559.584157
 0
POINT
 8
031
 10
2197.737331
 20
-2559.584157
 0
ENDBLK
 8
031
 0
BLOCK
 8
031
 2
*D29
 70
1
 10
0.0
 20
0.0
 0
LINE
 8
031
 10
2070.657905
 20
-2666.584157
 11
2257.737331
 21
-2666.584157
 0
LINE
 8
031
 10
2212.357905
 20
-2519.584157
 11
2257.737331
 21
-2519.584157
 0
LINE
 8
031
 10
2252.737331
 20
-2666.584157
 11
2252.737331
 21
-2519.584157
 0
INSERT
 8
031
 62
7
 2
ARROW
 6
BYBLOCK
 10
2252.737331
 20
-2666.584157
 41
1.000000
 42
1.000000
 50
90.000000
 0
INSERT
 8
031
 62
7
 2
ARROW
 6
BYBLOCK
 10
2252.737331
 20
-2519.584157
 41
1.000000
 42
1.000000
 50
270.000000
 0
TEXT
 8
031
 10
2247.737331
 20
-2630.831496
 40
16.000000
 1
(147)
 50
90.000003
 41
0.820312
 7
STANDARD
 0
POINT
 8
031
 10
2065.657905
 20
-2666.584157
 0
POINT
 8
031
 10
2207.357905
 20
-2519.584157
 0
POINT
 8
031
 10
2252.737331
 20
-2519.584157
 0
ENDBLK
 8
031
 0
BLOCK
 8
031
 2
*D30
 70
1
 10
0.0
 20
0.0
 0
LINE
 8
031
 10
1874.357905
 20
-2599.584157
 11
1874.357905
 21
-2723.831496
 0
LINE
 8
031
 10
1950.297905
 20
-2655.584157
 11
1950.297905
 21
-2723.831496
 0
LINE
 8
031
 10
1874.357905
 20
-2718.831496
 11
1950.297905
 21
-2718.831496
 0
INSERT
 8
031
 62
7
 2
ARROW
 6
BYBLOCK
 10
1874.357905
 20
-2718.831496
 41
1.000000
 42
1.000000
 0
INSERT
 8
031
 62
7
 2
ARROW
 6
BYBLOCK
 10
1950.297905
 20
-2718.831496
 41
1.000000
 42
1.000000
 50
180.000000
 0
TEXT
 8
031
 10
1901.487331
 20
-2713.831496
 40
16.000000
 1
76
 41
0.656250
 7
STANDARD
 0
POINT
 8
031
 10
1874.357905
 20
-2594.584157
 0
POINT
 8
031
 10
1950.297905
 20
-2650.584157
 0
POINT
 8
031
 10
1950.297905
 20
-2718.831496
 0
ENDBLK
 8
031
 0
BLOCK
 8
031
 2
*D31
 70
1
 10
0.0
 20
0.0
 0
LINE
 8
031
 10
1874.357905
 20
-2599.584157
 11
1874.357905
 21
-2688.831496
 0
LINE
 8
031
 10
1931.857905
 20
-2630.234157
 11
1931.857905
 21
-2688.831496
 0
LINE
 8
031
 10
1874.357905
 20
-2683.831496
 11
1931.857905
 21
-2683.831496
 0
INSERT
 8
031
 62
7
 2
ARROW
 6
BYBLOCK
 10
1874.357905
 20
-2683.831496
 41
1.000000
 42
1.000000
 0
INSERT
 8
031
 62
7
 2
ARROW
 6
BYBLOCK
 10
1931.857905
 20
-2683.831496
 41
1.000000
 42
1.000000
 50
180.000000
 0
TEXT
 8
031
 10
1880.987332
 20
-2678.831496
 40
16.000000
 1
57.5
 41
0.787500
 7
STANDARD
 0
POINT
 8
031
 10
1874.357905
 20
-2594.584157
 0
POINT
 8
031
 10
1931.857905
 20
-2625.234157
 0
POINT
 8
031
 10
1931.857905
 20
-2683.831496
 0
ENDBLK
 8
031
 0
BLOCK
 8
031
 2
*D32
 70
1
 10
0.0
 20
0.0
 0
LINE
 8
031
 10
1874.357905
 20
-2599.584157
 11
1874.357905
 21
-2848.831496
 0
LINE
 8
031
 10
2157.357905
 20
-2599.584157
 11
2157.357905
 21
-2848.831496
 0
LINE
 8
031
 10
1874.357905
 20
-2843.831496
 11
2157.357905
 21
-2843.831496
 0
INSERT
 8
031
 62
7
 2
ARROW
 6
BYBLOCK
 10
1874.357905
 20
-2843.831496
 41
1.000000
 42
1.000000
 0
INSERT
 8
031
 62
7
 2
ARROW
 6
BYBLOCK
 10
2157.357905
 20
-2843.831496
 41
1.000000
 42
1.000000
 50
180.000000
 0
TEXT
 8
031
 10
1996.237331
 20
-2838.831496
 40
16.000000
 1
283
 41
0.656250
 7
STANDARD
 0
POINT
 8
031
 10
1874.357905
 20
-2594.584157
 0
POINT
 8
031
 10
2157.357905
 20
-2594.584157
 0
POINT
 8
031
 10
2157.357905
 20
-2843.831496
 0
ENDBLK
 8
031
 0
BLOCK
 8
031
 2
*D33
 70
1
 10
0.0
 20
0.0
 0
LINE
 8
031
 10
1874.357905
 20
-2599.584157
 11
1874.357905
 21
-2808.831496
 0
LINE
 8
031
 10
2046.857905
 20
-2685.622112
 11
2046.857905
 21
-2808.831496
 0
LINE
 8
031
 10
1874.357905
 20
-2803.831496
 11
2046.857905
 21
-2803.831496
 0
INSERT
 8
031
 62
7
 2
ARROW
 6
BYBLOCK
 10
1874.357905
 20
-2803.831496
 41
1.000000
 42
1.000000
 0
INSERT
 8
031
 62
7
 2
ARROW
 6
BYBLOCK
 10
2046.857905
 20
-2803.831496
 41
1.000000
 42
1.000000
 50
180.000000
 0
TEXT
 8
031
 10
1935.737332
 20
-2798.831496
 40
16.000000
 1
172.5
 41
0.820313
 7
STANDARD
 0
POINT
 8
031
 10
1874.357905
 20
-2594.584157
 0
POINT
 8
031
 10
2046.857905
 20
-2680.622112
 0
POINT
 8
031
 10
2046.857905
 20
-2803.831496
 0
ENDBLK
 8
031
 0
BLOCK
 8
031
 2
*D34
 70
1
 10
0.0
 20
0.0
 0
LINE
 8
031
 10
1874.357905
 20
-2599.584157
 11
1874.357905
 21
-2808.831496
 0
LINE
 8
031
 10
1863.857905
 20
-2803.831496
 11
1874.357905
 21
-2803.831496
 0
INSERT
 8
031
 62
7
 2
ARROW
 6
BYBLOCK
 10
1863.857905
 20
-2803.831496
 41
1.000000
 42
1.000000
 50
180.000000
 0
INSERT
 8
031
 62
7
 2
ARROW
 6
BYBLOCK
 10
1874.357905
 20
-2803.831496
 41
1.000000
 42
1.000000
 0
TEXT
 8
031
 10
1805.987332
 20
-2798.831496
 40
16.000000
 1
10.5
 41
0.926471
 7
STANDARD
 0
POINT
 8
031
 10
1863.857905
 20
-2818.623824
 0
POINT
 8
031
 10
1874.357905
 20
-2594.584157
 0
POINT
 8
031
 10
1874.357905
 20
-2803.831496
 0
LINE
 8
031
 10
1863.857905
 20
-2803.831496
 11
1805.987332
 21
-2803.831496
 0
LINE
 8
031
 10
1874.357905
 20
-2803.831496
 11
1889.357905
 21
-2803.831496
 0
ENDBLK
 8
031
 0
BLOCK
 8
031
 2
*D35
 70
1
 10
0.0
 20
0.0
 0
LINE
 8
031
 10
1863.857905
 20
-2534.584157
 11
1863.857905
 21
-2888.831496
 0
LINE
 8
031
 10
2167.857905
 20
-2534.584157
 11
2167.857905
 21
-2888.831496
 0
LINE
 8
031
 10
1863.857905
 20
-2883.831496
 11
2167.857905
 21
-2883.831496
 0
INSERT
 8
031
 62
7
 2
ARROW
 6
BYBLOCK
 10
1863.857905
 20
-2883.831496
 41
1.000000
 42
1.000000
 0
INSERT
 8
031
 62
7
 2
ARROW
 6
BYBLOCK
 10
2167.857905
 20
-2883.831496
 41
1.000000
 42
1.000000
 50
180.000000
 0
TEXT
 8
031
 10
1959.737333
 20
-2878.831496
 40
16.000000
 1
３０４（Ｂタイプ）
 41
0.546875
 7
STANDARD
 0
POINT
 8
031
 10
1863.857905
 20
-2529.584157
 0
POINT
 8
031
 10
2167.857905
 20
-2529.584157
 0
POINT
 8
031
 10
2167.857905
 20
-2883.831496
 0
ENDBLK
 8
031
 0
BLOCK
 8
031
 2
*D36
 70
1
 10
0.0
 20
0.0
 0
LINE
 8
031
 10
2101.552180
 20
-1919.962967
 11
2038.737331
 21
-1919.962967
 0
LINE
 8
031
 10
2065.372405
 20
-1887.962967
 11
2038.737331
 21
-1887.962967
 0
LINE
 8
031
 10
2042.737331
 20
-1919.962967
 11
2042.737331
 21
-1887.962967
 0
INSERT
 8
031
 62
7
 2
ARROW
 6
BYBLOCK
 10
2042.737331
 20
-1919.962967
 41
1.000000
 42
1.000000
 50
270.000000
 0
INSERT
 8
031
 62
7
 2
ARROW
 6
BYBLOCK
 10
2042.737331
 20
-1887.962967
 41
1.000000
 42
1.000000
 50
90.000000
 0
TEXT
 8
031
 10
2038.737332
 20
-1879.852225
 40
12.799999
 1
３５以上
 50
90.000003
 41
0.546875
 7
STANDARD
 0
POINT
 8
031
 10
2105.552180
 20
-1919.962967
 0
POINT
 8
031
 10
2069.372405
 20
-1887.962967
 0
POINT
 8
031
 10
2042.737331
 20
-1887.962967
 0
LINE
 8
031
 10
2042.737331
 20
-1919.962967
 11
2042.737331
 21
-1931.962967
 0
LINE
 8
031
 10
2042.737331
 20
-1887.962967
 11
2042.737331
 21
-1845.052225
 0
ENDBLK
 8
031
 0
BLOCK
 8
031
 2
*D37
 70
1
 10
0.0
 20
0.0
 0
LINE
 8
031
 10
1936.297905
 20
-2645.584157
 11
1752.737331
 21
-2645.584157
 0
LINE
 8
031
 10
1889.357905
 20
-2614.584157
 11
1752.737331
 21
-2614.584157
 0
LINE
 8
031
 10
1757.737331
 20
-2645.584157
 11
1757.737331
 21
-2614.584157
 0
INSERT
 8
031
 62
7
 2
ARROW
 6
BYBLOCK
 10
1757.737331
 20
-2645.584157
 41
1.000000
 42
1.000000
 50
90.000000
 0
INSERT
 8
031
 62
7
 2
ARROW
 6
BYBLOCK
 10
1757.737331
 20
-2614.584157
 41
1.000000
 42
1.000000
 50
270.000000
 0
TEXT
 8
031
 10
1752.737332
 20
-2640.081496
 40
16.000000
 1
31
 50
90.000003
 41
0.787500
 7
STANDARD
 0
POINT
 8
031
 10
1941.297905
 20
-2645.584157
 0
POINT
 8
031
 10
1894.357905
 20
-2614.584157
 0
POINT
 8
031
 10
1757.737331
 20
-2614.584157
 0
ENDBLK
 8
031
 0
ENDSEC
 0
SECTION
 2
ENTITIES
 0
DIMENSION
 8
011
 2
*D0
 10
1537.376104
 20
-2308.831496
 11
1356.237331
 21
-2303.831496
 13
1213.376103
 23
-2178.631635
 14
1537.376104
 24
-2178.631635
 0
DIMENSION
 8
011
 2
*D1
 10
1172.737337
 20
-1998.631637
 11
1167.737331
 21
-2110.331496
 13
1157.614746
 23
-2201.631637
 14
1202.706360
 24
-1998.631637
 50
90.000000
 0
DIMENSION
 8
011
 2
*D2
 10
1107.737331
 20
-1854.631634
 11
1102.737331
 21
-2020.331496
 13
1514.376103
 23
-2201.631637
 14
1496.713391
 24
-1854.631634
 50
90.000000
 0
DIMENSION
 8
011
 2
*D3
 10
1672.737331
 20
-2468.084158
 11
1667.737331
 21
-2585.831496
 13
1941.297905
 23
-2645.584157
 14
1943.895665
 24
-2468.084157
 50
90.000000
 0
DIMENSION
 8
011
 2
*D4
 10
1717.737331
 20
-2468.084158
 11
1712.737331
 21
-2570.831496
 13
1894.357905
 23
-2614.584157
 14
1943.895665
 24
-2468.084157
 50
90.000000
 0
DIMENSION
 8
011
 2
*D5
 10
1757.737331
 20
-2468.084158
 11
1752.737331
 21
-2515.581496
 13
1845.954570
 23
-2519.584157
 14
1943.895665
 24
-2468.084157
 50
90.000000
 0
DIMENSION
 8
011
 2
*D6
 10
1797.737331
 20
-2503.584157
 11
1792.737331
 21
-2555.081496
 13
1845.954570
 23
-2519.584157
 14
1864.506677
 24
-2503.584157
 50
90.000000
 0
DIMENSION
 8
011
 2
*D7
 10
2252.737331
 20
-2495.584153
 11
2247.737331
 21
-2485.081496
 13
2182.761241
 23
-2519.584157
 14
2184.857905
 24
-2495.584157
 50
90.000000
 0
DIMENSION
 8
011
 2
*D8
 10
2043.857905
 20
-2758.831496
 11
1935.737332
 21
-2753.831496
 13
1874.357905
 23
-2594.584157
 14
2043.857905
 24
-2512.299316
 0
DIMENSION
 8
031
 2
*D9
 10
1828.152180
 20
-1885.964574
 11
1751.152180
 21
-1881.964574
 13
1712.552180
 23
-1921.962967
 14
1828.152180
 24
-1921.962967
 0
DIMENSION
 8
031
 2
*D10
 10
1663.725319
 20
-1919.962967
 11
1659.725320
 21
-1996.962967
 13
1714.552180
 23
-2035.562967
 14
1714.552180
 24
-1919.962967
 50
90.000000
 0
DIMENSION
 8
031
 2
*D11
 10
1663.725319
 20
-2035.562967
 11
1659.725321
 21
-2122.762966
 13
1714.552180
 23
-2059.162967
 14
1714.552180
 24
-2035.562967
 50
90.000000
 0
DIMENSION
 8
031
 2
*D12
 10
1859.525319
 20
-2035.562967
 11
1855.525321
 21
-2122.762966
 13
1888.952180
 23
-2059.162967
 14
1888.952180
 24
-2035.562967
 50
90.000000
 0
DIMENSION
 8
031
 2
*D13
 10
2002.552180
 20
-1884.964574
 11
1925.552180
 21
-1880.964574
 13
1886.952180
 23
-1913.562967
 14
2002.552180
 24
-1913.562967
 0
DIMENSION
 8
031
 2
*D14
 10
1859.525319
 20
-1911.562967
 11
1855.525320
 21
-1992.762966
 13
1888.952180
 23
-2035.562967
 14
1888.952180
 24
-1911.562967
 50
90.000000
 0
DIMENSION
 8
031
 2
*D15
 10
2146.525319
 20
-2035.562967
 11
2142.525319
 21
-2021.364574
 13
2125.552180
 23
-2071.562967
 14
2117.552180
 24
-2035.562967
 50
90.000000
 0
DIMENSION
 8
031
 2
*D16
 10
2247.466531
 20
-2071.562967
 11
2243.466531
 21
-2045.537210
 13
2119.552180
 23
-2083.562967
 14
2185.552180
 24
-2071.562967
 50
90.000000
 0
DIMENSION
 8
031
 2
*D17
 10
2077.757812
 20
-2063.562967
 11
2073.757812
 21
-2127.329246
 13
2101.552180
 23
-2083.562967
 14
2105.552180
 24
-2063.562967
 50
90.000000
 0
DIMENSION
 8
031
 2
*D18
 10
2117.552180
 20
-1851.349200
 11
2122.400504
 21
-1847.349200
 13
2105.552180
 23
-1897.962967
 14
2117.552180
 24
-1885.962967
 0
DIMENSION
 8
031
 2
*D19
 10
2077.757812
 20
-2035.562967
 11
2073.757813
 21
-2023.562967
 13
2105.552180
 23
-2063.562967
 14
2105.552180
 24
-2035.562967
 50
90.000000
 0
DIMENSION
 8
031
 2
*D20
 10
2185.552180
 20
-1901.929246
 11
2129.157813
 21
-1897.929246
 13
2105.552180
 23
-1887.962967
 14
2185.552180
 24
-2063.562967
 50
360.000000
 0
DIMENSION
 8
031
 2
*D21
 10
1440.376104
 20
-2253.831496
 11
1396.626104
 21
-2248.831496
 13
1375.376104
 23
-2213.891943
 14
1440.376104
 24
-2233.916675
 0
DIMENSION
 8
031
 2
*D22
 10
1533.576104
 20
-2828.831496
 11
1356.237331
 21
-2823.831496
 13
1217.176104
 23
-2641.584157
 14
1533.576104
 24
-2641.584157
 0
DIMENSION
 8
031
 2
*D23
 10
1516.876104
 20
-2793.831496
 11
1324.737333
 21
-2788.831496
 13
1233.876104
 23
-2529.584157
 14
1516.876104
 24
-2529.584157
 0
DIMENSION
 8
031
 2
*D24
 10
1463.376104
 20
-2708.831496
 11
1406.487331
 21
-2703.831496
 13
1375.376104
 23
-2676.584157
 14
1463.376104
 24
-2650.584157
 0
DIMENSION
 8
031
 2
*D25
 10
1506.376104
 20
-2753.831496
 11
1356.237331
 21
-2748.831496
 13
1244.376104
 23
-2594.584157
 14
1506.376104
 24
-2594.584157
 0
DIMENSION
 8
031
 2
*D26
 10
1244.376104
 20
-2753.831496
 11
1160.987332
 21
-2748.831496
 13
1233.876104
 23
-2529.584157
 14
1244.376104
 24
-2594.584157
 0
DIMENSION
 8
031
 2
*D27
 10
1757.737331
 20
-2519.584157
 11
1752.737331
 21
-2575.081496
 13
1894.357905
 23
-2614.584157
 14
1824.357905
 24
-2519.584157
 50
90.000000
 0
DIMENSION
 8
031
 2
*D28
 10
2197.737331
 20
-2559.584157
 11
2192.737331
 21
-2635.331496
 13
2065.657905
 23
-2666.584157
 14
2207.357905
 24
-2559.584157
 50
90.000000
 0
DIMENSION
 8
031
 2
*D29
 10
2252.737331
 20
-2519.584157
 11
2247.737331
 21
-2630.831496
 13
2065.657905
 23
-2666.584157
 14
2207.357905
 24
-2519.584157
 50
90.000000
 0
DIMENSION
 8
031
 2
*D30
 10
1950.297905
 20
-2718.831496
 11
1901.487331
 21
-2713.831496
 13
1874.357905
 23
-2594.584157
 14
1950.297905
 24
-2650.584157
 0
DIMENSION
 8
031
 2
*D31
 10
1931.857905
 20
-2683.831496
 11
1880.987332
 21
-2678.831496
 13
1874.357905
 23
-2594.584157
 14
1931.857905
 24
-2625.234157
 0
DIMENSION
 8
031
 2
*D32
 10
2157.357905
 20
-2843.831496
 11
1996.237331
 21
-2838.831496
 13
1874.357905
 23
-2594.584157
 14
2157.357905
 24
-2594.584157
 0
DIMENSION
 8
031
 2
*D33
 10
2046.857905
 20
-2803.831496
 11
1935.737332
 21
-2798.831496
 13
1874.357905
 23
-2594.584157
 14
2046.857905
 24
-2680.622112
 50
360.000000
 0
DIMENSION
 8
031
 2
*D34
 10
1874.357905
 20
-2803.831496
 11
1805.987332
 21
-2798.831496
 13
1863.857905
 23
-2818.623824
 14
1874.357905
 24
-2594.584157
 0
DIMENSION
 8
031
 2
*D35
 10
2167.857905
 20
-2883.831496
 11
1959.737333
 21
-2878.831496
 13
1863.857905
 23
-2529.584157
 14
2167.857905
 24
-2529.584157
 0
DIMENSION
 8
031
 2
*D36
 10
2042.737331
 20
-1887.962967
 11
2038.737332
 21
-1879.852225
 13
2105.552180
 23
-1919.962967
 14
2069.372405
 24
-1887.962967
 50
90.000000
 0
DIMENSION
 8
031
 2
*D37
 10
1757.737331
 20
-2614.584157
 11
1752.737332
 21
-2640.081496
 13
1941.297905
 23
-2645.584157
 14
1894.357905
 24
-2614.584157
 50
90.000000
 0
LINE
 8
001
 10
2529.131433
 20
-3072.216988
 11
2529.131433
 21
-3075.256629
 0
LINE
 8
001
 10
2549.920254
 20
-3063.819768
 11
2553.374080
 21
-3066.030756
 0
LINE
 8
001
 10
2556.559564
 20
-3067.466745
 11
2553.374080
 21
-3066.030756
 0
LINE
 8
001
 10
2556.675130
 20
-3067.705282
 11
2556.253808
 21
-3069.390564
 0
LINE
 8
001
 10
2555.986794
 20
-3069.536115
 11
2553.986070
 21
-3068.856034
 0
LINE
 8
001
 10
2553.986070
 20
-3068.856034
 11
2553.657068
 21
-3068.856034
 0
LINE
 8
001
 10
2544.007864
 20
-3068.902048
 11
2541.654232
 21
-3069.514040
 0
LINE
 8
001
 10
2541.654232
 20
-3069.514040
 11
2540.807568
 21
-3067.726383
 0
LINE
 8
001
 10
2548.903788
 20
-3065.747766
 11
2550.551101
 21
-3066.971749
 0
LINE
 8
001
 10
2552.392035
 20
-3067.949164
 11
2550.551101
 21
-3066.971749
 0
LINE
 8
001
 10
2548.714132
 20
-3073.141127
 11
2548.580995
 21
-3073.295915
 0
LINE
 8
001
 10
2548.324647
 20
-3073.670342
 11
2546.925172
 21
-3076.291951
 0
LINE
 8
001
 10
2546.959005
 20
-3076.381444
 11
2546.925172
 21
-3076.291951
 0
LINE
 8
001
 10
2547.374758
 20
-3076.647592
 11
2551.726767
 21
-3076.340266
 0
LINE
 8
001
 10
2550.559598
 20
-3075.048842
 11
2551.726767
 21
-3076.340266
 0
LINE
 8
001
 10
2550.588145
 20
-3074.745515
 11
2551.963741
 21
-3073.703644
 0
LINE
 8
001
 10
2556.388015
 20
-3077.987577
 11
2554.740705
 21
-3079.211558
 0
LINE
 8
001
 10
2554.740705
 20
-3079.211558
 11
2553.562739
 21
-3078.176236
 0
LINE
 8
001
 10
2542.496416
 20
-3078.778209
 11
2553.562739
 21
-3078.176236
 0
LINE
 8
001
 10
2542.281423
 20
-3078.606369
 11
2541.978088
 21
-3076.816136
 0
LINE
 8
001
 10
2542.181855
 20
-3076.574938
 11
2543.724348
 21
-3076.574938
 0
LINE
 8
001
 10
2544.079694
 20
-3076.372739
 11
2545.775962
 21
-3073.517996
 0
LINE
 8
001
 10
2545.660347
 20
-3073.212509
 11
2545.690112
 21
-3073.227271
 0
LINE
 8
001
 10
2565.379216
 20
-3066.614745
 11
2565.379216
 21
-3068.317521
 0
LINE
 8
001
 10
2564.046482
 20
-3070.638328
 11
2565.319648
 21
-3068.531287
 0
LINE
 8
001
 10
2566.228803
 20
-3073.107146
 11
2564.119534
 21
-3071.155487
 0
LINE
 8
001
 10
2566.253229
 20
-3073.383575
 11
2565.184737
 21
-3074.795179
 0
LINE
 8
001
 10
2564.880546
 20
-3074.823022
 11
2563.746678
 21
-3073.787042
 0
LINE
 8
001
 10
2559.458249
 20
-3075.794070
 11
2560.943521
 21
-3074.533241
 0
LINE
 8
001
 10
2558.241787
 20
-3073.973268
 11
2559.140494
 21
-3075.730613
 0
LINE
 8
001
 10
2558.274884
 20
-3073.737959
 11
2562.958800
 21
-3068.732268
 0
LINE
 8
001
 10
2561.283941
 20
-3063.932110
 11
2561.283941
 21
-3066.030756
 0
LINE
 8
001
 10
2566.572894
 20
-3067.678067
 11
2568.719857
 21
-3067.678067
 0
LINE
 8
001
 10
2569.209517
 20
-3064.100455
 11
2571.009463
 21
-3064.100455
 0
LINE
 8
001
 10
2574.133442
 20
-3067.884739
 11
2574.133442
 21
-3069.797027
 0
LINE
 8
001
 10
2565.019912
 20
-3078.928570
 11
2574.161443
 21
-3078.928570
 0
LINE
 8
001
 10
2566.366222
 20
-3069.608369
 11
2566.366222
 21
-3067.884739
 0
LINE
 8
001
 10
2541.623930
 20
-3071.067024
 11
2556.143827
 21
-3071.067024
 0
LINE
 8
001
 10
2552.295119
 20
-3068.338375
 11
2545.512457
 21
-3068.338375
 0
LINE
 8
001
 10
2553.450396
 20
-3069.985686
 11
2544.214535
 21
-3069.985686
 0
LINE
 8
001
 10
2547.725822
 20
-3063.819768
 11
2549.920254
 21
-3063.819768
 0
LINE
 8
001
 10
2544.742114
 20
-3072.997323
 11
2541.417258
 21
-3072.997323
 0
LINE
 8
001
 10
2556.143827
 20
-3072.997323
 11
2549.027503
 21
-3072.997323
 0
ARC
 8
001
 10
2545.598289
 20
-3073.412424
 40
0.206671
 50
329.281522
 51
63.621692
 0
ARC
 8
001
 10
2544.742114
 20
-3075.064038
 40
2.066715
 50
63.621692
 51
90.000000
 0
ARC
 8
001
 10
2550.147848
 20
-3074.643609
 40
2.066715
 50
139.300252
 51
151.905672
 0
ARC
 8
001
 10
2549.027503
 20
-3073.410666
 40
0.413343
 50
90.000000
 51
139.300252
 0
ARC
 8
001
 10
2543.724348
 20
-3076.161595
 40
0.413343
 50
270.000000
 51
329.281522
 0
ARC
 8
001
 10
2547.345641
 20
-3076.235276
 40
0.413343
 50
200.709130
 51
274.039351
 0
LINE
 8
001
 10
2541.417258
 20
-3071.273696
 11
2541.417258
 21
-3072.997323
 0
LINE
 8
001
 10
2556.350498
 20
-3072.790651
 11
2556.350498
 21
-3071.273696
  0
POLYLINE
  8
001
 66
1
  0
VERTEX
  8
001
 10
2540.807568
 20
-3067.726383
  0
VERTEX
  8
001
 10
2542.450434
 20
-3066.962196
  0
VERTEX
  8
001
 10
2544.060223
 20
-3066.138747
  0
VERTEX
  8
001
 10
2545.916775
 20
-3065.021813
  0
VERTEX
  8
001
 10
2547.725822
 20
-3063.819768
  0
SEQEND
  8
001
 0
ARC
 8
001
 10
2552.295119
 20
-3068.131703
 40
0.206671
 50
270.000000
 51
62.034633
 0
ARC
 8
001
 10
2545.512457
 20
-3068.131703
 40
0.206671
 50
117.965367
 51
270.000000
  0
POLYLINE
  8
001
 66
1
  0
VERTEX
  8
001
 10
2548.903788
 20
-3065.747766
  0
VERTEX
  8
001
 10
2547.788961
 20
-3066.562449
  0
VERTEX
  8
001
 10
2546.632436
 20
-3067.308101
  0
VERTEX
  8
001
 10
2546.029183
 20
-3067.637231
  0
VERTEX
  8
001
 10
2545.415541
 20
-3067.949164
  0
SEQEND
  8
001
  0
POLYLINE
  8
001
 66
1
  0
VERTEX
  8
001
 10
2551.963741
 20
-3073.703644
  0
VERTEX
  8
001
 10
2552.821476
 20
-3074.435066
  0
VERTEX
  8
001
 10
2553.669045
 20
-3075.178655
  0
VERTEX
  8
001
 10
2554.597279
 20
-3076.044100
  0
VERTEX
  8
001
 10
2555.482190
 20
-3076.952708
  0
VERTEX
  8
001
 10
2555.939578
 20
-3077.466062
  0
VERTEX
  8
001
 10
2556.388015
 20
-3077.987577
  0
SEQEND
  8
001
 0
LINE
 8
001
 10
2553.657068
 20
-3069.779014
 11
2553.657068
 21
-3068.856034
 0
LINE
 8
001
 10
2544.007864
 20
-3069.779014
 11
2544.007864
 21
-3068.902048
 0
LINE
 8
001
 10
2574.368114
 20
-3078.721899
 11
2574.368114
 21
-3077.253256
 0
LINE
 8
001
 10
2574.133442
 20
-3067.884739
 11
2574.133442
 21
-3069.825028
 0
LINE
 8
001
 10
2566.366222
 20
-3069.825028
 11
2566.366222
 21
-3067.884739
 0
LINE
 8
001
 10
2558.881993
 20
-3068.177717
 11
2558.881993
 21
-3066.614745
 0
LINE
 8
001
 10
2561.490612
 20
-3063.725438
 11
2563.193930
 21
-3063.725438
 0
LINE
 8
001
 10
2559.088665
 20
-3068.384388
 11
2562.807891
 21
-3068.384388
 0
LINE
 8
001
 10
2563.400602
 20
-3079.145232
 11
2563.400602
 21
-3073.939619
 0
LINE
 8
001
 10
2563.400602
 20
-3063.932110
 11
2563.400602
 21
-3066.201402
 0
LINE
 8
001
 10
2561.283941
 20
-3079.145232
 11
2561.283941
 21
-3074.690798
 0
LINE
 8
001
 10
2561.283941
 20
-3066.201402
 11
2561.283941
 21
-3064.100455
 0
LINE
 8
001
 10
2569.002845
 20
-3064.307127
 11
2569.002845
 21
-3067.471396
 0
LINE
 8
001
 10
2571.216134
 20
-3064.307127
 11
2571.216134
 21
-3067.471396
 0
LINE
 8
001
 10
2566.572894
 20
-3067.678067
 11
2568.796174
 21
-3067.678067
 0
LINE
 8
001
 10
2573.926771
 20
-3067.678067
 11
2571.422806
 21
-3067.678067
 0
LINE
 8
001
 10
2568.796174
 20
-3070.031699
 11
2566.572894
 21
-3070.031699
 0
LINE
 8
001
 10
2573.926771
 20
-3070.031699
 11
2571.422806
 21
-3070.031699
 0
LINE
 8
001
 10
2559.088665
 20
-3066.408073
 11
2561.077269
 21
-3066.408073
 0
LINE
 8
001
 10
2565.172544
 20
-3066.408073
 11
2563.607273
 21
-3066.408073
 0
LINE
 8
001
 10
2564.813241
 20
-3077.253256
 11
2564.813241
 21
-3078.721899
 0
LINE
 8
001
 10
2569.002845
 20
-3076.839913
 11
2569.002845
 21
-3070.238371
 0
LINE
 8
001
 10
2571.216134
 20
-3076.839913
 11
2571.216134
 21
-3070.238371
 0
LINE
 8
001
 10
2568.796174
 20
-3077.046584
 11
2565.019912
 21
-3077.046584
 0
LINE
 8
001
 10
2574.161443
 20
-3077.046584
 11
2571.422806
 21
-3077.046584
 0
ARC
 8
001
 10
2562.807891
 20
-3068.591060
 40
0.206671
 50
316.901998
 51
90.000000
 0
ARC
 8
001
 10
2564.965873
 20
-3068.317521
 40
0.413343
 50
328.857800
 51
360.000000
 0
ARC
 8
001
 10
2564.400256
 20
-3070.852094
 40
0.413343
 50
148.857800
 51
227.222611
 0
ARC
 8
001
 10
2563.607273
 20
-3073.939619
 40
0.206671
 50
47.583036
 51
180.000000
 0
ARC
 8
001
 10
2561.077269
 20
-3074.690798
 40
0.206671
 50
360.000000
 51
130.327518
 0
ARC
 8
001
 10
2561.077269
 20
-3066.201402
 40
0.206671
 50
270.000000
 51
360.000000
 0
ARC
 8
001
 10
2563.607273
 20
-3066.201402
 40
0.206671
 50
180.000000
 51
270.000000
 0
ARC
 8
001
 10
2568.796174
 20
-3067.471396
 40
0.206671
 50
270.000000
 51
360.000000
 0
ARC
 8
001
 10
2571.422806
 20
-3067.471396
 40
0.206671
 50
180.000000
 51
270.000000
 0
ARC
 8
001
 10
2571.009463
 20
-3064.307127
 40
0.206671
 50
360.000000
 51
90.000000
 0
ARC
 8
001
 10
2569.209517
 20
-3064.307127
 40
0.206671
 50
90.000000
 51
180.000000
 0
ARC
 8
001
 10
2566.572894
 20
-3067.884739
 40
0.206671
 50
90.000000
 51
180.000000
 0
ARC
 8
001
 10
2566.572894
 20
-3069.825028
 40
0.206671
 50
180.000000
 51
270.000000
 0
ARC
 8
001
 10
2568.796174
 20
-3070.238371
 40
0.206671
 50
360.000000
 51
90.000000
 0
ARC
 8
001
 10
2571.422806
 20
-3070.238371
 40
0.206671
 50
90.000000
 51
180.000000
 0
ARC
 8
001
 10
2573.926771
 20
-3069.825028
 40
0.206671
 50
270.000000
 51
360.000000
 0
ARC
 8
001
 10
2573.926771
 20
-3067.884739
 40
0.206671
 50
360.000000
 51
90.000000
 0
ARC
 8
001
 10
2571.422806
 20
-3076.839913
 40
0.206671
 50
180.000000
 51
270.000000
 0
ARC
 8
001
 10
2574.161443
 20
-3077.253256
 40
0.206671
 50
360.000000
 51
90.000000
 0
ARC
 8
001
 10
2574.161443
 20
-3078.721899
 40
0.206671
 50
270.000000
 51
360.000000
 0
ARC
 8
001
 10
2565.019912
 20
-3078.721899
 40
0.206671
 50
180.000000
 51
270.000000
 0
ARC
 8
001
 10
2565.019912
 20
-3077.253256
 40
0.206671
 50
90.000000
 51
180.000000
 0
ARC
 8
001
 10
2568.796174
 20
-3076.839913
 40
0.206671
 50
270.000000
 51
360.000000
 0
ARC
 8
001
 10
2565.019950
 20
-3074.670446
 40
0.206671
 50
227.583036
 51
322.876666
 0
ARC
 8
001
 10
2566.088441
 20
-3073.258842
 40
0.206671
 50
322.876666
 51
47.222611
 0
ARC
 8
001
 10
2559.324500
 20
-3075.636512
 40
0.206671
 50
207.085238
 51
310.327518
 0
ARC
 8
001
 10
2558.425793
 20
-3073.879167
 40
0.206671
 50
136.901998
 51
207.085238
 0
ARC
 8
001
 10
2565.172544
 20
-3066.614745
 40
0.206671
 50
360.000000
 51
90.000000
 0
ARC
 8
001
 10
2563.193930
 20
-3063.932110
 40
0.206671
 50
360.000000
 51
90.000000
 0
ARC
 8
001
 10
2561.490612
 20
-3063.932110
 40
0.206671
 50
90.000000
 51
180.000000
 0
ARC
 8
001
 10
2559.088665
 20
-3066.614745
 40
0.206671
 50
90.000000
 51
180.000000
 0
ARC
 8
001
 10
2559.088665
 20
-3068.177717
 40
0.206671
 50
180.000000
 51
270.000000
 0
ARC
 8
001
 10
2556.143827
 20
-3071.273696
 40
0.206671
 50
360.000000
 51
90.000000
 0
ARC
 8
001
 10
2556.143827
 20
-3072.790651
 40
0.206671
 50
270.000000
 51
360.000000
 0
ARC
 8
001
 10
2541.623930
 20
-3071.273696
 40
0.206671
 50
90.000000
 51
180.000000
 0
ARC
 8
001
 10
2544.214535
 20
-3069.779014
 40
0.206671
 50
180.000000
 51
270.000000
 0
ARC
 8
001
 10
2553.450396
 20
-3069.779014
 40
0.206671
 50
270.000000
 51
360.000000
 0
ARC
 8
001
 10
2556.053308
 20
-3069.340439
 40
0.206671
 50
251.226210
 51
345.963715
 0
ARC
 8
001
 10
2556.474629
 20
-3067.655157
 40
0.206671
 50
345.963715
 51
65.734564
 0
ARC
 8
001
 10
2542.181855
 20
-3076.781610
 40
0.206671
 50
90.000000
 51
189.616810
 0
ARC
 8
001
 10
2542.485191
 20
-3078.571842
 40
0.206671
 50
189.616810
 51
273.113641
 0
ARC
 8
001
 10
2550.712926
 20
-3074.910266
 40
0.206671
 50
127.140166
 51
222.106786
 0
LINE
 8
001
 10
2583.622006
 20
-3046.895301
 11
2578.256737
 21
-3079.139840
 0
LINE
 8
001
 10
2583.293005
 20
-3079.045507
 11
2588.234944
 21
-3046.846986
 0
LINE
 8
001
 10
2594.792410
 20
-3046.895301
 11
2599.656548
 21
-3079.139840
 0
LINE
 8
001
 10
2594.923850
 20
-3079.139840
 11
2589.884557
 21
-3046.846986
 0
LINE
 8
001
 10
2588.227528
 20
-3046.895301
 11
2583.622006
 21
-3046.895301
 0
LINE
 8
001
 10
2589.892096
 20
-3046.895301
 11
2594.792410
 21
-3046.895301
 0
LINE
 8
001
 10
2605.747994
 20
-3058.569134
 11
2621.184762
 21
-3058.569134
 0
LINE
 8
001
 10
2605.794009
 20
-3062.710424
 11
2621.095796
 21
-3062.710424
 0
LINE
 8
001
 10
2605.747994
 20
-3058.569134
 11
2605.747994
 21
-3062.710424
 0
LINE
 8
001
 10
2621.184762
 20
-3062.710424
 11
2621.184762
 21
-3058.569134
 0
LINE
 8
001
 10
2642.046305
 20
-3052.468416
 11
2638.892385
 21
-3071.122781
 0
LINE
 8
001
 10
2637.674388
 20
-3071.147417
 11
2635.077993
 21
-3058.841349
 0
LINE
 8
001
 10
2630.605402
 20
-3058.887363
 11
2634.417689
 21
-3079.271709
 0
LINE
 8
001
 10
2639.113852
 20
-3079.271709
 11
2638.420934
 21
-3076.400414
 0
LINE
 8
001
 10
2639.257258
 20
-3075.974782
 11
2639.330019
 21
-3075.974782
 0
LINE
 8
001
 10
2643.403081
 20
-3072.545205
 11
2646.960956
 21
-3051.956484
 0
LINE
 8
001
 10
2655.271378
 20
-3051.214476
 11
2666.664526
 21
-3051.214476
 0
LINE
 8
001
 10
2666.664526
 20
-3051.214476
 11
2666.664526
 21
-3047.119201
 0
LINE
 8
001
 10
2665.909893
 20
-3074.301432
 11
2665.909893
 21
-3058.701005
 0
LINE
 8
001
 10
2655.508352
 20
-3075.128118
 11
2655.508352
 21
-3079.271709
 0
LINE
 8
001
 10
2670.711486
 20
-3058.701005
 11
2665.909893
 21
-3058.701005
 0
LINE
 8
001
 10
2635.087702
 20
-3058.887363
 11
2630.605402
 21
-3058.887363
 0
LINE
 8
001
 10
2665.083207
 20
-3075.128118
 11
2655.508352
 21
-3075.128118
 0
LINE
 8
001
 10
2642.887894
 20
-3047.119201
 11
2630.559388
 21
-3047.119201
 0
LINE
 8
001
 10
2655.361602
 20
-3047.119201
 11
2666.664526
 21
-3047.119201
 0
LINE
 8
001
 10
2641.027408
 20
-3051.262792
 11
2630.559388
 21
-3051.262792
 0
LINE
 8
001
 10
2670.711486
 20
-3075.138279
 11
2670.711486
 21
-3058.701005
 0
LINE
 8
001
 10
2655.271378
 20
-3047.119201
 11
2655.271378
 21
-3051.214476
 0
ARC
 8
001
 10
2638.281046
 20
-3071.019422
 40
0.620015
 50
191.913813
 51
350.403672
 0
ARC
 8
001
 10
2642.887894
 20
-3051.252631
 40
4.133430
 50
350.195718
 51
90.000000
 0
ARC
 8
001
 10
2639.330019
 20
-3071.841352
 40
4.133430
 50
270.000000
 51
350.195718
 0
ARC
 8
001
 10
2639.257258
 20
-3077.008139
 40
1.033358
 50
90.000000
 51
144.016960
 0
ARC
 8
001
 10
2665.083207
 20
-3074.301432
 40
0.826686
 50
270.000000
 51
360.000000
 0
ARC
 8
001
 10
2666.578056
 20
-3075.138279
 40
4.133430
 50
270.000000
 51
360.000000
 0
LINE
 8
001
 10
2630.559388
 20
-3047.119201
 11
2630.559388
 21
-3051.262792
 0
ARC
 8
001
 10
2641.027408
 20
-3052.296149
 40
1.033358
 50
350.403672
 51
90.000000
 0
ARC
 8
001
 10
2487.286278
 20
-3063.574081
 40
21.414136
 50
328.408331
 51
349.200080
 0
LINE
 8
001
 10
2508.537951
 20
-3063.253539
 11
2508.537951
 21
-3079.199801
 0
ARC
 8
001
 10
2518.867175
 20
-3063.600042
 40
11.577353
 50
206.849975
 51
228.792880
 0
LINE
 8
001
 10
2505.417307
 20
-3067.586661
 11
2511.065563
 21
-3067.586661
 0
LINE
 8
001
 10
2516.210839
 20
-3063.253539
 11
2516.210839
 21
-3079.199801
 0
ARC
 8
001
 10
2480.627122
 20
-3051.066435
 40
40.485367
 50
318.496920
 51
331.381456
 0
LINE
 8
001
 10
2511.734707
 20
-3070.457954
 11
2521.563732
 21
-3070.457954
 0
LINE
 8
001
 10
2521.140402
 20
-3066.739997
 11
2512.692364
 21
-3066.739997
 0
ARC
 8
001
 10
2552.040265
 20
-3049.238105
 40
41.754342
 50
210.896016
 51
222.101251
 0
ARC
 8
001
 10
2500.161428
 20
-3061.890734
 40
13.436506
 50
330.595494
 51
350.219493
 0
LINE
 8
001
 10
2523.342830
 20
-3066.986424
 11
2538.594279
 21
-3066.986424
 0
LINE
 8
001
 10
2533.241386
 20
-3063.137633
 11
2533.241386
 21
-3067.727313
 0
LINE
 8
001
 10
2537.544279
 20
-3065.985456
 11
2537.544279
 21
-3067.772396
 0
LINE
 8
001
 10
2538.033202
 20
-3065.660569
 11
2537.544279
 21
-3065.985456
 0
LINE
 8
001
 10
2537.110282
 20
-3063.998107
 11
2537.790773
 21
-3065.223880
 0
LINE
 8
001
 10
2537.790773
 20
-3065.223880
 11
2537.990450
 21
-3065.688978
  0
POLYLINE
  8
001
 66
1
  0
VERTEX
  8
001
 10
2533.239065
 20
-3067.727313
  0
VERTEX
  8
001
 10
2533.400065
 20
-3070.020059
  0
VERTEX
  8
001
 10
2533.668129
 20
-3072.259440
  0
VERTEX
  8
001
 10
2534.150318
 20
-3074.392087
  0
VERTEX
  8
001
 10
2534.470898
 20
-3075.306757
  0
VERTEX
  8
001
 10
2534.911077
 20
-3076.246073
  0
VERTEX
  8
001
 10
2535.351450
 20
-3076.921239
  0
VERTEX
  8
001
 10
2535.959075
 20
-3077.280629
  0
VERTEX
  8
001
 10
2536.139903
 20
-3077.281280
  0
VERTEX
  8
001
 10
2536.319985
 20
-3077.247140
  0
VERTEX
  8
001
 10
2536.948746
 20
-3076.828169
  0
VERTEX
  8
001
 10
2537.463521
 20
-3076.205961
  0
VERTEX
  8
001
 10
2537.898544
 20
-3075.714601
  0
VERTEX
  8
001
 10
2538.270820
 20
-3075.202030
  0
VERTEX
  8
001
 10
2538.379865
 20
-3074.975228
  0
VERTEX
  8
001
 10
2538.475792
 20
-3074.738966
  0
SEQEND
  8
001
 0
LINE
 8
001
 10
2528.081433
 20
-3070.987370
 11
2528.081433
 21
-3076.629583
 0
LINE
 8
001
 10
2524.119638
 20
-3070.987370
 11
2531.811380
 21
-3070.987370
 0
LINE
 8
001
 10
2532.119391
 20
-3075.889528
 11
2523.438425
 21
-3077.480529
 0
LINE
 8
001
 10
2544.707864
 20
-3069.213375
 11
2544.707864
 21
-3066.981881
 0
LINE
 8
001
 10
2549.612958
 20
-3064.869768
 11
2552.872607
 21
-3066.956453
 0
LINE
 8
001
 10
2548.046214
 20
-3064.869768
 11
2549.612958
 21
-3064.869768
  0
POLYLINE
  8
001
 66
1
  0
VERTEX
  8
001
 10
2541.268142
 20
-3068.669978
  0
VERTEX
  8
001
 10
2542.937267
 20
-3067.893631
  0
VERTEX
  8
001
 10
2544.572738
 20
-3067.056989
  0
VERTEX
  8
001
 10
2546.331832
 20
-3066.003432
  0
VERTEX
  8
001
 10
2548.046214
 20
-3064.869768
  0
SEQEND
  8
001
 0
LINE
 8
001
 10
2553.132068
 20
-3069.213375
 11
2544.707864
 21
-3069.213375
 0
LINE
 8
001
 10
2553.132068
 20
-3069.213375
 11
2553.132068
 21
-3067.073416
 0
LINE
 8
001
 10
2556.458243
 20
-3068.572826
 11
2552.872607
 21
-3066.956453
 0
LINE
 8
001
 10
2541.417258
 20
-3072.117024
 11
2556.350498
 21
-3072.117024
 0
LINE
 8
001
 10
2547.963602
 20
-3072.117024
 11
2545.042999
 21
-3077.588130
 0
LINE
 8
001
 10
2542.135691
 20
-3077.746279
 11
2554.162095
 21
-3077.092080
  0
POLYLINE
  8
001
 66
1
  0
VERTEX
  8
001
 10
2551.113230
 20
-3074.347818
  0
VERTEX
  8
001
 10
2551.194927
 20
-3074.422927
  0
VERTEX
  8
001
 10
2551.276841
 20
-3074.497790
  0
VERTEX
  8
001
 10
2552.114304
 20
-3075.227882
  0
VERTEX
  8
001
 10
2552.957762
 20
-3075.951710
  0
VERTEX
  8
001
 10
2553.861745
 20
-3076.789588
  0
VERTEX
  8
001
 10
2554.718843
 20
-3077.674823
  0
VERTEX
  8
001
 10
2555.134630
 20
-3078.141839
  0
VERTEX
  8
001
 10
2555.543288
 20
-3078.615225
  0
SEQEND
  8
001
 0
LINE
 8
001
 10
2558.683847
 20
-3074.837678
 11
2564.329216
 21
-3068.804483
 0
LINE
 8
001
 10
2562.333941
 20
-3079.351904
 11
2562.333941
 21
-3070.936830
 0
LINE
 8
001
 10
2565.729415
 20
-3074.075595
 11
2562.333941
 21
-3070.933840
 0
LINE
 8
001
 10
2558.881993
 20
-3067.334388
 11
2564.329216
 21
-3067.334388
 0
LINE
 8
001
 10
2564.329216
 20
-3066.408073
 11
2564.329216
 21
-3068.804483
 0
LINE
 8
001
 10
2562.333941
 20
-3067.334388
 11
2562.333941
 21
-3063.725438
 0
LINE
 8
001
 10
2570.052845
 20
-3078.096584
 11
2570.052845
 21
-3064.100455
 0
LINE
 8
001
 10
2574.133442
 20
-3068.728067
 11
2566.366222
 21
-3068.728067
 0
LINE
 8
001
 10
2574.368114
 20
-3078.096584
 11
2564.813241
 21
-3078.096584
 0
LINE
 8
001
 10
2643.426715
 20
-3052.701803
 11
2640.272794
 21
-3071.356169
 0
ARC
 8
001
 10
2638.281046
 20
-3071.019422
 40
2.020014
 50
191.913813
 51
350.403672
 0
LINE
 8
001
 10
2633.952260
 20
-3060.287363
 11
2636.304545
 21
-3071.436433
 0
LINE
 8
001
 10
2632.291503
 20
-3060.287363
 11
2633.952260
 21
-3060.287363
 0
LINE
 8
001
 10
2632.291503
 20
-3060.287363
 11
2635.580134
 21
-3077.871709
 0
LINE
 8
001
 10
2637.335806
 20
-3077.871709
 11
2635.580134
 21
-3077.871709
 0
LINE
 8
001
 10
2637.335806
 20
-3077.871709
 11
2636.944688
 21
-3076.251006
 0
ARC
 8
001
 10
2639.257258
 20
-3077.008139
 40
2.433358
 50
90.000000
 51
161.871597
 0
ARC
 8
001
 10
2639.330019
 20
-3071.841352
 40
2.733430
 50
270.000000
 51
350.195718
 0
LINE
 8
001
 10
2642.023528
 20
-3072.306809
 11
2645.581402
 21
-3051.718088
 0
ARC
 8
001
 10
2642.887894
 20
-3051.252631
 40
2.733430
 50
350.195759
 51
90.000000
 0
LINE
 8
001
 10
2631.959388
 20
-3048.519201
 11
2642.887894
 21
-3048.519201
 0
LINE
 8
001
 10
2631.959388
 20
-3048.519201
 11
2631.959388
 21
-3049.862792
 0
LINE
 8
001
 10
2641.027408
 20
-3049.862792
 11
2631.959388
 21
-3049.862792
 0
ARC
 8
001
 10
2641.027408
 20
-3052.296149
 40
2.433358
 50
350.403707
 51
90.000000
 0
ARC
 8
001
 10
2665.083207
 20
-3074.301432
 40
2.226686
 50
270.000013
 51
0.000000
 0
LINE
 8
001
 10
2665.083207
 20
-3076.528118
 11
2656.908352
 21
-3076.528118
 0
LINE
 8
001
 10
2656.908352
 20
-3076.528118
 11
2656.908352
 21
-3077.871709
 0
LINE
 8
001
 10
2666.578056
 20
-3077.871709
 11
2656.908352
 21
-3077.871709
 0
ARC
 8
001
 10
2666.578056
 20
-3075.138279
 40
2.733430
 50
270.000002
 51
0.000000
 0
LINE
 8
001
 10
2669.311486
 20
-3075.138279
 11
2669.311486
 21
-3060.101005
 0
LINE
 8
001
 10
2667.309893
 20
-3060.101005
 11
2669.311486
 21
-3060.101005
 0
LINE
 8
001
 10
2667.309893
 20
-3060.101005
 11
2667.309893
 21
-3074.301432
 0
LINE
 8
001
 10
2656.671378
 20
-3049.814476
 11
2665.264526
 21
-3049.814476
 0
LINE
 8
001
 10
2656.671378
 20
-3048.519201
 11
2656.671378
 21
-3049.814476
 0
LINE
 8
001
 10
2656.671378
 20
-3048.519201
 11
2665.264526
 21
-3048.519201
 0
LINE
 8
001
 10
2665.264526
 20
-3049.814476
 11
2665.264526
 21
-3048.519201
 0
LINE
 8
001
 10
2579.908935
 20
-3077.739840
 11
2584.808304
 21
-3048.295301
 0
LINE
 8
001
 10
2579.908935
 20
-3077.739840
 11
2582.077009
 21
-3077.739840
 0
LINE
 8
001
 10
2582.077009
 20
-3077.739840
 11
2586.596257
 21
-3048.295301
 0
LINE
 8
001
 10
2586.596257
 20
-3048.295301
 11
2584.808304
 21
-3048.295301
 0
LINE
 8
001
 10
2591.527510
 20
-3048.295301
 11
2596.122324
 21
-3077.739840
 0
LINE
 8
001
 10
2598.029517
 20
-3077.739840
 11
2596.122324
 21
-3077.739840
 0
LINE
 8
001
 10
2593.587762
 20
-3048.295301
 11
2598.029517
 21
-3077.739840
 0
LINE
 8
001
 10
2591.527510
 20
-3048.295301
 11
2593.587762
 21
-3048.295301
 0
LINE
 8
001
 10
2619.784762
 20
-3061.310424
 11
2607.147994
 21
-3061.310424
 0
LINE
 8
001
 10
2607.147994
 20
-3061.310424
 11
2607.147994
 21
-3059.969134
 0
LINE
 8
001
 10
2619.784762
 20
-3059.969134
 11
2607.147994
 21
-3059.969134
 0
LINE
 8
001
 10
2619.784762
 20
-3059.969134
 11
2619.784762
 21
-3061.310424
  0
POLYLINE
  8
001
 66
1
  0
VERTEX
  8
001
 10
2534.404675
 20
-3067.772396
  0
VERTEX
  8
001
 10
2534.518838
 20
-3070.059775
  0
VERTEX
  8
001
 10
2534.845359
 20
-3072.304997
  0
VERTEX
  8
001
 10
2535.182743
 20
-3073.531431
  0
VERTEX
  8
001
 10
2535.586700
 20
-3074.744649
  0
SEQEND
  8
001
  0
POLYLINE
  8
001
 66
1
  0
VERTEX
  8
001
 10
2535.586700
 20
-3074.744649
  0
VERTEX
  8
001
 10
2535.724452
 20
-3075.209977
  0
VERTEX
  8
001
 10
2535.976931
 20
-3075.545144
  0
VERTEX
  8
001
 10
2536.278060
 20
-3075.644248
  0
VERTEX
  8
001
 10
2536.620954
 20
-3075.623381
  0
VERTEX
  8
001
 10
2536.893139
 20
-3075.521771
  0
VERTEX
  8
001
 10
2537.109455
 20
-3075.349555
  0
VERTEX
  8
001
 10
2537.265371
 20
-3075.088437
  0
VERTEX
  8
001
 10
2537.370299
 20
-3074.787282
  0
SEQEND
  8
001
 0
LINE
 8
001
 10
2537.370299
 20
-3074.787282
 11
2537.793629
 21
-3073.703644
 0
LINE
 8
001
 10
2537.793629
 20
-3073.703644
 11
2539.157955
 21
-3075.774288
  0
POLYLINE
  8
001
 66
1
  0
VERTEX
  8
001
 10
2532.191386
 20
-3067.772396
  0
VERTEX
  8
001
 10
2532.195068
 20
-3067.820968
  0
VERTEX
  8
001
 10
2532.198744
 20
-3067.869552
  0
VERTEX
  8
001
 10
2532.376860
 20
-3070.167080
  0
VERTEX
  8
001
 10
2532.646637
 20
-3072.454392
  0
VERTEX
  8
001
 10
2533.128123
 20
-3074.666899
  0
VERTEX
  8
001
 10
2533.503624
 20
-3075.760268
  0
VERTEX
  8
001
 10
2534.020989
 20
-3076.842834
  0
VERTEX
  8
001
 10
2534.677121
 20
-3077.790491
  0
VERTEX
  8
001
 10
2535.569320
 20
-3078.371306
  0
VERTEX
  8
001
 10
2536.170613
 20
-3078.412623
  0
VERTEX
  8
001
 10
2536.766985
 20
-3078.260174
  0
VERTEX
  8
001
 10
2537.573050
 20
-3077.692148
  0
VERTEX
  8
001
 10
2538.230696
 20
-3076.927478
  0
VERTEX
  8
001
 10
2538.661141
 20
-3076.391364
  0
VERTEX
  8
001
 10
2539.089078
 20
-3075.860023
  0
VERTEX
  8
001
 10
2539.123511
 20
-3075.817170
  0
VERTEX
  8
001
 10
2539.157955
 20
-3075.774288
  0
SEQEND
  8
001
 0
LINE
 8
001
 10
2523.342830
 20
-3067.772396
 11
2532.191386
 21
-3067.772396
 0
LINE
 8
001
 10
2523.342830
 20
-3065.936424
 11
2523.342830
 21
-3067.772396
 0
LINE
 8
001
 10
2523.342830
 20
-3065.936424
 11
2532.191386
 21
-3065.936424
 0
LINE
 8
001
 10
2532.191386
 20
-3063.159462
 11
2532.191386
 21
-3065.936424
 0
LINE
 8
001
 10
2532.191386
 20
-3063.159462
 11
2534.404675
 21
-3063.113448
 0
LINE
 8
001
 10
2534.404675
 20
-3065.936424
 11
2534.404675
 21
-3063.113448
 0
LINE
 8
001
 10
2534.404675
 20
-3065.936424
 11
2536.523635
 21
-3065.936424
 0
LINE
 8
001
 10
2536.523635
 20
-3065.936424
 11
2536.005972
 21
-3064.383443
 0
LINE
 8
001
 10
2536.005972
 20
-3064.383443
 11
2538.028304
 21
-3063.488465
 0
LINE
 8
001
 10
2538.028304
 20
-3063.488465
 11
2538.734622
 21
-3064.760759
 0
LINE
 8
001
 10
2538.734622
 20
-3064.760759
 11
2539.300600
 21
-3066.079069
 0
LINE
 8
001
 10
2539.300600
 20
-3066.079069
 11
2538.594279
 21
-3066.548416
 0
LINE
 8
001
 10
2538.594279
 20
-3066.548416
 11
2538.594279
 21
-3067.772396
 0
LINE
 8
001
 10
2534.404675
 20
-3067.772396
 11
2538.594279
 21
-3067.772396
 0
LINE
 8
001
 10
2529.341433
 20
-3072.010316
 11
2531.699410
 21
-3072.010316
 0
LINE
 8
001
 10
2531.926311
 20
-3069.937370
 11
2531.699410
 21
-3072.010316
 0
LINE
 8
001
 10
2531.926311
 20
-3069.937370
 11
2524.095165
 21
-3069.937370
 0
LINE
 8
001
 10
2524.095165
 20
-3069.937370
 11
2524.143480
 21
-3072.010316
 0
LINE
 8
001
 10
2524.143480
 20
-3072.010316
 11
2526.639753
 21
-3072.010316
 0
ARC
 8
001
 10
2526.639753
 20
-3072.216988
 40
0.206671
 50
360.000000
 51
90.000000
 0
LINE
 8
001
 10
2526.846425
 20
-3075.658784
 11
2526.846425
 21
-3072.216988
 0
ARC
 8
001
 10
2526.639753
 20
-3075.658784
 40
0.206671
 50
279.350379
 51
360.000000
 0
LINE
 8
001
 10
2523.416894
 20
-3076.398913
 11
2526.673331
 21
-3075.862710
 0
ARC
 8
001
 10
2523.450472
 20
-3076.602838
 40
0.206671
 50
99.350379
 51
192.831758
 0
LINE
 8
001
 10
2523.671831
 20
-3078.505240
 11
2523.248962
 21
-3076.648738
 0
LINE
 8
001
 10
2532.145372
 20
-3076.952255
 11
2532.103046
 21
-3075.220936
 0
ARC
 8
001
 10
2531.896436
 20
-3075.225987
 40
0.206671
 50
1.400450
 51
101.117372
 0
LINE
 8
001
 10
2529.462736
 20
-3075.493603
 11
2531.856586
 21
-3075.023194
 0
LINE
 8
001
 10
2529.131433
 20
-3075.256629
 11
2529.462736
 21
-3075.493603
 0
ARC
 8
001
 10
2529.341433
 20
-3072.220316
 40
0.210000
 50
90.000000
 51
180.000000
 0
LINE
 8
001
 10
2529.131433
 20
-3075.256629
 11
2529.131433
 21
-3072.220316
 0
LINE
 8
001
 10
2517.949153
 20
-3071.478598
 11
2521.563732
 21
-3071.478598
 0
LINE
 8
001
 10
2521.563732
 20
-3071.478598
 11
2521.563732
 21
-3069.407954
 0
LINE
 8
001
 10
2517.367292
 20
-3069.407954
 11
2521.563732
 21
-3069.407954
 0
LINE
 8
001
 10
2517.374128
 20
-3067.900986
 11
2517.374128
 21
-3069.407954
 0
LINE
 8
001
 10
2521.140402
 20
-3067.900986
 11
2517.374128
 21
-3067.900986
 0
LINE
 8
001
 10
2521.140402
 20
-3065.689997
 11
2521.140402
 21
-3067.900986
 0
LINE
 8
001
 10
2521.140402
 20
-3065.689997
 11
2517.374128
 21
-3065.689997
 0
LINE
 8
001
 10
2517.374128
 20
-3063.253539
 11
2517.374128
 21
-3065.689997
 0
LINE
 8
001
 10
2517.374128
 20
-3063.253539
 11
2515.160839
 21
-3063.253539
 0
LINE
 8
001
 10
2515.160839
 20
-3063.253539
 11
2515.160839
 21
-3065.689997
 0
LINE
 8
001
 10
2515.160839
 20
-3065.689997
 11
2514.125516
 21
-3065.689997
 0
LINE
 8
001
 10
2514.314175
 20
-3064.417701
 11
2514.125516
 21
-3065.689997
 0
LINE
 8
001
 10
2512.383876
 20
-3063.900040
 11
2514.314175
 21
-3064.417701
 0
ARC
 8
001
 10
2500.161428
 20
-3061.890734
 40
12.386506
 50
332.040999
 51
350.664379
 0
LINE
 8
001
 10
2512.666864
 20
-3069.313625
 11
2511.102223
 21
-3067.698019
 0
LINE
 8
001
 10
2513.324869
 20
-3067.900986
 11
2512.666864
 21
-3069.313625
 0
LINE
 8
001
 10
2515.160839
 20
-3067.900986
 11
2513.324869
 21
-3067.900986
 0
LINE
 8
001
 10
2515.160839
 20
-3067.900986
 11
2515.160839
 21
-3069.407954
 0
LINE
 8
001
 10
2511.734707
 20
-3069.407954
 11
2515.160839
 21
-3069.407954
 0
LINE
 8
001
 10
2511.734707
 20
-3071.478598
 11
2511.734707
 21
-3069.407954
 0
LINE
 8
001
 10
2511.734707
 20
-3071.478598
 11
2514.368666
 21
-3071.478598
 0
ARC
 8
001
 10
2480.627122
 20
-3051.066435
 40
39.435367
 50
318.725140
 51
328.827890
 0
LINE
 8
001
 10
2511.725871
 20
-3078.822485
 11
2510.264916
 21
-3077.080841
 0
ARC
 8
001
 10
2494.123627
 20
-3062.673259
 40
23.887999
 50
317.465092
 51
331.722116
 0
LINE
 8
001
 10
2515.160839
 20
-3073.990158
 11
2515.160839
 21
-3079.199801
 0
LINE
 8
001
 10
2517.374128
 20
-3074.064578
 11
2517.374128
 21
-3079.199801
 0
ARC
 8
001
 10
2540.760910
 20
-3062.439041
 40
26.116943
 50
206.431907
 51
218.059213
 0
LINE
 8
001
 10
2521.658064
 20
-3076.326208
 11
2520.197107
 21
-3078.539497
 0
ARC
 8
001
 10
2552.040265
 20
-3049.238105
 40
40.704342
 50
213.119784
 51
221.719496
 0
LINE
 8
001
 10
2511.677555
 20
-3071.289940
 11
2510.688247
 21
-3073.597558
 0
LINE
 8
001
 10
2510.688247
 20
-3073.597558
 11
2509.606911
 21
-3072.608250
 0
LINE
 8
001
 10
2509.606911
 20
-3072.608250
 11
2509.606911
 21
-3079.199801
 0
LINE
 8
001
 10
2507.487951
 20
-3072.983851
 11
2507.487951
 21
-3079.199801
 0
ARC
 8
001
 10
2502.849442
 20
-3072.494501
 40
4.664250
 50
312.174551
 51
353.977728
 0
LINE
 8
001
 10
2505.039987
 20
-3073.549243
 11
2505.980980
 21
-3075.951190
 0
ARC
 8
001
 10
2487.286278
 20
-3063.574081
 40
20.364136
 50
330.669957
 51
345.690415
 0
LINE
 8
001
 10
2505.417307
 20
-3068.607304
 11
2507.018604
 21
-3068.607304
 0
LINE
 8
001
 10
2505.417307
 20
-3066.536661
 11
2505.417307
 21
-3068.607304
 0
LINE
 8
001
 10
2505.417307
 20
-3066.536661
 11
2507.487951
 21
-3066.536661
 0
LINE
 8
001
 10
2507.487951
 20
-3063.253539
 11
2507.487951
 21
-3066.536661
 0
LINE
 8
001
 10
2507.487951
 20
-3063.253539
 11
2509.606911
 21
-3063.253539
 0
LINE
 8
001
 10
2509.606911
 20
-3063.253539
 11
2509.606911
 21
-3066.536661
 0
LINE
 8
001
 10
2509.606911
 20
-3066.536661
 11
2511.065563
 21
-3066.536661
 0
LINE
 8
001
 10
2511.065563
 20
-3066.536661
 11
2511.065563
 21
-3068.607304
 0
LINE
 8
001
 10
2509.606911
 20
-3068.607304
 11
2511.065563
 21
-3068.607304
 0
ARC
 8
001
 10
2518.867175
 20
-3063.600042
 40
10.527353
 50
208.401223
 51
226.925669
 0
LINE
 8
001
 10
2565.379216
 20
-3066.614745
 11
2565.379216
 21
-3068.317521
 0
CIRCLE
 8
001
 10
2636.461196
 20
-3074.204430
 40
0.700000
 0
LINE
 8
001
 10
2523.671831
 20
-3078.505240
 11
2532.145372
 21
-3076.952255
 0
LINE
 8
001
 10
2563.193930
 20
-3079.351904
 11
2561.490612
 21
-3079.351904
 0
ARC
 8
001
 10
2561.490612
 20
-3079.145232
 40
0.206671
 50
180.000000
 51
270.000000
 0
ARC
 8
001
 10
2563.193930
 20
-3079.145232
 40
0.206671
 50
270.000000
 51
360.000000
 0
LINE
 8
001
 10
2583.278526
 20
-3079.139840
 11
2578.256737
 21
-3079.139840
 0
LINE
 8
001
 10
2594.923850
 20
-3079.139840
 11
2599.656548
 21
-3079.139840
 0
LINE
 8
001
 10
2639.113852
 20
-3079.271709
 11
2634.417689
 21
-3079.271709
 0
LINE
 8
001
 10
2666.578056
 20
-3079.271709
 11
2655.508352
 21
-3079.271709
 0
LINE
 8
001
 10
2515.160839
 20
-3079.199801
 11
2517.374128
 21
-3079.199801
 0
LINE
 8
001
 10
2507.487951
 20
-3079.199801
 11
2509.606911
 21
-3079.199801
 0
LINE
 8
001
 10
1533.966891
 20
-2518.584157
 11
1534.626104
 21
-2518.584157
 0
LINE
 8
001
 10
1531.968890
 20
-2518.584157
 11
1533.966891
 21
-2518.584157
 0
LINE
 8
001
 10
1528.768248
 20
-2518.584157
 11
1531.968890
 21
-2518.584157
 0
LINE
 8
001
 10
1524.583727
 20
-2518.584157
 11
1528.768248
 21
-2518.584157
 0
LINE
 8
001
 10
1519.701309
 20
-2518.584157
 11
1524.583727
 21
-2518.584157
 0
LINE
 8
001
 10
1514.450117
 20
-2518.584157
 11
1519.701309
 21
-2518.584157
 0
LINE
 8
001
 10
1231.203233
 20
-2518.584157
 11
1236.376104
 21
-2518.584157
 0
LINE
 8
001
 10
1226.305014
 20
-2518.584157
 11
1231.203233
 21
-2518.584157
 0
LINE
 8
001
 10
1222.095256
 20
-2518.584157
 11
1226.305014
 21
-2518.584157
 0
LINE
 8
001
 10
1218.844496
 20
-2518.584157
 11
1222.095256
 21
-2518.584157
 0
LINE
 8
001
 10
1216.829036
 20
-2518.584157
 11
1218.844496
 21
-2518.584157
 0
LINE
 8
001
 10
1216.126104
 20
-2518.584157
 11
1216.829036
 21
-2518.584157
 0
ARC
 8
001
 10
1533.637009
 20
-2517.484871
 40
2.500000
 50
206.260584
 51
237.109994
 0
ARC
 8
001
 10
1217.115199
 20
-2517.484871
 40
2.500000
 50
302.890006
 51
333.764420
 0
LINE
 8
006
 62
5
 10
1508.172927
 20
-2529.784157
 11
1516.076104
 21
-2529.784157
 0
LINE
 8
006
 62
5
 10
1515.876104
 20
-2530.584157
 11
1508.368287
 21
-2530.584157
 0
LINE
 8
006
 62
5
 10
1506.376104
 20
-2545.584157
 11
1507.176104
 21
-2545.584157
 0
LINE
 8
006
 62
5
 10
1516.876104
 20
-2529.584157
 11
1516.876104
 21
-2519.584157
 0
LINE
 8
006
 62
5
 10
1506.376104
 20
-2533.284157
 11
1506.376104
 21
-2545.584157
 0
LINE
 8
006
 62
5
 10
1507.176104
 20
-2545.584157
 11
1507.176104
 21
-2532.954411
 0
LINE
 8
006
 62
5
 10
1516.076104
 20
-2519.584157
 11
1516.076104
 21
-2529.784157
 0
ARC
 8
006
 62
5
 10
1515.876104
 20
-2529.584157
 40
1.000000
 50
270.000000
 51
0.000000
 0
LINE
 8
006
 62
5
 10
1243.376104
 20
-2529.784157
 11
1234.676104
 21
-2529.784157
 0
LINE
 8
006
 62
5
 10
1234.876104
 20
-2530.584157
 11
1243.576104
 21
-2530.584157
 0
LINE
 8
006
 62
5
 10
1244.376104
 20
-2545.584157
 11
1243.576104
 21
-2545.584157
 0
LINE
 8
006
 62
5
 10
1233.876104
 20
-2529.584157
 11
1233.876104
 21
-2519.584157
 0
LINE
 8
006
 62
5
 10
1244.376104
 20
-2530.784157
 11
1244.376104
 21
-2545.584157
 0
LINE
 8
006
 62
5
 10
1243.576104
 20
-2545.584157
 11
1243.576104
 21
-2530.584157
 0
LINE
 8
006
 62
5
 10
1234.676104
 20
-2519.584157
 11
1234.676104
 21
-2529.784157
 0
ARC
 8
006
 62
5
 10
1234.876104
 20
-2529.584157
 40
1.000000
 50
180.000000
 51
270.000000
 0
ARC
 8
006
 62
5
 10
1243.376104
 20
-2530.784157
 40
1.000000
 50
0.000000
 51
90.000000
 0
LINE
 8
006
 62
5
 10
1351.376104
 20
-2519.584157
 11
1351.376104
 21
-2543.584157
 0
LINE
 8
006
 62
5
 10
1273.376104
 20
-2545.584157
 11
1349.376104
 21
-2545.584157
 0
LINE
 8
006
 62
5
 10
1271.376104
 20
-2530.584157
 11
1351.376104
 21
-2530.584157
 0
ARC
 8
006
 62
5
 10
1349.376104
 20
-2543.584157
 40
2.000000
 50
270.000000
 51
0.000000
 0
ARC
 8
006
 62
5
 10
1273.376104
 20
-2543.584157
 40
2.000000
 50
180.000000
 51
270.000000
 0
LINE
 8
006
 62
5
 10
1271.376104
 20
-2543.584157
 11
1271.376104
 21
-2519.584157
 0
LINE
 8
006
 62
5
 10
1975.857905
 20
-2519.584157
 11
1975.857905
 21
-2543.584157
 0
LINE
 8
006
 62
5
 10
2053.857905
 20
-2545.584157
 11
1977.857905
 21
-2545.584157
 0
LINE
 8
006
 62
5
 10
2055.857905
 20
-2530.584157
 11
1975.857905
 21
-2530.584157
 0
ARC
 8
006
 62
5
 10
1977.857905
 20
-2543.584157
 40
2.000000
 50
180.000000
 51
270.000000
 0
LINE
 8
006
 6
DASHED
 62
5
 10
2055.857905
 20
-2529.784157
 11
1975.857905
 21
-2529.784157
 0
ARC
 8
006
 62
5
 10
2053.857905
 20
-2543.584157
 40
2.000000
 50
270.000000
 51
0.000000
 0
LINE
 8
006
 62
5
 10
2055.857905
 20
-2543.584157
 11
2055.857905
 21
-2519.584157
 0
LINE
 8
006
 62
5
 10
1863.857905
 20
-2529.584157
 11
1863.857905
 21
-2519.584157
 0
LINE
 8
006
 62
5
 10
1864.657905
 20
-2519.584157
 11
1864.657905
 21
-2529.784157
 0
ARC
 8
006
 62
5
 10
1864.857905
 20
-2529.584157
 40
1.000000
 50
180.000000
 51
270.000000
 0
LINE
 8
006
 62
5
 10
1864.857905
 20
-2530.584157
 11
1872.365721
 21
-2530.584157
 0
LINE
 8
006
 62
5
 10
1872.561081
 20
-2529.784157
 11
1864.657905
 21
-2529.784157
 0
LINE
 8
006
 62
5
 10
1873.557905
 20
-2545.584157
 11
1873.557905
 21
-2532.954411
 0
LINE
 8
006
 62
5
 10
1874.357905
 20
-2533.284157
 11
1874.357905
 21
-2545.584157
 0
LINE
 8
006
 62
5
 10
1874.357905
 20
-2545.584157
 11
1873.557905
 21
-2545.584157
 0
LINE
 8
006
 62
5
 10
2166.857905
 20
-2530.584157
 11
2158.157905
 21
-2530.584157
 0
LINE
 8
006
 62
5
 10
2158.157905
 20
-2529.784157
 11
2167.057905
 21
-2529.784157
 0
ARC
 8
006
 62
5
 10
2166.857905
 20
-2529.584157
 40
1.000000
 50
270.000000
 51
0.000000
 0
LINE
 8
006
 62
5
 10
2167.057905
 20
-2519.584157
 11
2167.057905
 21
-2529.784157
 0
LINE
 8
006
 62
5
 10
2167.857905
 20
-2529.584157
 11
2167.857905
 21
-2519.584157
 0
LINE
 8
006
 62
5
 10
2158.157905
 20
-2545.584157
 11
2158.157905
 21
-2530.584157
 0
LINE
 8
006
 62
5
 10
2157.357905
 20
-2530.584157
 11
2157.357905
 21
-2545.584157
 0
LINE
 8
006
 62
5
 10
2157.357905
 20
-2545.584157
 11
2158.157905
 21
-2545.584157
 0
ARC
 8
006
 62
5
 10
2158.157905
 20
-2530.584157
 40
0.800000
 50
90.000000
 51
180.000000
 0
LINE
 8
011
 62
9
 10
2905.614746
 20
-3086.299316
 11
2905.614746
 21
-1704.299316
 0
LINE
 8
011
 62
4
 10
2360.316468
 20
-3035.354585
 11
2370.214260
 21
-3035.354585
 0
LINE
 8
011
 62
4
 10
2426.773076
 20
-3035.354585
 11
2416.875283
 21
-3035.354585
 0
LINE
 8
011
 62
4
 10
2360.316468
 20
-3034.294107
 11
2369.153783
 21
-3034.294107
 0
LINE
 8
011
 62
4
 10
2425.712598
 20
-3034.294107
 11
2416.875283
 21
-3034.294107
 0
LINE
 8
011
 62
4
 10
2360.316468
 20
-3034.647599
 11
2369.507275
 21
-3034.647599
 0
LINE
 8
011
 62
4
 10
2360.316468
 20
-3033.940614
 11
2368.800290
 21
-3033.940614
 0
LINE
 8
011
 62
4
 10
2426.066091
 20
-3034.647599
 11
2416.875283
 21
-3034.647599
 0
LINE
 8
011
 62
4
 10
2425.359105
 20
-3033.940614
 11
2416.875283
 21
-3033.940614
 0
LINE
 8
011
 62
4
 10
2360.316468
 20
-3035.001092
 11
2369.860768
 21
-3035.001092
 0
LINE
 8
011
 62
4
 10
2360.316468
 20
-3033.587122
 11
2368.446797
 21
-3033.587122
 0
LINE
 8
011
 62
4
 10
2425.005613
 20
-3033.587122
 11
2416.875283
 21
-3033.587122
 0
LINE
 8
011
 62
4
 10
2426.419583
 20
-3035.001092
 11
2416.875283
 21
-3035.001092
 0
LINE
 8
011
 62
3
 10
2304.467118
 20
-3035.367671
 11
2292.419856
 21
-3035.367671
 0
LINE
 8
011
 62
3
 10
2327.478745
 20
-3035.367671
 11
2316.514383
 21
-3035.367671
 0
LINE
 8
011
 62
3
 10
2316.514383
 20
-3035.367671
 11
2328.561644
 21
-3035.367671
 0
LINE
 8
011
 62
9
 10
2275.614746
 20
-2911.299316
 11
2905.614746
 21
-2911.299316
 0
LINE
 8
011
 62
9
 10
2275.614746
 20
-3086.299316
 11
2275.614746
 21
-2911.299316
 0
LINE
 8
011
 62
4
 10
2341.934853
 20
-3020.154403
 11
2350.418675
 21
-3020.154403
 0
LINE
 8
011
 62
4
 10
2341.934853
 20
-3018.033447
 11
2350.418675
 21
-3018.033447
 0
LINE
 8
011
 62
4
 10
2367.386320
 20
-3010.610103
 11
2357.488527
 21
-3010.610103
 0
LINE
 8
011
 62
4
 10
2367.386320
 20
-3008.489147
 11
2357.488527
 21
-3008.489147
 0
ARC
 8
011
 62
4
 10
2367.386320
 20
-3011.317088
 40
2.827941
 50
0.000000
 51
89.999995
 0
LINE
 8
011
 62
4
 10
2360.316468
 20
-3018.033447
 11
2365.618857
 21
-3018.033447
 0
LINE
 8
011
 62
4
 10
2360.316468
 20
-3020.154403
 11
2365.618857
 21
-3020.154403
 0
ARC
 8
011
 62
4
 10
2360.316468
 20
-3020.861388
 40
2.827941
 50
90.000000
 51
179.999999
 0
ARC
 8
011
 62
4
 10
2367.386320
 20
-3011.317088
 40
0.706985
 50
0.000000
 51
90.000004
 0
LINE
 8
011
 62
4
 10
2357.488527
 20
-3032.526644
 11
2357.488527
 21
-3020.861388
 0
ARC
 8
011
 62
4
 10
2360.316468
 20
-3020.861388
 40
0.706985
 50
90.000000
 51
180.000001
 0
LINE
 8
011
 62
4
 10
2359.609482
 20
-3032.526644
 11
2359.609482
 21
-3020.861388
 0
LINE
 8
011
 62
4
 10
2387.888890
 20
-3017.326462
 11
2387.888890
 21
-3011.317088
 0
ARC
 8
011
 62
4
 10
2385.060949
 20
-3017.326462
 40
2.827941
 50
270.000000
 51
0.000000
 0
LINE
 8
011
 62
4
 10
2382.674475
 20
-3020.154403
 11
2385.060949
 21
-3020.154403
 0
LINE
 8
011
 62
4
 10
2379.617236
 20
-3018.033447
 11
2385.060949
 21
-3018.033447
 0
ARC
 8
011
 62
4
 10
2385.060949
 20
-3017.326462
 40
0.706985
 50
270.000000
 51
0.000000
 0
LINE
 8
011
 62
4
 10
2385.767935
 20
-3017.326462
 11
2385.767935
 21
-3011.317088
 0
ARC
 8
011
 62
4
 10
2385.060949
 20
-3011.317088
 40
2.827941
 50
0.000000
 51
89.999995
 0
LINE
 8
011
 62
4
 10
2385.060949
 20
-3008.489147
 11
2375.163157
 21
-3008.489147
 0
LINE
 8
011
 62
4
 10
2385.060949
 20
-3010.610103
 11
2377.284112
 21
-3010.610103
 0
ARC
 8
011
 62
4
 10
2385.060949
 20
-3011.317088
 40
0.706985
 50
0.000000
 51
89.999992
 0
LINE
 8
011
 62
4
 10
2406.270505
 20
-3008.489147
 11
2399.200653
 21
-3008.489147
 0
ARC
 8
011
 62
4
 10
2406.270505
 20
-3011.317088
 40
2.827941
 50
0.000000
 51
89.999995
 0
LINE
 8
011
 62
4
 10
2406.270505
 20
-3010.610103
 11
2399.200653
 21
-3010.610103
 0
ARC
 8
011
 62
4
 10
2406.270505
 20
-3011.317088
 40
0.706985
 50
0.000000
 51
89.999992
 0
LINE
 8
011
 62
4
 10
2399.200653
 20
-3010.610103
 11
2394.958742
 21
-3010.610103
 0
LINE
 8
011
 62
4
 10
2399.200653
 20
-3008.489147
 11
2392.837786
 21
-3008.489147
 0
ARC
 8
011
 62
4
 10
2399.200653
 20
-3011.317088
 40
2.827941
 50
0.000000
 51
14.477507
 0
ARC
 8
011
 62
4
 10
2399.200653
 20
-3011.317088
 40
0.706985
 50
0.000000
 51
89.999992
 0
LINE
 8
011
 62
4
 10
2423.945135
 20
-3008.489147
 11
2414.400835
 21
-3008.489147
 0
ARC
 8
011
 62
4
 10
2416.875283
 20
-3020.861388
 40
2.827941
 50
90.000000
 51
179.999999
 0
LINE
 8
011
 62
4
 10
2414.047342
 20
-3020.861388
 11
2414.047342
 21
-3032.526644
 0
LINE
 8
011
 62
4
 10
2416.875283
 20
-3018.033447
 11
2422.177672
 21
-3018.033447
 0
ARC
 8
011
 62
4
 10
2423.945135
 20
-3011.317088
 40
2.827941
 50
0.000000
 51
89.999995
 0
LINE
 8
011
 62
4
 10
2441.619765
 20
-3010.610103
 11
2433.842928
 21
-3010.610103
 0
LINE
 8
011
 62
4
 10
2441.619765
 20
-3008.489147
 11
2431.721972
 21
-3008.489147
 0
ARC
 8
011
 62
4
 10
2441.619765
 20
-3011.317088
 40
2.827941
 50
0.000000
 51
89.999995
 0
ARC
 8
011
 62
4
 10
2441.619765
 20
-3011.317088
 40
0.706985
 50
0.000000
 51
89.999992
 0
LINE
 8
011
 62
4
 10
2341.934853
 20
-3019.093925
 11
2350.418675
 21
-3019.093925
 0
LINE
 8
011
 62
4
 10
2367.386320
 20
-3009.549625
 11
2357.488527
 21
-3009.549625
 0
LINE
 8
011
 62
4
 10
2360.316468
 20
-3019.093925
 11
2365.618857
 21
-3019.093925
 0
LINE
 8
011
 62
4
 10
2358.549005
 20
-3032.526644
 11
2358.549005
 21
-3020.861388
 0
LINE
 8
011
 62
4
 10
2385.060949
 20
-3009.549625
 11
2376.223634
 21
-3009.549625
 0
LINE
 8
011
 62
4
 10
2386.828412
 20
-3017.326462
 11
2386.828412
 21
-3011.317088
 0
LINE
 8
011
 62
4
 10
2381.145855
 20
-3019.093925
 11
2385.060949
 21
-3019.093925
 0
LINE
 8
011
 62
4
 10
2399.200653
 20
-3009.549625
 11
2393.898264
 21
-3009.549625
 0
LINE
 8
011
 62
4
 10
2406.270505
 20
-3009.549625
 11
2399.200653
 21
-3009.549625
 0
LINE
 8
011
 62
4
 10
2423.945135
 20
-3009.549625
 11
2414.400835
 21
-3009.549625
 0
LINE
 8
011
 62
4
 10
2416.875283
 20
-3019.093925
 11
2422.177672
 21
-3019.093925
 0
LINE
 8
011
 62
4
 10
2415.107820
 20
-3020.861388
 11
2415.107820
 21
-3032.526644
 0
LINE
 8
011
 62
4
 10
2441.619765
 20
-3009.549625
 11
2432.782450
 21
-3009.549625
 0
ARC
 8
011
 62
4
 10
2367.386320
 20
-3011.317088
 40
1.767463
 50
0.000000
 51
90.000000
 0
ARC
 8
011
 62
4
 10
2360.316468
 20
-3020.861388
 40
1.767463
 50
90.000000
 51
180.000000
 0
ARC
 8
011
 62
4
 10
2385.060949
 20
-3011.317088
 40
1.767463
 50
0.000000
 51
90.000000
 0
ARC
 8
011
 62
4
 10
2385.060949
 20
-3017.326462
 40
1.767463
 50
270.000000
 51
0.000000
 0
ARC
 8
011
 62
4
 10
2399.200653
 20
-3011.317088
 40
1.767463
 50
0.000000
 51
23.578178
 0
ARC
 8
011
 62
4
 10
2406.270505
 20
-3011.317088
 40
1.767463
 50
0.000000
 51
90.000000
 0
ARC
 8
011
 62
4
 10
2423.945135
 20
-3011.317088
 40
1.767463
 50
0.000000
 51
90.000000
 0
ARC
 8
011
 62
4
 10
2416.875283
 20
-3020.861388
 40
1.767463
 50
90.000000
 51
180.000000
 0
ARC
 8
011
 62
4
 10
2441.619765
 20
-3011.317088
 40
1.767463
 50
0.000000
 51
90.000000
 0
LINE
 8
011
 62
4
 10
2341.934853
 20
-3018.740433
 11
2350.418675
 21
-3018.740433
 0
LINE
 8
011
 62
4
 10
2341.934853
 20
-3019.447418
 11
2350.418675
 21
-3019.447418
 0
LINE
 8
011
 62
4
 10
2367.386320
 20
-3009.196133
 11
2357.488527
 21
-3009.196133
 0
ARC
 8
011
 62
4
 10
2367.386320
 20
-3011.317088
 40
2.120956
 50
0.000000
 51
89.999995
 0
LINE
 8
011
 62
4
 10
2358.195512
 20
-3032.526644
 11
2358.195512
 21
-3020.861388
 0
ARC
 8
011
 62
4
 10
2360.316468
 20
-3020.861388
 40
2.120956
 50
90.000000
 51
180.000000
 0
LINE
 8
011
 62
4
 10
2360.316468
 20
-3018.740433
 11
2365.618857
 21
-3018.740433
 0
LINE
 8
011
 62
4
 10
2367.386320
 20
-3009.903118
 11
2357.488527
 21
-3009.903118
 0
ARC
 8
011
 62
4
 10
2367.386320
 20
-3011.317088
 40
1.413970
 50
0.000000
 51
89.999995
 0
LINE
 8
011
 62
4
 10
2358.902497
 20
-3032.526644
 11
2358.902497
 21
-3020.861388
 0
ARC
 8
011
 62
4
 10
2360.316468
 20
-3020.861388
 40
1.413970
 50
90.000000
 51
180.000000
 0
LINE
 8
011
 62
4
 10
2360.316468
 20
-3019.447418
 11
2365.618857
 21
-3019.447418
 0
LINE
 8
011
 62
4
 10
2385.060949
 20
-3009.196133
 11
2375.870142
 21
-3009.196133
 0
ARC
 8
011
 62
4
 10
2385.060949
 20
-3011.317088
 40
2.120956
 50
0.000000
 51
89.999995
 0
LINE
 8
011
 62
4
 10
2387.181905
 20
-3017.326462
 11
2387.181905
 21
-3011.317088
 0
ARC
 8
011
 62
4
 10
2385.060949
 20
-3017.326462
 40
2.120956
 50
270.000000
 51
0.000000
 0
LINE
 8
011
 62
4
 10
2381.655395
 20
-3019.447418
 11
2385.060949
 21
-3019.447418
 0
LINE
 8
011
 62
4
 10
2385.060949
 20
-3009.903118
 11
2376.577127
 21
-3009.903118
 0
ARC
 8
011
 62
4
 10
2385.060949
 20
-3011.317088
 40
1.413970
 50
0.000000
 51
89.999995
 0
LINE
 8
011
 62
4
 10
2386.474920
 20
-3017.326462
 11
2386.474920
 21
-3011.317088
 0
ARC
 8
011
 62
4
 10
2385.060949
 20
-3017.326462
 40
1.413970
 50
270.000000
 51
0.000000
 0
LINE
 8
011
 62
4
 10
2380.636315
 20
-3018.740433
 11
2385.060949
 21
-3018.740433
 0
LINE
 8
011
 62
4
 10
2399.200653
 20
-3009.903118
 11
2394.251757
 21
-3009.903118
 0
ARC
 8
011
 62
4
 10
2399.200653
 20
-3011.317088
 40
1.413970
 50
0.000000
 51
30.000000
 0
LINE
 8
011
 62
4
 10
2406.270505
 20
-3009.903118
 11
2399.200653
 21
-3009.903118
 0
ARC
 8
011
 62
4
 10
2406.270505
 20
-3011.317088
 40
1.413970
 50
0.000000
 51
89.999995
 0
LINE
 8
011
 62
4
 10
2399.200653
 20
-3009.196133
 11
2393.544772
 21
-3009.196133
 0
LINE
 8
011
 62
4
 10
2406.270505
 20
-3009.196133
 11
2399.200653
 21
-3009.196133
 0
ARC
 8
011
 62
4
 10
2406.270505
 20
-3011.317088
 40
2.120956
 50
0.000000
 51
89.999995
 0
ARC
 8
011
 62
4
 10
2399.200653
 20
-3011.317088
 40
2.120956
 50
0.000000
 51
19.471216
 0
LINE
 8
011
 62
4
 10
2423.945135
 20
-3009.196133
 11
2414.400835
 21
-3009.196133
 0
ARC
 8
011
 62
4
 10
2423.945135
 20
-3011.317088
 40
2.120956
 50
0.000000
 51
89.999995
 0
LINE
 8
011
 62
4
 10
2414.754327
 20
-3020.861388
 11
2414.754327
 21
-3032.526644
 0
ARC
 8
011
 62
4
 10
2416.875283
 20
-3020.861388
 40
2.120956
 50
90.000000
 51
180.000000
 0
LINE
 8
011
 62
4
 10
2416.875283
 20
-3018.740433
 11
2422.177672
 21
-3018.740433
 0
LINE
 8
011
 62
4
 10
2416.875283
 20
-3019.447418
 11
2422.177672
 21
-3019.447418
 0
ARC
 8
011
 62
4
 10
2416.875283
 20
-3020.861388
 40
1.413970
 50
90.000000
 51
180.000000
 0
LINE
 8
011
 62
4
 10
2415.461313
 20
-3020.861388
 11
2415.461313
 21
-3032.526644
 0
ARC
 8
011
 62
4
 10
2423.945135
 20
-3011.317088
 40
1.413970
 50
0.000000
 51
90.000005
 0
LINE
 8
011
 62
4
 10
2423.945135
 20
-3009.903118
 11
2414.400835
 21
-3009.903118
 0
LINE
 8
011
 62
4
 10
2441.619765
 20
-3009.903118
 11
2433.135942
 21
-3009.903118
 0
ARC
 8
011
 62
4
 10
2441.619765
 20
-3011.317088
 40
1.413970
 50
0.000000
 51
89.999995
 0
LINE
 8
011
 62
4
 10
2441.619765
 20
-3009.196133
 11
2432.428957
 21
-3009.196133
 0
ARC
 8
011
 62
4
 10
2441.619765
 20
-3011.317088
 40
2.120956
 50
0.000000
 51
89.999995
 0
LINE
 8
011
 62
4
 10
2341.934853
 20
-3018.386940
 11
2350.418675
 21
-3018.386940
 0
LINE
 8
011
 62
4
 10
2341.934853
 20
-3019.800910
 11
2350.418675
 21
-3019.800910
 0
LINE
 8
011
 62
4
 10
2360.316468
 20
-3018.386940
 11
2365.618857
 21
-3018.386940
 0
ARC
 8
011
 62
4
 10
2360.316468
 20
-3020.861388
 40
2.474448
 50
90.000000
 51
180.000001
 0
LINE
 8
011
 62
4
 10
2357.842019
 20
-3032.526644
 11
2357.842019
 21
-3020.861388
 0
ARC
 8
011
 62
4
 10
2367.386320
 20
-3011.317088
 40
2.474448
 50
0.000000
 51
90.000003
 0
LINE
 8
011
 62
4
 10
2367.386320
 20
-3008.842640
 11
2357.488527
 21
-3008.842640
 0
LINE
 8
011
 62
4
 10
2367.386320
 20
-3010.256610
 11
2357.488527
 21
-3010.256610
 0
ARC
 8
011
 62
4
 10
2367.386320
 20
-3011.317088
 40
1.060478
 50
0.000000
 51
90.000004
 0
LINE
 8
011
 62
4
 10
2359.255990
 20
-3032.526644
 11
2359.255990
 21
-3020.861388
 0
ARC
 8
011
 62
4
 10
2360.316468
 20
-3020.861388
 40
1.060478
 50
90.000000
 51
180.000000
 0
LINE
 8
011
 62
4
 10
2360.316468
 20
-3019.800910
 11
2365.618857
 21
-3019.800910
 0
LINE
 8
011
 62
4
 10
2385.060949
 20
-3008.842640
 11
2375.516649
 21
-3008.842640
 0
ARC
 8
011
 62
4
 10
2385.060949
 20
-3011.317088
 40
2.474448
 50
0.000000
 51
90.000003
 0
LINE
 8
011
 62
4
 10
2387.535398
 20
-3017.326462
 11
2387.535398
 21
-3011.317088
 0
ARC
 8
011
 62
4
 10
2385.060949
 20
-3017.326462
 40
2.474448
 50
270.000000
 51
0.000000
 0
LINE
 8
011
 62
4
 10
2382.164935
 20
-3019.800910
 11
2385.060949
 21
-3019.800910
 0
LINE
 8
011
 62
4
 10
2380.126776
 20
-3018.386940
 11
2385.060949
 21
-3018.386940
 0
ARC
 8
011
 62
4
 10
2385.060949
 20
-3017.326462
 40
1.060478
 50
270.000000
 51
0.000000
 0
LINE
 8
011
 62
4
 10
2386.121427
 20
-3017.326462
 11
2386.121427
 21
-3011.317088
 0
ARC
 8
011
 62
4
 10
2385.060949
 20
-3011.317088
 40
1.060478
 50
0.000000
 51
90.000004
 0
LINE
 8
011
 62
4
 10
2385.060949
 20
-3010.256610
 11
2376.930620
 21
-3010.256610
 0
LINE
 8
011
 62
4
 10
2399.200653
 20
-3008.842640
 11
2393.191279
 21
-3008.842640
 0
ARC
 8
011
 62
4
 10
2399.200653
 20
-3011.317088
 40
2.474448
 50
0.000000
 51
16.601553
 0
LINE
 8
011
 62
4
 10
2399.200653
 20
-3010.256610
 11
2394.605249
 21
-3010.256610
 0
ARC
 8
011
 62
4
 10
2399.200653
 20
-3011.317088
 40
1.060478
 50
0.000000
 51
41.810319
 0
LINE
 8
011
 62
4
 10
2406.270505
 20
-3008.842640
 11
2399.200653
 21
-3008.842640
 0
ARC
 8
011
 62
4
 10
2406.270505
 20
-3011.317088
 40
2.474448
 50
0.000000
 51
90.000003
 0
LINE
 8
011
 62
4
 10
2406.270505
 20
-3010.256610
 11
2399.200653
 21
-3010.256610
 0
ARC
 8
011
 62
4
 10
2406.270505
 20
-3011.317088
 40
1.060478
 50
0.000000
 51
90.000004
 0
LINE
 8
011
 62
4
 10
2423.945135
 20
-3010.256610
 11
2414.400835
 21
-3010.256610
 0
ARC
 8
011
 62
4
 10
2423.945135
 20
-3011.317088
 40
1.060478
 50
0.000000
 51
89.999996
 0
LINE
 8
011
 62
4
 10
2415.814805
 20
-3020.861388
 11
2415.814805
 21
-3032.526644
 0
ARC
 8
011
 62
4
 10
2416.875283
 20
-3020.861388
 40
1.060478
 50
90.000000
 51
180.000000
 0
LINE
 8
011
 62
4
 10
2416.875283
 20
-3019.800910
 11
2422.177672
 21
-3019.800910
 0
LINE
 8
011
 62
4
 10
2416.875283
 20
-3018.386940
 11
2422.177672
 21
-3018.386940
 0
ARC
 8
011
 62
4
 10
2416.875283
 20
-3020.861388
 40
2.474448
 50
90.000000
 51
180.000001
 0
LINE
 8
011
 62
4
 10
2414.400835
 20
-3020.861388
 11
2414.400835
 21
-3032.526644
 0
ARC
 8
011
 62
4
 10
2423.945135
 20
-3011.317088
 40
2.474448
 50
0.000000
 51
90.000003
 0
LINE
 8
011
 62
4
 10
2423.945135
 20
-3008.842640
 11
2414.400835
 21
-3008.842640
 0
LINE
 8
011
 62
4
 10
2441.619765
 20
-3008.842640
 11
2432.075465
 21
-3008.842640
 0
ARC
 8
011
 62
4
 10
2441.619765
 20
-3011.317088
 40
2.474448
 50
0.000000
 51
90.000003
 0
LINE
 8
011
 62
4
 10
2441.619765
 20
-3010.256610
 11
2433.489435
 21
-3010.256610
 0
ARC
 8
011
 62
4
 10
2441.619765
 20
-3011.317088
 40
1.060478
 50
0.000000
 51
90.000004
 0
LINE
 8
011
 62
4
 10
2350.418675
 20
-3008.489147
 11
2350.418675
 21
-3035.354585
 0
LINE
 8
011
 62
4
 10
2352.539631
 20
-3008.489147
 11
2352.539631
 21
-3035.354585
 0
LINE
 8
011
 62
4
 10
2341.934853
 20
-3008.489147
 11
2341.934853
 21
-3035.354585
 0
LINE
 8
011
 62
4
 10
2339.813897
 20
-3008.489147
 11
2339.813897
 21
-3035.354585
 0
LINE
 8
011
 62
4
 10
2368.093305
 20
-3011.317088
 11
2368.093305
 21
-3033.233629
 0
LINE
 8
011
 62
4
 10
2370.214260
 20
-3011.317088
 11
2370.214260
 21
-3035.354585
 0
ARC
 8
011
 62
4
 10
2360.316468
 20
-3032.526644
 40
2.827941
 50
180.000000
 51
270.000000
 0
ARC
 8
011
 62
4
 10
2360.316468
 20
-3032.526644
 40
0.706985
 50
180.000000
 51
270.000000
 0
LINE
 8
011
 62
4
 10
2360.316468
 20
-3033.233629
 11
2368.093305
 21
-3033.233629
 0
LINE
 8
011
 62
4
 10
2375.163157
 20
-3008.489147
 11
2375.163157
 21
-3035.354585
 0
LINE
 8
011
 62
4
 10
2382.674475
 20
-3020.154403
 11
2388.357032
 21
-3035.354585
 0
LINE
 8
011
 62
4
 10
2379.617236
 20
-3018.033447
 11
2386.092707
 21
-3035.354585
 0
LINE
 8
011
 62
4
 10
2377.284112
 20
-3010.610103
 11
2377.284112
 21
-3035.354585
 0
LINE
 8
011
 62
4
 10
2399.907638
 20
-3011.317088
 11
2399.907638
 21
-3035.354585
 0
LINE
 8
011
 62
4
 10
2402.028594
 20
-3011.317088
 11
2402.028594
 21
-3035.354585
 0
LINE
 8
011
 62
4
 10
2406.977490
 20
-3011.317088
 11
2406.977490
 21
-3035.354585
 0
LINE
 8
011
 62
4
 10
2392.837786
 20
-3008.489147
 11
2392.837786
 21
-3035.354585
 0
LINE
 8
011
 62
4
 10
2394.958742
 20
-3010.610103
 11
2394.958742
 21
-3035.354585
 0
LINE
 8
011
 62
4
 10
2409.098446
 20
-3011.317088
 11
2409.098446
 21
-3035.354585
 0
ARC
 8
011
 62
4
 10
2416.875283
 20
-3032.526644
 40
2.827941
 50
180.000000
 51
270.000000
 0
LINE
 8
011
 62
4
 10
2426.773076
 20
-3035.354585
 11
2426.773076
 21
-3011.317088
 0
LINE
 8
011
 62
4
 10
2431.721972
 20
-3008.489147
 11
2431.721972
 21
-3035.354585
 0
LINE
 8
011
 62
4
 10
2433.842928
 20
-3010.610103
 11
2433.842928
 21
-3035.354585
 0
LINE
 8
011
 62
4
 10
2444.447706
 20
-3011.317088
 11
2444.447706
 21
-3035.354585
 0
LINE
 8
011
 62
4
 10
2442.326750
 20
-3011.317088
 11
2442.326750
 21
-3035.354585
 0
LINE
 8
011
 62
4
 10
2340.874375
 20
-3008.489147
 11
2340.874375
 21
-3035.354585
 0
LINE
 8
011
 62
4
 10
2351.479153
 20
-3008.489147
 11
2351.479153
 21
-3035.354585
 0
LINE
 8
011
 62
4
 10
2369.153783
 20
-3011.317088
 11
2369.153783
 21
-3034.294107
 0
LINE
 8
011
 62
4
 10
2376.223634
 20
-3009.549625
 11
2376.223634
 21
-3035.354585
 0
LINE
 8
011
 62
4
 10
2381.145855
 20
-3019.093925
 11
2387.224870
 21
-3035.354585
 0
LINE
 8
011
 62
4
 10
2393.898264
 20
-3009.549625
 11
2393.898264
 21
-3035.354585
 0
LINE
 8
011
 62
4
 10
2400.968116
 20
-3011.317088
 11
2400.968116
 21
-3035.354585
 0
LINE
 8
011
 62
4
 10
2408.037968
 20
-3011.317088
 11
2408.037968
 21
-3035.354585
 0
LINE
 8
011
 62
4
 10
2425.712598
 20
-3034.294107
 11
2425.712598
 21
-3011.317088
 0
LINE
 8
011
 62
4
 10
2432.782450
 20
-3009.549625
 11
2432.782450
 21
-3035.354585
 0
LINE
 8
011
 62
4
 10
2443.387228
 20
-3011.317088
 11
2443.387228
 21
-3035.354585
 0
ARC
 8
011
 62
4
 10
2360.316468
 20
-3032.526644
 40
1.767463
 50
180.000000
 51
270.000000
 0
ARC
 8
011
 62
4
 10
2416.875283
 20
-3032.526644
 40
1.767463
 50
180.000000
 51
270.000000
 0
LINE
 8
011
 62
4
 10
2341.227867
 20
-3008.489147
 11
2341.227867
 21
-3035.354585
 0
LINE
 8
011
 62
4
 10
2340.520882
 20
-3008.489147
 11
2340.520882
 21
-3035.354585
 0
LINE
 8
011
 62
4
 10
2351.125660
 20
-3008.489147
 11
2351.125660
 21
-3035.354585
 0
LINE
 8
011
 62
4
 10
2351.832645
 20
-3008.489147
 11
2351.832645
 21
-3035.354585
 0
LINE
 8
011
 62
4
 10
2369.507275
 20
-3011.317088
 11
2369.507275
 21
-3034.647599
 0
ARC
 8
011
 62
4
 10
2360.316468
 20
-3032.526644
 40
2.120956
 50
180.000000
 51
270.000000
 0
LINE
 8
011
 62
4
 10
2368.800290
 20
-3011.317088
 11
2368.800290
 21
-3033.940614
 0
ARC
 8
011
 62
4
 10
2360.316468
 20
-3032.526644
 40
1.413970
 50
180.000000
 51
270.000000
 0
LINE
 8
011
 62
4
 10
2375.870142
 20
-3009.196133
 11
2375.870142
 21
-3035.354585
 0
LINE
 8
011
 62
4
 10
2381.655395
 20
-3019.447418
 11
2387.602257
 21
-3035.354585
 0
LINE
 8
011
 62
4
 10
2376.577127
 20
-3009.903118
 11
2376.577127
 21
-3035.354585
 0
LINE
 8
011
 62
4
 10
2380.636315
 20
-3018.740433
 11
2386.847482
 21
-3035.354585
 0
LINE
 8
011
 62
4
 10
2394.251757
 20
-3009.903118
 11
2394.251757
 21
-3035.354585
 0
LINE
 8
011
 62
4
 10
2400.614624
 20
-3011.317088
 11
2400.614624
 21
-3035.354585
 0
LINE
 8
011
 62
4
 10
2407.684476
 20
-3011.317088
 11
2407.684476
 21
-3035.354585
 0
LINE
 8
011
 62
4
 10
2393.544772
 20
-3009.196133
 11
2393.544772
 21
-3035.354585
 0
LINE
 8
011
 62
4
 10
2408.391461
 20
-3011.317088
 11
2408.391461
 21
-3035.354585
 0
LINE
 8
011
 62
4
 10
2401.321609
 20
-3011.317088
 11
2401.321609
 21
-3035.354585
 0
LINE
 8
011
 62
4
 10
2426.066091
 20
-3034.647599
 11
2426.066091
 21
-3011.317088
 0
ARC
 8
011
 62
4
 10
2416.875283
 20
-3032.526644
 40
2.120956
 50
180.000000
 51
270.000000
 0
ARC
 8
011
 62
4
 10
2416.875283
 20
-3032.526644
 40
1.413970
 50
180.000000
 51
270.000000
 0
LINE
 8
011
 62
4
 10
2425.359105
 20
-3033.940614
 11
2425.359105
 21
-3011.317088
 0
LINE
 8
011
 62
4
 10
2433.135942
 20
-3009.903118
 11
2433.135942
 21
-3035.354585
 0
LINE
 8
011
 62
4
 10
2443.033735
 20
-3011.317088
 11
2443.033735
 21
-3035.354585
 0
LINE
 8
011
 62
4
 10
2432.428957
 20
-3009.196133
 11
2432.428957
 21
-3035.354585
 0
LINE
 8
011
 62
4
 10
2443.740720
 20
-3011.317088
 11
2443.740720
 21
-3035.354585
 0
LINE
 8
011
 62
4
 10
2340.167390
 20
-3008.489147
 11
2340.167390
 21
-3035.354585
 0
LINE
 8
011
 62
4
 10
2341.581360
 20
-3008.489147
 11
2341.581360
 21
-3035.354585
 0
LINE
 8
011
 62
4
 10
2350.772168
 20
-3008.489147
 11
2350.772168
 21
-3035.354585
 0
LINE
 8
011
 62
4
 10
2352.186138
 20
-3008.489147
 11
2352.186138
 21
-3035.354585
 0
ARC
 8
011
 62
4
 10
2360.316468
 20
-3032.526644
 40
2.474448
 50
180.000000
 51
270.000000
 0
LINE
 8
011
 62
4
 10
2369.860768
 20
-3011.317088
 11
2369.860768
 21
-3035.001092
 0
LINE
 8
011
 62
4
 10
2368.446797
 20
-3011.317088
 11
2368.446797
 21
-3033.587122
 0
ARC
 8
011
 62
4
 10
2360.316468
 20
-3032.526644
 40
1.060478
 50
180.000000
 51
270.000000
 0
LINE
 8
011
 62
4
 10
2375.516649
 20
-3008.842640
 11
2375.516649
 21
-3035.354585
 0
LINE
 8
011
 62
4
 10
2382.164935
 20
-3019.800910
 11
2387.979645
 21
-3035.354585
 0
LINE
 8
011
 62
4
 10
2380.126776
 20
-3018.386940
 11
2386.470095
 21
-3035.354585
 0
LINE
 8
011
 62
4
 10
2376.930620
 20
-3010.256610
 11
2376.930620
 21
-3035.354585
 0
LINE
 8
011
 62
4
 10
2393.191279
 20
-3008.842640
 11
2393.191279
 21
-3035.354585
 0
LINE
 8
011
 62
4
 10
2401.675101
 20
-3011.317088
 11
2401.675101
 21
-3035.354585
 0
LINE
 8
011
 62
4
 10
2394.605249
 20
-3010.256610
 11
2394.605249
 21
-3035.354585
 0
LINE
 8
011
 62
4
 10
2400.261131
 20
-3011.317088
 11
2400.261131
 21
-3035.354585
 0
LINE
 8
011
 62
4
 10
2408.744953
 20
-3011.317088
 11
2408.744953
 21
-3035.354585
 0
LINE
 8
011
 62
4
 10
2407.330983
 20
-3011.317088
 11
2407.330983
 21
-3035.354585
 0
LINE
 8
011
 62
4
 10
2425.005613
 20
-3033.587122
 11
2425.005613
 21
-3011.317088
 0
ARC
 8
011
 62
4
 10
2416.875283
 20
-3032.526644
 40
1.060478
 50
180.000000
 51
270.000000
 0
ARC
 8
011
 62
4
 10
2416.875283
 20
-3032.526644
 40
2.474448
 50
180.000000
 51
270.000000
 0
LINE
 8
011
 62
4
 10
2426.419583
 20
-3035.001092
 11
2426.419583
 21
-3011.317088
 0
LINE
 8
011
 62
4
 10
2432.075465
 20
-3008.842640
 11
2432.075465
 21
-3035.354585
 0
LINE
 8
011
 62
4
 10
2444.094213
 20
-3011.317088
 11
2444.094213
 21
-3035.354585
 0
LINE
 8
011
 62
4
 10
2433.489435
 20
-3010.256610
 11
2433.489435
 21
-3035.354585
 0
LINE
 8
011
 62
4
 10
2442.680243
 20
-3011.317088
 11
2442.680243
 21
-3035.354585
 0
TEXT
 8
011
 62
4
 10
2368.151647
 20
-3005.839190
 40
7.875000
 1
技術のいい関係
 41
0.740741
 7
STANDARD
 0
TEXT
 8
011
 62
4
 10
2338.380647
 20
-3005.839190
 40
7.875000
 1
くらしと
 41
0.740741
 7
STANDARD
 0
LINE
 8
011
 62
3
 10
2292.419856
 20
-2999.667671
 11
2292.419856
 21
-3035.367671
 0
LINE
 8
011
 62
3
 10
2304.467118
 20
-2999.225884
 11
2304.467118
 21
-3035.367671
 0
LINE
 8
011
 62
3
 10
2304.467118
 20
-3023.320409
 11
2316.514383
 21
-3023.320409
 0
ARC
 8
011
 62
3
 10
2301.455303
 20
-3017.296778
 40
6.023631
 50
90.000000
 51
270.000000
 0
LINE
 8
011
 62
3
 10
2304.467118
 20
-3011.273146
 11
2316.514383
 21
-3011.273146
 0
LINE
 8
011
 62
3
 10
2301.455303
 20
-3011.273146
 11
2304.467118
 21
-3011.273146
 0
LINE
 8
011
 62
3
 10
2301.455303
 20
-3023.320409
 11
2304.467118
 21
-3023.320409
 0
LINE
 8
011
 62
3
 10
2319.526197
 20
-3023.320409
 11
2316.514383
 21
-3023.320409
 0
ARC
 8
011
 62
3
 10
2319.526197
 20
-3017.296778
 40
6.023631
 50
270.000000
 51
90.000000
 0
LINE
 8
011
 62
3
 10
2316.514383
 20
-2999.225884
 11
2316.514383
 21
-3035.367671
 0
LINE
 8
011
 62
3
 10
2319.526197
 20
-3011.273146
 11
2316.514383
 21
-3011.273146
 0
LINE
 8
011
 62
3
 10
2328.561644
 20
-2999.225884
 11
2328.561644
 21
-3035.367671
 0
LINE
 8
011
 62
3
 10
2303.780956
 20
-3035.367671
 11
2304.467118
 21
-3034.681510
 0
LINE
 8
011
 62
3
 10
2302.266334
 20
-3035.367671
 11
2304.467118
 21
-3033.166888
 0
LINE
 8
011
 62
3
 10
2300.751711
 20
-3035.367671
 11
2304.467118
 21
-3031.652265
 0
LINE
 8
011
 62
3
 10
2299.237088
 20
-3035.367671
 11
2304.467118
 21
-3030.137642
 0
LINE
 8
011
 62
3
 10
2297.722466
 20
-3035.367671
 11
2304.467118
 21
-3028.623019
 0
LINE
 8
011
 62
3
 10
2296.207843
 20
-3035.367671
 11
2304.467118
 21
-3027.108397
 0
LINE
 8
011
 62
3
 10
2294.693220
 20
-3035.367671
 11
2304.467118
 21
-3025.593774
 0
LINE
 8
011
 62
3
 10
2293.178597
 20
-3035.367671
 11
2304.467118
 21
-3024.079151
 0
LINE
 8
011
 62
3
 10
2292.419856
 20
-3034.611790
 11
2303.711237
 21
-3023.320409
 0
LINE
 8
011
 62
3
 10
2292.419856
 20
-3033.097167
 11
2302.196614
 21
-3023.320409
 0
LINE
 8
011
 62
3
 10
2292.419856
 20
-3031.582544
 11
2300.726271
 21
-3023.276129
 0
LINE
 8
011
 62
3
 10
2292.419856
 20
-3030.067922
 11
2299.495201
 21
-3022.992577
 0
LINE
 8
011
 62
3
 10
2292.419856
 20
-3028.553299
 11
2298.453812
 21
-3022.519343
 0
LINE
 8
011
 62
3
 10
2292.419856
 20
-3027.038676
 11
2297.563850
 21
-3021.894682
 0
LINE
 8
011
 62
3
 10
2292.419856
 20
-3025.524053
 11
2296.811078
 21
-3021.132831
 0
LINE
 8
011
 62
3
 10
2292.419856
 20
-3024.009431
 11
2296.195953
 21
-3020.233334
 0
LINE
 8
011
 62
3
 10
2292.419856
 20
-3022.494808
 11
2295.733882
 21
-3019.180782
 0
LINE
 8
011
 62
3
 10
2303.641518
 20
-3011.273146
 11
2304.467118
 21
-3010.447547
 0
LINE
 8
011
 62
3
 10
2292.419856
 20
-3020.980185
 11
2295.465527
 21
-3017.934515
 0
LINE
 8
011
 62
3
 10
2302.126895
 20
-3011.273146
 11
2304.467118
 21
-3008.932924
 0
LINE
 8
011
 62
3
 10
2292.419856
 20
-3019.465563
 11
2295.501198
 21
-3016.384221
 0
LINE
 8
011
 62
3
 10
2300.542747
 20
-3011.342672
 11
2304.467118
 21
-3007.418301
 0
LINE
 8
011
 62
3
 10
2292.419856
 20
-3017.950940
 11
2296.502701
 21
-3013.868095
 0
LINE
 8
011
 62
3
 10
2298.026621
 20
-3012.344175
 11
2304.467118
 21
-3005.903678
 0
LINE
 8
011
 62
3
 10
2292.419856
 20
-3016.436317
 11
2304.467118
 21
-3004.389056
 0
LINE
 8
011
 62
3
 10
2292.419856
 20
-3014.921694
 11
2304.467118
 21
-3002.874433
 0
LINE
 8
011
 62
3
 10
2292.419856
 20
-3013.407072
 11
2304.467118
 21
-3001.359810
 0
LINE
 8
011
 62
3
 10
2292.419856
 20
-3011.892449
 11
2304.467118
 21
-2999.845188
 0
LINE
 8
011
 62
3
 10
2292.419856
 20
-3010.377826
 11
2303.571799
 21
-2999.225884
 0
LINE
 8
011
 62
3
 10
2292.419856
 20
-3008.863203
 11
2302.057176
 21
-2999.225884
 0
LINE
 8
011
 62
3
 10
2292.419856
 20
-3007.348581
 11
2300.542553
 21
-2999.225884
 0
LINE
 8
011
 62
3
 10
2292.419856
 20
-3005.833958
 11
2299.027930
 21
-2999.225884
 0
LINE
 8
011
 62
3
 10
2292.419856
 20
-3004.319335
 11
2297.513308
 21
-2999.225884
 0
LINE
 8
011
 62
3
 10
2292.419856
 20
-3002.804713
 11
2295.998685
 21
-2999.225884
 0
LINE
 8
011
 62
3
 10
2292.419856
 20
-3001.290090
 11
2294.484062
 21
-2999.225884
 0
LINE
 8
011
 62
3
 10
2292.419856
 20
-2999.775467
 11
2292.969439
 21
-2999.225884
 0
LINE
 8
011
 62
3
 10
2315.828219
 20
-3023.320409
 11
2316.514383
 21
-3022.634245
 0
LINE
 8
011
 62
3
 10
2314.313596
 20
-3023.320409
 11
2316.514383
 21
-3021.119623
 0
LINE
 8
011
 62
3
 10
2312.798973
 20
-3023.320409
 11
2316.514383
 21
-3019.605000
 0
LINE
 8
011
 62
3
 10
2311.284351
 20
-3023.320409
 11
2316.514383
 21
-3018.090377
 0
LINE
 8
011
 62
3
 10
2309.769728
 20
-3023.320409
 11
2316.514383
 21
-3016.575754
 0
LINE
 8
011
 62
3
 10
2308.255105
 20
-3023.320409
 11
2316.514383
 21
-3015.061132
 0
LINE
 8
011
 62
3
 10
2306.740483
 20
-3023.320409
 11
2316.514383
 21
-3013.546509
 0
LINE
 8
011
 62
3
 10
2305.225860
 20
-3023.320409
 11
2316.514383
 21
-3012.031886
 0
LINE
 8
011
 62
3
 10
2304.467118
 20
-3022.564528
 11
2315.758500
 21
-3011.273146
 0
LINE
 8
011
 62
3
 10
2304.467118
 20
-3021.049906
 11
2314.243877
 21
-3011.273146
 0
LINE
 8
011
 62
3
 10
2304.467118
 20
-3019.535283
 11
2312.729254
 21
-3011.273146
 0
LINE
 8
011
 62
3
 10
2304.467118
 20
-3018.020660
 11
2311.214631
 21
-3011.273146
 0
LINE
 8
011
 62
3
 10
2304.467118
 20
-3016.506038
 11
2309.700009
 21
-3011.273146
 0
LINE
 8
011
 62
3
 10
2304.467118
 20
-3014.991415
 11
2308.185386
 21
-3011.273146
 0
LINE
 8
011
 62
3
 10
2304.467118
 20
-3013.476792
 11
2306.670763
 21
-3011.273146
 0
LINE
 8
011
 62
3
 10
2304.467118
 20
-3011.962169
 11
2305.156141
 21
-3011.273146
 0
LINE
 8
011
 62
3
 10
2328.014920
 20
-3035.367671
 11
2328.561644
 21
-3034.820948
 0
LINE
 8
011
 62
3
 10
2326.500297
 20
-3035.367671
 11
2328.561644
 21
-3033.306325
 0
LINE
 8
011
 62
3
 10
2324.985675
 20
-3035.367671
 11
2328.561644
 21
-3031.791702
 0
LINE
 8
011
 62
3
 10
2323.471052
 20
-3035.367671
 11
2328.561644
 21
-3030.277079
 0
LINE
 8
011
 62
3
 10
2321.956429
 20
-3035.367671
 11
2328.561644
 21
-3028.762457
 0
LINE
 8
011
 62
3
 10
2320.441806
 20
-3035.367671
 11
2328.561644
 21
-3027.247834
 0
LINE
 8
011
 62
3
 10
2318.927184
 20
-3035.367671
 11
2328.561644
 21
-3025.733211
 0
LINE
 8
011
 62
3
 10
2317.412561
 20
-3035.367671
 11
2328.561644
 21
-3024.218589
 0
LINE
 8
011
 62
3
 10
2316.514383
 20
-3034.751227
 11
2328.561644
 21
-3022.703966
 0
LINE
 8
011
 62
3
 10
2316.514383
 20
-3033.236604
 11
2328.561644
 21
-3021.189343
 0
LINE
 8
011
 62
3
 10
2316.514383
 20
-3031.721982
 11
2328.561644
 21
-3019.674720
 0
LINE
 8
011
 62
3
 10
2316.514383
 20
-3030.207359
 11
2328.561644
 21
-3018.160098
 0
LINE
 8
011
 62
3
 10
2316.514383
 20
-3028.692736
 11
2322.964214
 21
-3022.242905
 0
LINE
 8
011
 62
3
 10
2324.472324
 20
-3020.734795
 11
2328.561644
 21
-3016.645475
 0
LINE
 8
011
 62
3
 10
2316.514383
 20
-3027.178114
 11
2320.442131
 21
-3023.250365
 0
LINE
 8
011
 62
3
 10
2325.479784
 20
-3018.212712
 11
2328.561644
 21
-3015.130852
 0
LINE
 8
011
 62
3
 10
2316.514383
 20
-3025.663491
 11
2318.857464
 21
-3023.320409
 0
LINE
 8
011
 62
3
 10
2325.516248
 20
-3016.661625
 11
2328.561644
 21
-3013.616230
 0
LINE
 8
011
 62
3
 10
2316.514383
 20
-3024.148868
 11
2317.342842
 21
-3023.320409
 0
LINE
 8
011
 62
3
 10
2325.248326
 20
-3015.414925
 11
2328.561644
 21
-3012.101607
 0
LINE
 8
011
 62
3
 10
2324.786572
 20
-3014.362056
 11
2328.561644
 21
-3010.586984
 0
LINE
 8
011
 62
3
 10
2324.171715
 20
-3013.462290
 11
2328.561644
 21
-3009.072361
 0
LINE
 8
011
 62
3
 10
2323.419198
 20
-3012.700184
 11
2328.561644
 21
-3007.557739
 0
LINE
 8
011
 62
3
 10
2322.529503
 20
-3012.075256
 11
2328.561644
 21
-3006.043116
 0
LINE
 8
011
 62
3
 10
2321.488426
 20
-3011.601711
 11
2328.561644
 21
-3004.528493
 0
LINE
 8
011
 62
3
 10
2320.257777
 20
-3011.317737
 11
2328.561644
 21
-3003.013870
 0
LINE
 8
011
 62
3
 10
2318.787745
 20
-3011.273146
 11
2328.561644
 21
-3001.499248
 0
LINE
 8
011
 62
3
 10
2317.273122
 20
-3011.273146
 11
2328.561644
 21
-2999.984625
 0
LINE
 8
011
 62
3
 10
2316.514383
 20
-3010.517264
 11
2327.805762
 21
-2999.225884
 0
LINE
 8
011
 62
3
 10
2316.514383
 20
-3009.002641
 11
2326.291139
 21
-2999.225884
 0
LINE
 8
011
 62
3
 10
2316.514383
 20
-3007.488018
 11
2324.776517
 21
-2999.225884
 0
LINE
 8
011
 62
3
 10
2316.514383
 20
-3005.973395
 11
2323.261894
 21
-2999.225884
 0
LINE
 8
011
 62
3
 10
2316.514383
 20
-3004.458773
 11
2321.747271
 21
-2999.225884
 0
LINE
 8
011
 62
3
 10
2316.514383
 20
-3002.944150
 11
2320.232649
 21
-2999.225884
 0
LINE
 8
011
 62
3
 10
2316.514383
 20
-3001.429527
 11
2318.718026
 21
-2999.225884
 0
LINE
 8
011
 62
3
 10
2316.514383
 20
-2999.914904
 11
2317.203403
 21
-2999.225884
 0
LINE
 8
011
 62
3
 10
2316.514383
 20
-2999.225884
 11
2328.561644
 21
-2999.225884
 0
LINE
 8
011
 62
3
 10
2304.467118
 20
-2999.225884
 11
2292.419856
 21
-2999.225884
 0
LINE
 8
011
 62
3
 10
2292.419856
 20
-3035.367671
 11
2292.419856
 21
-2999.225884
 0
TEXT
 8
011
 62
3
 10
2538.075393
 20
-3033.599986
 40
31.499998
 1
住宅設備機器図面
 41
0.740741
 7
STANDARD
 0
TEXT
 8
011
 62
3
 10
2824.022017
 20
-2982.697505
 40
16.000000
 1
Free
 41
0.859375
 7
STANDARD
 0
LINE
 8
011
 62
9
 10
2905.614746
 20
-1704.299316
 11
975.614746
 21
-1704.299316
 0
LINE
 8
011
 62
9
 10
975.614746
 20
-3086.299316
 11
2905.614746
 21
-3086.299316
 0
LINE
 8
011
 62
9
 10
975.614746
 20
-3086.299316
 11
975.614746
 21
-1704.299316
 0
TEXT
 8
011
 62
3
 10
2426.022243
 20
-2990.195778
 40
32.000000
 1
１口ビルトインコンロ
 41
0.625000
 7
STANDARD
 0
LINE
 8
011
 62
3
 10
2355.629946
 20
-1735.929246
 11
2355.629946
 21
-1753.929246
 0
LINE
 8
011
 62
3
 10
2355.629946
 20
-1753.929246
 11
2373.629946
 21
-1753.929246
 0
LINE
 8
011
 62
3
 10
2373.629946
 20
-1753.929246
 11
2373.629946
 21
-1735.929246
 0
LINE
 8
011
 62
3
 10
2355.629946
 20
-1735.929246
 11
2373.629946
 21
-1735.929246
 0
LINE
 8
011
 62
3
 10
2371.629946
 20
-1751.929246
 11
2371.629946
 21
-1737.929246
 0
LINE
 8
011
 62
3
 10
2357.629946
 20
-1737.929246
 11
2371.629946
 21
-1737.929246
 0
LINE
 8
011
 62
3
 10
2357.629946
 20
-1737.929246
 11
2357.629946
 21
-1751.929246
 0
LINE
 8
011
 62
3
 10
2371.629946
 20
-1751.929246
 11
2357.629946
 21
-1751.929246
 0
LINE
 8
011
 62
3
 10
2369.629946
 20
-1749.929246
 11
2369.629946
 21
-1739.929246
 0
LINE
 8
011
 62
3
 10
2359.629946
 20
-1739.929246
 11
2369.629946
 21
-1739.929246
 0
LINE
 8
011
 62
3
 10
2359.629946
 20
-1739.929246
 11
2359.629946
 21
-1749.929246
 0
LINE
 8
011
 62
3
 10
2369.629946
 20
-1749.929246
 11
2359.629946
 21
-1749.929246
 0
LINE
 8
011
 62
3
 10
2367.629946
 20
-1747.929246
 11
2367.629946
 21
-1741.929246
 0
LINE
 8
011
 62
3
 10
2361.629946
 20
-1741.929246
 11
2367.629946
 21
-1741.929246
 0
LINE
 8
011
 62
3
 10
2361.629946
 20
-1741.929246
 11
2361.629946
 21
-1747.929246
 0
LINE
 8
011
 62
3
 10
2367.629946
 20
-1747.929246
 11
2361.629946
 21
-1747.929246
 0
LINE
 8
011
 62
3
 10
2365.629946
 20
-1745.929246
 11
2365.629946
 21
-1743.929246
 0
LINE
 8
011
 62
3
 10
2363.629946
 20
-1743.929246
 11
2365.629946
 21
-1743.929246
 0
LINE
 8
011
 62
3
 10
2363.629946
 20
-1743.929246
 11
2363.629946
 21
-1745.929246
 0
LINE
 8
011
 62
3
 10
2365.629946
 20
-1745.929246
 11
2363.629946
 21
-1745.929246
 0
TEXT
 8
011
 62
3
 10
1829.002497
 20
-1803.272035
 40
25.599995
 1
ワークトップ穴開け寸法
 41
0.716146
 7
STANDARD
 0
LINE
 8
011
 62
3
 10
2000.552180
 20
-2035.562967
 11
1888.952180
 21
-2035.562967
 0
LINE
 8
011
 62
3
 10
1886.952180
 20
-1913.562967
 11
1886.952180
 21
-2033.562967
 0
LINE
 8
011
 62
3
 10
2002.552180
 20
-1913.562967
 11
2002.552180
 21
-2033.562967
 0
ARC
 8
011
 62
3
 10
1888.952180
 20
-2033.562967
 40
2.000000
 50
180.000000
 51
270.000000
 0
ARC
 8
011
 62
3
 10
2000.552180
 20
-2033.562967
 40
2.000000
 50
270.000000
 51
0.000000
 0
LINE
 8
011
 62
3
 10
1826.152180
 20
-1919.962967
 11
1714.552180
 21
-1919.962967
 0
LINE
 8
011
 62
3
 10
1826.152180
 20
-2035.562967
 11
1714.552180
 21
-2035.562967
 0
LINE
 8
011
 62
3
 10
1712.552180
 20
-2033.562967
 11
1712.552180
 21
-1921.962967
 0
LINE
 8
011
 62
3
 10
1828.152180
 20
-2033.562967
 11
1828.152180
 21
-1921.962967
 0
ARC
 8
011
 62
3
 10
1714.552180
 20
-1921.962967
 40
2.000000
 50
90.000000
 51
180.000000
 0
ARC
 8
011
 62
3
 10
1714.552180
 20
-2033.562967
 40
2.000000
 50
180.000000
 51
270.000000
 0
ARC
 8
011
 62
3
 10
1826.152180
 20
-1921.962967
 40
2.000000
 50
0.000000
 51
90.000000
 0
ARC
 8
011
 62
3
 10
1826.152180
 20
-2033.562967
 40
2.000000
 50
270.000000
 51
0.000000
 0
LINE
 8
011
 62
3
 10
2000.552180
 20
-1911.562967
 11
1888.952180
 21
-1911.562967
 0
ARC
 8
011
 62
3
 10
1888.952180
 20
-1913.562967
 40
2.000000
 50
90.000000
 51
180.000000
 0
ARC
 8
011
 62
3
 10
2000.552180
 20
-1913.562967
 40
2.000000
 50
0.000000
 51
90.000000
 0
LINE
 8
011
 62
3
 10
2000.552180
 20
-2059.162967
 11
1888.952180
 21
-2059.162967
 0
LINE
 8
011
 62
3
 10
1826.152180
 20
-2059.162967
 11
1714.552180
 21
-2059.162967
 0
LINE
 8
011
 62
3
 10
2105.552180
 20
-1887.962967
 11
2105.552180
 21
-2063.562967
 0
LINE
 8
011
 62
3
 10
2117.552180
 20
-1875.962967
 11
2117.552180
 21
-2063.562967
 0
LINE
 8
011
 62
3
 10
2105.552180
 20
-1887.962967
 11
2069.372405
 21
-1887.962967
 0
LINE
 8
011
 62
3
 10
2117.552180
 20
-1875.962967
 11
2065.192629
 21
-1875.962967
 0
LINE
 8
011
 62
3
 10
2117.552180
 20
-1919.962967
 11
2105.552180
 21
-1919.962967
 0
LINE
 8
011
 62
3
 10
2117.552180
 20
-2035.562967
 11
2105.552180
 21
-2035.562967
 0
LINE
 8
011
 62
3
 10
2119.552180
 20
-2063.562967
 11
2117.552180
 21
-2063.562967
 0
LINE
 8
011
 62
3
 10
2119.552180
 20
-2083.562967
 11
2103.552180
 21
-2083.562967
 0
LINE
 8
011
 62
3
 10
2101.552180
 20
-2068.391394
 11
2101.552180
 21
-2081.562967
 0
LINE
 8
011
 62
3
 10
2121.552180
 20
-2065.562967
 11
2121.552180
 21
-2081.562967
 0
ARC
 8
011
 62
3
 10
2103.552180
 20
-2081.562967
 40
2.000000
 50
180.000000
 51
270.000000
 0
ARC
 8
011
 62
3
 10
2119.552180
 20
-2081.562967
 40
2.000000
 50
270.000000
 51
0.000000
 0
ARC
 8
011
 62
3
 10
2119.552180
 20
-2065.562967
 40
2.000000
 50
0.000000
 51
90.000000
 0
LINE
 8
011
 62
3
 10
2102.137966
 20
-2066.977180
 11
2105.552180
 21
-2063.562967
 0
ARC
 8
011
 62
3
 10
2103.552180
 20
-2068.391394
 40
2.000000
 50
135.000000
 51
180.000000
 0
LINE
 8
011
 62
3
 10
2185.552180
 20
-2063.562967
 11
2117.552180
 21
-2063.562967
 0
LINE
 8
011
 62
3
 10
2133.552180
 20
-2055.562967
 11
2117.552180
 21
-2055.562967
 0
LINE
 8
011
 62
3
 10
2133.552180
 20
-2055.562967
 11
2133.552180
 21
-2063.562967
 0
LINE
 8
011
 62
3
 10
2185.552180
 20
-2071.562967
 11
2125.552180
 21
-2071.562967
 0
LINE
 8
011
 62
3
 10
2185.552180
 20
-2063.562967
 11
2185.552180
 21
-2071.562967
 0
LINE
 8
011
 62
3
 10
2125.552180
 20
-2071.562967
 11
2125.552180
 21
-2063.562967
 0
LINE
 8
011
 62
3
 10
2189.552180
 20
-2063.562967
 11
2189.552180
 21
-2071.562967
 0
LINE
 8
011
 62
3
 10
2189.552180
 20
-2071.562967
 11
2222.803244
 21
-2071.562967
 0
LINE
 8
011
 62
3
 10
2189.552180
 20
-2063.562967
 11
2220.164946
 21
-2063.562967
 0
LINE
 8
011
 10
1830.725319
 20
-2082.964574
 11
1698.725319
 21
-2082.964574
 0
LINE
 8
011
 10
1830.725319
 20
-2099.964574
 11
1698.725319
 21
-2099.964574
 0
LINE
 8
011
 10
1698.725319
 20
-2099.964574
 11
1698.725319
 21
-2082.964574
 0
LINE
 8
011
 10
1830.725319
 20
-2099.964574
 11
1830.725319
 21
-2082.964574
 0
LINE
 8
011
 10
1874.725319
 20
-2082.964574
 11
1874.725319
 21
-2099.964574
 0
LINE
 8
011
 10
1874.725319
 20
-2082.964574
 11
1985.725319
 21
-2082.964574
 0
LINE
 8
011
 10
1985.725319
 20
-2082.964574
 11
1985.725319
 21
-2099.964574
 0
LINE
 8
011
 10
1985.725319
 20
-2099.964574
 11
1874.725319
 21
-2099.964574
 0
LINE
 8
011
 62
3
 10
2073.655017
 20
-1809.788700
 11
1826.816314
 21
-1809.788700
 0
LINE
 8
011
 62
3
 10
2073.655017
 20
-1772.306872
 11
1826.816314
 21
-1772.306872
 0
LINE
 8
011
 62
3
 10
2073.655017
 20
-1809.788700
 11
2073.655017
 21
-1772.306872
 0
LINE
 8
011
 62
3
 10
1826.816314
 20
-1809.788700
 11
1826.816314
 21
-1772.306872
 0
CIRCLE
 8
011
 62
3
 10
1355.376104
 20
-2537.584157
 40
4.000000
 0
CIRCLE
 8
011
 62
3
 10
1395.376104
 20
-2537.584157
 40
4.000000
 0
CIRCLE
 8
011
 62
3
 10
1395.376104
 20
-2528.084157
 40
1.750000
 0
CIRCLE
 8
011
 62
3
 10
1355.376104
 20
-2528.084157
 40
1.750000
 0
ARC
 8
011
 10
1440.376104
 20
-2203.985905
 40
15.000000
 50
254.578579
 51
270.000000
 0
ARC
 8
011
 10
1440.376104
 20
-2203.985905
 40
15.000000
 50
270.000000
 51
285.358261
 0
POLYLINE
 8
011
 66
1
 0
VERTEX
 8
011
 10
1432.141068
 20
-2211.304100
 0
VERTEX
 8
011
 10
1432.778208
 20
-2212.296443
 0
VERTEX
 8
011
 10
1433.516054
 20
-2213.532092
 0
VERTEX
 8
011
 10
1434.150378
 20
-2214.678930
 0
VERTEX
 8
011
 10
1434.677324
 20
-2215.703832
 0
VERTEX
 8
011
 10
1435.098710
 20
-2216.575103
 0
VERTEX
 8
011
 10
1435.429181
 20
-2217.277245
 0
VERTEX
 8
011
 10
1435.703123
 20
-2217.816802
 0
VERTEX
 8
011
 10
1435.931759
 20
-2218.138056
 0
VERTEX
 8
011
 10
1436.261485
 20
-2218.389259
 0
VERTEX
 8
011
 10
1436.393785
 20
-2218.424948
 0
SEQEND
 8
011
 0
LINE
 8
011
 10
1432.040377
 20
-2211.147280
 11
1432.141068
 21
-2211.304100
 0
POLYLINE
 8
011
 66
1
 0
VERTEX
 8
011
 10
1444.375663
 20
-2218.425246
 0
VERTEX
 8
011
 10
1444.570838
 20
-2218.344794
 0
VERTEX
 8
011
 10
1444.775982
 20
-2218.184011
 0
VERTEX
 8
011
 10
1444.931938
 20
-2218.000294
 0
VERTEX
 8
011
 10
1445.082045
 20
-2217.758315
 0
VERTEX
 8
011
 10
1445.366053
 20
-2217.186423
 0
VERTEX
 8
011
 10
1445.704772
 20
-2216.466876
 0
VERTEX
 8
011
 10
1446.135534
 20
-2215.582134
 0
VERTEX
 8
011
 10
1446.722230
 20
-2214.454533
 0
VERTEX
 8
011
 10
1447.412229
 20
-2213.228332
 0
VERTEX
 8
011
 10
1448.196998
 20
-2211.940022
 0
VERTEX
 8
011
 10
1448.716222
 20
-2211.146520
 0
SEQEND
 8
011
 0
LINE
 8
011
 10
1425.376104
 20
-2198.182642
 11
1425.376105
 21
-2200.313004
 0
LINE
 8
011
 10
1455.376102
 20
-2200.313004
 11
1455.376104
 21
-2198.182642
 0
POLYLINE
 8
011
 66
1
 0
VERTEX
 8
011
 10
1448.824866
 20
-2210.990446
 0
VERTEX
 8
011
 10
1449.537149
 20
-2209.957884
 0
VERTEX
 8
011
 10
1450.525506
 20
-2208.663614
 0
VERTEX
 8
011
 10
1451.597577
 20
-2207.351105
 0
VERTEX
 8
011
 10
1452.603898
 20
-2206.135275
 0
VERTEX
 8
011
 10
1453.549853
 20
-2204.920174
 0
VERTEX
 8
011
 10
1454.366340
 20
-2203.685062
 0
VERTEX
 8
011
 10
1455.005548
 20
-2202.332543
 0
VERTEX
 8
011
 10
1455.338976
 20
-2200.947853
 0
VERTEX
 8
011
 10
1455.335146
 20
-2200.408103
 0
SEQEND
 8
011
 0
LINE
 8
011
 10
1448.714799
 20
-2211.150007
 11
1448.824866
 21
-2210.990446
 0
POLYLINE
 8
011
 66
1
 0
VERTEX
 8
011
 10
1425.376813
 20
-2200.327160
 0
VERTEX
 8
011
 10
1425.534258
 20
-2201.627077
 0
VERTEX
 8
011
 10
1425.984836
 20
-2202.913077
 0
VERTEX
 8
011
 10
1426.726973
 20
-2204.236315
 0
VERTEX
 8
011
 10
1427.719677
 20
-2205.600651
 0
VERTEX
 8
011
 10
1428.688383
 20
-2206.790583
 0
VERTEX
 8
011
 10
1429.783812
 20
-2208.113821
 0
VERTEX
 8
011
 10
1430.830198
 20
-2209.441008
 0
VERTEX
 8
011
 10
1431.814021
 20
-2210.805135
 0
VERTEX
 8
011
 10
1432.041633
 20
-2211.163791
 0
SEQEND
 8
011
 0
LINE
 8
011
 10
1448.376103
 20
-2190.697940
 11
1448.376103
 21
-2189.322354
 0
POLYLINE
 8
011
 66
1
 0
VERTEX
 8
011
 10
1455.357841
 20
-2198.446916
 0
VERTEX
 8
011
 10
1455.373666
 20
-2198.344605
 0
VERTEX
 8
011
 10
1455.254322
 20
-2197.041007
 0
VERTEX
 8
011
 10
1454.828924
 20
-2195.783617
 0
VERTEX
 8
011
 10
1454.110457
 20
-2194.586756
 0
VERTEX
 8
011
 10
1453.103623
 20
-2193.461539
 0
VERTEX
 8
011
 10
1451.819918
 20
-2192.429932
 0
VERTEX
 8
011
 10
1450.286305
 20
-2191.518651
 0
VERTEX
 8
011
 10
1448.541148
 20
-2190.750452
 0
VERTEX
 8
011
 10
1446.627101
 20
-2190.141352
 0
VERTEX
 8
011
 10
1444.585456
 20
-2189.701425
 0
VERTEX
 8
011
 10
1442.458561
 20
-2189.437644
 0
VERTEX
 8
011
 10
1440.289787
 20
-2189.354079
 0
VERTEX
 8
011
 10
1438.123091
 20
-2189.451994
 0
VERTEX
 8
011
 10
1436.002562
 20
-2189.729707
 0
VERTEX
 8
011
 10
1433.971162
 20
-2190.182747
 0
VERTEX
 8
011
 10
1432.069665
 20
-2190.804304
 0
VERTEX
 8
011
 10
1430.336481
 20
-2191.585706
 0
VERTEX
 8
011
 10
1428.807760
 20
-2192.516999
 0
VERTEX
 8
011
 10
1427.518486
 20
-2193.586545
 0
VERTEX
 8
011
 10
1426.505970
 20
-2194.775762
 0
VERTEX
 8
011
 10
1425.804796
 20
-2196.054058
 0
VERTEX
 8
011
 10
1425.436779
 20
-2197.375806
 0
VERTEX
 8
011
 10
1425.423483
 20
-2197.857695
 0
SEQEND
 8
011
 0
LINE
 8
011
 10
1432.376104
 20
-2189.322354
 11
1432.376104
 21
-2190.704139
 0
ARC
 8
011
 10
1393.788303
 20
-2030.577006
 40
0.750000
 50
30.000000
 51
210.000000
 0
LINE
 8
011
 10
1394.492295
 20
-2030.296355
 11
1394.437822
 21
-2030.202006
 0
LINE
 8
011
 10
1393.138784
 20
-2030.952006
 11
1393.193256
 21
-2031.046355
 0
LINE
 8
011
 10
1395.914734
 20
-2030.260091
 11
1395.705561
 21
-2029.897792
 0
LINE
 8
011
 10
1392.241458
 20
-2031.897792
 11
1392.450632
 21
-2032.260091
 0
LINE
 8
011
 10
1396.356739
 20
-2030.125666
 11
1396.304446
 21
-2030.035091
 0
LINE
 8
011
 10
1392.060921
 20
-2032.485091
 11
1392.113214
 21
-2032.575666
 0
LINE
 8
011
 10
1397.355987
 20
-2030.756415
 11
1396.833053
 21
-2029.850666
 0
LINE
 8
011
 10
1391.636899
 20
-2032.850666
 11
1392.159835
 21
-2033.756415
 0
LINE
 8
011
 10
1383.376104
 20
-1990.370283
 11
1383.376104
 21
-1994.631639
 0
POLYLINE
 8
011
 66
1
 0
VERTEX
 8
011
 10
1380.376104
 20
-1957.303466
 0
VERTEX
 8
011
 10
1380.317622
 20
-1956.648612
 0
VERTEX
 8
011
 10
1379.976444
 20
-1955.622041
 0
VERTEX
 8
011
 10
1379.356243
 20
-1954.707758
 0
VERTEX
 8
011
 10
1378.491598
 20
-1953.952091
 0
VERTEX
 8
011
 10
1377.427825
 20
-1953.398848
 0
VERTEX
 8
011
 10
1376.227429
 20
-1953.086169
 0
VERTEX
 8
011
 10
1374.965898
 20
-1953.038404
 0
VERTEX
 8
011
 10
1373.723401
 20
-1953.263203
 0
VERTEX
 8
011
 10
1372.579715
 20
-1953.752311
 0
VERTEX
 8
011
 10
1371.612241
 20
-1954.481060
 0
VERTEX
 8
011
 10
1370.892529
 20
-1955.404104
 0
VERTEX
 8
011
 10
1370.475293
 20
-1956.452431
 0
VERTEX
 8
011
 10
1370.376104
 20
-1957.303466
 0
SEQEND
 8
011
 0
CIRCLE
 8
011
 10
1375.376104
 20
-1998.631640
 40
11.500000
 0
LINE
 8
011
 10
1384.115035
 20
-1967.103196
 11
1384.059503
 21
-1967.076359
 0
LINE
 8
011
 10
1366.692705
 20
-1967.076359
 11
1366.637173
 21
-1967.103196
 0
LINE
 8
011
 10
1385.131429
 20
-1967.572613
 11
1385.026892
 21
-1967.525428
 0
LINE
 8
011
 10
1387.347292
 20
-1968.572767
 11
1385.131429
 21
-1967.572613
 0
POLYLINE
 8
011
 66
1
 0
VERTEX
 8
011
 10
1365.594435
 20
-1967.589987
 0
VERTEX
 8
011
 10
1365.177957
 20
-1967.780636
 0
VERTEX
 8
011
 10
1363.402833
 20
-1968.567399
 0
SEQEND
 8
011
 0
LINE
 8
011
 10
1365.726642
 20
-1967.529470
 11
1365.594435
 21
-1967.589987
 0
LINE
 8
011
 10
1363.416528
 20
-1968.571728
 11
1363.365613
 21
-1968.592258
 0
LINE
 8
011
 10
1362.934126
 20
-1968.767745
 11
1362.573792
 21
-1968.917081
 0
POLYLINE
 8
011
 66
1
 0
VERTEX
 8
011
 10
1388.178955
 20
-1968.916273
 0
VERTEX
 8
011
 10
1388.073451
 20
-1968.871107
 0
VERTEX
 8
011
 10
1387.817591
 20
-1968.768516
 0
SEQEND
 8
011
 0
ARC
 8
011
 10
1375.376104
 20
-1998.631640
 40
32.356274
 50
113.308838
 51
270.000000
 0
ARC
 8
011
 10
1375.376104
 20
-1998.631640
 40
32.356274
 50
270.000000
 51
66.691162
 0
LINE
 8
011
 10
1417.645323
 20
-2021.419205
 11
1416.245323
 21
-2023.844076
 0
LINE
 8
011
 10
1471.670949
 20
-2055.844076
 11
1473.070949
 21
-2053.419205
 0
LINE
 8
011
 10
1333.106885
 20
-1975.844076
 11
1334.506885
 21
-1973.419205
 0
LINE
 8
011
 10
1279.081259
 20
-1941.419205
 11
1277.681259
 21
-1943.844076
 0
LINE
 8
011
 10
1334.506885
 20
-2023.844076
 11
1333.106885
 21
-2021.419205
 0
LINE
 8
011
 10
1277.681259
 20
-2053.419205
 11
1279.081259
 21
-2055.844076
 0
LINE
 8
011
 10
1416.245323
 20
-1973.419205
 11
1417.645323
 21
-1975.844076
 0
LINE
 8
011
 10
1473.070949
 20
-1943.844076
 11
1471.670949
 21
-1941.419205
 0
LINE
 8
011
 10
1373.976104
 20
-1950.631640
 11
1376.776104
 21
-1950.631640
 0
LINE
 8
011
 10
1376.776104
 20
-1886.631640
 11
1373.976104
 21
-1886.631640
 0
LINE
 8
011
 10
1376.776104
 20
-2046.631640
 11
1373.976104
 21
-2046.631640
 0
LINE
 8
011
 10
1373.976104
 20
-2110.631640
 11
1376.776104
 21
-2110.631640
 0
ARC
 8
011
 10
1375.376104
 20
-1998.631640
 40
63.500000
 50
151.263316
 51
156.640162
 0
ARC
 8
011
 10
1375.376104
 20
-1998.631640
 40
63.500000
 50
91.165168
 51
148.736684
 0
ARC
 8
011
 10
1375.376104
 20
-1998.631640
 40
63.500000
 50
31.263316
 51
88.849583
 0
ARC
 8
011
 10
1375.376104
 20
-1998.631640
 40
63.500000
 50
23.359838
 51
28.736684
 0
ARC
 8
011
 10
1375.376104
 20
-1998.631640
 40
68.500000
 50
23.359838
 51
28.828910
 0
ARC
 8
011
 10
1375.376104
 20
-1998.631640
 40
68.500000
 50
31.171090
 51
88.828910
 0
ARC
 8
011
 10
1375.376104
 20
-1998.631640
 40
68.500000
 50
91.171090
 51
148.828910
 0
ARC
 8
011
 10
1375.376104
 20
-1998.631640
 40
68.500000
 50
151.171090
 51
156.640162
 0
ARC
 8
011
 10
1319.376104
 20
-1974.444867
 40
2.500000
 50
156.640162
 51
180.000000
 0
ARC
 8
011
 10
1319.376104
 20
-1974.444867
 40
7.500000
 50
156.640162
 51
180.000000
 0
ARC
 8
011
 10
1431.376104
 20
-1974.444867
 40
2.500000
 50
0.000000
 51
23.359838
 0
ARC
 8
011
 10
1431.376104
 20
-1974.444867
 40
7.500000
 50
0.000000
 51
23.359838
 0
LINE
 8
011
 10
1316.876104
 20
-2022.818413
 11
1316.876104
 21
-1974.444867
 0
LINE
 8
011
 10
1311.876104
 20
-1974.444867
 11
1311.876104
 21
-2022.818413
 0
LINE
 8
011
 10
1438.876104
 20
-2022.818413
 11
1438.876104
 21
-1974.444867
 0
LINE
 8
011
 10
1433.876104
 20
-1974.444867
 11
1433.876104
 21
-2022.818413
 0
ARC
 8
011
 10
1319.376104
 20
-2022.818413
 40
2.500000
 50
180.000000
 51
203.359838
 0
ARC
 8
011
 10
1319.376104
 20
-2022.818413
 40
7.500000
 50
180.000000
 51
203.359838
 0
ARC
 8
011
 10
1431.376104
 20
-2022.818413
 40
2.500000
 50
336.640162
 51
0.000000
 0
ARC
 8
011
 10
1431.376104
 20
-2022.818413
 40
7.500000
 50
336.640162
 51
0.000000
 0
ARC
 8
011
 10
1375.376104
 20
-1998.631640
 40
63.500000
 50
331.263316
 51
336.640162
 0
ARC
 8
011
 10
1375.376104
 20
-1998.631640
 40
63.500000
 50
271.263316
 51
328.736684
 0
ARC
 8
011
 10
1375.376104
 20
-1998.631640
 40
63.500000
 50
211.263316
 51
268.736684
 0
ARC
 8
011
 10
1375.376104
 20
-1998.631640
 40
63.500000
 50
203.359838
 51
208.736684
 0
ARC
 8
011
 10
1375.376104
 20
-1998.631640
 40
68.500000
 50
203.359838
 51
208.828910
 0
ARC
 8
011
 10
1375.376104
 20
-1998.631640
 40
68.500000
 50
211.171090
 51
268.828910
 0
ARC
 8
011
 10
1375.376104
 20
-1998.631640
 40
68.500000
 50
271.171090
 51
328.725340
 0
ARC
 8
011
 10
1375.376104
 20
-1998.631640
 40
68.500000
 50
331.171090
 51
336.640162
 0
LINE
 8
011
 10
1428.776104
 20
-2190.642542
 11
1428.776104
 21
-2192.300617
 0
LINE
 8
011
 10
1451.976104
 20
-2192.300617
 11
1451.976104
 21
-2190.642542
 0
LINE
 8
011
 10
1514.033659
 20
-1854.631634
 11
1514.024614
 21
-1854.631634
 0
LINE
 8
011
 10
1236.727594
 20
-1854.631634
 11
1236.718549
 21
-1854.631634
 0
LINE
 8
011
 10
1448.710601
 20
-2211.143228
 11
1448.709401
 21
-2211.146048
 0
ARC
 8
011
 10
1393.841533
 20
-2030.669350
 40
0.750078
 50
260.270395
 51
29.819934
 0
ARC
 8
011
 10
1393.839006
 20
-2030.673294
 40
0.745765
 50
210.015743
 51
260.410572
 0
CIRCLE
 8
011
 10
1393.967172
 20
-2030.894818
 40
1.997361
 0
ARC
 8
011
 10
1394.179371
 20
-2031.254748
 40
2.000206
 50
260.270363
 51
29.820004
 0
ARC
 8
011
 10
1394.172653
 20
-2031.265230
 40
1.988746
 50
210.016264
 51
260.410090
 0
ARC
 8
011
 10
1394.231706
 20
-2031.345003
 40
2.450008
 50
210.152950
 51
29.847070
 0
CIRCLE
 8
011
 10
1394.173671
 20
-2031.258606
 40
2.444431
 0
ARC
 8
011
 10
1394.754099
 20
-2032.249812
 40
3.000010
 50
210.145626
 51
29.854368
 0
ARC
 8
011
 10
1394.237741
 20
-2031.355433
 40
2.995238
 50
141.416945
 51
98.500416
 0
ARC
 8
011
 10
1394.816087
 20
-2032.357179
 40
3.004008
 50
234.591278
 51
5.408736
 0
LINE
 8
011
 10
1386.477906
 20
-1995.631641
 11
1380.456458
 21
-1995.631641
 0
LINE
 8
011
 10
1386.663707
 20
-1996.431639
 11
1380.850590
 21
-1996.431639
 0
LINE
 8
011
 10
1369.901618
 20
-1996.431639
 11
1369.376104
 21
-1996.431640
 0
LINE
 8
011
 10
1370.295750
 20
-1995.631641
 11
1369.376104
 21
-1995.631640
 0
LINE
 8
011
 10
1367.376104
 20
-1995.631640
 11
1369.376104
 21
-1995.631640
 0
LINE
 8
011
 10
1369.376104
 20
-1996.431640
 11
1367.376104
 21
-1996.431640
 0
LINE
 8
011
 10
1367.040205
 20
-1995.631640
 11
1367.376104
 21
-1995.631640
 0
LINE
 8
011
 10
1367.376104
 20
-1996.431640
 11
1367.040205
 21
-1996.431640
 0
LINE
 8
011
 10
1365.712003
 20
-1995.631640
 11
1367.040205
 21
-1995.631640
 0
LINE
 8
011
 10
1365.712003
 20
-1996.431640
 11
1367.040205
 21
-1996.431640
 0
LINE
 8
011
 10
1365.376104
 20
-1995.631640
 11
1365.712003
 21
-1995.631640
 0
LINE
 8
011
 10
1365.712003
 20
-1996.431640
 11
1365.376104
 21
-1996.431640
 0
ARC
 8
011
 10
1364.376104
 20
-1994.331640
 40
0.800000
 50
0.000000
 51
44.003773
 0
LINE
 8
011
 10
1365.176104
 20
-1994.331640
 11
1365.176104
 21
-1994.631639
 0
ARC
 8
011
 10
1365.176104
 20
-1995.631640
 40
0.800000
 50
180.000000
 51
270.000000
 0
LINE
 8
011
 10
1365.176104
 20
-1996.431640
 11
1365.376104
 21
-1996.431640
 0
CIRCLE
 8
011
 10
1375.376104
 20
-1998.631640
 40
5.900000
 0
LINE
 8
011
 10
1380.976104
 20
-1996.720085
 11
1386.716120
 21
-1996.720085
 0
ARC
 8
011
 10
1386.083766
 20
-1992.103728
 40
6.537544
 50
266.501107
 51
273.498893
 0
ARC
 8
011
 10
1383.669566
 20
-1997.515407
 40
1.125901
 50
261.549917
 51
278.450083
 0
LINE
 8
011
 10
1369.776104
 20
-1994.631640
 11
1371.039054
 21
-1994.631639
 0
LINE
 8
011
 10
1380.976104
 20
-1994.631640
 11
1379.713154
 21
-1994.631639
 0
LINE
 8
011
 10
1364.274302
 20
-1995.631641
 11
1365.376104
 21
-1995.631640
 0
LINE
 8
011
 10
1364.594175
 20
-1994.631639
 11
1369.776104
 21
-1994.631640
 0
LINE
 8
011
 10
1386.158033
 20
-1994.631639
 11
1380.976104
 21
-1994.631640
 0
ARC
 8
011
 10
1367.376104
 20
-1985.632640
 40
5.000000
 50
267.065498
 51
268.854008
 0
LINE
 8
011
 10
1367.276104
 20
-1990.631640
 11
1367.276104
 21
-1991.631841
 0
LINE
 8
011
 10
1367.276104
 20
-1991.631841
 11
1367.256104
 21
-1991.631440
 0
LINE
 8
011
 10
1367.276104
 20
-1994.631639
 11
1367.276104
 21
-1991.631841
 0
CIRCLE
 8
011
 10
1375.376104
 20
-2023.631640
 40
2.250000
 0
CIRCLE
 8
011
 10
1375.376104
 20
-2023.631640
 40
3.150000
 0
CIRCLE
 8
011
 10
1375.376104
 20
-1973.631640
 40
2.250000
 0
CIRCLE
 8
011
 10
1375.376104
 20
-1973.631640
 40
3.150000
 0
LINE
 8
011
 10
1370.376104
 20
-1958.235166
 11
1370.376104
 21
-1959.572292
 0
LINE
 8
011
 10
1380.376104
 20
-1958.235166
 11
1380.376104
 21
-1959.572292
 0
LINE
 8
011
 10
1370.376104
 20
-1959.572292
 11
1370.376104
 21
-1962.695840
 0
LINE
 8
011
 10
1380.876104
 20
-1968.631642
 11
1380.876104
 21
-1966.545319
 0
LINE
 8
011
 10
1369.876104
 20
-1968.631642
 11
1380.876104
 21
-1968.631642
 0
LINE
 8
011
 10
1369.876104
 20
-1968.631642
 11
1369.876104
 21
-1966.545319
 0
LINE
 8
011
 10
1380.376104
 20
-1959.572292
 11
1380.376104
 21
-1962.695840
 0
LINE
 8
011
 10
1370.376104
 20
-1957.303466
 11
1370.376104
 21
-1958.235166
 0
LINE
 8
011
 10
1380.376104
 20
-1957.303466
 11
1380.376104
 21
-1958.235166
 0
ARC
 8
011
 10
1369.656663
 20
-1966.527949
 40
0.220127
 50
355.474089
 51
42.804120
 0
ARC
 8
011
 10
1381.095544
 20
-1966.527949
 40
0.220127
 50
137.195880
 51
184.525911
 0
LINE
 8
011
 10
1345.626103
 20
-1997.881640
 11
1351.126103
 21
-1997.881640
 0
ARC
 8
011
 10
1351.126055
 20
-1998.631640
 40
0.750001
 50
270.003715
 51
89.996285
 0
LINE
 8
011
 10
1351.126103
 20
-1999.381641
 11
1345.626103
 21
-1999.381641
 0
ARC
 8
011
 10
1345.626154
 20
-1998.631640
 40
0.750001
 50
90.003868
 51
269.996132
 0
ARC
 8
011
 10
1384.508491
 20
-1962.821604
 40
4.054676
 50
222.526928
 51
245.691647
 0
ARC
 8
011
 10
1321.505474
 20
-2101.827541
 40
148.562596
 50
64.690705
 51
65.616068
 0
POLYLINE
 8
011
 66
1
 0
VERTEX
 8
011
 10
1384.853547
 20
-1968.454091
 0
VERTEX
 8
011
 10
1384.832188
 20
-1968.484597
 0
VERTEX
 8
011
 10
1384.793704
 20
-1968.511021
 0
VERTEX
 8
011
 10
1384.709294
 20
-1968.536420
 0
VERTEX
 8
011
 10
1384.601807
 20
-1968.545927
 0
SEQEND
 8
011
 0
LINE
 8
011
 10
1384.601807
 20
-1968.545927
 11
1380.876104
 21
-1968.631642
 0
POLYLINE
 8
011
 66
1
 0
VERTEX
 8
011
 10
1365.898661
 20
-1968.454091
 0
VERTEX
 8
011
 10
1365.920020
 20
-1968.484597
 0
VERTEX
 8
011
 10
1365.958504
 20
-1968.511021
 0
VERTEX
 8
011
 10
1366.042913
 20
-1968.536420
 0
VERTEX
 8
011
 10
1366.150401
 20
-1968.545927
 0
SEQEND
 8
011
 0
ARC
 8
011
 10
1429.246734
 20
-2101.827541
 40
148.562596
 50
114.383932
 51
115.309295
 0
ARC
 8
011
 10
1366.243716
 20
-1962.821604
 40
4.054676
 50
294.308353
 51
317.473072
 0
LINE
 8
011
 10
1366.150401
 20
-1968.545927
 11
1369.876104
 21
-1968.631642
 0
LINE
 8
011
 10
1370.376104
 20
-1958.008551
 11
1370.376104
 21
-1958.056181
 0
LINE
 8
011
 10
1380.376104
 20
-1958.008551
 11
1380.376104
 21
-1958.056181
 0
CIRCLE
 8
011
 10
1375.376104
 20
-1998.631640
 40
21.000000
 0
ARC
 8
011
 10
1377.927440
 20
-2026.104746
 40
3.721184
 50
275.369602
 51
9.109111
 0
LINE
 8
011
 10
1381.601695
 20
-2025.515626
 11
1380.876107
 21
-2020.964350
 0
ARC
 8
011
 10
1375.376104
 20
-1998.631640
 40
23.000000
 50
283.835232
 51
75.217038
 0
ARC
 8
011
 10
1375.376104
 20
-1998.631640
 40
23.000000
 50
104.782962
 51
256.164768
 0
LINE
 8
011
 10
1369.150513
 20
-2025.515626
 11
1369.876101
 21
-2020.964350
 0
ARC
 8
011
 10
1372.824767
 20
-2026.104746
 40
3.721184
 50
170.890889
 51
264.630398
 0
ARC
 8
011
 10
1375.376104
 20
-1998.631640
 40
31.312500
 50
264.687225
 51
275.312775
 0
LINE
 8
011
 10
1369.876104
 20
-2025.515650
 11
1369.876101
 21
-2020.964350
 0
LINE
 8
011
 10
1380.876104
 20
-2025.515650
 11
1380.876107
 21
-2020.964350
 0
ARC
 8
011
 10
1372.876104
 20
-2025.515650
 40
3.000000
 50
180.000000
 51
264.687225
 0
ARC
 8
011
 10
1375.376104
 20
-1998.631640
 40
30.000000
 50
264.687225
 51
275.312775
 0
ARC
 8
011
 10
1377.876104
 20
-2025.515650
 40
3.000000
 50
275.312775
 51
0.000000
 0
LINE
 8
011
 10
1380.876104
 20
-1975.787608
 11
1380.876104
 21
-1968.631642
 0
ARC
 8
011
 10
1381.447615
 20
-1975.854494
 40
0.575412
 50
173.324853
 51
249.355508
 0
ARC
 8
011
 10
1369.304592
 20
-1975.854494
 40
0.575412
 50
290.644492
 51
6.675147
 0
LINE
 8
011
 10
1369.876104
 20
-1975.787608
 11
1369.876104
 21
-1968.631642
 0
POLYLINE
 8
011
 66
1
 0
VERTEX
 8
011
 10
1363.927248
 20
-1969.364984
 0
VERTEX
 8
011
 10
1363.915409
 20
-1969.363762
 0
VERTEX
 8
011
 10
1363.899693
 20
-1969.362138
 0
SEQEND
 8
011
 0
POLYLINE
 8
011
 66
1
 0
VERTEX
 8
011
 10
1386.824959
 20
-1969.364984
 0
VERTEX
 8
011
 10
1386.836798
 20
-1969.363762
 0
VERTEX
 8
011
 10
1386.852515
 20
-1969.362138
 0
SEQEND
 8
011
 0
LINE
 8
011
 10
1362.933595
 20
-1968.766014
 11
1362.938397
 21
-1968.777119
 0
ARC
 8
011
 10
1357.371330
 20
-1954.097478
 40
15.699811
 50
290.768596
 51
292.473449
 0
LINE
 8
011
 10
1387.818613
 20
-1968.766014
 11
1387.813811
 21
-1968.777119
 0
POLYLINE
 8
011
 66
1
 0
VERTEX
 8
011
 10
1387.372650
 20
-1968.602309
 0
VERTEX
 8
011
 10
1387.379487
 20
-1968.604972
 0
VERTEX
 8
011
 10
1387.379543
 20
-1968.604995
 0
SEQEND
 8
011
 0
ARC
 8
011
 10
1393.380878
 20
-1954.097478
 40
15.699811
 50
247.526551
 51
249.231404
 0
ARC
 8
011
 10
1398.474964
 20
-2031.297499
 40
0.999031
 50
222.880053
 51
293.384935
 0
ARC
 8
011
 10
1398.518331
 20
-2031.374018
 40
0.998098
 50
219.240224
 51
290.927852
 0
ARC
 8
011
 10
1392.069776
 20
-2034.996229
 40
0.998294
 50
309.527586
 51
17.145621
 0
ARC
 8
011
 10
1392.113697
 20
-2035.071824
 40
0.997932
 50
311.954358
 51
20.762678
 0
ARC
 8
011
 10
1375.376104
 20
-1998.631640
 40
35.000000
 50
303.928918
 51
81.299456
 0
ARC
 8
011
 10
1375.376104
 20
-1998.631640
 40
35.000000
 50
99.000000
 51
296.071082
 0
ARC
 8
011
 10
1375.377134
 20
-1998.633225
 40
34.998110
 50
302.193523
 51
303.928968
 0
ARC
 8
011
 10
1375.374929
 20
-1998.629345
 40
35.002578
 50
296.071159
 51
297.806382
 0
ARC
 8
011
 10
1375.376104
 20
-1998.631640
 40
35.000000
 50
297.806434
 51
302.193566
 0
LINE
 8
011
 10
1384.197843
 20
-2000.631640
 11
1384.154896
 21
-2000.631640
 0
LINE
 8
011
 10
1417.948511
 20
-2024.827411
 11
1442.226088
 21
-2038.844076
 0
LINE
 8
011
 10
1419.348511
 20
-2022.402540
 11
1443.626082
 21
-2036.419204
 0
LINE
 8
011
 10
1442.226088
 20
-2038.844076
 11
1461.635025
 21
-2050.049832
 0
LINE
 8
011
 10
1443.626082
 20
-2036.419204
 11
1463.035025
 21
-2047.624961
 0
POLYLINE
 8
011
 66
1
 0
VERTEX
 8
011
 10
1461.635022
 20
-2050.049832
 0
VERTEX
 8
011
 10
1462.312392
 20
-2050.440909
 0
VERTEX
 8
011
 10
1462.973027
 20
-2050.822327
 0
VERTEX
 8
011
 10
1463.600664
 20
-2051.184693
 0
VERTEX
 8
011
 10
1464.179842
 20
-2051.519083
 0
VERTEX
 8
011
 10
1464.696309
 20
-2051.817264
 0
VERTEX
 8
011
 10
1465.137339
 20
-2052.071895
 0
VERTEX
 8
011
 10
1465.492083
 20
-2052.276704
 0
VERTEX
 8
011
 10
1465.751788
 20
-2052.426647
 0
SEQEND
 8
011
 0
POLYLINE
 8
011
 66
1
 0
VERTEX
 8
011
 10
1463.035023
 20
-2047.624960
 0
VERTEX
 8
011
 10
1463.712393
 20
-2048.016038
 0
VERTEX
 8
011
 10
1464.373028
 20
-2048.397455
 0
VERTEX
 8
011
 10
1465.000658
 20
-2048.759822
 0
VERTEX
 8
011
 10
1465.579844
 20
-2049.094213
 0
VERTEX
 8
011
 10
1466.096310
 20
-2049.392395
 0
VERTEX
 8
011
 10
1466.537340
 20
-2049.647024
 0
VERTEX
 8
011
 10
1466.892077
 20
-2049.851833
 0
VERTEX
 8
011
 10
1467.151790
 20
-2050.001778
 0
SEQEND
 8
011
 0
POLYLINE
 8
011
 66
1
 0
VERTEX
 8
011
 10
1416.245325
 20
-2023.844076
 0
VERTEX
 8
011
 10
1416.246402
 20
-2023.844699
 0
VERTEX
 8
011
 10
1416.392351
 20
-2023.928963
 0
VERTEX
 8
011
 10
1416.764094
 20
-2024.143588
 0
VERTEX
 8
011
 10
1417.308672
 20
-2024.458001
 0
VERTEX
 8
011
 10
1417.948509
 20
-2024.827411
 0
SEQEND
 8
011
 0
POLYLINE
 8
011
 66
1
 0
VERTEX
 8
011
 10
1417.645323
 20
-2021.419205
 0
VERTEX
 8
011
 10
1417.646403
 20
-2021.419828
 0
VERTEX
 8
011
 10
1417.792352
 20
-2021.504091
 0
VERTEX
 8
011
 10
1418.164095
 20
-2021.718717
 0
VERTEX
 8
011
 10
1418.708673
 20
-2022.033130
 0
VERTEX
 8
011
 10
1419.348510
 20
-2022.402540
 0
SEQEND
 8
011
 0
POLYLINE
 8
011
 66
1
 0
VERTEX
 8
011
 10
1465.751788
 20
-2052.426647
 0
VERTEX
 8
011
 10
1466.787456
 20
-2053.024592
 0
VERTEX
 8
011
 10
1467.738724
 20
-2053.573804
 0
VERTEX
 8
011
 10
1468.604981
 20
-2054.073939
 0
VERTEX
 8
011
 10
1469.385682
 20
-2054.524679
 0
VERTEX
 8
011
 10
1470.080337
 20
-2054.925734
 0
VERTEX
 8
011
 10
1470.688491
 20
-2055.276852
 0
VERTEX
 8
011
 10
1471.209763
 20
-2055.577809
 0
VERTEX
 8
011
 10
1471.643819
 20
-2055.828413
 0
SEQEND
 8
011
 0
POLYLINE
 8
011
 66
1
 0
VERTEX
 8
011
 10
1467.151790
 20
-2050.001778
 0
VERTEX
 8
011
 10
1468.187457
 20
-2050.599720
 0
VERTEX
 8
011
 10
1469.138725
 20
-2051.148934
 0
VERTEX
 8
011
 10
1470.004982
 20
-2051.649067
 0
VERTEX
 8
011
 10
1470.785684
 20
-2052.099807
 0
VERTEX
 8
011
 10
1471.480331
 20
-2052.500862
 0
VERTEX
 8
011
 10
1472.088485
 20
-2052.851980
 0
VERTEX
 8
011
 10
1472.609757
 20
-2053.152937
 0
VERTEX
 8
011
 10
1473.043820
 20
-2053.403543
 0
SEQEND
 8
011
 0
LINE
 8
011
 10
1471.643822
 20
-2055.828414
 11
1471.670949
 21
-2055.844076
 0
LINE
 8
011
 10
1473.043822
 20
-2053.403542
 11
1473.070949
 21
-2053.419205
 0
POLYLINE
 8
011
 66
1
 0
VERTEX
 8
011
 10
1287.717185
 20
-1949.638316
 0
VERTEX
 8
011
 10
1287.039815
 20
-1949.247243
 0
VERTEX
 8
011
 10
1286.379179
 20
-1948.865825
 0
VERTEX
 8
011
 10
1285.751550
 20
-1948.503459
 0
VERTEX
 8
011
 10
1285.172364
 20
-1948.169069
 0
VERTEX
 8
011
 10
1284.655897
 20
-1947.870890
 0
VERTEX
 8
011
 10
1284.214868
 20
-1947.616258
 0
VERTEX
 8
011
 10
1283.860131
 20
-1947.411449
 0
VERTEX
 8
011
 10
1283.600418
 20
-1947.261507
 0
SEQEND
 8
011
 0
POLYLINE
 8
011
 66
1
 0
VERTEX
 8
011
 10
1289.117186
 20
-1947.213450
 0
VERTEX
 8
011
 10
1288.439816
 20
-1946.822369
 0
VERTEX
 8
011
 10
1287.779181
 20
-1946.440952
 0
VERTEX
 8
011
 10
1287.151544
 20
-1946.078585
 0
VERTEX
 8
011
 10
1286.572366
 20
-1945.744196
 0
VERTEX
 8
011
 10
1286.055899
 20
-1945.446016
 0
VERTEX
 8
011
 10
1285.614869
 20
-1945.191385
 0
VERTEX
 8
011
 10
1285.260125
 20
-1944.986576
 0
VERTEX
 8
011
 10
1285.000420
 20
-1944.836633
 0
SEQEND
 8
011
 0
LINE
 8
011
 10
1307.126126
 20
-1960.844079
 11
1287.717183
 21
-1949.638319
 0
LINE
 8
011
 10
1308.526120
 20
-1958.419205
 11
1289.117183
 21
-1947.213448
 0
LINE
 8
011
 10
1331.403697
 20
-1974.860740
 11
1307.126126
 21
-1960.844079
 0
LINE
 8
011
 10
1332.803697
 20
-1972.435869
 11
1308.526120
 21
-1958.419205
 0
POLYLINE
 8
011
 66
1
 0
VERTEX
 8
011
 10
1333.106885
 20
-1975.844076
 0
VERTEX
 8
011
 10
1333.105805
 20
-1975.843454
 0
VERTEX
 8
011
 10
1332.959855
 20
-1975.759188
 0
VERTEX
 8
011
 10
1332.588112
 20
-1975.544562
 0
VERTEX
 8
011
 10
1332.043535
 20
-1975.230152
 0
VERTEX
 8
011
 10
1331.403697
 20
-1974.860741
 0
SEQEND
 8
011
 0
POLYLINE
 8
011
 66
1
 0
VERTEX
 8
011
 10
1334.506883
 20
-1973.419206
 0
VERTEX
 8
011
 10
1334.505806
 20
-1973.418580
 0
VERTEX
 8
011
 10
1334.359857
 20
-1973.334318
 0
VERTEX
 8
011
 10
1333.988114
 20
-1973.119693
 0
VERTEX
 8
011
 10
1333.443536
 20
-1972.805278
 0
VERTEX
 8
011
 10
1332.803699
 20
-1972.435867
 0
SEQEND
 8
011
 0
POLYLINE
 8
011
 66
1
 0
VERTEX
 8
011
 10
1283.600418
 20
-1947.261507
 0
VERTEX
 8
011
 10
1282.564750
 20
-1946.663560
 0
VERTEX
 8
011
 10
1281.613483
 20
-1946.114348
 0
VERTEX
 8
011
 10
1280.747226
 20
-1945.614213
 0
VERTEX
 8
011
 10
1279.966524
 20
-1945.163475
 0
VERTEX
 8
011
 10
1279.271877
 20
-1944.762418
 0
VERTEX
 8
011
 10
1278.663723
 20
-1944.411302
 0
VERTEX
 8
011
 10
1278.142451
 20
-1944.110343
 0
VERTEX
 8
011
 10
1277.708388
 20
-1943.859735
 0
SEQEND
 8
011
 0
POLYLINE
 8
011
 66
1
 0
VERTEX
 8
011
 10
1285.000420
 20
-1944.836633
 0
VERTEX
 8
011
 10
1283.964752
 20
-1944.238687
 0
VERTEX
 8
011
 10
1283.013484
 20
-1943.689475
 0
VERTEX
 8
011
 10
1282.147227
 20
-1943.189340
 0
VERTEX
 8
011
 10
1281.366526
 20
-1942.738602
 0
VERTEX
 8
011
 10
1280.671871
 20
-1942.337544
 0
VERTEX
 8
011
 10
1280.063717
 20
-1941.986428
 0
VERTEX
 8
011
 10
1279.542445
 20
-1941.685470
 0
VERTEX
 8
011
 10
1279.108389
 20
-1941.434869
 0
SEQEND
 8
011
 0
LINE
 8
011
 10
1277.708386
 20
-1943.859738
 11
1277.681259
 21
-1943.844076
 0
LINE
 8
011
 10
1279.108386
 20
-1941.434867
 11
1279.081259
 21
-1941.419205
 0
LINE
 8
011
 10
1332.803697
 20
-2024.827411
 11
1308.526120
 21
-2038.844076
 0
LINE
 8
011
 10
1331.403697
 20
-2022.402540
 11
1307.126126
 21
-2036.419204
 0
LINE
 8
011
 10
1308.526120
 20
-2038.844076
 11
1289.117183
 21
-2050.049832
 0
LINE
 8
011
 10
1307.126126
 20
-2036.419204
 11
1287.717183
 21
-2047.624961
 0
POLYLINE
 8
011
 66
1
 0
VERTEX
 8
011
 10
1289.117186
 20
-2050.049832
 0
VERTEX
 8
011
 10
1288.439816
 20
-2050.440909
 0
VERTEX
 8
011
 10
1287.779181
 20
-2050.822327
 0
VERTEX
 8
011
 10
1287.151544
 20
-2051.184693
 0
VERTEX
 8
011
 10
1286.572366
 20
-2051.519083
 0
VERTEX
 8
011
 10
1286.055899
 20
-2051.817264
 0
VERTEX
 8
011
 10
1285.614869
 20
-2052.071895
 0
VERTEX
 8
011
 10
1285.260125
 20
-2052.276704
 0
VERTEX
 8
011
 10
1285.000420
 20
-2052.426647
 0
SEQEND
 8
011
 0
POLYLINE
 8
011
 66
1
 0
VERTEX
 8
011
 10
1287.717185
 20
-2047.624960
 0
VERTEX
 8
011
 10
1287.039815
 20
-2048.016038
 0
VERTEX
 8
011
 10
1286.379179
 20
-2048.397455
 0
VERTEX
 8
011
 10
1285.751550
 20
-2048.759822
 0
VERTEX
 8
011
 10
1285.172364
 20
-2049.094213
 0
VERTEX
 8
011
 10
1284.655897
 20
-2049.392395
 0
VERTEX
 8
011
 10
1284.214868
 20
-2049.647024
 0
VERTEX
 8
011
 10
1283.860131
 20
-2049.851833
 0
VERTEX
 8
011
 10
1283.600418
 20
-2050.001778
 0
SEQEND
 8
011
 0
POLYLINE
 8
011
 66
1
 0
VERTEX
 8
011
 10
1334.506883
 20
-2023.844076
 0
VERTEX
 8
011
 10
1334.505806
 20
-2023.844699
 0
VERTEX
 8
011
 10
1334.359857
 20
-2023.928963
 0
VERTEX
 8
011
 10
1333.988114
 20
-2024.143588
 0
VERTEX
 8
011
 10
1333.443536
 20
-2024.458001
 0
VERTEX
 8
011
 10
1332.803699
 20
-2024.827411
 0
SEQEND
 8
011
 0
POLYLINE
 8
011
 66
1
 0
VERTEX
 8
011
 10
1333.106885
 20
-2021.419205
 0
VERTEX
 8
011
 10
1333.105805
 20
-2021.419828
 0
VERTEX
 8
011
 10
1332.959855
 20
-2021.504091
 0
VERTEX
 8
011
 10
1332.588112
 20
-2021.718717
 0
VERTEX
 8
011
 10
1332.043535
 20
-2022.033130
 0
VERTEX
 8
011
 10
1331.403697
 20
-2022.402540
 0
SEQEND
 8
011
 0
POLYLINE
 8
011
 66
1
 0
VERTEX
 8
011
 10
1285.000420
 20
-2052.426647
 0
VERTEX
 8
011
 10
1283.964752
 20
-2053.024592
 0
VERTEX
 8
011
 10
1283.013484
 20
-2053.573804
 0
VERTEX
 8
011
 10
1282.147227
 20
-2054.073939
 0
VERTEX
 8
011
 10
1281.366526
 20
-2054.524679
 0
VERTEX
 8
011
 10
1280.671871
 20
-2054.925734
 0
VERTEX
 8
011
 10
1280.063717
 20
-2055.276852
 0
VERTEX
 8
011
 10
1279.542445
 20
-2055.577809
 0
VERTEX
 8
011
 10
1279.108389
 20
-2055.828413
 0
SEQEND
 8
011
 0
POLYLINE
 8
011
 66
1
 0
VERTEX
 8
011
 10
1283.600418
 20
-2050.001778
 0
VERTEX
 8
011
 10
1282.564750
 20
-2050.599720
 0
VERTEX
 8
011
 10
1281.613483
 20
-2051.148934
 0
VERTEX
 8
011
 10
1280.747226
 20
-2051.649067
 0
VERTEX
 8
011
 10
1279.966524
 20
-2052.099807
 0
VERTEX
 8
011
 10
1279.271877
 20
-2052.500862
 0
VERTEX
 8
011
 10
1278.663723
 20
-2052.851980
 0
VERTEX
 8
011
 10
1278.142451
 20
-2053.152937
 0
VERTEX
 8
011
 10
1277.708388
 20
-2053.403543
 0
SEQEND
 8
011
 0
LINE
 8
011
 10
1279.108386
 20
-2055.828414
 11
1279.081259
 21
-2055.844076
 0
LINE
 8
011
 10
1277.708386
 20
-2053.403542
 11
1277.681259
 21
-2053.419205
 0
POLYLINE
 8
011
 66
1
 0
VERTEX
 8
011
 10
1463.035023
 20
-1949.638316
 0
VERTEX
 8
011
 10
1463.712393
 20
-1949.247243
 0
VERTEX
 8
011
 10
1464.373028
 20
-1948.865825
 0
VERTEX
 8
011
 10
1465.000658
 20
-1948.503459
 0
VERTEX
 8
011
 10
1465.579844
 20
-1948.169069
 0
VERTEX
 8
011
 10
1466.096310
 20
-1947.870890
 0
VERTEX
 8
011
 10
1466.537340
 20
-1947.616258
 0
VERTEX
 8
011
 10
1466.892077
 20
-1947.411449
 0
VERTEX
 8
011
 10
1467.151790
 20
-1947.261507
 0
SEQEND
 8
011
 0
POLYLINE
 8
011
 66
1
 0
VERTEX
 8
011
 10
1461.635022
 20
-1947.213450
 0
VERTEX
 8
011
 10
1462.312392
 20
-1946.822369
 0
VERTEX
 8
011
 10
1462.973027
 20
-1946.440952
 0
VERTEX
 8
011
 10
1463.600664
 20
-1946.078585
 0
VERTEX
 8
011
 10
1464.179842
 20
-1945.744196
 0
VERTEX
 8
011
 10
1464.696309
 20
-1945.446016
 0
VERTEX
 8
011
 10
1465.137339
 20
-1945.191385
 0
VERTEX
 8
011
 10
1465.492083
 20
-1944.986576
 0
VERTEX
 8
011
 10
1465.751788
 20
-1944.836633
 0
SEQEND
 8
011
 0
LINE
 8
011
 10
1443.626082
 20
-1960.844079
 11
1463.035025
 21
-1949.638319
 0
LINE
 8
011
 10
1442.226088
 20
-1958.419205
 11
1461.635025
 21
-1947.213448
 0
LINE
 8
011
 10
1419.348511
 20
-1974.860740
 11
1443.626082
 21
-1960.844079
 0
LINE
 8
011
 10
1417.948511
 20
-1972.435869
 11
1442.226088
 21
-1958.419205
 0
POLYLINE
 8
011
 66
1
 0
VERTEX
 8
011
 10
1417.645323
 20
-1975.844076
 0
VERTEX
 8
011
 10
1417.646403
 20
-1975.843454
 0
VERTEX
 8
011
 10
1417.792352
 20
-1975.759188
 0
VERTEX
 8
011
 10
1418.164095
 20
-1975.544562
 0
VERTEX
 8
011
 10
1418.708673
 20
-1975.230152
 0
VERTEX
 8
011
 10
1419.348510
 20
-1974.860741
 0
SEQEND
 8
011
 0
POLYLINE
 8
011
 66
1
 0
VERTEX
 8
011
 10
1416.245325
 20
-1973.419206
 0
VERTEX
 8
011
 10
1416.246402
 20
-1973.418580
 0
VERTEX
 8
011
 10
1416.392351
 20
-1973.334318
 0
VERTEX
 8
011
 10
1416.764094
 20
-1973.119693
 0
VERTEX
 8
011
 10
1417.308672
 20
-1972.805278
 0
VERTEX
 8
011
 10
1417.948509
 20
-1972.435867
 0
SEQEND
 8
011
 0
POLYLINE
 8
011
 66
1
 0
VERTEX
 8
011
 10
1467.151790
 20
-1947.261507
 0
VERTEX
 8
011
 10
1468.187457
 20
-1946.663560
 0
VERTEX
 8
011
 10
1469.138725
 20
-1946.114348
 0
VERTEX
 8
011
 10
1470.004982
 20
-1945.614213
 0
VERTEX
 8
011
 10
1470.785684
 20
-1945.163475
 0
VERTEX
 8
011
 10
1471.480331
 20
-1944.762418
 0
VERTEX
 8
011
 10
1472.088485
 20
-1944.411302
 0
VERTEX
 8
011
 10
1472.609757
 20
-1944.110343
 0
VERTEX
 8
011
 10
1473.043820
 20
-1943.859735
 0
SEQEND
 8
011
 0
POLYLINE
 8
011
 66
1
 0
VERTEX
 8
011
 10
1465.751788
 20
-1944.836633
 0
VERTEX
 8
011
 10
1466.787456
 20
-1944.238687
 0
VERTEX
 8
011
 10
1467.738724
 20
-1943.689475
 0
VERTEX
 8
011
 10
1468.604981
 20
-1943.189340
 0
VERTEX
 8
011
 10
1469.385682
 20
-1942.738602
 0
VERTEX
 8
011
 10
1470.080337
 20
-1942.337544
 0
VERTEX
 8
011
 10
1470.688491
 20
-1941.986428
 0
VERTEX
 8
011
 10
1471.209763
 20
-1941.685470
 0
VERTEX
 8
011
 10
1471.643819
 20
-1941.434869
 0
SEQEND
 8
011
 0
LINE
 8
011
 10
1473.043822
 20
-1943.859738
 11
1473.070949
 21
-1943.844076
 0
LINE
 8
011
 10
1471.643822
 20
-1941.434867
 11
1471.670949
 21
-1941.419205
 0
LINE
 8
011
 10
1376.776104
 20
-1898.669400
 11
1376.776104
 21
-1893.935831
 0
LINE
 8
011
 10
1373.976104
 20
-1898.669400
 11
1373.976104
 21
-1893.935831
 0
LINE
 8
011
 10
1376.776104
 20
-1920.631641
 11
1376.776104
 21
-1898.669400
 0
LINE
 8
011
 10
1373.976104
 20
-1920.631641
 11
1373.976104
 21
-1898.669400
 0
LINE
 8
011
 10
1376.776104
 20
-1948.664969
 11
1376.776104
 21
-1920.631641
 0
LINE
 8
011
 10
1373.976104
 20
-1948.664969
 11
1373.976104
 21
-1920.631641
 0
LINE
 8
011
 10
1376.776104
 20
-1950.631640
 11
1376.776104
 21
-1948.664969
 0
LINE
 8
011
 10
1373.976104
 20
-1950.631640
 11
1373.976104
 21
-1948.664969
 0
LINE
 8
011
 10
1376.776104
 20
-1893.935831
 11
1376.776104
 21
-1886.671047
 0
LINE
 8
011
 10
1373.976104
 20
-1893.935831
 11
1373.976104
 21
-1886.671047
 0
LINE
 8
011
 10
1376.776104
 20
-1886.671047
 11
1376.776104
 21
-1886.631640
 0
LINE
 8
011
 10
1373.976104
 20
-1886.671047
 11
1373.976104
 21
-1886.631640
 0
LINE
 8
011
 10
1376.776104
 20
-2048.598311
 11
1376.776104
 21
-2076.631641
 0
LINE
 8
011
 10
1373.976104
 20
-2048.598311
 11
1373.976104
 21
-2076.631641
 0
LINE
 8
011
 10
1376.776104
 20
-2076.631641
 11
1376.776104
 21
-2098.593881
 0
LINE
 8
011
 10
1373.976104
 20
-2076.631641
 11
1373.976104
 21
-2098.593881
 0
LINE
 8
011
 10
1376.776104
 20
-2098.593881
 11
1376.776104
 21
-2103.327449
 0
LINE
 8
011
 10
1373.976104
 20
-2098.593881
 11
1373.976104
 21
-2103.327449
 0
LINE
 8
011
 10
1376.776104
 20
-2046.631640
 11
1376.776104
 21
-2048.598311
 0
LINE
 8
011
 10
1373.976104
 20
-2046.631640
 11
1373.976104
 21
-2048.598311
 0
LINE
 8
011
 10
1376.776104
 20
-2103.327449
 11
1376.776104
 21
-2110.592233
 0
LINE
 8
011
 10
1373.976104
 20
-2103.327449
 11
1373.976104
 21
-2110.592233
 0
LINE
 8
011
 10
1376.776104
 20
-2110.592233
 11
1376.776104
 21
-2110.631640
 0
LINE
 8
011
 10
1373.976104
 20
-2110.592233
 11
1373.976104
 21
-2110.631640
 0
ARC
 8
011
 10
1375.376104
 20
-1998.631640
 40
35.700000
 50
105.186354
 51
287.021602
 0
ARC
 8
011
 10
1375.376104
 20
-1998.631640
 40
35.700000
 50
312.978398
 51
74.813646
 0
ARC
 8
011
 10
1364.714856
 20
-1959.353929
 40
4.998903
 50
285.183864
 51
307.043128
 0
ARC
 8
011
 10
1386.037318
 20
-1959.353998
 40
4.998828
 50
232.956705
 51
254.816303
 0
ARC
 8
011
 10
1403.121613
 20
-2028.407762
 40
4.999271
 50
132.976775
 51
154.834423
 0
ARC
 8
011
 10
1387.290328
 20
-2037.548970
 40
5.000212
 50
85.167642
 51
107.021127
 0
LINE
 8
011
 10
1377.376104
 20
-1942.631641
 11
1376.776104
 21
-1942.631641
 0
LINE
 8
011
 10
1373.976104
 20
-1942.631641
 11
1373.376104
 21
-1942.631641
 0
LINE
 8
011
 10
1373.376104
 20
-2054.631641
 11
1373.976104
 21
-2054.631641
 0
LINE
 8
011
 10
1376.776104
 20
-2054.631641
 11
1377.376104
 21
-2054.631641
 0
LINE
 8
011
 10
1373.376104
 20
-2056.796569
 11
1373.376104
 21
-2054.631641
 0
LINE
 8
011
 10
1377.376104
 20
-1940.466711
 11
1377.376104
 21
-1942.631641
 0
LINE
 8
011
 10
1377.376104
 20
-2054.631641
 11
1377.376104
 21
-2056.796588
 0
LINE
 8
011
 10
1373.376104
 20
-1942.631641
 11
1373.376104
 21
-1940.466696
 0
POLYLINE
 8
011
 66
1
 0
VERTEX
 8
011
 10
1367.777599
 20
-1940.030703
 0
VERTEX
 8
011
 10
1369.174880
 20
-1940.751830
 0
VERTEX
 8
011
 10
1369.192629
 20
-1940.761225
 0
SEQEND
 8
011
 0
ARC
 8
011
 10
1356.242014
 20
-1923.072923
 40
20.510546
 50
300.346238
 51
304.220060
 0
POLYLINE
 8
011
 66
1
 0
VERTEX
 8
011
 10
1382.974609
 20
-2057.232577
 0
VERTEX
 8
011
 10
1381.577328
 20
-2056.511447
 0
VERTEX
 8
011
 10
1381.559579
 20
-2056.502055
 0
SEQEND
 8
011
 0
ARC
 8
011
 10
1394.494967
 20
-2074.166299
 40
20.482089
 50
120.343482
 51
124.222686
 0
POLYLINE
 8
011
 66
1
 0
VERTEX
 8
011
 10
1369.192629
 20
-2056.502055
 0
VERTEX
 8
011
 10
1369.174880
 20
-2056.511447
 0
VERTEX
 8
011
 10
1367.779715
 20
-2057.231517
 0
SEQEND
 8
011
 0
ARC
 8
011
 10
1356.258072
 20
-2074.164915
 40
20.480475
 50
55.768241
 51
59.656569
 0
ARC
 8
011
 10
1394.509113
 20
-1923.074729
 40
20.508442
 50
235.770731
 51
239.653819
 0
POLYLINE
 8
011
 66
1
 0
VERTEX
 8
011
 10
1381.559579
 20
-1940.761225
 0
VERTEX
 8
011
 10
1381.577328
 20
-1940.751830
 0
VERTEX
 8
011
 10
1382.972454
 20
-1940.031783
 0
SEQEND
 8
011
 0
ARC
 8
011
 10
1406.389139
 20
-2056.114658
 40
23.440040
 50
182.730789
 51
190.337887
 0
LINE
 8
011
 10
1383.329610
 20
-2060.321038
 11
1377.876120
 21
-2060.781376
 0
LINE
 8
011
 10
1377.876104
 20
-2060.780579
 11
1377.876104
 21
-2059.131639
 0
LINE
 8
011
 10
1377.668997
 20
-2058.924535
 11
1377.876104
 21
-2059.131639
 0
ARC
 8
011
 10
1378.376131
 20
-2058.217417
 40
1.000027
 50
180.000000
 51
224.999350
 0
LINE
 8
011
 10
1377.376104
 20
-2056.796482
 11
1377.376104
 21
-2058.217427
 0
ARC
 8
011
 10
1344.746697
 20
-1941.128584
 40
23.059096
 50
2.727271
 51
10.459883
 0
LINE
 8
011
 10
1367.422598
 20
-1936.942244
 11
1372.876088
 21
-1936.481902
 0
LINE
 8
011
 10
1372.876104
 20
-1936.482699
 11
1372.876104
 21
-1938.131640
 0
LINE
 8
011
 10
1373.083211
 20
-1938.338743
 11
1372.876104
 21
-1938.131640
 0
ARC
 8
011
 10
1372.376030
 20
-1939.045880
 40
1.000074
 50
0.000000
 51
44.998234
 0
LINE
 8
011
 10
1373.376104
 20
-1940.466801
 11
1373.376104
 21
-1939.045856
 0
LINE
 8
011
 10
1377.876104
 20
-1938.131640
 11
1377.876104
 21
-1936.482699
 0
LINE
 8
011
 10
1377.876120
 20
-1936.481902
 11
1383.329610
 21
-1936.942244
 0
ARC
 8
011
 10
1419.783996
 20
-1942.682521
 40
36.903564
 50
171.051417
 51
175.881072
 0
POLYLINE
 8
011
 66
1
 0
VERTEX
 8
011
 10
1377.668997
 20
-1938.338743
 0
VERTEX
 8
011
 10
1377.460348
 20
-1938.644120
 0
VERTEX
 8
011
 10
1377.376104
 20
-1939.045856
 0
SEQEND
 8
011
 0
LINE
 8
011
 10
1377.876104
 20
-1938.131640
 11
1377.668997
 21
-1938.338743
 0
LINE
 8
011
 10
1377.376104
 20
-1939.045856
 11
1377.376104
 21
-1940.466801
 0
LINE
 8
011
 10
1372.876104
 20
-2059.131639
 11
1372.876104
 21
-2060.780579
 0
LINE
 8
011
 10
1372.876088
 20
-2060.781376
 11
1367.422598
 21
-2060.321038
 0
ARC
 8
011
 10
1343.597877
 20
-2056.001911
 40
24.213057
 50
349.724661
 51
357.088168
 0
POLYLINE
 8
011
 66
1
 0
VERTEX
 8
011
 10
1373.083211
 20
-2058.924535
 0
VERTEX
 8
011
 10
1373.291860
 20
-2058.619162
 0
VERTEX
 8
011
 10
1373.376104
 20
-2058.217427
 0
SEQEND
 8
011
 0
LINE
 8
011
 10
1372.876104
 20
-2059.131639
 11
1373.083211
 21
-2058.924535
 0
LINE
 8
011
 10
1373.376104
 20
-2058.217427
 11
1373.376104
 21
-2056.796482
 0
ARC
 8
011
 10
1375.376569
 20
-1998.629096
 40
62.197416
 50
77.622361
 51
82.653608
 0
ARC
 8
011
 10
1375.376046
 20
-1998.632085
 40
62.199552
 50
257.622408
 51
262.653483
 0
POLYLINE
 8
011
 66
1
 0
VERTEX
 8
011
 10
1388.708843
 20
-2059.385883
 0
VERTEX
 8
011
 10
1386.058754
 20
-2059.907419
 0
VERTEX
 8
011
 10
1383.329610
 20
-2060.321038
 0
SEQEND
 8
011
 0
POLYLINE
 8
011
 66
1
 0
VERTEX
 8
011
 10
1362.043364
 20
-1937.877396
 0
VERTEX
 8
011
 10
1364.693454
 20
-1937.355863
 0
VERTEX
 8
011
 10
1367.422598
 20
-1936.942244
 0
SEQEND
 8
011
 0
ARC
 8
011
 10
1375.376104
 20
-1960.131640
 40
5.500000
 50
15.000000
 51
24.619977
 0
ARC
 8
011
 10
1375.376104
 20
-1960.131640
 40
5.500000
 50
155.380023
 51
165.000000
 0
LINE
 8
011
 10
1381.208220
 20
-1960.647024
 11
1380.688696
 21
-1958.708135
 0
LINE
 8
011
 10
1370.063512
 20
-1958.708135
 11
1369.543988
 21
-1960.647024
 0
ARC
 8
011
 10
1386.037849
 20
-1959.352928
 40
5.000000
 50
195.000000
 51
232.959226
 0
ARC
 8
011
 10
1364.714359
 20
-1959.352928
 40
5.000000
 50
307.040774
 51
345.000000
 0
ARC
 8
011
 10
1403.122213
 20
-2028.408199
 40
5.000000
 50
154.832819
 51
195.000000
 0
LINE
 8
011
 10
1398.739807
 20
-2031.371355
 11
1398.292584
 21
-2029.702294
 0
ARC
 8
011
 10
1394.876104
 20
-2032.406631
 40
4.000000
 50
225.000000
 51
15.000000
 0
ARC
 8
011
 10
1387.290306
 20
-2037.548755
 40
5.000000
 50
45.000000
 51
85.167181
 0
LINE
 8
011
 10
1390.825840
 20
-2034.013221
 11
1392.047677
 21
-2035.235058
 0
ARC
 8
011
 10
1375.329186
 20
-1998.836639
 40
62.410292
 50
76.595963
 51
77.620714
 0
ARC
 8
011
 10
1375.388856
 20
-1998.687361
 40
62.257161
 50
102.378026
 51
103.405297
 0
ARC
 8
011
 10
1375.372886
 20
-1998.617573
 40
62.214429
 50
282.377673
 51
283.405650
 0
ARC
 8
011
 10
1375.376915
 20
-1998.628088
 40
62.203643
 50
256.594261
 51
257.622416
 0
ARC
 8
011
 10
1375.376200
 20
-1998.631252
 40
62.199601
 50
69.015425
 51
76.594232
 0
ARC
 8
011
 10
1375.375913
 20
-1998.630945
 40
62.199281
 50
103.405748
 51
110.984594
 0
ARC
 8
011
 10
1375.376104
 20
-1998.631628
 40
62.200011
 50
249.015475
 51
256.594231
 0
ARC
 8
011
 10
1375.376193
 20
-1998.631916
 40
62.199710
 50
283.405750
 51
290.984543
 0
LINE
 8
011
 10
1318.176104
 20
-2019.416250
 11
1318.176104
 21
-1977.847030
 0
LINE
 8
011
 10
1432.576104
 20
-1977.847030
 11
1432.576104
 21
-2019.416250
 0
ARC
 8
011
 10
1375.376104
 20
-1998.631640
 40
35.700000
 50
74.813646
 51
75.000000
 0
ARC
 8
011
 10
1375.376104
 20
-1998.631640
 40
35.700000
 50
105.000000
 51
105.186354
 0
POLYLINE
 8
011
 66
1
 0
VERTEX
 8
011
 10
1432.576104
 20
-2019.416250
 0
VERTEX
 8
011
 10
1432.114518
 20
-2023.291718
 0
VERTEX
 8
011
 10
1430.770854
 20
-2026.920540
 0
SEQEND
 8
011
 0
POLYLINE
 8
011
 66
1
 0
VERTEX
 8
011
 10
1318.176104
 20
-1977.847030
 0
VERTEX
 8
011
 10
1318.637690
 20
-1973.971562
 0
VERTEX
 8
011
 10
1319.981354
 20
-1970.342742
 0
SEQEND
 8
011
 0
POLYLINE
 8
011
 66
1
 0
VERTEX
 8
011
 10
1430.770854
 20
-1970.342742
 0
VERTEX
 8
011
 10
1432.114518
 20
-1973.971562
 0
VERTEX
 8
011
 10
1432.576104
 20
-1977.847030
 0
SEQEND
 8
011
 0
POLYLINE
 8
011
 66
1
 0
VERTEX
 8
011
 10
1319.981354
 20
-2026.920540
 0
VERTEX
 8
011
 10
1318.637690
 20
-2023.291717
 0
VERTEX
 8
011
 10
1318.176104
 20
-2019.416250
 0
SEQEND
 8
011
 0
LINE
 8
011
 10
1430.770854
 20
-2026.920540
 11
1429.856686
 21
-2028.469437
 0
POLYLINE
 8
011
 66
1
 0
VERTEX
 8
011
 10
1428.433436
 20
-2030.880885
 0
VERTEX
 8
011
 10
1426.914143
 20
-2033.455062
 0
VERTEX
 8
011
 10
1422.290465
 20
-2039.471358
 0
VERTEX
 8
011
 10
1416.968635
 20
-2044.879898
 0
VERTEX
 8
011
 10
1411.027844
 20
-2049.600193
 0
VERTEX
 8
011
 10
1404.556500
 20
-2053.562000
 0
VERTEX
 8
011
 10
1397.650909
 20
-2056.706359
 0
SEQEND
 8
011
 0
LINE
 8
011
 10
1319.981354
 20
-1970.342742
 11
1320.895521
 21
-1968.793845
 0
POLYLINE
 8
011
 66
1
 0
VERTEX
 8
011
 10
1322.318772
 20
-1966.382393
 0
VERTEX
 8
011
 10
1323.838065
 20
-1963.808218
 0
VERTEX
 8
011
 10
1328.461743
 20
-1957.791919
 0
VERTEX
 8
011
 10
1333.783573
 20
-1952.383386
 0
VERTEX
 8
011
 10
1339.724364
 20
-1947.663085
 0
VERTEX
 8
011
 10
1346.195708
 20
-1943.701276
 0
VERTEX
 8
011
 10
1353.101299
 20
-1940.556923
 0
SEQEND
 8
011
 0
POLYLINE
 8
011
 66
1
 0
VERTEX
 8
011
 10
1397.650909
 20
-1940.556923
 0
VERTEX
 8
011
 10
1404.556500
 20
-1943.701276
 0
VERTEX
 8
011
 10
1411.027844
 20
-1947.663085
 0
VERTEX
 8
011
 10
1416.968635
 20
-1952.383386
 0
VERTEX
 8
011
 10
1422.290465
 20
-1957.791919
 0
VERTEX
 8
011
 10
1426.914143
 20
-1963.808218
 0
VERTEX
 8
011
 10
1428.433436
 20
-1966.382393
 0
SEQEND
 8
011
 0
LINE
 8
011
 10
1429.856686
 20
-1968.793845
 11
1430.770854
 21
-1970.342742
 0
POLYLINE
 8
011
 66
1
 0
VERTEX
 8
011
 10
1353.101299
 20
-2056.706359
 0
VERTEX
 8
011
 10
1346.195708
 20
-2053.562000
 0
VERTEX
 8
011
 10
1339.724364
 20
-2049.600193
 0
VERTEX
 8
011
 10
1333.783573
 20
-2044.879898
 0
VERTEX
 8
011
 10
1328.461743
 20
-2039.471358
 0
VERTEX
 8
011
 10
1323.838065
 20
-2033.455062
 0
VERTEX
 8
011
 10
1322.318772
 20
-2030.880885
 0
SEQEND
 8
011
 0
LINE
 8
011
 10
1320.895521
 20
-2028.469437
 11
1319.981354
 21
-2026.920540
 0
ARC
 8
011
 10
1375.372541
 20
-1998.521671
 40
62.089976
 50
91.381025
 51
92.304299
 0
ARC
 8
011
 10
1375.375217
 20
-1998.605924
 40
60.974269
 50
91.408815
 51
92.349003
 0
ARC
 8
011
 10
1375.373900
 20
-1998.562360
 40
62.269314
 50
271.382355
 51
272.302969
 0
ARC
 8
011
 10
1375.389125
 20
-1999.034097
 40
60.597346
 50
271.406104
 51
272.352140
 0
ARC
 8
011
 10
1375.390706
 20
-1998.178560
 40
61.746698
 50
87.693135
 51
88.621541
 0
ARC
 8
011
 10
1375.369412
 20
-1998.836965
 40
61.205427
 50
87.652773
 51
88.589409
 0
ARC
 8
011
 10
1375.378048
 20
-1998.570419
 40
62.261251
 50
267.696971
 51
268.617705
 0
ARC
 8
011
 10
1375.376575
 20
-1998.622866
 40
61.008784
 50
267.651050
 51
268.590706
 0
POLYLINE
 8
011
 66
1
 0
VERTEX
 8
011
 10
1473.376101
 20
-2192.135127
 0
VERTEX
 8
011
 10
1474.604136
 20
-2192.036392
 0
VERTEX
 8
011
 10
1475.732675
 20
-2191.748204
 0
VERTEX
 8
011
 10
1476.670301
 20
-2191.293882
 0
VERTEX
 8
011
 10
1477.341047
 20
-2190.710248
 0
VERTEX
 8
011
 10
1477.690584
 20
-2190.044584
 0
VERTEX
 8
011
 10
1477.690584
 20
-2189.350815
 0
VERTEX
 8
011
 10
1477.341047
 20
-2188.685151
 0
VERTEX
 8
011
 10
1476.670301
 20
-2188.101517
 0
VERTEX
 8
011
 10
1475.732675
 20
-2187.647195
 0
VERTEX
 8
011
 10
1474.604136
 20
-2187.358992
 0
VERTEX
 8
011
 10
1473.376101
 20
-2187.260257
 0
VERTEX
 8
011
 10
1472.148074
 20
-2187.358992
 0
VERTEX
 8
011
 10
1471.019535
 20
-2187.647195
 0
VERTEX
 8
011
 10
1470.081909
 20
-2188.101517
 0
VERTEX
 8
011
 10
1469.411156
 20
-2188.685151
 0
VERTEX
 8
011
 10
1469.061627
 20
-2189.350815
 0
VERTEX
 8
011
 10
1469.061627
 20
-2190.044584
 0
VERTEX
 8
011
 10
1469.411156
 20
-2190.710248
 0
VERTEX
 8
011
 10
1470.081909
 20
-2191.293882
 0
VERTEX
 8
011
 10
1471.019535
 20
-2191.748204
 0
VERTEX
 8
011
 10
1472.148074
 20
-2192.036392
 0
VERTEX
 8
011
 10
1473.376101
 20
-2192.135127
 0
SEQEND
 8
011
 0
POLYLINE
 8
011
 66
1
 0
VERTEX
 8
011
 10
1418.797410
 20
-2195.418091
 0
VERTEX
 8
011
 10
1418.973974
 20
-2196.104796
 0
VERTEX
 8
011
 10
1419.489360
 20
-2196.735876
 0
VERTEX
 8
011
 10
1420.301820
 20
-2197.260188
 0
VERTEX
 8
011
 10
1421.345527
 20
-2197.635265
 0
VERTEX
 8
011
 10
1422.535928
 20
-2197.830723
 0
VERTEX
 8
011
 10
1423.776584
 20
-2197.830723
 0
VERTEX
 8
011
 10
1424.966986
 20
-2197.635265
 0
VERTEX
 8
011
 10
1425.478450
 20
-2197.480829
 0
SEQEND
 8
011
 0
POLYLINE
 8
011
 66
1
 0
VERTEX
 8
011
 10
1426.975614
 20
-2194.243522
 0
VERTEX
 8
011
 10
1426.823153
 20
-2194.100322
 0
VERTEX
 8
011
 10
1426.010693
 20
-2193.576010
 0
VERTEX
 8
011
 10
1424.966986
 20
-2193.200933
 0
VERTEX
 8
011
 10
1423.776584
 20
-2193.005474
 0
VERTEX
 8
011
 10
1422.535928
 20
-2193.005474
 0
VERTEX
 8
011
 10
1421.345527
 20
-2193.200933
 0
VERTEX
 8
011
 10
1420.301820
 20
-2193.576010
 0
VERTEX
 8
011
 10
1419.489360
 20
-2194.100322
 0
VERTEX
 8
011
 10
1418.973974
 20
-2194.731386
 0
VERTEX
 8
011
 10
1418.797410
 20
-2195.418091
 0
SEQEND
 8
011
 0
POLYLINE
 8
011
 66
1
 0
VERTEX
 8
011
 10
1440.376102
 20
-2182.740690
 0
VERTEX
 8
011
 10
1441.604136
 20
-2182.641955
 0
VERTEX
 8
011
 10
1442.732676
 20
-2182.353752
 0
VERTEX
 8
011
 10
1443.670301
 20
-2181.899430
 0
VERTEX
 8
011
 10
1444.341047
 20
-2181.315796
 0
VERTEX
 8
011
 10
1444.690584
 20
-2180.650132
 0
VERTEX
 8
011
 10
1444.690584
 20
-2179.956378
 0
VERTEX
 8
011
 10
1444.341047
 20
-2179.290714
 0
VERTEX
 8
011
 10
1443.670301
 20
-2178.707080
 0
VERTEX
 8
011
 10
1442.732676
 20
-2178.252758
 0
VERTEX
 8
011
 10
1441.604136
 20
-2177.964555
 0
VERTEX
 8
011
 10
1440.376102
 20
-2177.865820
 0
VERTEX
 8
011
 10
1439.148075
 20
-2177.964555
 0
VERTEX
 8
011
 10
1438.019535
 20
-2178.252758
 0
VERTEX
 8
011
 10
1437.081909
 20
-2178.707080
 0
VERTEX
 8
011
 10
1436.411156
 20
-2179.290714
 0
VERTEX
 8
011
 10
1436.061623
 20
-2179.956378
 0
VERTEX
 8
011
 10
1436.061623
 20
-2180.650132
 0
VERTEX
 8
011
 10
1436.411156
 20
-2181.315796
 0
VERTEX
 8
011
 10
1437.081909
 20
-2181.899430
 0
VERTEX
 8
011
 10
1438.019535
 20
-2182.353752
 0
VERTEX
 8
011
 10
1439.148075
 20
-2182.641955
 0
VERTEX
 8
011
 10
1440.376102
 20
-2182.740690
 0
SEQEND
 8
011
 0
POLYLINE
 8
011
 66
1
 0
VERTEX
 8
011
 10
1509.858562
 20
-2190.003009
 0
VERTEX
 8
011
 10
1509.824453
 20
-2189.877199
 0
VERTEX
 8
011
 10
1509.819104
 20
-2189.753787
 0
VERTEX
 8
011
 10
1509.842409
 20
-2189.633073
 0
VERTEX
 8
011
 10
1509.894206
 20
-2189.515414
 0
VERTEX
 8
011
 10
1510.031133
 20
-2189.339252
 0
VERTEX
 8
011
 10
1510.238557
 20
-2189.168425
 0
VERTEX
 8
011
 10
1511.106385
 20
-2188.743504
 0
VERTEX
 8
011
 10
1512.022613
 20
-2188.424142
 0
VERTEX
 8
011
 10
1512.948348
 20
-2188.122632
 0
VERTEX
 8
011
 10
1514.783411
 20
-2187.465193
 0
VERTEX
 8
011
 10
1516.567244
 20
-2186.669232
 0
SEQEND
 8
011
 0
POLYLINE
 8
011
 66
1
 0
VERTEX
 8
011
 10
1513.189732
 20
-2196.536796
 0
VERTEX
 8
011
 10
1511.985733
 20
-2194.659950
 0
VERTEX
 8
011
 10
1509.858562
 20
-2190.003009
 0
SEQEND
 8
011
 0
POLYLINE
 8
011
 66
1
 0
VERTEX
 8
011
 10
1369.964728
 20
-2192.585872
 0
VERTEX
 8
011
 10
1370.892211
 20
-2193.768577
 0
VERTEX
 8
011
 10
1371.843502
 20
-2194.904344
 0
SEQEND
 8
011
 0
POLYLINE
 8
011
 66
1
 0
VERTEX
 8
011
 10
1370.970149
 20
-2188.730495
 0
VERTEX
 8
011
 10
1371.321092
 20
-2189.243482
 0
VERTEX
 8
011
 10
1371.325083
 20
-2189.251216
 0
SEQEND
 8
011
 0
ARC
 8
011
 10
1367.709763
 20
-2192.829079
 40
5.237223
 50
51.498072
 51
91.672838
 0
POLYLINE
 8
011
 66
1
 0
VERTEX
 8
011
 10
1357.134086
 20
-2181.323441
 0
VERTEX
 8
011
 10
1357.229775
 20
-2182.737665
 0
VERTEX
 8
011
 10
1357.706475
 20
-2184.196817
 0
VERTEX
 8
011
 10
1358.629883
 20
-2185.310067
 0
VERTEX
 8
011
 10
1360.193396
 20
-2186.144905
 0
VERTEX
 8
011
 10
1363.481797
 20
-2187.006565
 0
VERTEX
 8
011
 10
1366.898510
 20
-2187.508466
 0
VERTEX
 8
011
 10
1367.556876
 20
-2187.594088
 0
SEQEND
 8
011
 0
POLYLINE
 8
011
 66
1
 0
VERTEX
 8
011
 10
1517.067893
 20
-2145.170176
 0
VERTEX
 8
011
 10
1513.406991
 20
-2135.360377
 0
VERTEX
 8
011
 10
1508.913560
 20
-2125.883305
 0
VERTEX
 8
011
 10
1503.587364
 20
-2116.875658
 0
VERTEX
 8
011
 10
1497.651911
 20
-2108.750725
 0
VERTEX
 8
011
 10
1490.902959
 20
-2101.255880
 0
VERTEX
 8
011
 10
1483.390054
 20
-2094.579572
 0
VERTEX
 8
011
 10
1476.688808
 20
-2089.841598
 0
VERTEX
 8
011
 10
1469.505048
 20
-2085.828787
 0
VERTEX
 8
011
 10
1461.941449
 20
-2082.661940
 0
VERTEX
 8
011
 10
1453.995092
 20
-2080.427786
 0
VERTEX
 8
011
 10
1445.800944
 20
-2079.194622
 0
VERTEX
 8
011
 10
1437.551925
 20
-2079.014806
 0
VERTEX
 8
011
 10
1430.281891
 20
-2079.761138
 0
VERTEX
 8
011
 10
1423.117159
 20
-2081.320485
 0
VERTEX
 8
011
 10
1416.184428
 20
-2083.642280
 0
VERTEX
 8
011
 10
1409.485868
 20
-2086.714765
 0
VERTEX
 8
011
 10
1403.110568
 20
-2090.451525
 0
VERTEX
 8
011
 10
1397.128745
 20
-2094.764063
 0
VERTEX
 8
011
 10
1389.423852
 20
-2101.683052
 0
VERTEX
 8
011
 10
1382.530812
 20
-2109.462010
 0
VERTEX
 8
011
 10
1376.501313
 20
-2117.896640
 0
VERTEX
 8
011
 10
1371.484253
 20
-2126.558708
 0
VERTEX
 8
011
 10
1367.223701
 20
-2135.656254
 0
VERTEX
 8
011
 10
1363.717283
 20
-2145.077603
 0
VERTEX
 8
011
 10
1360.962627
 20
-2154.711084
 0
VERTEX
 8
011
 10
1359.224411
 20
-2162.875088
 0
VERTEX
 8
011
 10
1357.983312
 20
-2171.129526
 0
VERTEX
 8
011
 10
1357.719912
 20
-2173.495920
 0
VERTEX
 8
011
 10
1357.134086
 20
-2181.323441
 0
SEQEND
 8
011
 0
POLYLINE
 8
011
 66
1
 0
VERTEX
 8
011
 10
1521.044819
 20
-2181.163387
 0
VERTEX
 8
011
 10
1520.052029
 20
-2168.869885
 0
VERTEX
 8
011
 10
1518.980591
 20
-2156.988742
 0
VERTEX
 8
011
 10
1518.573268
 20
-2153.004410
 0
VERTEX
 8
011
 10
1518.021329
 20
-2149.038913
 0
VERTEX
 8
011
 10
1517.067893
 20
-2145.170176
 0
SEQEND
 8
011
 0
ARC
 8
011
 10
1516.689733
 20
-2181.347007
 40
4.358955
 50
308.164182
 51
2.414285
 0
POLYLINE
 8
011
 66
1
 0
VERTEX
 8
011
 10
1451.976104
 20
-2190.642537
 0
VERTEX
 8
011
 10
1451.799876
 20
-2189.516144
 0
VERTEX
 8
011
 10
1451.276539
 20
-2188.423978
 0
VERTEX
 8
011
 10
1450.421995
 20
-2187.399225
 0
VERTEX
 8
011
 10
1449.262223
 20
-2186.473014
 0
VERTEX
 8
011
 10
1447.832441
 20
-2185.673492
 0
VERTEX
 8
011
 10
1446.176103
 20
-2185.024949
 0
VERTEX
 8
011
 10
1444.343536
 20
-2184.547098
 0
VERTEX
 8
011
 10
1442.390426
 20
-2184.254454
 0
VERTEX
 8
011
 10
1440.376102
 20
-2184.155898
 0
VERTEX
 8
011
 10
1438.361785
 20
-2184.254454
 0
VERTEX
 8
011
 10
1436.408671
 20
-2184.547098
 0
VERTEX
 8
011
 10
1434.576104
 20
-2185.024949
 0
VERTEX
 8
011
 10
1432.919769
 20
-2185.673492
 0
VERTEX
 8
011
 10
1431.489988
 20
-2186.473014
 0
VERTEX
 8
011
 10
1430.330208
 20
-2187.399225
 0
VERTEX
 8
011
 10
1429.475671
 20
-2188.423978
 0
VERTEX
 8
011
 10
1428.952335
 20
-2189.516144
 0
VERTEX
 8
011
 10
1428.776103
 20
-2190.642537
 0
SEQEND
 8
011
 0
LINE
 8
011
 10
1428.776104
 20
-2192.300617
 11
1428.789301
 21
-2192.609945
 0
LINE
 8
011
 10
1451.959463
 20
-2192.647947
 11
1451.976104
 21
-2192.300617
 0
POLYLINE
 8
011
 66
1
 0
VERTEX
 8
011
 10
1451.817072
 20
-2192.473756
 0
VERTEX
 8
011
 10
1451.306617
 20
-2191.372381
 0
VERTEX
 8
011
 10
1450.459874
 20
-2190.337809
 0
VERTEX
 8
011
 10
1449.302896
 20
-2189.401896
 0
VERTEX
 8
011
 10
1447.871274
 20
-2188.593419
 0
VERTEX
 8
011
 10
1446.209057
 20
-2187.937261
 0
VERTEX
 8
011
 10
1444.367392
 20
-2187.453599
 0
VERTEX
 8
011
 10
1442.402928
 20
-2187.157320
 0
VERTEX
 8
011
 10
1440.376102
 20
-2187.057542
 0
VERTEX
 8
011
 10
1438.349283
 20
-2187.157320
 0
VERTEX
 8
011
 10
1436.384818
 20
-2187.453599
 0
VERTEX
 8
011
 10
1434.543150
 20
-2187.937261
 0
VERTEX
 8
011
 10
1432.880933
 20
-2188.593419
 0
VERTEX
 8
011
 10
1431.449315
 20
-2189.401896
 0
VERTEX
 8
011
 10
1430.292337
 20
-2190.337809
 0
VERTEX
 8
011
 10
1429.445593
 20
-2191.372381
 0
VERTEX
 8
011
 10
1428.935135
 20
-2192.473756
 0
SEQEND
 8
011
 0
POLYLINE
 8
011
 66
1
 0
VERTEX
 8
011
 10
1429.844810
 20
-2191.767754
 0
VERTEX
 8
011
 10
1430.085229
 20
-2191.371368
 0
VERTEX
 8
011
 10
1430.981966
 20
-2190.344037
 0
VERTEX
 8
011
 10
1432.203176
 20
-2189.427228
 0
VERTEX
 8
011
 10
1433.706681
 20
-2188.652636
 0
VERTEX
 8
011
 10
1435.440546
 20
-2188.046979
 0
VERTEX
 8
011
 10
1437.344889
 20
-2187.631206
 0
VERTEX
 8
011
 10
1439.353934
 20
-2187.419670
 0
VERTEX
 8
011
 10
1441.398277
 20
-2187.419670
 0
VERTEX
 8
011
 10
1443.407318
 20
-2187.631206
 0
VERTEX
 8
011
 10
1445.311657
 20
-2188.046979
 0
VERTEX
 8
011
 10
1447.045526
 20
-2188.652636
 0
VERTEX
 8
011
 10
1448.549031
 20
-2189.427228
 0
VERTEX
 8
011
 10
1449.770241
 20
-2190.344037
 0
VERTEX
 8
011
 10
1450.666978
 20
-2191.371368
 0
VERTEX
 8
011
 10
1450.938328
 20
-2191.826137
 0
SEQEND
 8
011
 0
ARC
 8
011
 10
1236.376125
 20
-1877.631651
 40
23.000021
 50
116.090404
 51
180.000000
 0
LINE
 8
011
 10
1226.282908
 20
-1856.964575
 11
1226.260974
 21
-1856.975304
 0
LINE
 8
011
 10
1226.283445
 20
-1856.964903
 11
1226.296051
 21
-1856.958749
 0
ARC
 8
011
 10
1236.509865
 20
-1878.226262
 40
23.592995
 50
90.324838
 51
115.652877
 0
ARC
 8
011
 10
1236.720522
 20
-1884.115454
 40
29.483820
 50
90.003833
 51
90.669318
 0
POLYLINE
 8
011
 66
1
 0
VERTEX
 8
011
 10
1236.572220
 20
-1854.632171
 0
VERTEX
 8
011
 10
1236.689164
 20
-1854.631664
 0
VERTEX
 8
011
 10
1236.718549
 20
-1854.631634
 0
SEQEND
 8
011
 0
LINE
 8
011
 10
1236.572220
 20
-1854.632171
 11
1236.732929
 21
-1854.632171
 0
LINE
 8
011
 10
1236.732929
 20
-1854.631634
 11
1241.080640
 21
-1854.631634
 0
LINE
 8
011
 10
1509.671568
 20
-1854.631634
 11
1514.019279
 21
-1854.631634
 0
LINE
 8
011
 10
1514.019279
 20
-1854.632171
 11
1514.179988
 21
-1854.632171
 0
POLYLINE
 8
011
 66
1
 0
VERTEX
 8
011
 10
1514.033659
 20
-1854.631634
 0
VERTEX
 8
011
 10
1514.063044
 20
-1854.631664
 0
VERTEX
 8
011
 10
1514.179988
 20
-1854.632171
 0
SEQEND
 8
011
 0
ARC
 8
011
 10
1514.031686
 20
-1884.115454
 40
29.483820
 50
89.330682
 51
89.996167
 0
ARC
 8
011
 10
1514.242519
 20
-1878.225500
 40
23.592233
 50
64.346706
 51
89.675578
 0
LINE
 8
011
 10
1524.456157
 20
-1856.958749
 11
1524.470045
 21
-1856.965529
 0
LINE
 8
011
 10
1524.491234
 20
-1856.975304
 11
1524.470566
 21
-1856.965201
 0
ARC
 8
011
 10
1514.376086
 20
-1877.631649
 40
23.000018
 50
0.000000
 51
63.909600
 0
LINE
 8
011
 10
1254.038817
 20
-1854.631634
 11
1496.713391
 21
-1854.631634
 0
LINE
 8
011
 10
1496.713391
 20
-1854.631634
 11
1509.671568
 21
-1854.631634
 0
LINE
 8
011
 10
1241.080640
 20
-1854.631634
 11
1254.038817
 21
-1854.631634
 0
POLYLINE
 8
011
 66
1
 0
VERTEX
 8
011
 10
1512.049957
 20
-1868.227349
 0
VERTEX
 8
011
 10
1512.047245
 20
-1868.248137
 0
VERTEX
 8
011
 10
1512.058227
 20
-1868.274810
 0
SEQEND
 8
011
 0
LINE
 8
011
 10
1512.161075
 20
-1868.425445
 11
1512.057273
 21
-1868.273349
 0
ARC
 8
011
 10
1514.376113
 20
-2178.631646
 40
22.999991
 50
271.920471
 51
358.079529
 0
LINE
 8
011
 10
1220.818339
 20
-1867.938565
 11
1220.695584
 21
-1868.949758
 0
LINE
 8
011
 10
1530.056609
 20
-1868.949773
 11
1529.934524
 21
-1867.941992
 0
ARC
 8
011
 10
1236.376095
 20
-2178.631646
 40
22.999991
 50
181.920471
 51
268.079529
 0
ARC
 8
011
 10
1510.776091
 20
-2175.031614
 40
13.000028
 50
296.456055
 51
327.644955
 0
POLYLINE
 8
011
 66
1
 0
VERTEX
 8
011
 10
1514.376103
 20
-2201.631637
 0
VERTEX
 8
011
 10
1514.761551
 20
-2201.628404
 0
VERTEX
 8
011
 10
1515.146895
 20
-2201.618718
 0
SEQEND
 8
011
 0
LINE
 8
011
 10
1236.376105
 20
-2201.631637
 11
1425.535860
 21
-2201.631637
 0
LINE
 8
011
 10
1455.174326
 20
-2201.631637
 11
1514.376103
 21
-2201.631637
 0
POLYLINE
 8
011
 66
1
 0
VERTEX
 8
011
 10
1235.605313
 20
-2201.618718
 0
VERTEX
 8
011
 10
1235.990657
 20
-2201.628404
 0
VERTEX
 8
011
 10
1236.376105
 20
-2201.631637
 0
SEQEND
 8
011
 0
POLYLINE
 8
011
 66
1
 0
VERTEX
 8
011
 10
1213.376103
 20
-2178.631635
 0
VERTEX
 8
011
 10
1213.379337
 20
-2179.017084
 0
VERTEX
 8
011
 10
1213.389023
 20
-2179.402428
 0
SEQEND
 8
011
 0
LINE
 8
011
 10
1213.376103
 20
-1877.631636
 11
1213.376103
 21
-2178.631635
 0
LINE
 8
011
 10
1537.376104
 20
-1877.631636
 11
1537.376104
 21
-2178.631635
 0
POLYLINE
 8
011
 66
1
 0
VERTEX
 8
011
 10
1537.363185
 20
-2179.402428
 0
VERTEX
 8
011
 10
1537.372871
 20
-2179.017084
 0
VERTEX
 8
011
 10
1537.376104
 20
-2178.631635
 0
SEQEND
 8
011
 0
POLYLINE
 8
011
 66
1
 0
VERTEX
 8
011
 10
1444.325952
 20
-2218.320357
 0
VERTEX
 8
011
 10
1444.211675
 20
-2218.372958
 0
VERTEX
 8
011
 10
1444.161511
 20
-2217.947470
 0
VERTEX
 8
011
 10
1444.141074
 20
-2217.171909
 0
VERTEX
 8
011
 10
1444.135918
 20
-2216.024490
 0
VERTEX
 8
011
 10
1444.141409
 20
-2214.514540
 0
VERTEX
 8
011
 10
1444.164252
 20
-2212.750481
 0
VERTEX
 8
011
 10
1444.226532
 20
-2210.688652
 0
VERTEX
 8
011
 10
1444.354563
 20
-2208.524259
 0
VERTEX
 8
011
 10
1444.598629
 20
-2206.169979
 0
VERTEX
 8
011
 10
1444.950207
 20
-2204.045268
 0
VERTEX
 8
011
 10
1445.486611
 20
-2201.899784
 0
VERTEX
 8
011
 10
1446.086770
 20
-2200.240077
 0
VERTEX
 8
011
 10
1446.867122
 20
-2198.716061
 0
VERTEX
 8
011
 10
1448.409020
 20
-2196.902187
 0
SEQEND
 8
011
 0
POLYLINE
 8
011
 66
1
 0
VERTEX
 8
011
 10
1432.343187
 20
-2196.902187
 0
VERTEX
 8
011
 10
1433.885089
 20
-2198.716061
 0
VERTEX
 8
011
 10
1434.638089
 20
-2200.176494
 0
VERTEX
 8
011
 10
1435.265599
 20
-2201.899784
 0
VERTEX
 8
011
 10
1435.784912
 20
-2203.961478
 0
VERTEX
 8
011
 10
1436.153582
 20
-2206.169979
 0
VERTEX
 8
011
 10
1436.391568
 20
-2208.446966
 0
VERTEX
 8
011
 10
1436.525675
 20
-2210.688652
 0
VERTEX
 8
011
 10
1436.586841
 20
-2212.694334
 0
VERTEX
 8
011
 10
1436.610794
 20
-2214.514540
 0
VERTEX
 8
011
 10
1436.616289
 20
-2216.024490
 0
VERTEX
 8
011
 10
1436.611137
 20
-2217.171909
 0
VERTEX
 8
011
 10
1436.591490
 20
-2217.932420
 0
VERTEX
 8
011
 10
1436.540535
 20
-2218.372958
 0
VERTEX
 8
011
 10
1436.426176
 20
-2218.320312
 0
SEQEND
 8
011
 0
ARC
 8
011
 10
1451.090196
 20
-2200.246540
 40
4.286421
 50
359.111559
 51
128.719249
 0
ARC
 8
011
 10
1429.662010
 20
-2200.246539
 40
4.286421
 50
51.280739
 51
180.888452
 0
ARC
 8
011
 10
1393.787321
 20
-2030.575305
 40
0.750003
 50
210.150057
 51
29.849935
 0
CIRCLE
 8
011
 10
1375.376104
 20
-1998.631640
 40
5.400000
 0
LINE
 8
011
 10
1371.376104
 20
-1959.786257
 11
1371.376104
 21
-1957.662587
 0
LINE
 8
011
 10
1379.376104
 20
-1959.786257
 11
1379.376104
 21
-1957.662587
 0
LINE
 8
011
 10
1371.376104
 20
-1962.909805
 11
1371.376104
 21
-1959.786257
 0
POLYLINE
 8
011
 66
1
 0
VERTEX
 8
011
 10
1369.876104
 20
-1966.545319
 0
VERTEX
 8
011
 10
1369.947175
 20
-1966.469461
 0
VERTEX
 8
011
 10
1370.756444
 20
-1965.311048
 0
SEQEND
 8
011
 0
ARC
 8
011
 10
1366.409463
 20
-1962.907304
 40
4.966642
 50
331.058498
 51
359.971149
 0
LINE
 8
011
 10
1379.376104
 20
-1962.909805
 11
1379.376104
 21
-1959.786257
 0
ARC
 8
011
 10
1384.342745
 20
-1962.907304
 40
4.966642
 50
180.028851
 51
208.941502
 0
POLYLINE
 8
011
 66
1
 0
VERTEX
 8
011
 10
1380.876104
 20
-1966.545319
 0
VERTEX
 8
011
 10
1380.805033
 20
-1966.469461
 0
VERTEX
 8
011
 10
1379.995764
 20
-1965.311048
 0
SEQEND
 8
011
 0
LINE
 8
011
 10
1371.376104
 20
-1957.662587
 11
1371.376104
 21
-1956.730886
 0
POLYLINE
 8
011
 66
1
 0
VERTEX
 8
011
 10
1379.376104
 20
-1956.730889
 0
VERTEX
 8
011
 10
1379.180330
 20
-1955.717498
 0
VERTEX
 8
011
 10
1378.612172
 20
-1954.803305
 0
VERTEX
 8
011
 10
1377.727245
 20
-1954.077797
 0
VERTEX
 8
011
 10
1376.612172
 20
-1953.611994
 0
VERTEX
 8
011
 10
1375.376104
 20
-1953.451486
 0
VERTEX
 8
011
 10
1374.140036
 20
-1953.611994
 0
VERTEX
 8
011
 10
1373.024963
 20
-1954.077797
 0
VERTEX
 8
011
 10
1372.140036
 20
-1954.803305
 0
VERTEX
 8
011
 10
1371.571878
 20
-1955.717498
 0
VERTEX
 8
011
 10
1371.376104
 20
-1956.730889
 0
SEQEND
 8
011
 0
LINE
 8
011
 10
1379.376104
 20
-1957.662587
 11
1379.376104
 21
-1956.730886
 0
ARC
 8
011
 10
1384.374217
 20
-1962.696326
 40
3.998113
 50
180.000000
 51
208.962010
 0
ARC
 8
011
 10
1366.377991
 20
-1962.696326
 40
3.998113
 50
331.037990
 51
0.000000
 0
POLYLINE
 8
011
 66
1
 0
VERTEX
 8
011
 10
1369.876104
 20
-1964.632330
 0
VERTEX
 8
011
 10
1369.876077
 20
-1964.632382
 0
VERTEX
 8
011
 10
1369.231849
 20
-1965.562308
 0
SEQEND
 8
011
 0
POLYLINE
 8
011
 66
1
 0
VERTEX
 8
011
 10
1380.876104
 20
-1964.632330
 0
VERTEX
 8
011
 10
1380.876130
 20
-1964.632382
 0
VERTEX
 8
011
 10
1381.520358
 20
-1965.562308
 0
SEQEND
 8
011
 0
ARC
 8
011
 10
1387.108612
 20
-1960.117173
 40
8.793631
 50
225.399127
 51
253.436935
 0
ARC
 8
011
 10
1363.643596
 20
-1960.117173
 40
8.793631
 50
286.563065
 51
314.600873
 0
CIRCLE
 8
011
 10
1375.376104
 20
-1998.631640
 40
13.634235
 0
LINE
 8
011
 10
1387.845092
 20
-1969.691263
 11
1387.505477
 21
-1969.549832
 0
LINE
 8
011
 10
1362.907116
 20
-1969.691263
 11
1363.246731
 21
-1969.549832
 0
ARC
 8
011
 10
1295.967873
 20
-1817.163280
 40
166.671006
 50
294.052924
 51
294.807683
 0
POLYLINE
 8
011
 66
1
 0
VERTEX
 8
011
 10
1369.876104
 20
-1975.787608
 0
VERTEX
 8
011
 10
1366.619610
 20
-1972.213061
 0
VERTEX
 8
011
 10
1363.927248
 20
-1969.364984
 0
SEQEND
 8
011
 0
ARC
 8
011
 10
1357.148920
 20
-1945.755788
 40
24.562978
 50
284.374105
 51
286.019060
 0
POLYLINE
 8
011
 66
1
 0
VERTEX
 8
011
 10
1380.876104
 20
-1975.787608
 0
VERTEX
 8
011
 10
1384.132598
 20
-1972.213061
 0
VERTEX
 8
011
 10
1386.824959
 20
-1969.364984
 0
SEQEND
 8
011
 0
ARC
 8
011
 10
1393.603288
 20
-1945.755788
 40
24.562978
 50
253.980940
 51
255.625895
 0
ARC
 8
011
 10
1454.784334
 20
-1817.163280
 40
166.671006
 50
245.192317
 51
245.947076
 0
LINE
 8
011
 10
1473.043822
 20
-2053.403542
 11
1471.643822
 21
-2055.828414
 0
LINE
 8
011
 10
1277.708386
 20
-1943.859738
 11
1279.108386
 21
-1941.434867
 0
LINE
 8
011
 10
1279.108386
 20
-2055.828414
 11
1277.708386
 21
-2053.403542
 0
LINE
 8
011
 10
1471.643822
 20
-1941.434867
 11
1473.043822
 21
-1943.859738
 0
LINE
 8
011
 10
1373.976104
 20
-1886.671047
 11
1376.776104
 21
-1886.671047
 0
LINE
 8
011
 10
1376.776104
 20
-2110.592233
 11
1373.976104
 21
-2110.592233
 0
POLYLINE
 8
011
 66
1
 0
VERTEX
 8
011
 10
1362.875336
 20
-1952.027926
 0
VERTEX
 8
011
 10
1364.813289
 20
-1951.626854
 0
VERTEX
 8
011
 10
1365.762734
 20
-1951.038899
 0
VERTEX
 8
011
 10
1366.023772
 20
-1950.768897
 0
VERTEX
 8
011
 10
1366.522735
 20
-1949.900986
 0
VERTEX
 8
011
 10
1366.657435
 20
-1949.435087
 0
VERTEX
 8
011
 10
1366.659165
 20
-1947.315620
 0
VERTEX
 8
011
 10
1366.604439
 20
-1947.010854
 0
SEQEND
 8
011
 0
LINE
 8
011
 10
1362.875336
 20
-1952.027928
 11
1357.500558
 21
-1947.576809
 0
ARC
 8
011
 10
1361.919338
 20
-1947.384487
 40
7.282881
 50
282.814687
 51
2.940727
 0
POLYLINE
 8
011
 66
1
 0
VERTEX
 8
011
 10
1387.876872
 20
-2045.235352
 0
VERTEX
 8
011
 10
1385.938919
 20
-2045.636426
 0
VERTEX
 8
011
 10
1384.989474
 20
-2046.224380
 0
VERTEX
 8
011
 10
1384.728436
 20
-2046.494381
 0
VERTEX
 8
011
 10
1384.229473
 20
-2047.362290
 0
VERTEX
 8
011
 10
1384.094772
 20
-2047.828194
 0
VERTEX
 8
011
 10
1384.093043
 20
-2049.947657
 0
VERTEX
 8
011
 10
1384.147769
 20
-2050.252424
 0
SEQEND
 8
011
 0
ARC
 8
011
 10
1388.832868
 20
-2049.878792
 40
7.282879
 50
102.814673
 51
182.940727
 0
LINE
 8
011
 10
1387.876872
 20
-2045.235352
 11
1393.251650
 21
-2049.686472
 0
LINE
 8
011
 10
1393.251650
 20
-1947.576809
 11
1387.876872
 21
-1952.027928
 0
POLYLINE
 8
011
 66
1
 0
VERTEX
 8
011
 10
1384.147769
 20
-1947.010854
 0
VERTEX
 8
011
 10
1384.034223
 20
-1949.081385
 0
VERTEX
 8
011
 10
1384.343450
 20
-1950.171092
 0
VERTEX
 8
011
 10
1384.540506
 20
-1950.518319
 0
VERTEX
 8
011
 10
1385.203071
 20
-1951.214196
 0
VERTEX
 8
011
 10
1385.667556
 20
-1951.501565
 0
VERTEX
 8
011
 10
1387.516374
 20
-1951.998720
 0
VERTEX
 8
011
 10
1387.876872
 20
-1952.027926
 0
SEQEND
 8
011
 0
ARC
 8
011
 10
1388.665819
 20
-1947.510928
 40
7.123814
 50
175.974669
 51
258.269917
 0
ARC
 8
011
 10
1362.086391
 20
-2049.752350
 40
7.123811
 50
355.974665
 51
78.269935
 0
POLYLINE
 8
011
 66
1
 0
VERTEX
 8
011
 10
1366.604439
 20
-2050.252424
 0
VERTEX
 8
011
 10
1366.717985
 20
-2048.181895
 0
VERTEX
 8
011
 10
1366.408758
 20
-2047.092192
 0
VERTEX
 8
011
 10
1366.211702
 20
-2046.744963
 0
VERTEX
 8
011
 10
1365.549137
 20
-2046.049088
 0
VERTEX
 8
011
 10
1365.084652
 20
-2045.761715
 0
VERTEX
 8
011
 10
1363.235834
 20
-2045.264562
 0
VERTEX
 8
011
 10
1362.875336
 20
-2045.235352
 0
SEQEND
 8
011
 0
LINE
 8
011
 10
1357.500558
 20
-2049.686472
 11
1362.875336
 21
-2045.235352
 0
ARC
 8
011
 10
1375.376104
 20
-1998.631640
 40
37.200000
 50
103.007128
 51
289.200827
 0
ARC
 8
011
 10
1375.376104
 20
-1998.631640
 40
37.200000
 50
310.799173
 51
76.992872
 0
LINE
 8
011
 10
1369.192624
 20
-2056.502100
 11
1373.376101
 21
-2056.796569
 0
LINE
 8
011
 10
1369.192629
 20
-2050.252424
 11
1369.192629
 21
-2056.502100
 0
ARC
 8
011
 10
1375.376104
 20
-1998.631640
 40
45.706235
 50
105.015302
 51
254.984698
 0
LINE
 8
011
 10
1369.192629
 20
-1940.761173
 11
1369.192629
 21
-1947.010856
 0
LINE
 8
011
 10
1373.376100
 20
-1940.466696
 11
1369.192624
 21
-1940.761180
 0
LINE
 8
011
 10
1381.559584
 20
-1940.761180
 11
1377.376107
 21
-1940.466711
 0
LINE
 8
011
 10
1381.559579
 20
-1947.010856
 11
1381.559579
 21
-1940.761180
 0
ARC
 8
011
 10
1375.376104
 20
-1998.631640
 40
45.706235
 50
285.015302
 51
74.984698
 0
LINE
 8
011
 10
1381.559579
 20
-2056.502104
 11
1381.559579
 21
-2050.252424
 0
LINE
 8
011
 10
1377.376108
 20
-2056.796588
 11
1381.559584
 21
-2056.502104
 0
ARC
 8
011
 10
1387.290306
 20
-2037.548755
 40
3.800000
 50
45.000000
 51
85.167181
 0
LINE
 8
011
 10
1391.199149
 20
-2036.083586
 11
1389.977311
 21
-2034.861749
 0
ARC
 8
011
 10
1394.876104
 20
-2032.406631
 40
5.200000
 50
225.000000
 51
15.000000
 0
LINE
 8
011
 10
1399.451695
 20
-2029.391711
 11
1399.898918
 21
-2031.060772
 0
ARC
 8
011
 10
1403.122213
 20
-2028.408199
 40
3.800000
 50
154.832819
 51
195.000000
 0
ARC
 8
011
 10
1386.037849
 20
-1959.352928
 40
3.800000
 50
195.000000
 51
232.959226
 0
LINE
 8
011
 10
1381.847807
 20
-1958.397552
 11
1382.367331
 21
-1960.336441
 0
ARC
 8
011
 10
1375.376104
 20
-1960.131640
 40
6.700000
 50
130.924940
 51
165.000000
 0
ARC
 8
011
 10
1375.376104
 20
-1960.131640
 40
6.700000
 50
15.000000
 51
52.072573
 0
LINE
 8
011
 10
1368.384877
 20
-1960.336441
 11
1368.904401
 21
-1958.397552
 0
ARC
 8
011
 10
1364.714359
 20
-1959.352928
 40
3.800000
 50
307.040774
 51
345.000000
 0
LINE
 8
011
 10
1366.604438
 20
-1947.010856
 11
1366.604439
 21
-1940.773176
 0
LINE
 8
011
 10
1384.147769
 20
-2050.252424
 11
1384.147769
 21
-2056.490106
 0
LINE
 8
011
 10
1366.604439
 20
-2056.490101
 11
1366.604438
 21
-2050.252424
 0
LINE
 8
011
 10
1384.147769
 20
-1940.773183
 11
1384.147769
 21
-1947.010856
 0
ARC
 8
011
 10
1375.376104
 20
-1998.631640
 40
48.251168
 50
31.662661
 51
74.984698
 0
ARC
 8
011
 10
1375.376104
 20
-1998.631640
 40
48.251168
 50
331.662661
 51
28.337339
 0
ARC
 8
011
 10
1375.376104
 20
-1998.631640
 40
48.251168
 50
285.015302
 51
328.337339
 0
ARC
 8
011
 10
1375.376104
 20
-1998.631640
 40
48.251168
 50
211.662661
 51
254.984698
 0
ARC
 8
011
 10
1375.376104
 20
-1998.631640
 40
48.251168
 50
151.662661
 51
208.337339
 0
ARC
 8
011
 10
1375.376104
 20
-1998.631640
 40
48.251168
 50
105.015302
 51
148.337339
 0
ARC
 8
011
 10
1383.862318
 20
-1936.986670
 40
14.153112
 50
311.560550
 51
339.474695
 0
ARC
 8
011
 10
1385.068331
 20
-2059.448281
 40
12.738118
 50
18.937787
 51
50.026915
 0
ARC
 8
011
 10
1366.889910
 20
-2060.276617
 40
14.153132
 50
131.560587
 51
159.474711
 0
ARC
 8
011
 10
1365.678473
 20
-1937.818705
 40
12.731806
 50
198.929923
 51
230.034833
 0
POLYLINE
 8
011
 66
1
 0
VERTEX
 8
011
 10
1397.650909
 20
-1940.556923
 0
VERTEX
 8
011
 10
1397.614712
 20
-1940.651292
 0
VERTEX
 8
011
 10
1397.501926
 20
-1940.945351
 0
VERTEX
 8
011
 10
1397.325147
 20
-1941.406244
 0
VERTEX
 8
011
 10
1397.116954
 20
-1941.949049
 0
SEQEND
 8
011
 0
POLYLINE
 8
011
 66
1
 0
VERTEX
 8
011
 10
1353.635254
 20
-1941.949049
 0
VERTEX
 8
011
 10
1353.427060
 20
-1941.406244
 0
VERTEX
 8
011
 10
1353.250282
 20
-1940.945351
 0
VERTEX
 8
011
 10
1353.137496
 20
-1940.651292
 0
VERTEX
 8
011
 10
1353.101299
 20
-1940.556923
 0
SEQEND
 8
011
 0
POLYLINE
 8
011
 66
1
 0
VERTEX
 8
011
 10
1353.635254
 20
-2055.314235
 0
VERTEX
 8
011
 10
1353.427060
 20
-2055.857038
 0
VERTEX
 8
011
 10
1353.250282
 20
-2056.317929
 0
VERTEX
 8
011
 10
1353.137496
 20
-2056.611990
 0
VERTEX
 8
011
 10
1353.101299
 20
-2056.706359
 0
SEQEND
 8
011
 0
POLYLINE
 8
011
 66
1
 0
VERTEX
 8
011
 10
1397.650909
 20
-2056.706359
 0
VERTEX
 8
011
 10
1397.614712
 20
-2056.611990
 0
VERTEX
 8
011
 10
1397.501926
 20
-2056.317929
 0
VERTEX
 8
011
 10
1397.325147
 20
-2055.857038
 0
VERTEX
 8
011
 10
1397.116954
 20
-2055.314235
 0
SEQEND
 8
011
 0
LINE
 8
011
 10
1373.876104
 20
-1936.449731
 11
1373.876104
 21
-1937.650086
 0
LINE
 8
011
 10
1376.876104
 20
-2060.813552
 11
1376.876104
 21
-2059.613196
 0
LINE
 8
011
 10
1376.876104
 20
-1937.650086
 11
1376.876104
 21
-1936.449731
 0
LINE
 8
011
 10
1373.876104
 20
-2059.613196
 11
1373.876104
 21
-2060.813552
 0
POLYLINE
 8
011
 66
1
 0
VERTEX
 8
011
 10
1398.668806
 20
-2184.744255
 0
VERTEX
 8
011
 10
1402.376654
 20
-2182.022871
 0
VERTEX
 8
011
 10
1406.672681
 20
-2179.538952
 0
VERTEX
 8
011
 10
1411.502420
 20
-2177.348839
 0
VERTEX
 8
011
 10
1416.783670
 20
-2175.500439
 0
VERTEX
 8
011
 10
1422.424241
 20
-2174.035029
 0
VERTEX
 8
011
 10
1428.316059
 20
-2172.977777
 0
VERTEX
 8
011
 10
1434.348261
 20
-2172.345416
 0
VERTEX
 8
011
 10
1440.412438
 20
-2172.137307
 0
VERTEX
 8
011
 10
1446.476600
 20
-2172.350483
 0
VERTEX
 8
011
 10
1452.508038
 20
-2172.987969
 0
VERTEX
 8
011
 10
1458.397491
 20
-2174.050258
 0
VERTEX
 8
011
 10
1464.034370
 20
-2175.520452
 0
VERTEX
 8
011
 10
1469.310722
 20
-2177.373232
 0
VERTEX
 8
011
 10
1474.134489
 20
-2179.567175
 0
VERTEX
 8
011
 10
1478.423177
 20
-2182.053866
 0
VERTEX
 8
011
 10
1482.128112
 20
-2184.781434
 0
SEQEND
 8
011
 0
POLYLINE
 8
011
 66
1
 0
VERTEX
 8
011
 10
1482.128112
 20
-2184.781434
 0
VERTEX
 8
011
 10
1486.245333
 20
-2187.776895
 0
VERTEX
 8
011
 10
1490.876457
 20
-2190.375449
 0
VERTEX
 8
011
 10
1495.951457
 20
-2192.565488
 0
VERTEX
 8
011
 10
1501.401498
 20
-2194.335239
 0
VERTEX
 8
011
 10
1507.165818
 20
-2195.667879
 0
VERTEX
 8
011
 10
1513.190313
 20
-2196.536826
 0
SEQEND
 8
011
 0
POLYLINE
 8
011
 66
1
 0
VERTEX
 8
011
 10
1373.887452
 20
-2194.525869
 0
VERTEX
 8
011
 10
1380.940739
 20
-2193.068700
 0
VERTEX
 8
011
 10
1387.521175
 20
-2191.000657
 0
VERTEX
 8
011
 10
1390.591214
 20
-2189.719410
 0
VERTEX
 8
011
 10
1393.487158
 20
-2188.259484
 0
VERTEX
 8
011
 10
1396.185566
 20
-2186.607571
 0
VERTEX
 8
011
 10
1398.668806
 20
-2184.744255
 0
SEQEND
 8
011
 0
LINE
 8
011
 10
1371.843722
 20
-2194.905387
 11
1373.887444
 21
-2194.525869
 0
LINE
 8
011
 10
1371.325083
 20
-2189.251216
 11
1369.962386
 21
-2192.584904
 0
LINE
 8
011
 10
1496.713391
 20
-1857.631640
 11
1254.038817
 21
-1857.631640
 0
LINE
 8
011
 10
1254.038818
 20
-1859.395793
 11
1496.713390
 21
-1859.395793
 0
POLYLINE
 8
011
 66
1
 0
VERTEX
 8
011
 10
1237.103327
 20
-1860.478716
 0
VERTEX
 8
011
 10
1245.457603
 20
-1859.659748
 0
VERTEX
 8
011
 10
1254.038817
 20
-1859.395789
 0
SEQEND
 8
011
 0
LINE
 8
011
 10
1236.690267
 20
-1860.540615
 11
1237.103329
 21
-1860.478710
 0
POLYLINE
 8
011
 66
1
 0
VERTEX
 8
011
 10
1224.011733
 20
-1863.837199
 0
VERTEX
 8
011
 10
1230.120613
 20
-1861.810433
 0
VERTEX
 8
011
 10
1236.690267
 20
-1860.540615
 0
SEQEND
 8
011
 0
ARC
 8
011
 10
1240.594681
 20
-1882.891380
 40
25.259770
 50
89.911235
 51
131.033213
 0
LINE
 8
011
 10
1254.038817
 20
-1857.631640
 11
1240.633814
 21
-1857.631640
 0
ARC
 8
011
 10
1508.261205
 20
-1908.878862
 40
48.685055
 50
67.692966
 51
83.157055
 0
LINE
 8
011
 10
1513.648879
 20
-1860.478710
 11
1514.061941
 21
-1860.540615
 0
ARC
 8
011
 10
1497.157617
 20
-1985.414073
 40
126.019068
 50
82.480521
 51
90.201972
 0
LINE
 8
011
 10
1510.118394
 20
-1857.631640
 11
1496.713391
 21
-1857.631640
 0
ARC
 8
011
 10
1510.157288
 20
-1882.892021
 40
25.260411
 50
48.967332
 51
90.088219
 0
LINE
 8
011
 10
1224.011733
 20
-1863.837199
 11
1223.421768
 21
-1864.525850
 0
POLYLINE
 8
011
 66
1
 0
VERTEX
 8
011
 10
1238.682701
 20
-1868.228750
 0
VERTEX
 8
011
 10
1232.654198
 20
-1868.813457
 0
VERTEX
 8
011
 10
1226.677208
 20
-1869.850190
 0
SEQEND
 8
011
 0
POLYLINE
 8
011
 66
1
 0
VERTEX
 8
011
 10
1524.075000
 20
-1869.850190
 0
VERTEX
 8
011
 10
1518.131225
 20
-1868.817674
 0
VERTEX
 8
011
 10
1512.049957
 20
-1868.227349
 0
SEQEND
 8
011
 0
LINE
 8
011
 10
1527.330464
 20
-1864.525800
 11
1526.740475
 21
-1863.837199
 0
POLYLINE
 8
011
 66
1
 0
VERTEX
 8
011
 10
1254.038817
 20
-1867.537366
 0
VERTEX
 8
011
 10
1246.511935
 20
-1867.711382
 0
VERTEX
 8
011
 10
1238.985045
 20
-1868.270950
 0
SEQEND
 8
011
 0
LINE
 8
011
 10
1496.713390
 20
-1867.537360
 11
1254.038818
 21
-1867.537360
 0
POLYLINE
 8
011
 66
1
 0
VERTEX
 8
011
 10
1511.767163
 20
-1868.270950
 0
VERTEX
 8
011
 10
1507.587372
 20
-1867.907466
 0
VERTEX
 8
011
 10
1496.713391
 20
-1867.537366
 0
SEQEND
 8
011
 0
LINE
 8
011
 10
1512.161343
 20
-1868.425475
 11
1511.767158
 21
-1868.270950
 0
POLYLINE
 8
011
 66
1
 0
VERTEX
 8
011
 10
1238.985045
 20
-1868.270950
 0
VERTEX
 8
011
 10
1238.666175
 20
-1868.393214
 0
VERTEX
 8
011
 10
1238.590835
 20
-1868.425490
 0
SEQEND
 8
011
 0
POLYLINE
 8
011
 66
1
 0
VERTEX
 8
011
 10
1238.718985
 20
-1868.222387
 0
VERTEX
 8
011
 10
1238.723575
 20
-1868.257584
 0
VERTEX
 8
011
 10
1238.703950
 20
-1868.305357
 0
VERTEX
 8
011
 10
1238.590835
 20
-1868.425490
 0
SEQEND
 8
011
 0
LINE
 8
011
 10
1238.718985
 20
-1868.222387
 11
1238.682701
 21
-1868.228750
 0
POLYLINE
 8
011
 66
1
 0
VERTEX
 8
011
 10
1515.058516
 20
-1875.324862
 0
VERTEX
 8
011
 10
1513.828306
 20
-1872.254493
 0
VERTEX
 8
011
 10
1512.069865
 20
-1868.902461
 0
VERTEX
 8
011
 10
1511.767163
 20
-1868.270950
 0
SEQEND
 8
011
 0
ARC
 8
011
 10
1481.026473
 20
-1887.260386
 40
36.064341
 50
4.175235
 51
19.326499
 0
LINE
 8
011
 10
1516.995104
 20
-1884.634652
 11
1233.757104
 21
-1884.634652
 0
ARC
 8
011
 10
1269.728123
 20
-1887.260883
 40
36.066759
 50
160.674012
 51
175.824254
 0
POLYLINE
 8
011
 66
1
 0
VERTEX
 8
011
 10
1238.985045
 20
-1868.270950
 0
VERTEX
 8
011
 10
1238.936333
 20
-1868.396105
 0
VERTEX
 8
011
 10
1238.383962
 20
-1869.438099
 0
VERTEX
 8
011
 10
1237.989529
 20
-1870.147543
 0
VERTEX
 8
011
 10
1236.970915
 20
-1872.157397
 0
VERTEX
 8
011
 10
1236.030488
 20
-1874.386476
 0
VERTEX
 8
011
 10
1235.693692
 20
-1875.324862
 0
SEQEND
 8
011
 0
ARC
 8
011
 10
1515.665480
 20
-1907.243769
 40
38.327533
 50
69.844144
 51
77.325502
 0
POLYLINE
 8
011
 66
1
 0
VERTEX
 8
011
 10
1529.191344
 20
-1874.387698
 0
VERTEX
 8
011
 10
1529.111563
 20
-1872.802840
 0
VERTEX
 8
011
 10
1528.872205
 20
-1871.263446
 0
SEQEND
 8
011
 0
LINE
 8
011
 10
1520.043148
 20
-1873.448523
 11
1521.082281
 21
-1874.387698
 0
ARC
 8
011
 10
1496.247789
 20
-1901.418303
 40
36.722306
 50
49.610443
 51
64.499785
 0
POLYLINE
 8
011
 66
1
 0
VERTEX
 8
011
 10
1221.880002
 20
-1871.263446
 0
VERTEX
 8
011
 10
1221.640645
 20
-1872.802840
 0
VERTEX
 8
011
 10
1221.560864
 20
-1874.387698
 0
SEQEND
 8
011
 0
ARC
 8
011
 10
1235.086728
 20
-1907.243769
 40
38.327533
 50
102.674498
 51
110.155856
 0
POLYLINE
 8
011
 66
1
 0
VERTEX
 8
011
 10
1238.506197
 20
-1868.370743
 0
VERTEX
 8
011
 10
1238.610803
 20
-1868.313374
 0
VERTEX
 8
011
 10
1238.674073
 20
-1868.264990
 0
VERTEX
 8
011
 10
1238.685055
 20
-1868.244694
 0
VERTEX
 8
011
 10
1238.684251
 20
-1868.232386
 0
VERTEX
 8
011
 10
1238.682701
 20
-1868.228750
 0
SEQEND
 8
011
 0
POLYLINE
 8
011
 66
1
 0
VERTEX
 8
011
 10
1230.709060
 20
-1873.448523
 0
VERTEX
 8
011
 10
1234.565018
 20
-1870.563241
 0
VERTEX
 8
011
 10
1238.506197
 20
-1868.370743
 0
SEQEND
 8
011
 0
LINE
 8
011
 10
1229.669927
 20
-1874.387698
 11
1230.709060
 21
-1873.448523
 0
POLYLINE
 8
011
 66
1
 0
VERTEX
 8
011
 10
1238.590835
 20
-1868.425490
 0
VERTEX
 8
011
 10
1238.548531
 20
-1868.398832
 0
VERTEX
 8
011
 10
1238.506197
 20
-1868.370743
 0
SEQEND
 8
011
 0
LINE
 8
011
 10
1223.421768
 20
-1864.525850
 11
1220.816700
 21
-1867.937328
 0
LINE
 8
011
 10
1529.934524
 20
-1867.941992
 11
1527.330464
 21
-1864.525800
 0
LINE
 8
011
 10
1369.258218
 20
-2193.446891
 11
1369.964906
 21
-2192.585947
 0
LINE
 8
011
 10
1512.913434
 20
-2199.385257
 11
1455.376102
 21
-2199.385257
 0
LINE
 8
011
 10
1425.376105
 20
-2199.385257
 11
1376.486364
 21
-2199.385257
 0
LINE
 8
011
 10
1517.067893
 20
-2145.170176
 11
1517.067900
 21
-1885.981490
 0
LINE
 8
011
 10
1221.560864
 20
-1874.387698
 11
1221.560864
 21
-2177.983435
 0
LINE
 8
011
 10
1525.130151
 20
-1885.981487
 11
1525.130151
 21
-2179.384546
 0
LINE
 8
011
 10
1529.191344
 20
-2177.982868
 11
1529.191344
 21
-1874.387698
 0
ARC
 8
011
 10
1510.774793
 20
-2175.029628
 40
15.001388
 50
266.498402
 51
343.124020
 0
LINE
 8
011
 10
1525.010197
 20
-1883.763807
 11
1525.130151
 21
-1885.981487
 0
ARC
 8
011
 10
1507.698820
 20
-1885.505219
 40
17.398744
 50
5.744260
 51
39.716108
 0
POLYLINE
 8
011
 66
1
 0
VERTEX
 8
011
 10
1515.199392
 20
-2197.893696
 0
VERTEX
 8
011
 10
1516.116722
 20
-2197.757007
 0
VERTEX
 8
011
 10
1517.009629
 20
-2197.511138
 0
VERTEX
 8
011
 10
1517.849176
 20
-2197.159530
 0
VERTEX
 8
011
 10
1518.676548
 20
-2196.695091
 0
VERTEX
 8
011
 10
1519.625513
 20
-2196.010114
 0
VERTEX
 8
011
 10
1520.539044
 20
-2195.181342
 0
VERTEX
 8
011
 10
1521.417169
 20
-2194.208758
 0
VERTEX
 8
011
 10
1521.949752
 20
-2193.526612
 0
VERTEX
 8
011
 10
1522.486358
 20
-2192.768322
 0
VERTEX
 8
011
 10
1522.917806
 20
-2192.108409
 0
VERTEX
 8
011
 10
1523.153810
 20
-2191.731991
 0
VERTEX
 8
011
 10
1523.276864
 20
-2191.532152
 0
VERTEX
 8
011
 10
1523.339673
 20
-2191.429334
 0
VERTEX
 8
011
 10
1523.371382
 20
-2191.377194
 0
VERTEX
 8
011
 10
1523.387326
 20
-2191.350953
 0
VERTEX
 8
011
 10
1523.395313
 20
-2191.337781
 0
VERTEX
 8
011
 10
1523.399307
 20
-2191.331180
 0
VERTEX
 8
011
 10
1523.401319
 20
-2191.327886
 0
VERTEX
 8
011
 10
1523.402317
 20
-2191.326232
 0
VERTEX
 8
011
 10
1523.402809
 20
-2191.325413
 0
VERTEX
 8
011
 10
1523.403062
 20
-2191.324996
 0
VERTEX
 8
011
 10
1523.403181
 20
-2191.324787
 0
VERTEX
 8
011
 10
1523.403256
 20
-2191.324683
 0
VERTEX
 8
011
 10
1523.403286
 20
-2191.324638
 0
VERTEX
 8
011
 10
1523.980050
 20
-2190.366359
 0
VERTEX
 8
011
 10
1524.531661
 20
-2189.479204
 0
VERTEX
 8
011
 10
1525.067522
 20
-2188.697012
 0
VERTEX
 8
011
 10
1526.811092
 20
-2186.368497
 0
VERTEX
 8
011
 10
1528.121828
 20
-2183.762835
 0
VERTEX
 8
011
 10
1528.922139
 20
-2180.935683
 0
VERTEX
 8
011
 10
1529.190911
 20
-2177.982868
 0
SEQEND
 8
011
 0
ARC
 8
011
 10
1243.053388
 20
-1885.505219
 40
17.398744
 50
140.283892
 51
174.255740
 0
LINE
 8
011
 10
1225.622057
 20
-1885.981487
 11
1225.742011
 21
-1883.763807
 0
LINE
 8
011
 10
1225.622050
 20
-2175.031640
 11
1225.622057
 21
-1885.981487
 0
ARC
 8
011
 10
1239.976104
 20
-2175.031640
 40
14.354054
 50
180.000000
 51
270.000000
 0
LINE
 8
011
 10
1370.970149
 20
-2189.385694
 11
1239.976104
 21
-2189.385694
 0
LINE
 8
011
 10
1237.015678
 20
-2193.446891
 11
1369.258218
 21
-2193.446891
 0
ARC
 8
011
 10
1236.846535
 20
-2178.161536
 40
15.286291
 50
179.332429
 51
270.633992
 0
LINE
 8
011
 10
1239.976104
 20
-2181.323436
 11
1357.134086
 21
-2181.323441
 0
LINE
 8
011
 10
1517.067900
 20
-1885.981490
 11
1516.995104
 21
-1884.634652
 0
LINE
 8
011
 10
1233.757104
 20
-1884.634652
 11
1233.684308
 21
-1885.981490
 0
LINE
 8
011
 10
1233.684308
 20
-1885.981490
 11
1233.684308
 21
-2175.031640
 0
ARC
 8
011
 10
1239.976104
 20
-2175.031640
 40
6.291796
 50
180.000000
 51
270.000000
 0
ARC
 8
011
 10
1440.376104
 20
-2482.764954
 40
15.000000
 50
72.155970
 51
107.790968
 0
ARC
 8
011
 10
1438.430826
 20
-2478.482415
 40
11.930052
 50
30.861944
 51
56.673897
 0
POLYLINE
 8
011
 66
1
 0
VERTEX
 8
011
 10
1435.774575
 20
-2468.508919
 0
VERTEX
 8
011
 10
1435.612122
 20
-2468.552970
 0
VERTEX
 8
011
 10
1435.157443
 20
-2468.825963
 0
VERTEX
 8
011
 10
1434.540397
 20
-2469.380856
 0
VERTEX
 8
011
 10
1433.882269
 20
-2470.106103
 0
VERTEX
 8
011
 10
1433.169624
 20
-2470.967375
 0
VERTEX
 8
011
 10
1432.316846
 20
-2472.052467
 0
VERTEX
 8
011
 10
1432.077444
 20
-2472.368669
 0
SEQEND
 8
011
 0
LINE
 8
011
 10
1455.376104
 20
-2486.679304
 11
1455.376102
 21
-2485.242356
 0
LINE
 8
011
 10
1425.376105
 20
-2485.242356
 11
1425.376104
 21
-2486.679304
 0
POLYLINE
 8
011
 66
1
 0
VERTEX
 8
011
 10
1450.023992
 20
-2474.076622
 0
VERTEX
 8
011
 10
1449.222288
 20
-2473.070134
 0
VERTEX
 8
011
 10
1448.682240
 20
-2472.363894
 0
SEQEND
 8
011
 0
POLYLINE
 8
011
 66
1
 0
VERTEX
 8
011
 10
1432.069904
 20
-2472.363685
 0
VERTEX
 8
011
 10
1431.680242
 20
-2472.878334
 0
VERTEX
 8
011
 10
1430.810413
 20
-2473.973864
 0
SEQEND
 8
011
 0
LINE
 8
011
 10
1391.975420
 20
-2492.685139
 11
1391.995695
 21
-2493.148642
 0
LINE
 8
011
 10
1395.062734
 20
-2490.576119
 11
1394.591608
 21
-2489.574606
 0
LINE
 8
011
 10
1393.093787
 20
-2489.640127
 11
1391.976206
 21
-2492.680340
 0
LINE
 8
011
 10
1394.591608
 20
-2489.574606
 11
1394.537587
 21
-2488.331130
 0
LINE
 8
011
 10
1393.039020
 20
-2488.396683
 11
1393.093787
 21
-2489.640127
 0
ARC
 8
011
 10
1393.788303
 20
-2488.363906
 40
0.750000
 50
2.504769
 51
182.504769
 0
LINE
 8
011
 10
1381.276104
 20
-2483.884157
 11
1381.276104
 21
-2482.895677
 0
LINE
 8
011
 10
1381.276104
 20
-2476.895680
 11
1381.276104
 21
-2460.584157
 0
LINE
 8
011
 10
1369.476104
 20
-2460.584157
 11
1369.476104
 21
-2476.895680
 0
LINE
 8
011
 10
1369.476104
 20
-2482.895677
 11
1369.476104
 21
-2483.884157
 0
ARC
 8
011
 10
1369.976104
 20
-2460.584157
 40
0.500000
 50
90.000000
 51
180.000000
 0
ARC
 8
011
 10
1380.776104
 20
-2460.584157
 40
0.500000
 50
0.000000
 51
90.000000
 0
ARC
 8
011
 10
1370.376104
 20
-2484.384157
 40
0.500000
 50
0.000000
 51
90.000000
 0
ARC
 8
011
 10
1380.376104
 20
-2484.384157
 40
0.500000
 50
90.000000
 51
180.000000
 0
LINE
 8
011
 10
1379.876104
 20
-2485.195678
 11
1379.876104
 21
-2484.384157
 0
LINE
 8
011
 10
1370.876104
 20
-2484.384157
 11
1370.876104
 21
-2485.195678
 0
ARC
 8
011
 10
1344.019829
 20
-2479.727479
 40
1.000000
 50
98.972627
 51
188.972627
 0
ARC
 8
011
 10
1406.732378
 20
-2479.727479
 40
1.000000
 50
37.989409
 51
81.027373
 0
LINE
 8
011
 10
1343.032067
 20
-2479.883441
 11
1343.110048
 21
-2480.377323
 0
ARC
 8
011
 10
1344.097811
 20
-2480.221360
 40
1.000000
 50
188.972627
 51
270.000000
 0
LINE
 8
011
 10
1344.097811
 20
-2481.221360
 11
1373.976104
 21
-2481.221360
 0
LINE
 8
011
 10
1376.776104
 20
-2481.221360
 11
1404.819916
 21
-2481.221360
 0
LINE
 8
011
 10
1406.888341
 20
-2478.739716
 11
1398.376104
 21
-2477.395678
 0
LINE
 8
011
 10
1344.876258
 20
-2478.579865
 11
1343.863867
 21
-2478.739716
 0
LINE
 8
011
 10
1352.376104
 20
-2477.395678
 11
1351.876036
 21
-2477.474638
 0
LINE
 8
011
 10
1396.376104
 20
-2477.395677
 11
1389.010339
 21
-2476.900188
 0
LINE
 8
011
 10
1361.741869
 20
-2476.900188
 11
1354.376104
 21
-2477.395677
 0
ARC
 8
011
 10
1388.876104
 20
-2478.895678
 40
2.000000
 50
86.151549
 51
90.000000
 0
ARC
 8
011
 10
1361.876104
 20
-2478.895678
 40
2.000000
 50
90.000000
 51
93.848451
 0
LINE
 8
011
 10
1388.876104
 20
-2476.895678
 11
1378.526104
 21
-2476.895678
 0
LINE
 8
011
 10
1372.226104
 20
-2476.895678
 11
1361.876104
 21
-2476.895678
 0
LINE
 8
011
 10
1361.910092
 20
-2482.637181
 11
1362.876104
 21
-2482.895678
 0
LINE
 8
011
 10
1387.876104
 20
-2482.895678
 11
1388.842116
 21
-2482.637181
 0
LINE
 8
011
 10
1388.842116
 20
-2482.637181
 11
1388.463254
 21
-2481.221360
 0
LINE
 8
011
 10
1362.288954
 20
-2481.221360
 11
1361.910092
 21
-2482.637181
 0
LINE
 8
011
 10
1351.883971
 20
-2476.773382
 11
1351.876036
 21
-2476.774637
 0
LINE
 8
011
 10
1342.345867
 20
-2485.195678
 11
1342.372506
 21
-2486.721797
 0
ARC
 8
011
 10
1342.672460
 20
-2486.716561
 40
0.300000
 50
181.000000
 51
250.000000
 0
LINE
 8
011
 10
1342.569854
 20
-2486.998469
 11
1342.682354
 21
-2487.039416
 0
LINE
 8
011
 10
1395.919011
 20
-2485.195678
 11
1395.710726
 21
-2481.221360
 0
LINE
 8
011
 10
1391.414550
 20
-2481.221360
 11
1391.206265
 21
-2485.195678
 0
LINE
 8
011
 10
1359.545943
 20
-2485.195678
 11
1359.337658
 21
-2481.221360
 0
LINE
 8
011
 10
1355.041482
 20
-2481.221360
 11
1354.833197
 21
-2485.195678
 0
ARC
 8
011
 10
1342.579748
 20
-2487.321323
 40
0.300000
 50
1.000000
 51
70.000000
 0
LINE
 8
011
 10
1342.879702
 20
-2487.316088
 11
1342.881853
 21
-2487.439273
 0
ARC
 8
011
 10
1343.181807
 20
-2487.434037
 40
0.300000
 50
181.000000
 51
245.093031
 0
LINE
 8
011
 10
1340.376104
 20
-2492.584157
 11
1340.376104
 21
-2499.084157
 0
ARC
 8
011
 10
1341.876104
 20
-2492.584157
 40
1.500000
 50
90.000000
 51
180.000000
 0
LINE
 8
011
 10
1392.180750
 20
-2491.084157
 11
1376.661116
 21
-2491.084157
 0
LINE
 8
011
 10
1374.091092
 20
-2491.084157
 11
1341.876104
 21
-2491.084157
 0
LINE
 8
011
 10
1392.562962
 20
-2491.084157
 11
1392.180750
 21
-2491.084157
 0
LINE
 8
011
 10
1372.450176
 20
-2502.584157
 11
1318.931288
 21
-2502.584157
 0
LINE
 8
011
 10
1327.124936
 20
-2499.413412
 11
1321.083492
 21
-2501.003266
 0
ARC
 8
011
 10
1329.669869
 20
-2509.084157
 40
10.000000
 50
90.000000
 51
104.743563
 0
ARC
 8
011
 10
1520.888713
 20
-2451.568592
 40
52.507578
 50
222.135134
 51
261.501787
 0
LINE
 8
011
 10
1513.348995
 20
-2503.542545
 11
1513.129218
 21
-2503.499661
 0
ARC
 8
011
 10
1360.414186
 20
-2452.616138
 40
51.397160
 50
283.229126
 51
318.393900
 0
POLYLINE
 8
011
 66
1
 0
VERTEX
 8
011
 10
1481.951958
 20
-2486.795706
 0
VERTEX
 8
011
 10
1478.228881
 20
-2483.008903
 0
VERTEX
 8
011
 10
1474.790058
 20
-2480.180778
 0
VERTEX
 8
011
 10
1472.288339
 20
-2478.429501
 0
VERTEX
 8
011
 10
1470.340563
 20
-2477.213301
 0
VERTEX
 8
011
 10
1468.892595
 20
-2476.383556
 0
VERTEX
 8
011
 10
1467.284395
 20
-2475.530573
 0
VERTEX
 8
011
 10
1465.412846
 20
-2474.622880
 0
VERTEX
 8
011
 10
1463.264568
 20
-2473.686569
 0
VERTEX
 8
011
 10
1460.826753
 20
-2472.749804
 0
VERTEX
 8
011
 10
1457.124061
 20
-2471.560587
 0
VERTEX
 8
011
 10
1454.072772
 20
-2470.777792
 0
VERTEX
 8
011
 10
1451.656675
 20
-2470.278335
 0
VERTEX
 8
011
 10
1448.843433
 20
-2469.824866
 0
VERTEX
 8
011
 10
1446.375026
 20
-2469.558016
 0
SEQEND
 8
011
 0
POLYLINE
 8
011
 66
1
 0
VERTEX
 8
011
 10
1434.374804
 20
-2469.563336
 0
VERTEX
 8
011
 10
1433.016198
 20
-2469.682780
 0
VERTEX
 8
011
 10
1429.399701
 20
-2470.222735
 0
VERTEX
 8
011
 10
1425.554043
 20
-2471.046411
 0
VERTEX
 8
011
 10
1421.636073
 20
-2472.166602
 0
VERTEX
 8
011
 10
1419.324374
 20
-2472.968870
 0
VERTEX
 8
011
 10
1417.130882
 20
-2473.834471
 0
VERTEX
 8
011
 10
1415.027326
 20
-2474.768084
 0
VERTEX
 8
011
 10
1412.519405
 20
-2476.025217
 0
VERTEX
 8
011
 10
1409.500471
 20
-2477.767401
 0
VERTEX
 8
011
 10
1406.094503
 20
-2480.082203
 0
VERTEX
 8
011
 10
1402.471765
 20
-2483.055898
 0
VERTEX
 8
011
 10
1398.845261
 20
-2486.744144
 0
SEQEND
 8
011
 0
ARC
 8
011
 10
1516.127244
 20
-2520.338309
 40
23.294468
 50
33.086036
 51
49.748211
 0
ARC
 8
011
 10
1234.437423
 20
-2520.134967
 40
23.023421
 50
127.501550
 51
135.763209
 0
POLYLINE
 8
011
 66
1
 0
VERTEX
 8
011
 10
1449.901796
 20
-2474.097823
 0
VERTEX
 8
011
 10
1451.106800
 20
-2475.570549
 0
VERTEX
 8
011
 10
1453.130795
 20
-2478.356347
 0
VERTEX
 8
011
 10
1454.161829
 20
-2480.201215
 0
VERTEX
 8
011
 10
1454.910672
 20
-2482.127224
 0
VERTEX
 8
011
 10
1455.376102
 20
-2485.242356
 0
VERTEX
 8
011
 10
1455.334468
 20
-2486.165208
 0
VERTEX
 8
011
 10
1454.459547
 20
-2489.426798
 0
VERTEX
 8
011
 10
1453.969075
 20
-2490.141657
 0
SEQEND
 8
011
 0
POLYLINE
 8
011
 66
1
 0
VERTEX
 8
011
 10
1426.788962
 20
-2490.150156
 0
VERTEX
 8
011
 10
1426.292660
 20
-2489.426798
 0
VERTEX
 8
011
 10
1425.417742
 20
-2486.165208
 0
VERTEX
 8
011
 10
1425.376105
 20
-2485.242356
 0
VERTEX
 8
011
 10
1425.841535
 20
-2482.127224
 0
VERTEX
 8
011
 10
1426.563280
 20
-2480.258190
 0
VERTEX
 8
011
 10
1427.621408
 20
-2478.356347
 0
VERTEX
 8
011
 10
1429.645410
 20
-2475.570549
 0
VERTEX
 8
011
 10
1430.933679
 20
-2473.996051
 0
SEQEND
 8
011
 0
ARC
 8
011
 10
1444.423914
 20
-2486.587436
 40
10.952574
 50
320.576282
 51
359.519401
 0
ARC
 8
011
 10
1436.377921
 20
-2486.567470
 40
11.002384
 50
180.582402
 51
218.827227
 0
ARC
 8
011
 10
1392.701296
 20
-2494.273670
 40
1.746517
 50
87.523331
 51
114.557942
 0
ARC
 8
011
 10
1394.107648
 20
-2492.107138
 40
2.578358
 50
79.181379
 51
98.764583
 0
ARC
 8
011
 10
1393.641100
 20
-2491.409735
 40
1.852313
 50
87.720596
 51
107.186022
 0
LINE
 8
011
 10
1369.476104
 20
-2483.884157
 11
1372.709853
 21
-2483.884157
 0
LINE
 8
011
 10
1378.042355
 20
-2483.884157
 11
1381.276104
 21
-2483.884157
 0
LINE
 8
011
 10
1369.976104
 20
-2460.084157
 11
1380.776104
 21
-2460.084157
 0
LINE
 8
011
 10
1372.226104
 20
-2476.895678
 11
1373.976104
 21
-2476.895678
 0
LINE
 8
011
 10
1376.776104
 20
-2476.895678
 11
1378.526104
 21
-2476.895678
 0
ARC
 8
011
 10
1327.530301
 20
-2328.035626
 40
151.409155
 50
278.965593
 51
279.252971
 0
POLYLINE
 8
011
 66
1
 0
VERTEX
 8
011
 10
1345.626103
 20
-2478.462961
 0
VERTEX
 8
011
 10
1345.340824
 20
-2478.507777
 0
VERTEX
 8
011
 10
1345.097704
 20
-2478.545637
 0
VERTEX
 8
011
 10
1344.934054
 20
-2478.570954
 0
VERTEX
 8
011
 10
1344.876173
 20
-2478.579880
 0
VERTEX
 8
011
 10
1344.876258
 20
-2478.579865
 0
SEQEND
 8
011
 0
LINE
 8
011
 10
1351.126103
 20
-2477.594879
 11
1345.626103
 21
-2478.462961
 0
LINE
 8
011
 10
1398.376104
 20
-2477.395678
 11
1380.876107
 21
-2477.395678
 0
LINE
 8
011
 10
1352.376104
 20
-2477.395678
 11
1369.876101
 21
-2477.395678
 0
LINE
 8
011
 10
1372.598326
 20
-2477.395678
 11
1369.876104
 21
-2477.395678
 0
LINE
 8
011
 10
1378.153882
 20
-2477.395678
 11
1380.876104
 21
-2477.395678
 0
LINE
 8
011
 10
1372.598326
 20
-2477.395678
 11
1373.976104
 21
-2477.395678
 0
LINE
 8
011
 10
1376.776104
 20
-2477.395678
 11
1378.153882
 21
-2477.395678
 0
LINE
 8
011
 10
1387.876104
 20
-2482.895678
 11
1377.990551
 21
-2482.895678
 0
LINE
 8
011
 10
1372.761657
 20
-2482.895678
 11
1362.876104
 21
-2482.895678
 0
LINE
 8
011
 10
1342.345867
 20
-2485.195678
 11
1373.976104
 21
-2485.195678
 0
LINE
 8
011
 10
1376.776104
 20
-2485.195678
 11
1400.450929
 21
-2485.195678
 0
LINE
 8
011
 10
1377.902803
 20
-2481.221360
 11
1378.111088
 21
-2485.195678
 0
LINE
 8
011
 10
1372.849405
 20
-2481.221360
 11
1372.641119
 21
-2485.195678
 0
LINE
 8
011
 10
1419.936000
 20
-2472.756606
 11
1417.826416
 21
-2472.543491
 0
ARC
 8
011
 10
1418.227421
 20
-2470.557832
 40
2.025745
 50
97.913826
 51
258.582657
 0
LINE
 8
011
 10
1417.948511
 20
-2468.551379
 11
1436.839553
 21
-2468.187821
 0
LINE
 8
011
 10
1443.454123
 20
-2468.084157
 11
1461.635025
 21
-2468.084157
 0
ARC
 8
011
 10
1461.416010
 20
-2472.524599
 40
4.445840
 50
12.775505
 51
87.176334
 0
LINE
 8
011
 10
1465.751791
 20
-2471.541483
 11
1466.730578
 21
-2475.172377
 0
POLYLINE
 8
011
 66
1
 0
VERTEX
 8
011
 10
1467.151790
 20
-2471.541484
 0
VERTEX
 8
011
 10
1468.187457
 20
-2475.393151
 0
VERTEX
 8
011
 10
1468.337877
 20
-2475.982670
 0
SEQEND
 8
011
 0
LINE
 8
011
 10
1463.035025
 20
-2468.084157
 11
1461.635025
 21
-2468.084157
 0
ARC
 8
011
 10
1462.816011
 20
-2472.524599
 40
4.445840
 50
12.775505
 51
87.176334
 0
LINE
 8
011
 10
1279.108386
 20
-2503.025355
 11
1279.081261
 21
-2503.588945
 0
LINE
 8
011
 10
1277.708386
 20
-2503.025355
 11
1277.681261
 21
-2503.588945
 0
ARC
 8
011
 10
1459.803198
 20
-2520.548114
 40
181.542450
 50
164.338955
 51
174.461099
 0
ARC
 8
011
 10
1289.336198
 20
-2472.524599
 40
4.445840
 50
92.823666
 51
167.224495
 0
LINE
 8
011
 10
1308.526120
 20
-2468.084157
 11
1289.117183
 21
-2468.084157
 0
LINE
 8
011
 10
1332.803697
 20
-2468.551379
 11
1308.526120
 21
-2468.084157
 0
ARC
 8
011
 10
1332.524787
 20
-2470.557832
 40
2.025745
 50
281.417343
 51
82.086174
 0
LINE
 8
011
 10
1301.394941
 20
-2475.728839
 11
1332.925792
 21
-2472.543491
 0
POLYLINE
 8
011
 66
1
 0
VERTEX
 8
011
 10
1302.202417
 20
-2497.084156
 0
VERTEX
 8
011
 10
1300.444542
 20
-2496.889825
 0
VERTEX
 8
011
 10
1298.750526
 20
-2496.313889
 0
VERTEX
 8
011
 10
1297.181925
 20
-2495.377271
 0
VERTEX
 8
011
 10
1295.795722
 20
-2494.114003
 0
VERTEX
 8
011
 10
1294.642276
 20
-2492.569976
 0
VERTEX
 8
011
 10
1293.763487
 20
-2490.801289
 0
VERTEX
 8
011
 10
1293.191297
 20
-2488.872197
 0
VERTEX
 8
011
 10
1292.946486
 20
-2486.852784
 0
VERTEX
 8
011
 10
1293.037942
 20
-2484.816418
 0
VERTEX
 8
011
 10
1293.462350
 20
-2482.837082
 0
VERTEX
 8
011
 10
1294.204293
 20
-2480.986685
 0
VERTEX
 8
011
 10
1295.236810
 20
-2479.332452
 0
VERTEX
 8
011
 10
1296.522385
 20
-2477.934484
 0
VERTEX
 8
011
 10
1298.014327
 20
-2476.843570
 0
VERTEX
 8
011
 10
1299.658424
 20
-2476.099343
 0
VERTEX
 8
011
 10
1301.394938
 20
-2475.728840
 0
SEQEND
 8
011
 0
LINE
 8
011
 10
1319.351440
 20
-2497.084157
 11
1302.202417
 21
-2497.084157
 0
ARC
 8
011
 10
1319.207101
 20
-2498.959159
 40
1.880550
 50
356.188822
 51
85.597976
 0
LINE
 8
011
 10
1321.083491
 20
-2502.284157
 11
1321.083491
 21
-2499.084157
 0
POLYLINE
 8
011
 66
1
 0
VERTEX
 8
011
 10
1321.043602
 20
-2502.584156
 0
VERTEX
 8
011
 10
1321.066851
 20
-2502.479248
 0
VERTEX
 8
011
 10
1321.083492
 20
-2502.284157
 0
SEQEND
 8
011
 0
LINE
 8
011
 10
1317.186670
 20
-2503.551911
 11
1317.246085
 21
-2503.514090
 0
ARC
 8
011
 10
1458.404026
 20
-2520.548269
 40
181.543290
 50
164.338979
 51
174.461076
 0
LINE
 8
011
 10
1289.117183
 20
-2468.084157
 11
1287.717183
 21
-2468.084157
 0
ARC
 8
011
 10
1287.936197
 20
-2472.524599
 40
4.445840
 50
92.823666
 51
167.224495
 0
LINE
 8
011
 10
1376.776104
 20
-2471.473776
 11
1376.776104
 21
-2501.339394
 0
LINE
 8
011
 10
1373.976104
 20
-2471.473776
 11
1373.976104
 21
-2502.191761
 0
LINE
 8
011
 10
1376.776104
 20
-2468.084157
 11
1373.976104
 21
-2468.084157
 0
LINE
 8
011
 10
1376.776104
 20
-2468.084157
 11
1376.776104
 21
-2471.473776
 0
LINE
 8
011
 10
1373.976104
 20
-2468.084157
 11
1373.976104
 21
-2471.473776
 0
LINE
 8
011
 10
1377.376108
 20
-2499.084157
 11
1382.377593
 21
-2499.084157
 0
LINE
 8
011
 10
1377.668997
 20
-2499.703019
 11
1377.876104
 21
-2499.849005
 0
ARC
 8
011
 10
1377.977667
 20
-2499.151817
 40
0.631744
 50
197.781914
 51
240.751409
 0
LINE
 8
011
 10
1377.376104
 20
-2499.084157
 11
1377.376104
 21
-2499.344748
 0
LINE
 8
011
 10
1377.876104
 20
-2500.956074
 11
1377.876104
 21
-2499.849005
 0
LINE
 8
011
 10
1369.192624
 20
-2499.084157
 11
1373.376101
 21
-2499.084157
 0
LINE
 8
011
 10
1373.376104
 20
-2499.344748
 11
1373.376104
 21
-2499.084157
 0
POLYLINE
 8
011
 66
1
 0
VERTEX
 8
011
 10
1373.083211
 20
-2499.703019
 0
VERTEX
 8
011
 10
1373.291860
 20
-2499.524507
 0
VERTEX
 8
011
 10
1373.376104
 20
-2499.344748
 0
SEQEND
 8
011
 0
LINE
 8
011
 10
1372.876104
 20
-2499.849005
 11
1373.083211
 21
-2499.703019
 0
LINE
 8
011
 10
1372.876104
 20
-2499.849005
 11
1372.876104
 21
-2502.479638
 0
LINE
 8
011
 10
1373.376104
 20
-2499.084157
 11
1373.976104
 21
-2499.084157
 0
LINE
 8
011
 10
1376.776104
 20
-2499.084157
 11
1377.376104
 21
-2499.084157
 0
LINE
 8
011
 10
1363.534670
 20
-2499.084157
 11
1369.192629
 21
-2499.084157
 0
LINE
 8
011
 10
1329.669869
 20
-2499.084157
 11
1363.534670
 21
-2499.084157
 0
POLYLINE
 8
011
 66
1
 0
VERTEX
 8
011
 10
1477.441883
 20
-2491.050950
 0
VERTEX
 8
011
 10
1477.690584
 20
-2490.262561
 0
VERTEX
 8
011
 10
1477.690584
 20
-2489.234010
 0
VERTEX
 8
011
 10
1477.341047
 20
-2488.247123
 0
VERTEX
 8
011
 10
1476.670301
 20
-2487.381850
 0
VERTEX
 8
011
 10
1475.732675
 20
-2486.708292
 0
VERTEX
 8
011
 10
1474.604136
 20
-2486.281016
 0
VERTEX
 8
011
 10
1473.376101
 20
-2486.134638
 0
VERTEX
 8
011
 10
1472.148074
 20
-2486.281016
 0
VERTEX
 8
011
 10
1471.019535
 20
-2486.708292
 0
VERTEX
 8
011
 10
1470.081909
 20
-2487.381850
 0
VERTEX
 8
011
 10
1469.411156
 20
-2488.247123
 0
VERTEX
 8
011
 10
1469.061627
 20
-2489.234010
 0
VERTEX
 8
011
 10
1469.061627
 20
-2490.262561
 0
VERTEX
 8
011
 10
1469.411156
 20
-2491.249450
 0
VERTEX
 8
011
 10
1469.543187
 20
-2491.469069
 0
SEQEND
 8
011
 0
POLYLINE
 8
011
 66
1
 0
VERTEX
 8
011
 10
1418.797410
 20
-2498.229132
 0
VERTEX
 8
011
 10
1418.973974
 20
-2499.247213
 0
VERTEX
 8
011
 10
1419.489360
 20
-2500.182816
 0
VERTEX
 8
011
 10
1420.301820
 20
-2500.960144
 0
VERTEX
 8
011
 10
1421.345527
 20
-2501.516220
 0
VERTEX
 8
011
 10
1422.535928
 20
-2501.805997
 0
VERTEX
 8
011
 10
1423.776584
 20
-2501.805997
 0
VERTEX
 8
011
 10
1424.966986
 20
-2501.516220
 0
VERTEX
 8
011
 10
1426.010693
 20
-2500.960144
 0
VERTEX
 8
011
 10
1426.823153
 20
-2500.182816
 0
VERTEX
 8
011
 10
1427.338539
 20
-2499.247213
 0
VERTEX
 8
011
 10
1427.515103
 20
-2498.229132
 0
VERTEX
 8
011
 10
1427.338539
 20
-2497.211049
 0
VERTEX
 8
011
 10
1426.823153
 20
-2496.275446
 0
VERTEX
 8
011
 10
1426.010693
 20
-2495.498118
 0
VERTEX
 8
011
 10
1424.966986
 20
-2494.942042
 0
VERTEX
 8
011
 10
1423.776584
 20
-2494.652265
 0
VERTEX
 8
011
 10
1422.535928
 20
-2494.652265
 0
VERTEX
 8
011
 10
1421.345527
 20
-2494.942042
 0
VERTEX
 8
011
 10
1420.301820
 20
-2495.498118
 0
VERTEX
 8
011
 10
1419.489360
 20
-2496.275446
 0
VERTEX
 8
011
 10
1418.973974
 20
-2497.211049
 0
VERTEX
 8
011
 10
1418.797410
 20
-2498.229132
 0
SEQEND
 8
011
 0
ARC
 8
011
 10
1534.626104
 20
-2515.834157
 40
2.750000
 50
269.994543
 51
1.118392
 0
POLYLINE
 8
011
 66
1
 0
VERTEX
 8
011
 10
1537.363185
 20
-2514.035942
 0
VERTEX
 8
011
 10
1537.372871
 20
-2514.072103
 0
VERTEX
 8
011
 10
1537.376104
 20
-2514.084157
 0
SEQEND
 8
011
 0
LINE
 8
011
 10
1537.376104
 20
-2514.084157
 11
1537.375580
 21
-2515.780482
 0
ARC
 8
011
 10
1216.126104
 20
-2515.834157
 40
2.750000
 50
178.881608
 51
270.005457
 0
LINE
 8
011
 10
1213.376628
 20
-2515.780482
 11
1213.376103
 21
-2514.084157
 0
POLYLINE
 8
011
 66
1
 0
VERTEX
 8
011
 10
1213.376103
 20
-2514.084157
 0
VERTEX
 8
011
 10
1213.379337
 20
-2514.072103
 0
VERTEX
 8
011
 10
1213.389023
 20
-2514.035942
 0
SEQEND
 8
011
 0
LINE
 8
011
 10
1213.389023
 20
-2514.035942
 11
1215.496434
 21
-2506.170958
 0
LINE
 8
011
 10
1535.644555
 20
-2507.621911
 11
1537.363185
 21
-2514.035942
 0
LINE
 8
011
 10
1237.015678
 20
-2503.584157
 11
1369.258218
 21
-2503.584157
 0
LINE
 8
011
 10
1369.258218
 20
-2503.584157
 11
1369.965694
 21
-2503.547428
 0
LINE
 8
011
 10
1221.561282
 20
-2503.584157
 11
1237.015678
 21
-2503.584157
 0
LINE
 8
011
 10
1217.810744
 20
-2504.185832
 11
1221.561282
 21
-2503.584157
 0
LINE
 8
011
 10
1513.119368
 20
-2503.584157
 11
1532.311513
 21
-2503.584157
 0
ARC
 8
011
 10
1440.372284
 20
-2486.946551
 40
12.831503
 50
236.250658
 51
302.644277
 0
ARC
 8
011
 10
1440.377388
 20
-2487.251303
 40
13.063516
 50
223.986318
 51
315.396153
 0
ARC
 8
011
 10
1496.692424
 20
-2585.660834
 40
90.079279
 50
70.514119
 51
78.882319
 0
LINE
 8
011
 10
1527.330464
 20
-2500.959874
 11
1526.740475
 21
-2500.740926
 0
POLYLINE
 8
011
 66
1
 0
VERTEX
 8
011
 10
1237.103327
 20
-2497.191910
 0
VERTEX
 8
011
 10
1245.457603
 20
-2495.994187
 0
VERTEX
 8
011
 10
1254.038817
 20
-2495.584157
 0
SEQEND
 8
011
 0
ARC
 8
011
 10
1496.713360
 20
-2585.584517
 40
90.000359
 50
79.153894
 51
89.999980
 0
LINE
 8
011
 10
1236.690267
 20
-2497.272054
 11
1237.103329
 21
-2497.191911
 0
LINE
 8
011
 10
1513.648879
 20
-2497.191911
 11
1514.061941
 21
-2497.272054
 0
LINE
 8
011
 10
1527.330464
 20
-2500.959874
 11
1527.615322
 21
-2501.116776
 0
LINE
 8
011
 10
1254.038818
 20
-2495.584157
 11
1278.586744
 21
-2495.584157
 0
LINE
 8
011
 10
1297.471343
 20
-2495.584157
 11
1340.376104
 21
-2495.584157
 0
LINE
 8
011
 10
1492.376453
 20
-2495.584157
 11
1496.713390
 21
-2495.584157
 0
POLYLINE
 8
011
 66
1
 0
VERTEX
 8
011
 10
1448.409020
 20
-2493.267008
 0
VERTEX
 8
011
 10
1446.986026
 20
-2492.436674
 0
VERTEX
 8
011
 10
1445.817790
 20
-2490.719988
 0
VERTEX
 8
011
 10
1444.984405
 20
-2488.211368
 0
VERTEX
 8
011
 10
1444.461240
 20
-2484.913570
 0
VERTEX
 8
011
 10
1444.211675
 20
-2480.948039
 0
VERTEX
 8
011
 10
1444.161511
 20
-2478.796926
 0
VERTEX
 8
011
 10
1444.141074
 20
-2476.685942
 0
VERTEX
 8
011
 10
1444.135918
 20
-2474.644829
 0
VERTEX
 8
011
 10
1444.141409
 20
-2472.766437
 0
VERTEX
 8
011
 10
1444.164252
 20
-2471.196369
 0
VERTEX
 8
011
 10
1444.226532
 20
-2469.910097
 0
VERTEX
 8
011
 10
1444.354563
 20
-2469.032683
 0
VERTEX
 8
011
 10
1444.598629
 20
-2468.538214
 0
VERTEX
 8
011
 10
1444.950207
 20
-2468.479507
 0
VERTEX
 8
011
 10
1444.968073
 20
-2468.490761
 0
SEQEND
 8
011
 0
ARC
 8
011
 10
1440.376103
 20
-2477.621862
 40
17.586880
 50
242.822013
 51
297.177987
 0
POLYLINE
 8
011
 66
1
 0
VERTEX
 8
011
 10
1435.790962
 20
-2468.485758
 0
VERTEX
 8
011
 10
1436.153582
 20
-2468.538214
 0
VERTEX
 8
011
 10
1436.391568
 20
-2469.009143
 0
VERTEX
 8
011
 10
1436.525675
 20
-2469.910097
 0
VERTEX
 8
011
 10
1436.586841
 20
-2471.154411
 0
VERTEX
 8
011
 10
1436.610794
 20
-2472.766437
 0
VERTEX
 8
011
 10
1436.616289
 20
-2474.644829
 0
VERTEX
 8
011
 10
1436.611137
 20
-2476.685942
 0
VERTEX
 8
011
 10
1436.591490
 20
-2478.743561
 0
VERTEX
 8
011
 10
1436.540535
 20
-2480.948039
 0
VERTEX
 8
011
 10
1436.290963
 20
-2484.913570
 0
VERTEX
 8
011
 10
1435.767806
 20
-2488.211368
 0
VERTEX
 8
011
 10
1434.934417
 20
-2490.719988
 0
VERTEX
 8
011
 10
1433.766177
 20
-2492.436674
 0
VERTEX
 8
011
 10
1432.343187
 20
-2493.267008
 0
SEQEND
 8
011
 0
ARC
 8
011
 10
1449.185231
 20
-2488.139507
 40
5.185921
 50
261.391815
 51
337.289553
 0
ARC
 8
011
 10
1431.601212
 20
-2488.081971
 40
5.237856
 50
203.256834
 51
278.143702
 0
ARC
 8
011
 10
1440.871863
 20
-2483.402030
 40
15.720657
 50
268.192838
 51
319.829472
 0
ARC
 8
011
 10
1440.017696
 20
-2483.104143
 40
16.014736
 50
220.315806
 51
271.282371
 0
LINE
 8
011
 10
1381.276104
 20
-2460.584157
 11
1369.476104
 21
-2460.584157
 0
LINE
 8
011
 10
1343.863867
 20
-2478.739716
 11
1373.976104
 21
-2478.739716
 0
LINE
 8
011
 10
1376.776104
 20
-2478.739716
 11
1406.888341
 21
-2478.739716
 0
LINE
 8
011
 10
1342.372506
 20
-2486.721797
 11
1373.976104
 21
-2486.721797
 0
LINE
 8
011
 10
1376.776104
 20
-2486.721797
 11
1398.733269
 21
-2486.721797
 0
LINE
 8
011
 10
1343.074758
 20
-2488.078367
 11
1343.076442
 21
-2488.077821
 0
LINE
 8
011
 10
1340.376104
 20
-2492.584157
 11
1373.976104
 21
-2492.584157
 0
LINE
 8
011
 10
1376.776104
 20
-2492.584157
 11
1390.758109
 21
-2492.584157
 0
LINE
 8
011
 10
1390.758110
 20
-2494.110918
 11
1390.758109
 21
-2492.584157
 0
POLYLINE
 8
011
 66
1
 0
VERTEX
 8
011
 10
1390.758110
 20
-2492.584157
 0
VERTEX
 8
011
 10
1390.765440
 20
-2492.199746
 0
VERTEX
 8
011
 10
1390.789283
 20
-2491.861471
 0
VERTEX
 8
011
 10
1390.835974
 20
-2491.582683
 0
VERTEX
 8
011
 10
1390.961770
 20
-2491.297581
 0
VERTEX
 8
011
 10
1391.287605
 20
-2491.116875
 0
VERTEX
 8
011
 10
1391.814361
 20
-2491.084541
 0
VERTEX
 8
011
 10
1392.092092
 20
-2491.084157
 0
VERTEX
 8
011
 10
1392.561535
 20
-2491.088041
 0
SEQEND
 8
011
 0
LINE
 8
011
 10
1376.776104
 20
-2471.473776
 11
1373.976104
 21
-2471.473776
 0
ARC
 8
011
 10
1473.620325
 20
-2489.059587
 40
4.309273
 50
266.751079
 51
332.476581
 0
ARC
 8
011
 10
1473.227839
 20
-2488.835036
 40
4.529325
 50
215.559698
 51
271.875853
 0
LINE
 8
011
 10
1379.169702
 20
-2502.696824
 11
1504.058583
 21
-2502.696824
 0
POLYLINE
 8
011
 66
1
 0
VERTEX
 8
011
 10
1369.962709
 20
-2503.547583
 0
VERTEX
 8
011
 10
1370.892211
 20
-2503.171009
 0
VERTEX
 8
011
 10
1372.336686
 20
-2502.584157
 0
SEQEND
 8
011
 0
POLYLINE
 8
011
 66
1
 0
VERTEX
 8
011
 10
1220.421158
 20
-2501.869639
 0
VERTEX
 8
011
 10
1230.120613
 20
-2498.820572
 0
VERTEX
 8
011
 10
1236.690267
 20
-2497.272054
 0
SEQEND
 8
011
 0
POLYLINE
 8
011
 66
1
 0
VERTEX
 8
011
 10
1217.941998
 20
-2504.073246
 0
VERTEX
 8
011
 10
1215.496434
 20
-2506.170958
 0
SEQEND
 8
011
 0
POLYLINE
 8
011
 66
1
 0
VERTEX
 8
011
 10
1531.178913
 20
-2502.559685
 0
VERTEX
 8
011
 10
1529.101266
 20
-2501.668450
 0
VERTEX
 8
011
 10
1527.627690
 20
-2501.089713
 0
SEQEND
 8
011
 0
POLYLINE
 8
011
 66
1
 0
VERTEX
 8
011
 10
1429.424334
 20
-2495.114657
 0
VERTEX
 8
011
 10
1430.330208
 20
-2496.573076
 0
VERTEX
 8
011
 10
1431.489988
 20
-2497.946243
 0
VERTEX
 8
011
 10
1432.919769
 20
-2499.131583
 0
VERTEX
 8
011
 10
1434.576104
 20
-2500.093083
 0
VERTEX
 8
011
 10
1436.408671
 20
-2500.801529
 0
VERTEX
 8
011
 10
1438.361785
 20
-2501.235393
 0
VERTEX
 8
011
 10
1440.376102
 20
-2501.381495
 0
VERTEX
 8
011
 10
1442.390426
 20
-2501.235393
 0
VERTEX
 8
011
 10
1444.343536
 20
-2500.801529
 0
VERTEX
 8
011
 10
1446.176103
 20
-2500.093083
 0
VERTEX
 8
011
 10
1447.832441
 20
-2499.131583
 0
VERTEX
 8
011
 10
1449.262223
 20
-2497.946243
 0
VERTEX
 8
011
 10
1450.421995
 20
-2496.573076
 0
VERTEX
 8
011
 10
1451.268653
 20
-2495.193799
 0
SEQEND
 8
011
 0
POLYLINE
 8
011
 66
1
 0
VERTEX
 8
011
 10
1343.055017
 20
-2487.705927
 0
VERTEX
 8
011
 10
1343.056197
 20
-2487.716668
 0
VERTEX
 8
011
 10
1343.067965
 20
-2487.885588
 0
VERTEX
 8
011
 10
1343.075200
 20
-2488.104121
 0
VERTEX
 8
011
 10
1343.075337
 20
-2488.131006
 0
SEQEND
 8
011
 0
POLYLINE
 8
011
 66
1
 0
VERTEX
 8
011
 10
1343.074760
 20
-2488.078368
 0
VERTEX
 8
011
 10
1343.088227
 20
-2488.776649
 0
VERTEX
 8
011
 10
1343.132778
 20
-2491.084157
 0
SEQEND
 8
011
  0
POLYLINE
  8
011
 66
1
  0
VERTEX
  8
011
 10
1197.876104
 20
-2509.584157
  0
VERTEX
  8
011
 10
1197.736104
 20
-2511.584157
  0
VERTEX
  8
011
 10
1197.356104
 20
-2513.584157
  0
VERTEX
  8
011
 10
1196.796104
 20
-2515.584157
  0
VERTEX
  8
011
 10
1196.116104
 20
-2517.584157
  0
VERTEX
  8
011
 10
1195.376104
 20
-2519.584157
  0
VERTEX
  8
011
 10
1194.636104
 20
-2521.584157
  0
VERTEX
  8
011
 10
1193.956104
 20
-2523.584157
  0
VERTEX
  8
011
 10
1193.396104
 20
-2525.584157
  0
VERTEX
  8
011
 10
1193.016104
 20
-2527.584157
  0
VERTEX
  8
011
 10
1192.876104
 20
-2529.584157
  0
VERTEX
  8
011
 10
1193.016104
 20
-2531.584157
  0
VERTEX
  8
011
 10
1193.396104
 20
-2533.584157
  0
VERTEX
  8
011
 10
1193.956104
 20
-2535.584157
  0
VERTEX
  8
011
 10
1194.636104
 20
-2537.584157
  0
VERTEX
  8
011
 10
1195.376104
 20
-2539.584157
  0
VERTEX
  8
011
 10
1196.116104
 20
-2541.584157
  0
VERTEX
  8
011
 10
1196.796104
 20
-2543.584157
  0
VERTEX
  8
011
 10
1197.356104
 20
-2545.584157
  0
VERTEX
  8
011
 10
1197.736104
 20
-2547.584157
  0
VERTEX
  8
011
 10
1197.876104
 20
-2549.584157
  0
VERTEX
  8
011
 10
1197.736104
 20
-2551.584157
  0
VERTEX
  8
011
 10
1197.356104
 20
-2553.584157
  0
VERTEX
  8
011
 10
1196.796104
 20
-2555.584157
  0
VERTEX
  8
011
 10
1196.116104
 20
-2557.584157
  0
VERTEX
  8
011
 10
1195.376104
 20
-2559.584157
  0
VERTEX
  8
011
 10
1194.636104
 20
-2561.584157
  0
VERTEX
  8
011
 10
1193.956104
 20
-2563.584157
  0
VERTEX
  8
011
 10
1193.396104
 20
-2565.584157
  0
VERTEX
  8
011
 10
1193.016104
 20
-2567.584157
  0
VERTEX
  8
011
 10
1192.876104
 20
-2569.584157
  0
SEQEND
  8
011
 0
LINE
 8
011
 10
1236.376104
 20
-2518.584157
 11
1514.376104
 21
-2518.584157
 0
LINE
 8
011
 10
1852.694797
 20
-2474.243741
 11
1846.891534
 21
-2470.329390
 0
LINE
 8
011
 10
1830.115747
 20
-2495.200517
 11
1835.919010
 21
-2499.114868
 0
ARC
 8
011
 10
1836.478203
 20
-2498.285830
 40
1.000000
 50
236.000000
 51
326.000000
 0
ARC
 8
011
 10
1852.135604
 20
-2475.072778
 40
1.000000
 50
326.000000
 51
56.000000
 0
ARC
 8
011
 10
1838.503641
 20
-2482.764954
 40
15.000000
 50
56.000000
 51
236.000000
 0
LINE
 8
011
 10
1853.139088
 20
-2483.590052
 11
1849.329889
 21
-2481.020716
 0
LINE
 8
011
 10
1840.941996
 20
-2493.456279
 11
1845.994741
 21
-2496.864403
 0
LINE
 8
011
 10
2014.108893
 20
-2499.084157
 11
2014.130305
 21
-2498.801555
 0
LINE
 8
011
 10
2013.587577
 20
-2498.684770
 11
2013.672452
 21
-2497.564568
 0
LINE
 8
011
 10
2013.228397
 20
-2497.469079
 11
2013.586038
 21
-2492.748836
 0
LINE
 8
011
 10
2009.597470
 20
-2492.446632
 11
2009.246097
 21
-2497.084156
 0
LINE
 8
011
 10
2013.585828
 20
-2492.747231
 11
2012.565969
 21
-2489.665211
 0
LINE
 8
011
 10
2011.070503
 20
-2489.551904
 11
2009.597919
 21
-2492.445078
 0
LINE
 8
011
 10
2012.565969
 20
-2489.665211
 11
2012.660396
 21
-2488.420570
 0
LINE
 8
011
 10
2011.164683
 20
-2488.307243
 11
2011.070503
 21
-2489.551904
 0
ARC
 8
011
 10
2011.912540
 20
-2488.363906
 40
0.750000
 50
355.667126
 51
175.667126
 0
LINE
 8
011
 10
2085.360103
 20
-2497.083400
 11
2085.150452
 21
-2492.990217
 0
LINE
 8
011
 10
2080.603260
 20
-2493.109290
 11
2080.607973
 21
-2497.084156
 0
ARC
 8
011
 10
2081.603259
 20
-2493.108105
 40
1.000000
 50
91.500000
 51
180.067904
 0
ARC
 8
011
 10
2084.151761
 20
-2493.041370
 40
1.000000
 50
2.932096
 51
91.500000
 0
LINE
 8
011
 10
2083.451130
 20
-2492.059373
 11
2083.372597
 21
-2489.060402
 0
LINE
 8
011
 10
2082.173008
 20
-2489.091814
 11
2082.251542
 21
-2492.090787
 0
LINE
 8
011
 10
2049.757906
 20
-2483.884157
 11
2049.757906
 21
-2482.895677
 0
LINE
 8
011
 10
2049.757906
 20
-2476.895679
 11
2049.757906
 21
-2460.584157
 0
LINE
 8
011
 10
2037.957906
 20
-2460.584157
 11
2037.957905
 21
-2476.895679
 0
LINE
 8
011
 10
2037.957905
 20
-2482.895677
 11
2037.957906
 21
-2483.884157
 0
ARC
 8
011
 10
2038.457906
 20
-2460.584157
 40
0.500000
 50
90.000000
 51
180.000000
 0
ARC
 8
011
 10
2049.257906
 20
-2460.584157
 40
0.500000
 50
0.000000
 51
90.000000
 0
ARC
 8
011
 10
2038.857906
 20
-2484.384157
 40
0.500000
 50
0.000000
 51
90.000000
 0
ARC
 8
011
 10
2048.857906
 20
-2484.384157
 40
0.500000
 50
90.000000
 51
180.000000
 0
LINE
 8
011
 10
2048.357904
 20
-2485.195678
 11
2048.357906
 21
-2484.384157
 0
LINE
 8
011
 10
2039.357906
 20
-2484.384157
 11
2039.357905
 21
-2485.195678
 0
LINE
 8
011
 10
2022.007906
 20
-2476.895678
 11
2021.107906
 21
-2475.695678
 0
LINE
 8
011
 10
2016.607906
 20
-2475.695678
 11
2015.707906
 21
-2476.895678
 0
LINE
 8
011
 10
2072.007906
 20
-2476.895678
 11
2071.107906
 21
-2475.695678
 0
LINE
 8
011
 10
2066.607906
 20
-2475.695678
 11
2065.707906
 21
-2476.895678
 0
ARC
 8
011
 10
2012.501631
 20
-2479.727479
 40
1.000000
 50
98.972627
 51
188.972627
 0
LINE
 8
011
 10
2011.513868
 20
-2479.883441
 11
2011.591849
 21
-2480.377323
 0
ARC
 8
011
 10
2012.579612
 20
-2480.221360
 40
1.000000
 50
188.972627
 51
270.000000
 0
LINE
 8
011
 10
2012.579612
 20
-2481.221360
 11
2072.583432
 21
-2481.221360
 0
LINE
 8
011
 10
2012.545406
 20
-2478.708178
 11
2012.345668
 21
-2478.739716
 0
LINE
 8
011
 10
2064.857904
 20
-2477.395677
 11
2057.492141
 21
-2476.900188
 0
LINE
 8
011
 10
2030.223670
 20
-2476.900188
 11
2022.857906
 21
-2477.395677
 0
ARC
 8
011
 10
2057.357906
 20
-2478.895678
 40
2.000000
 50
86.151549
 51
90.000000
 0
ARC
 8
011
 10
2030.357906
 20
-2478.895678
 40
2.000000
 50
90.000000
 51
93.848451
 0
LINE
 8
011
 10
2057.357906
 20
-2476.895678
 11
2030.357906
 21
-2476.895678
 0
LINE
 8
011
 10
2030.391893
 20
-2482.637181
 11
2031.125332
 21
-2482.833442
 0
LINE
 8
011
 10
2056.357906
 20
-2482.895678
 11
2057.323918
 21
-2482.637181
 0
LINE
 8
011
 10
2057.323918
 20
-2482.637181
 11
2056.945056
 21
-2481.221360
 0
LINE
 8
011
 10
2030.770756
 20
-2481.221360
 11
2030.391893
 21
-2482.637181
 0
ARC
 8
011
 10
2072.581498
 20
-2479.467196
 40
1.752714
 50
270.882384
 51
300.688929
 0
LINE
 8
011
 10
2073.488362
 20
-2480.957725
 11
2073.520743
 21
-2480.934058
 0
ARC
 8
011
 10
2079.548499
 20
-2489.059389
 40
10.116535
 50
103.349909
 51
126.848711
 0
LINE
 8
011
 10
2088.426457
 20
-2481.445302
 11
2089.285326
 21
-2480.215528
 0
ARC
 8
011
 10
2088.465477
 20
-2479.642948
 40
1.000000
 50
325.069706
 51
357.780237
 0
ARC
 8
011
 10
2088.465477
 20
-2479.642948
 40
1.000000
 50
50.251872
 51
55.069706
 0
LINE
 8
011
 10
2013.857906
 20
-2477.395678
 11
2012.545406
 21
-2478.708178
 0
LINE
 8
011
 10
2053.404786
 20
-2482.895677
 11
2053.525287
 21
-2483.523498
 0
LINE
 8
011
 10
2010.827669
 20
-2485.195678
 11
2010.854307
 21
-2486.721797
 0
ARC
 8
011
 10
2011.154261
 20
-2486.716561
 40
0.300000
 50
181.000000
 51
250.000000
 0
LINE
 8
011
 10
2011.051655
 20
-2486.998469
 11
2011.164156
 21
-2487.039416
 0
LINE
 8
011
 10
2035.714278
 20
-2485.195678
 11
2035.505994
 21
-2481.221360
 0
LINE
 8
011
 10
2031.209818
 20
-2481.221360
 11
2031.001533
 21
-2485.195678
 0
ARC
 8
011
 10
2011.061550
 20
-2487.321323
 40
0.300000
 50
1.000000
 51
70.000000
 0
LINE
 8
011
 10
2011.361504
 20
-2487.316088
 11
2011.370741
 21
-2487.845299
 0
ARC
 8
011
 10
2073.708009
 20
-2484.695678
 40
0.500000
 50
200.000000
 51
270.000000
 0
LINE
 8
011
 10
2073.238163
 20
-2484.866689
 11
2072.411583
 21
-2482.595678
 0
LINE
 8
011
 10
2064.631205
 20
-2481.221360
 11
2064.422921
 21
-2485.195678
 0
LINE
 8
011
 10
2023.292890
 20
-2485.195678
 11
2023.084605
 21
-2481.221360
 0
LINE
 8
011
 10
2021.184110
 20
-2477.395677
 11
2021.182738
 21
-2477.369510
 0
LINE
 8
011
 10
2016.533073
 20
-2477.369510
 11
2016.531702
 21
-2477.395677
 0
LINE
 8
011
 10
2016.331206
 20
-2481.221360
 11
2016.122921
 21
-2485.195678
 0
LINE
 8
011
 10
2081.785083
 20
-2484.602515
 11
2082.257906
 21
-2484.430421
 0
LINE
 8
011
 10
2071.456630
 20
-2482.595679
 11
2071.384605
 21
-2481.221360
 0
LINE
 8
011
 10
2071.184110
 20
-2477.395677
 11
2071.182738
 21
-2477.369510
 0
ARC
 8
011
 10
2080.893407
 20
-2483.590678
 40
0.995000
 50
20.000000
 51
90.000000
 0
ARC
 8
011
 10
2075.925297
 20
-2489.790197
 40
0.300000
 50
289.942339
 51
358.924150
 0
LINE
 8
011
 10
2076.225244
 20
-2489.795830
 11
2076.251590
 21
-2488.389961
 0
ARC
 8
011
 10
2067.032388
 20
-2477.395678
 40
0.500000
 50
90.000000
 51
177.000000
 0
ARC
 8
011
 10
2070.683423
 20
-2477.395678
 40
0.500000
 50
3.000000
 51
90.000000
 0
ARC
 8
011
 10
2017.032388
 20
-2477.395678
 40
0.500000
 50
90.000000
 51
177.000000
 0
ARC
 8
011
 10
2020.683423
 20
-2477.395678
 40
0.500000
 50
3.000000
 51
90.000000
 0
LINE
 8
011
 10
2082.257906
 20
-2484.430421
 11
2081.828401
 21
-2483.250368
 0
LINE
 8
011
 10
2081.566481
 20
-2486.604405
 11
2081.596598
 21
-2484.879163
 0
ARC
 8
011
 10
2081.896620
 20
-2484.881190
 40
0.300018
 50
109.358939
 51
179.346796
 0
ARC
 8
011
 10
2081.066557
 20
-2486.595678
 40
0.500000
 50
270.000000
 51
359.000000
 0
LINE
 8
011
 10
2076.225244
 20
-2489.795830
 11
2076.251590
 21
-2488.389961
 0
LINE
 8
011
 10
2008.857906
 20
-2492.584157
 11
2008.857905
 21
-2497.084156
 0
ARC
 8
011
 10
2010.357906
 20
-2492.584157
 40
1.500000
 50
92.601529
 51
180.000000
 0
LINE
 8
011
 10
2014.790551
 20
-2491.084157
 11
2012.987023
 21
-2491.084157
 0
LINE
 8
011
 10
2077.322422
 20
-2491.084157
 11
2014.790551
 21
-2491.084157
 0
LINE
 8
011
 10
2078.649842
 20
-2497.084156
 11
2078.649841
 21
-2492.584157
 0
LINE
 8
011
 10
2070.027201
 20
-2502.584157
 11
2068.044679
 21
-2502.584157
 0
LINE
 8
011
 10
2068.044679
 20
-2502.584157
 11
2019.671132
 21
-2502.584157
 0
LINE
 8
011
 10
2019.671132
 20
-2502.584157
 11
2017.688610
 21
-2502.584157
 0
LINE
 8
011
 10
2075.638045
 20
-2502.584157
 11
2070.027201
 21
-2502.584157
 0
LINE
 8
011
 10
2017.688610
 20
-2502.584157
 11
2012.077766
 21
-2502.584157
 0
ARC
 8
011
 10
1855.354848
 20
-2486.290313
 40
0.200000
 50
6.055544
 51
128.888471
 0
ARC
 8
011
 10
1850.545789
 20
-2493.420036
 40
0.200000
 50
163.111529
 51
285.945873
 0
ARC
 8
011
 10
1864.529790
 20
-2497.665627
 40
14.814286
 50
128.888471
 51
163.111529
 0
ARC
 8
011
 10
1864.749288
 20
-2472.362481
 40
0.200000
 50
6.056331
 51
128.888471
 0
ARC
 8
011
 10
1859.940229
 20
-2479.492205
 40
0.200000
 50
163.111529
 51
285.943840
 0
ARC
 8
011
 10
1873.924231
 20
-2483.737796
 40
14.814286
 50
128.888471
 51
163.111529
 0
LINE
 8
011
 10
2184.448693
 20
-2518.584157
 11
2185.107906
 21
-2518.584157
 0
LINE
 8
011
 10
2182.450692
 20
-2518.584157
 11
2184.448693
 21
-2518.584157
 0
LINE
 8
011
 10
2179.250049
 20
-2518.584157
 11
2182.450692
 21
-2518.584157
 0
LINE
 8
011
 10
2175.065528
 20
-2518.584157
 11
2179.250049
 21
-2518.584157
 0
LINE
 8
011
 10
2170.183111
 20
-2518.584157
 11
2175.065528
 21
-2518.584157
 0
LINE
 8
011
 10
2164.931919
 20
-2518.584157
 11
2170.183111
 21
-2518.584157
 0
LINE
 8
011
 10
1863.857906
 20
-2518.584157
 11
2164.857906
 21
-2518.584157
 0
LINE
 8
011
 10
1858.685034
 20
-2518.584157
 11
1863.857906
 21
-2518.584157
 0
LINE
 8
011
 10
1853.786815
 20
-2518.584157
 11
1858.685034
 21
-2518.584157
 0
LINE
 8
011
 10
1849.577058
 20
-2518.584157
 11
1853.786815
 21
-2518.584157
 0
LINE
 8
011
 10
1846.326297
 20
-2518.584157
 11
1849.577058
 21
-2518.584157
 0
LINE
 8
011
 10
1844.310837
 20
-2518.584157
 11
1846.326297
 21
-2518.584157
 0
LINE
 8
011
 10
1843.607906
 20
-2518.584157
 11
1844.310837
 21
-2518.584157
 0
ARC
 8
011
 10
1999.696569
 20
-2288.617064
 40
222.591200
 50
234.475574
 51
254.960770
 0
ARC
 8
011
 10
1868.631259
 20
-2472.245864
 40
3.000010
 50
54.994287
 51
146.000051
 0
LINE
 8
011
 10
1858.333648
 20
-2482.147825
 11
1855.432010
 21
-2480.190648
 0
LINE
 8
011
 10
1843.702291
 20
-2500.263109
 11
1845.360369
 21
-2501.381495
 0
POLYLINE
 8
011
 66
1
 0
VERTEX
 8
011
 10
1852.964640
 20
-2475.631972
 0
VERTEX
 8
011
 10
1852.939248
 20
-2475.669608
 0
VERTEX
 8
011
 10
1852.737159
 20
-2475.969237
 0
VERTEX
 8
011
 10
1852.338180
 20
-2476.560731
 0
VERTEX
 8
011
 10
1851.752684
 20
-2477.428776
 0
VERTEX
 8
011
 10
1850.995809
 20
-2478.550889
 0
VERTEX
 8
011
 10
1850.087166
 20
-2479.898003
 0
VERTEX
 8
011
 10
1849.050299
 20
-2481.435233
 0
VERTEX
 8
011
 10
1847.912044
 20
-2483.122767
 0
VERTEX
 8
011
 10
1846.701876
 20
-2484.916893
 0
VERTEX
 8
011
 10
1845.451177
 20
-2486.771148
 0
VERTEX
 8
011
 10
1844.192297
 20
-2488.637510
 0
VERTEX
 8
011
 10
1842.957855
 20
-2490.467635
 0
VERTEX
 8
011
 10
1841.779828
 20
-2492.214129
 0
VERTEX
 8
011
 10
1840.688736
 20
-2493.831756
 0
VERTEX
 8
011
 10
1839.712814
 20
-2495.278620
 0
VERTEX
 8
011
 10
1838.877350
 20
-2496.517251
 0
VERTEX
 8
011
 10
1838.203967
 20
-2497.515565
 0
VERTEX
 8
011
 10
1837.710128
 20
-2498.247710
 0
VERTEX
 8
011
 10
1837.408618
 20
-2498.694722
 0
VERTEX
 8
011
 10
1837.307245
 20
-2498.845023
 0
SEQEND
 8
011
 0
ARC
 8
011
 10
2013.248714
 20
-2501.234931
 40
2.588151
 50
70.084995
 51
88.949055
 0
ARC
 8
011
 10
2012.834155
 20
-2500.009280
 40
2.584445
 50
71.073039
 51
89.008074
 0
ARC
 8
011
 10
2010.382709
 20
-2508.555082
 40
16.127578
 50
78.543476
 51
92.790788
 0
ARC
 8
011
 10
2011.355096
 20
-2495.721260
 40
6.175916
 50
78.693136
 51
92.641193
 0
POLYLINE
 8
011
 66
1
 0
VERTEX
 8
011
 10
2081.577085
 20
-2492.108446
 0
VERTEX
 8
011
 10
2081.674077
 20
-2492.105908
 0
VERTEX
 8
011
 10
2081.950300
 20
-2492.098675
 0
VERTEX
 8
011
 10
2082.363695
 20
-2492.087849
 0
VERTEX
 8
011
 10
2082.851336
 20
-2492.075079
 0
VERTEX
 8
011
 10
2083.338969
 20
-2492.062310
 0
VERTEX
 8
011
 10
2083.752364
 20
-2492.051485
 0
VERTEX
 8
011
 10
2084.028587
 20
-2492.044252
 0
VERTEX
 8
011
 10
2084.125586
 20
-2492.041711
 0
SEQEND
 8
011
 0
POLYLINE
 8
011
 66
1
 0
VERTEX
 8
011
 10
2083.372593
 20
-2489.060401
 0
VERTEX
 8
011
 10
2083.326944
 20
-2489.061597
 0
VERTEX
 8
011
 10
2083.196923
 20
-2489.065001
 0
VERTEX
 8
011
 10
2083.002337
 20
-2489.070098
 0
VERTEX
 8
011
 10
2082.772799
 20
-2489.076108
 0
VERTEX
 8
011
 10
2082.543269
 20
-2489.082119
 0
VERTEX
 8
011
 10
2082.348682
 20
-2489.087214
 0
VERTEX
 8
011
 10
2082.218662
 20
-2489.090618
 0
VERTEX
 8
011
 10
2082.173005
 20
-2489.091814
 0
SEQEND
 8
011
 0
LINE
 8
011
 10
2037.957906
 20
-2483.884157
 11
2049.757906
 21
-2483.884157
 0
LINE
 8
011
 10
2038.457906
 20
-2460.084157
 11
2049.257906
 21
-2460.084157
 0
LINE
 8
011
 10
2016.607906
 20
-2475.695678
 11
2021.107906
 21
-2475.695678
 0
LINE
 8
011
 10
2015.707906
 20
-2476.895678
 11
2022.007906
 21
-2476.895678
 0
LINE
 8
011
 10
2066.607906
 20
-2475.695678
 11
2071.107906
 21
-2475.695678
 0
LINE
 8
011
 10
2065.707906
 20
-2476.895678
 11
2072.007906
 21
-2476.895678
 0
LINE
 8
011
 10
2072.608478
 20
-2481.220988
 11
2072.583432
 21
-2481.221360
 0
ARC
 8
011
 10
2004.803282
 20
-2405.079088
 40
74.049205
 50
276.106143
 51
279.459987
 0
LINE
 8
011
 10
2016.973920
 20
-2478.121270
 11
2021.525195
 21
-2477.395678
 0
LINE
 8
011
 10
2066.096590
 20
-2477.395678
 11
2021.525195
 21
-2477.395678
 0
LINE
 8
011
 10
2012.545406
 20
-2478.708178
 11
2012.679922
 21
-2478.708178
 0
LINE
 8
011
 10
2031.135618
 20
-2482.637181
 11
2030.391893
 21
-2482.637181
 0
LINE
 8
011
 10
2056.357906
 20
-2482.895678
 11
2035.593741
 21
-2482.895678
 0
POLYLINE
 8
011
 66
1
 0
VERTEX
 8
011
 10
2073.124562
 20
-2478.660148
 0
VERTEX
 8
011
 10
2073.125784
 20
-2478.662663
 0
VERTEX
 8
011
 10
2073.127408
 20
-2478.666005
 0
SEQEND
 8
011
 0
LINE
 8
011
 10
2066.096590
 20
-2477.395678
 11
2066.701938
 21
-2477.395677
 0
LINE
 8
011
 10
2077.713255
 20
-2479.110480
 11
2077.690483
 21
-2479.115468
 0
LINE
 8
011
 10
2077.212618
 20
-2479.216221
 11
2077.690483
 21
-2479.115468
 0
LINE
 8
011
 10
2073.943619
 20
-2478.187603
 11
2073.857904
 21
-2477.395677
 0
POLYLINE
 8
011
 66
1
 0
VERTEX
 8
011
 10
2074.035455
 20
-2478.241109
 0
VERTEX
 8
011
 10
2074.004949
 20
-2478.236572
 0
VERTEX
 8
011
 10
2073.978525
 20
-2478.228391
 0
VERTEX
 8
011
 10
2073.953126
 20
-2478.210450
 0
VERTEX
 8
011
 10
2073.943619
 20
-2478.187603
 0
SEQEND
 8
011
 0
LINE
 8
011
 10
2066.701938
 20
-2477.395677
 11
2073.857904
 21
-2477.395677
 0
LINE
 8
011
 10
2073.857904
 20
-2477.395677
 11
2075.944227
 21
-2476.938695
 0
ARC
 8
011
 10
2076.144585
 20
-2477.741097
 40
0.827038
 50
92.315422
 51
104.019953
 0
LINE
 8
011
 10
2013.986783
 20
-2477.395678
 11
2016.973895
 21
-2477.395678
 0
LINE
 8
011
 10
2016.973895
 20
-2477.395678
 11
2021.525195
 21
-2477.395678
 0
POLYLINE
 8
011
 66
1
 0
VERTEX
 8
011
 10
2075.944227
 20
-2476.938695
 0
VERTEX
 8
011
 10
2076.020085
 20
-2476.922081
 0
VERTEX
 8
011
 10
2077.178497
 20
-2476.668344
 0
SEQEND
 8
011
 0
POLYLINE
 8
011
 66
1
 0
VERTEX
 8
011
 10
2080.114656
 20
-2478.584484
 0
VERTEX
 8
011
 10
2079.330840
 20
-2478.756171
 0
VERTEX
 8
011
 10
2078.730345
 20
-2478.887700
 0
VERTEX
 8
011
 10
2077.846531
 20
-2479.081289
 0
VERTEX
 8
011
 10
2077.713702
 20
-2479.110383
 0
SEQEND
 8
011
 0
POLYLINE
 8
011
 66
1
 0
VERTEX
 8
011
 10
2077.178803
 20
-2476.668277
 0
VERTEX
 8
011
 10
2077.308569
 20
-2476.639853
 0
VERTEX
 8
011
 10
2077.733193
 20
-2476.546843
 0
VERTEX
 8
011
 10
2078.332551
 20
-2476.415564
 0
VERTEX
 8
011
 10
2078.951344
 20
-2476.280023
 0
VERTEX
 8
011
 10
2079.579741
 20
-2476.142381
 0
SEQEND
 8
011
 0
ARC
 8
011
 10
2083.280994
 20
-2478.095678
 40
0.200000
 50
55.069706
 51
102.354812
 0
POLYLINE
 8
011
 66
1
 0
VERTEX
 8
011
 10
2084.353596
 20
-2478.600834
 0
VERTEX
 8
011
 10
2084.111110
 20
-2478.431479
 0
VERTEX
 8
011
 10
2083.854430
 20
-2478.252218
 0
VERTEX
 8
011
 10
2083.638423
 20
-2478.101359
 0
VERTEX
 8
011
 10
2083.505862
 20
-2478.008778
 0
VERTEX
 8
011
 10
2083.410897
 20
-2477.942453
 0
VERTEX
 8
011
 10
2083.397627
 20
-2477.933188
 0
VERTEX
 8
011
 10
2083.395511
 20
-2477.931709
 0
SEQEND
 8
011
 0
POLYLINE
 8
011
 66
1
 0
VERTEX
 8
011
 10
2088.426456
 20
-2481.445302
 0
VERTEX
 8
011
 10
2088.385076
 20
-2481.416398
 0
VERTEX
 8
011
 10
2088.059001
 20
-2481.188671
 0
VERTEX
 8
011
 10
2087.433055
 20
-2480.751515
 0
VERTEX
 8
011
 10
2086.557538
 20
-2480.140057
 0
VERTEX
 8
011
 10
2085.502804
 20
-2479.403433
 0
VERTEX
 8
011
 10
2084.353596
 20
-2478.600834
 0
SEQEND
 8
011
 0
LINE
 8
011
 10
2084.826959
 20
-2475.882085
 11
2085.758659
 21
-2476.532781
 0
ARC
 8
011
 10
2083.280994
 20
-2478.095678
 40
2.700000
 50
55.069706
 51
102.354812
 0
LINE
 8
011
 10
2079.579741
 20
-2476.142381
 11
2082.703289
 21
-2475.458207
 0
LINE
 8
011
 10
2083.238201
 20
-2477.900310
 11
2080.114653
 21
-2478.584485
 0
POLYLINE
 8
011
 66
1
 0
VERTEX
 8
011
 10
2085.758657
 20
-2476.532780
 0
VERTEX
 8
011
 10
2086.772047
 20
-2477.240530
 0
VERTEX
 8
011
 10
2087.686241
 20
-2477.878996
 0
VERTEX
 8
011
 10
2088.411749
 20
-2478.385688
 0
VERTEX
 8
011
 10
2088.877552
 20
-2478.711002
 0
VERTEX
 8
011
 10
2089.038059
 20
-2478.823100
 0
SEQEND
 8
011
 0
LINE
 8
011
 10
2013.857906
 20
-2477.395678
 11
2013.986783
 21
-2477.395678
 0
LINE
 8
011
 10
2057.597317
 20
-2481.221360
 11
2057.056219
 21
-2481.636778
 0
ARC
 8
011
 10
2054.943215
 20
-2481.171910
 40
2.521729
 50
269.167954
 51
300.931379
 0
LINE
 8
011
 10
2054.906597
 20
-2483.693375
 11
2054.040571
 21
-2483.693375
 0
LINE
 8
011
 10
2058.992532
 20
-2481.221360
 11
2057.293997
 21
-2482.525372
 0
LINE
 8
011
 10
2057.054431
 20
-2482.709293
 11
2056.239412
 21
-2483.335007
 0
POLYLINE
 8
011
 66
1
 0
VERTEX
 8
011
 10
2054.040570
 20
-2483.693373
 0
VERTEX
 8
011
 10
2053.880588
 20
-2483.686489
 0
VERTEX
 8
011
 10
2053.744689
 20
-2483.666097
 0
VERTEX
 8
011
 10
2053.638101
 20
-2483.632979
 0
VERTEX
 8
011
 10
2053.564918
 20
-2483.588413
 0
VERTEX
 8
011
 10
2053.527952
 20
-2483.534106
 0
VERTEX
 8
011
 10
2053.525288
 20
-2483.523500
 0
SEQEND
 8
011
 0
LINE
 8
011
 10
2010.827669
 20
-2485.195678
 11
2076.600082
 21
-2485.195678
 0
POLYLINE
 8
011
 66
1
 0
VERTEX
 8
011
 10
2076.587115
 20
-2486.951754
 0
VERTEX
 8
011
 10
2076.463275
 20
-2486.984727
 0
VERTEX
 8
011
 10
2076.380965
 20
-2486.998469
 0
SEQEND
 8
011
 0
LINE
 8
011
 10
2077.587188
 20
-2485.195678
 11
2077.615157
 21
-2485.067953
 0
LINE
 8
011
 10
2076.600082
 20
-2485.195678
 11
2077.587188
 21
-2485.195678
 0
LINE
 8
011
 10
2076.013897
 20
-2490.430228
 11
2076.016529
 21
-2490.430889
 0
LINE
 8
011
 10
2077.545740
 20
-2488.095678
 11
2076.493800
 21
-2488.095679
 0
ARC
 8
011
 10
2076.859242
 20
-2484.690568
 40
0.505111
 50
269.985013
 51
339.593758
 0
LINE
 8
011
 10
2077.332653
 20
-2484.866687
 11
2077.998028
 21
-2483.069510
 0
LINE
 8
011
 10
2081.206382
 20
-2484.562025
 11
2077.615157
 21
-2485.067953
 0
POLYLINE
 8
011
 66
1
 0
VERTEX
 8
011
 10
2082.193800
 20
-2484.422919
 0
VERTEX
 8
011
 10
2082.122073
 20
-2484.433022
 0
VERTEX
 8
011
 10
2081.949897
 20
-2484.457277
 0
VERTEX
 8
011
 10
2081.696116
 20
-2484.493033
 0
VERTEX
 8
011
 10
2081.384346
 20
-2484.536954
 0
VERTEX
 8
011
 10
2081.206382
 20
-2484.562025
 0
SEQEND
 8
011
 0
LINE
 8
011
 10
2078.211521
 20
-2482.595678
 11
2078.304228
 21
-2482.595678
 0
ARC
 8
011
 10
2080.182843
 20
-2483.768904
 40
2.294029
 50
149.241166
 51
162.249299
 0
LINE
 8
011
 10
2072.411583
 20
-2482.595678
 11
2072.299675
 21
-2482.595678
 0
LINE
 8
011
 10
2080.666670
 20
-2482.595678
 11
2080.808451
 21
-2482.595678
 0
LINE
 8
011
 10
2078.211521
 20
-2482.595678
 11
2080.666670
 21
-2482.595678
 0
LINE
 8
011
 10
2071.957384
 20
-2482.595678
 11
2072.299675
 21
-2482.595678
 0
LINE
 8
011
 10
2079.257906
 20
-2487.588224
 11
2079.257906
 21
-2487.795678
 0
LINE
 8
011
 10
2078.957906
 20
-2488.095678
 11
2077.545740
 21
-2488.095678
 0
ARC
 8
011
 10
2078.957906
 20
-2487.795678
 40
0.300000
 50
270.000000
 51
0.000000
 0
POLYLINE
 8
011
 66
1
 0
VERTEX
 8
011
 10
2080.369018
 20
-2485.283767
 0
VERTEX
 8
011
 10
2080.811553
 20
-2484.986824
 0
VERTEX
 8
011
 10
2081.232272
 20
-2484.798011
 0
SEQEND
 8
011
 0
LINE
 8
011
 10
2079.257906
 20
-2487.597716
 11
2079.257906
 21
-2487.588224
 0
LINE
 8
011
 10
2082.199920
 20
-2484.430421
 11
2082.257906
 21
-2484.430421
 0
LINE
 8
011
 10
2071.556107
 20
-2482.595679
 11
2071.957384
 21
-2482.595678
 0
LINE
 8
011
 10
2080.808451
 20
-2482.595678
 11
2080.893407
 21
-2482.595678
 0
ARC
 8
011
 10
2076.551514
 20
-2488.395658
 40
0.299979
 50
90.004523
 51
178.912098
 0
LINE
 8
011
 10
2082.193800
 20
-2484.422919
 11
2082.197011
 21
-2484.422465
 0
LINE
 8
011
 10
2079.567388
 20
-2487.095677
 11
2079.301060
 21
-2487.095677
 0
LINE
 8
011
 10
2080.557906
 20
-2487.095678
 11
2079.567388
 21
-2487.095677
 0
LINE
 8
011
 10
2081.066557
 20
-2487.095678
 11
2080.557906
 21
-2487.095678
 0
ARC
 8
011
 10
2077.222009
 20
-2492.515002
 40
1.426493
 50
357.221285
 51
84.319121
 0
LINE
 8
011
 10
2078.649841
 20
-2492.584157
 11
2078.646826
 21
-2492.584157
 0
ARC
 8
011
 10
2184.118811
 20
-2517.484871
 40
2.500000
 50
206.260584
 51
237.109994
 0
ARC
 8
011
 10
1844.597000
 20
-2517.484871
 40
2.500000
 50
302.890006
 51
333.764420
 0
LINE
 8
011
 10
1989.086003
 20
-2503.025355
 11
1989.070342
 21
-2503.588945
 0
ARC
 8
011
 10
2292.018157
 20
-2519.830820
 40
303.397947
 50
170.841758
 51
176.824714
 0
POLYLINE
 8
011
 66
1
 0
VERTEX
 8
011
 10
1994.864585
 20
-2468.084157
 0
VERTEX
 8
011
 10
1994.473508
 20
-2468.146098
 0
VERTEX
 8
011
 10
1994.092090
 20
-2468.329635
 0
VERTEX
 8
011
 10
1993.729724
 20
-2468.630248
 0
VERTEX
 8
011
 10
1993.395333
 20
-2469.040532
 0
VERTEX
 8
011
 10
1993.097151
 20
-2469.550391
 0
VERTEX
 8
011
 10
1992.842522
 20
-2470.147260
 0
VERTEX
 8
011
 10
1992.637713
 20
-2470.816453
 0
VERTEX
 8
011
 10
1992.487768
 20
-2471.541484
 0
SEQEND
 8
011
 0
LINE
 8
011
 10
2006.070341
 20
-2468.084157
 11
1994.864584
 21
-2468.084157
 0
LINE
 8
011
 10
2020.087005
 20
-2468.551379
 11
2006.070341
 21
-2468.084157
 0
POLYLINE
 8
011
 66
1
 0
VERTEX
 8
011
 10
2020.157497
 20
-2472.543490
 0
VERTEX
 8
011
 10
2020.520527
 20
-2472.336971
 0
VERTEX
 8
011
 10
2020.819427
 20
-2471.876048
 0
VERTEX
 8
011
 10
2021.011617
 20
-2471.226380
 0
VERTEX
 8
011
 10
2021.069718
 20
-2470.480514
 0
VERTEX
 8
011
 10
2020.985454
 20
-2469.744705
 0
VERTEX
 8
011
 10
2020.770829
 20
-2469.123774
 0
VERTEX
 8
011
 10
2020.456416
 20
-2468.706165
 0
VERTEX
 8
011
 10
2020.087005
 20
-2468.551379
 0
SEQEND
 8
011
 0
LINE
 8
011
 10
2001.953151
 20
-2475.728839
 11
2020.157497
 21
-2472.543491
 0
POLYLINE
 8
011
 66
1
 0
VERTEX
 8
011
 10
2002.419348
 20
-2497.084156
 0
VERTEX
 8
011
 10
2001.404438
 20
-2496.889825
 0
VERTEX
 8
011
 10
2000.426400
 20
-2496.313889
 0
VERTEX
 8
011
 10
1999.520766
 20
-2495.377271
 0
VERTEX
 8
011
 10
1998.720440
 20
-2494.114003
 0
VERTEX
 8
011
 10
1998.054497
 20
-2492.569976
 0
VERTEX
 8
011
 10
1997.547131
 20
-2490.801289
 0
VERTEX
 8
011
 10
1997.216776
 20
-2488.872197
 0
VERTEX
 8
011
 10
1997.075431
 20
-2486.852784
 0
VERTEX
 8
011
 10
1997.128236
 20
-2484.816418
 0
VERTEX
 8
011
 10
1997.373268
 20
-2482.837082
 0
VERTEX
 8
011
 10
1997.801628
 20
-2480.986685
 0
VERTEX
 8
011
 10
1998.397751
 20
-2479.332451
 0
VERTEX
 8
011
 10
1999.139982
 20
-2477.934484
 0
VERTEX
 8
011
 10
2000.001353
 20
-2476.843570
 0
VERTEX
 8
011
 10
2000.950572
 20
-2476.099343
 0
VERTEX
 8
011
 10
2001.953151
 20
-2475.728840
 0
SEQEND
 8
011
 0
LINE
 8
011
 10
2012.320341
 20
-2497.084157
 11
2002.419348
 21
-2497.084157
 0
POLYLINE
 8
011
 66
1
 0
VERTEX
 8
011
 10
2013.320341
 20
-2499.084157
 0
VERTEX
 8
011
 10
2013.301126
 20
-2498.693977
 0
VERTEX
 8
011
 10
2013.244221
 20
-2498.318790
 0
VERTEX
 8
011
 10
2013.151811
 20
-2497.973016
 0
VERTEX
 8
011
 10
2013.027448
 20
-2497.669943
 0
VERTEX
 8
011
 10
2012.875911
 20
-2497.421219
 0
VERTEX
 8
011
 10
2012.703024
 20
-2497.236398
 0
VERTEX
 8
011
 10
2012.515431
 20
-2497.122586
 0
VERTEX
 8
011
 10
2012.320341
 20
-2497.084156
 0
SEQEND
 8
011
 0
LINE
 8
011
 10
2013.320341
 20
-2502.284157
 11
2013.320341
 21
-2499.084157
 0
POLYLINE
 8
011
 66
1
 0
VERTEX
 8
011
 10
2013.297311
 20
-2502.584156
 0
VERTEX
 8
011
 10
2013.310734
 20
-2502.479248
 0
VERTEX
 8
011
 10
2013.320341
 20
-2502.284157
 0
SEQEND
 8
011
 0
LINE
 8
011
 10
2011.070510
 20
-2503.551911
 11
2011.104814
 21
-2503.514090
 0
LINE
 8
011
 10
1986.661132
 20
-2503.025355
 11
1986.645614
 21
-2503.530510
 0
ARC
 8
011
 10
2289.592230
 20
-2519.830706
 40
303.396884
 50
170.841747
 51
176.824725
 0
LINE
 8
011
 10
1994.864584
 20
-2468.084157
 11
1992.439713
 21
-2468.084157
 0
POLYLINE
 8
011
 66
1
 0
VERTEX
 8
011
 10
1992.439714
 20
-2468.084157
 0
VERTEX
 8
011
 10
1992.048636
 20
-2468.146098
 0
VERTEX
 8
011
 10
1991.667219
 20
-2468.329635
 0
VERTEX
 8
011
 10
1991.304852
 20
-2468.630248
 0
VERTEX
 8
011
 10
1990.970463
 20
-2469.040532
 0
VERTEX
 8
011
 10
1990.672281
 20
-2469.550391
 0
VERTEX
 8
011
 10
1990.417650
 20
-2470.147260
 0
VERTEX
 8
011
 10
1990.212841
 20
-2470.816453
 0
VERTEX
 8
011
 10
1990.062898
 20
-2471.541484
 0
SEQEND
 8
011
 0
LINE
 8
011
 10
2101.054679
 20
-2503.025355
 11
2101.070206
 21
-2503.532268
 0
LINE
 8
011
 10
2098.629808
 20
-2503.025355
 11
2098.645469
 21
-2503.588945
 0
LINE
 8
011
 10
2076.645301
 20
-2503.551911
 11
2076.610997
 21
-2503.514090
 0
POLYLINE
 8
011
 66
1
 0
VERTEX
 8
011
 10
2074.417852
 20
-2502.580016
 0
VERTEX
 8
011
 10
2074.405078
 20
-2502.479248
 0
VERTEX
 8
011
 10
2074.395471
 20
-2502.284157
 0
SEQEND
 8
011
 0
LINE
 8
011
 10
2074.395470
 20
-2502.284157
 11
2074.395470
 21
-2499.084157
 0
POLYLINE
 8
011
 66
1
 0
VERTEX
 8
011
 10
2074.395471
 20
-2499.084157
 0
VERTEX
 8
011
 10
2074.414686
 20
-2498.693977
 0
VERTEX
 8
011
 10
2074.471590
 20
-2498.318790
 0
VERTEX
 8
011
 10
2074.563999
 20
-2497.973016
 0
VERTEX
 8
011
 10
2074.688364
 20
-2497.669943
 0
VERTEX
 8
011
 10
2074.839902
 20
-2497.421219
 0
VERTEX
 8
011
 10
2075.012785
 20
-2497.236398
 0
VERTEX
 8
011
 10
2075.200379
 20
-2497.122586
 0
VERTEX
 8
011
 10
2075.395469
 20
-2497.084156
 0
SEQEND
 8
011
 0
LINE
 8
011
 10
2075.395470
 20
-2497.084157
 11
2085.296463
 21
-2497.084157
 0
POLYLINE
 8
011
 66
1
 0
VERTEX
 8
011
 10
2085.296460
 20
-2497.084156
 0
VERTEX
 8
011
 10
2086.311370
 20
-2496.889825
 0
VERTEX
 8
011
 10
2087.289408
 20
-2496.313889
 0
VERTEX
 8
011
 10
2088.195041
 20
-2495.377271
 0
VERTEX
 8
011
 10
2088.995368
 20
-2494.114003
 0
VERTEX
 8
011
 10
2089.661315
 20
-2492.569976
 0
VERTEX
 8
011
 10
2090.168678
 20
-2490.801289
 0
VERTEX
 8
011
 10
2090.499036
 20
-2488.872197
 0
VERTEX
 8
011
 10
2090.640381
 20
-2486.852784
 0
VERTEX
 8
011
 10
2090.587572
 20
-2484.816418
 0
VERTEX
 8
011
 10
2090.342544
 20
-2482.837082
 0
VERTEX
 8
011
 10
2089.914181
 20
-2480.986685
 0
VERTEX
 8
011
 10
2089.318060
 20
-2479.332451
 0
VERTEX
 8
011
 10
2088.575825
 20
-2477.934484
 0
VERTEX
 8
011
 10
2087.714456
 20
-2476.843570
 0
VERTEX
 8
011
 10
2086.765238
 20
-2476.099343
 0
VERTEX
 8
011
 10
2085.762658
 20
-2475.728840
 0
SEQEND
 8
011
 0
LINE
 8
011
 10
2085.762660
 20
-2475.728839
 11
2067.558314
 21
-2472.543491
 0
POLYLINE
 8
011
 66
1
 0
VERTEX
 8
011
 10
2067.558315
 20
-2472.543490
 0
VERTEX
 8
011
 10
2067.195282
 20
-2472.336971
 0
VERTEX
 8
011
 10
2066.896383
 20
-2471.876048
 0
VERTEX
 8
011
 10
2066.704195
 20
-2471.226380
 0
VERTEX
 8
011
 10
2066.646092
 20
-2470.480514
 0
VERTEX
 8
011
 10
2066.730358
 20
-2469.744705
 0
VERTEX
 8
011
 10
2066.944983
 20
-2469.123774
 0
VERTEX
 8
011
 10
2067.259394
 20
-2468.706165
 0
VERTEX
 8
011
 10
2067.628805
 20
-2468.551379
 0
SEQEND
 8
011
 0
LINE
 8
011
 10
2067.628806
 20
-2468.551379
 11
2081.645467
 21
-2468.084157
 0
LINE
 8
011
 10
2081.645467
 20
-2468.084157
 11
2092.851227
 21
-2468.084157
 0
POLYLINE
 8
011
 66
1
 0
VERTEX
 8
011
 10
2092.851229
 20
-2468.084157
 0
VERTEX
 8
011
 10
2093.242303
 20
-2468.146098
 0
VERTEX
 8
011
 10
2093.623720
 20
-2468.329635
 0
VERTEX
 8
011
 10
2093.986087
 20
-2468.630248
 0
VERTEX
 8
011
 10
2094.320476
 20
-2469.040532
 0
VERTEX
 8
011
 10
2094.618656
 20
-2469.550391
 0
VERTEX
 8
011
 10
2094.873287
 20
-2470.147260
 0
VERTEX
 8
011
 10
2095.078096
 20
-2470.816453
 0
VERTEX
 8
011
 10
2095.228039
 20
-2471.541484
 0
SEQEND
 8
011
 0
ARC
 8
011
 10
1795.696828
 20
-2519.830962
 40
303.398781
 50
3.175304
 51
9.158244
 0
ARC
 8
011
 10
1798.125000
 20
-2519.830534
 40
303.395456
 50
3.175258
 51
9.158263
 0
LINE
 8
011
 10
2095.276098
 20
-2468.084157
 11
2092.851227
 21
-2468.084157
 0
POLYLINE
 8
011
 66
1
 0
VERTEX
 8
011
 10
2095.276095
 20
-2468.084157
 0
VERTEX
 8
011
 10
2095.667176
 20
-2468.146098
 0
VERTEX
 8
011
 10
2096.048594
 20
-2468.329635
 0
VERTEX
 8
011
 10
2096.410960
 20
-2468.630248
 0
VERTEX
 8
011
 10
2096.745350
 20
-2469.040532
 0
VERTEX
 8
011
 10
2097.043530
 20
-2469.550391
 0
VERTEX
 8
011
 10
2097.298161
 20
-2470.147260
 0
VERTEX
 8
011
 10
2097.502970
 20
-2470.816453
 0
VERTEX
 8
011
 10
2097.652913
 20
-2471.541484
 0
SEQEND
 8
011
 0
ARC
 8
011
 10
2102.857906
 20
-2499.084157
 40
2.000000
 50
90.000000
 51
180.000000
 0
LINE
 8
011
 10
2102.857906
 20
-2497.084157
 11
2129.159892
 21
-2497.084157
 0
ARC
 8
011
 10
2129.159892
 20
-2486.386143
 40
10.698014
 50
270.000000
 51
85.000000
 0
LINE
 8
011
 10
2130.092285
 20
-2475.728839
 11
2097.871453
 21
-2472.909880
 0
LINE
 8
011
 10
2096.284896
 20
-2468.510375
 11
2121.857904
 21
-2468.084157
 0
LINE
 8
011
 10
2121.857904
 20
-2468.084157
 11
2143.820146
 21
-2468.084157
 0
ARC
 8
011
 10
2143.820146
 20
-2473.084157
 40
5.000000
 50
18.788532
 51
90.000000
 0
ARC
 8
011
 10
2110.857906
 20
-2505.284157
 40
2.000000
 50
60.011204
 51
61.435023
 0
ARC
 8
011
 10
2150.857906
 20
-2503.584157
 40
5.000000
 50
359.950459
 51
7.198197
 0
ARC
 8
011
 10
1997.079516
 20
-2523.005970
 40
160.000000
 50
7.198197
 51
18.788532
 0
ARC
 8
011
 10
1976.857906
 20
-2505.284157
 40
2.000000
 50
118.564977
 51
119.988796
 0
ARC
 8
011
 10
2090.636295
 20
-2523.005970
 40
160.000000
 50
161.211468
 51
171.997657
 0
ARC
 8
011
 10
1943.895665
 20
-2473.084157
 40
5.000000
 50
90.000000
 51
161.211468
 0
LINE
 8
011
 10
1965.857905
 20
-2468.084157
 11
1943.895665
 21
-2468.084157
 0
LINE
 8
011
 10
1991.430916
 20
-2468.510375
 11
1965.857905
 21
-2468.084157
 0
LINE
 8
011
 10
1957.623526
 20
-2475.728839
 11
1989.844362
 21
-2472.909880
 0
ARC
 8
011
 10
1958.555919
 20
-2486.386143
 40
10.698014
 50
95.000000
 51
270.000000
 0
LINE
 8
011
 10
1984.857906
 20
-2497.084157
 11
1958.555919
 21
-2497.084157
 0
ARC
 8
011
 10
1984.857906
 20
-2499.084157
 40
2.000000
 50
0.000000
 51
90.000000
 0
LINE
 8
011
 10
2013.320341
 20
-2499.084157
 11
2074.395470
 21
-2499.084157
 0
LINE
 8
011
 10
2100.808248
 20
-2499.084157
 11
2100.857906
 21
-2499.084157
 0
LINE
 8
011
 10
1986.857906
 20
-2499.084157
 11
1986.907561
 21
-2499.084157
 0
ARC
 8
011
 10
2185.107906
 20
-2515.834157
 40
2.750000
 50
269.994543
 51
357.812479
 0
LINE
 8
011
 10
1840.858429
 20
-2515.780482
 11
1840.857908
 21
-2514.084157
 0
POLYLINE
 8
011
 66
1
 0
VERTEX
 8
011
 10
1840.857908
 20
-2514.084157
 0
VERTEX
 8
011
 10
1840.861142
 20
-2514.072103
 0
VERTEX
 8
011
 10
1840.870828
 20
-2514.035942
 0
SEQEND
 8
011
 0
ARC
 8
011
 10
1843.607906
 20
-2515.834157
 40
2.750000
 50
178.881608
 51
270.005457
 0
LINE
 8
011
 10
2187.857911
 20
-2499.554594
 11
2187.857911
 21
-2515.780482
 0
POLYLINE
 8
011
 66
1
 0
VERTEX
 8
011
 10
2187.857911
 20
-2515.834157
 0
VERTEX
 8
011
 10
2187.857882
 20
-2515.823382
 0
VERTEX
 8
011
 10
2187.857375
 20
-2515.780482
 0
SEQEND
 8
011
 0
ARC
 8
011
 10
2185.086840
 20
-2515.833551
 40
2.771071
 50
357.816646
 51
359.987462
 0
LINE
 8
011
 10
1840.870828
 20
-2514.035942
 11
1843.104288
 21
-2505.700563
 0
LINE
 8
011
 10
1864.506677
 20
-2503.584157
 11
2168.101848
 21
-2503.584157
 0
LINE
 8
011
 10
1843.592197
 20
-2504.302962
 11
1843.619198
 21
-2504.241398
 0
ARC
 8
011
 10
1844.606145
 20
-2504.653717
 40
1.069610
 50
90.551497
 51
157.324535
 0
LINE
 8
011
 10
1844.595850
 20
-2503.584157
 11
1864.506677
 21
-2503.584157
 0
LINE
 8
011
 10
2183.093753
 20
-2495.584157
 11
2184.857905
 21
-2495.584157
 0
POLYLINE
 8
011
 66
1
 0
VERTEX
 8
011
 10
1844.473169
 20
-2502.696824
 0
VERTEX
 8
011
 10
1846.067861
 20
-2500.332598
 0
VERTEX
 8
011
 10
1848.095745
 20
-2497.326138
 0
VERTEX
 8
011
 10
1850.097075
 20
-2494.359045
 0
VERTEX
 8
011
 10
1852.382869
 20
-2490.970217
 0
VERTEX
 8
011
 10
1854.940802
 20
-2487.177924
 0
SEQEND
 8
011
 0
LINE
 8
011
 10
1844.473186
 20
-2502.696798
 11
1843.711038
 21
-2503.963595
 0
ARC
 8
011
 10
2183.093753
 20
-2505.584157
 40
10.000000
 50
90.000000
 51
144.504067
 0
LINE
 8
011
 10
2174.215237
 20
-2500.779208
 11
2174.952185
 21
-2499.777706
 0
ARC
 8
011
 10
2184.857891
 20
-2498.584177
 40
3.000020
 50
0.000000
 51
89.999736
 0
LINE
 8
011
 10
2187.857911
 20
-2498.584158
 11
2187.857911
 21
-2499.554594
 0
POLYLINE
 8
011
 66
1
 0
VERTEX
 8
011
 10
1854.940802
 20
-2487.177924
 0
VERTEX
 8
011
 10
1857.377351
 20
-2483.565573
 0
VERTEX
 8
011
 10
1859.563113
 20
-2480.325063
 0
VERTEX
 8
011
 10
1861.514584
 20
-2477.431875
 0
VERTEX
 8
011
 10
1863.147900
 20
-2475.010396
 0
VERTEX
 8
011
 10
1864.450679
 20
-2473.078941
 0
VERTEX
 8
011
 10
1865.391255
 20
-2471.684486
 0
VERTEX
 8
011
 10
1865.954757
 20
-2470.849045
 0
VERTEX
 8
011
 10
1866.144136
 20
-2470.568281
 0
SEQEND
 8
011
 0
POLYLINE
 8
011
 66
1
 0
VERTEX
 8
011
 10
1843.702287
 20
-2500.263109
 0
VERTEX
 8
011
 10
1843.800843
 20
-2500.117008
 0
VERTEX
 8
011
 10
1844.093487
 20
-2499.683142
 0
VERTEX
 8
011
 10
1844.571337
 20
-2498.974697
 0
VERTEX
 8
011
 10
1845.219881
 20
-2498.013197
 0
VERTEX
 8
011
 10
1846.019403
 20
-2496.827856
 0
VERTEX
 8
011
 10
1846.945614
 20
-2495.454690
 0
VERTEX
 8
011
 10
1847.970367
 20
-2493.935426
 0
VERTEX
 8
011
 10
1849.062533
 20
-2492.316219
 0
VERTEX
 8
011
 10
1850.188926
 20
-2490.646274
 0
SEQEND
 8
011
 0
POLYLINE
 8
011
 66
1
 0
VERTEX
 8
011
 10
1849.863202
 20
-2488.970530
 0
VERTEX
 8
011
 10
1849.971563
 20
-2489.527986
 0
VERTEX
 8
011
 10
1850.080178
 20
-2490.086793
 0
VERTEX
 8
011
 10
1850.188926
 20
-2490.646274
 0
SEQEND
 8
011
 0
ARC
 8
011
 10
1850.844843
 20
-2488.779722
 40
1.000013
 50
146.000457
 51
190.999784
 0
POLYLINE
 8
011
 66
1
 0
VERTEX
 8
011
 10
1850.015790
 20
-2488.220528
 0
VERTEX
 8
011
 10
1851.117164
 20
-2486.587667
 0
VERTEX
 8
011
 10
1852.151737
 20
-2485.053864
 0
VERTEX
 8
011
 10
1853.087649
 20
-2483.666309
 0
VERTEX
 8
011
 10
1853.896127
 20
-2482.467693
 0
VERTEX
 8
011
 10
1854.552284
 20
-2481.494893
 0
VERTEX
 8
011
 10
1855.035946
 20
-2480.777834
 0
VERTEX
 8
011
 10
1855.332226
 20
-2480.338582
 0
VERTEX
 8
011
 10
1855.432004
 20
-2480.190647
 0
SEQEND
 8
011
 0
LINE
 8
011
 10
2171.679121
 20
-2502.808583
 11
2174.215237
 21
-2500.779208
 0
POLYLINE
 8
011
 66
1
 0
VERTEX
 8
011
 10
1845.587358
 20
-2472.262901
 0
VERTEX
 8
011
 10
1845.953003
 20
-2472.963043
 0
VERTEX
 8
011
 10
1846.580655
 20
-2475.570549
 0
VERTEX
 8
011
 10
1846.084670
 20
-2478.356347
 0
VERTEX
 8
011
 10
1845.260784
 20
-2480.230574
 0
VERTEX
 8
011
 10
1844.188452
 20
-2482.127224
 0
VERTEX
 8
011
 10
1842.176542
 20
-2485.242356
 0
VERTEX
 8
011
 10
1841.547400
 20
-2486.165208
 0
VERTEX
 8
011
 10
1839.147270
 20
-2489.426798
 0
VERTEX
 8
011
 10
1837.000847
 20
-2491.663969
 0
VERTEX
 8
011
 10
1835.737229
 20
-2492.536562
 0
VERTEX
 8
011
 10
1834.384427
 20
-2493.106664
 0
VERTEX
 8
011
 10
1832.934082
 20
-2493.342600
 0
VERTEX
 8
011
 10
1831.419915
 20
-2493.267008
 0
SEQEND
 8
011
 0
POLYLINE
 8
011
 66
1
 0
VERTEX
 8
011
 10
1831.419915
 20
-2493.267008
 0
VERTEX
 8
011
 10
1829.135254
 20
-2492.436674
 0
VERTEX
 8
011
 10
1827.009932
 20
-2490.719988
 0
VERTEX
 8
011
 10
1825.308934
 20
-2488.211368
 0
VERTEX
 8
011
 10
1824.231461
 20
-2484.913570
 0
VERTEX
 8
011
 10
1824.116588
 20
-2480.948039
 0
VERTEX
 8
011
 10
1824.550510
 20
-2478.770499
 0
VERTEX
 8
011
 10
1825.317636
 20
-2476.685942
 0
VERTEX
 8
011
 10
1826.465056
 20
-2474.644829
 0
VERTEX
 8
011
 10
1827.975005
 20
-2472.766437
 0
VERTEX
 8
011
 10
1829.767898
 20
-2471.176424
 0
VERTEX
 8
011
 10
1831.800893
 20
-2469.910097
 0
VERTEX
 8
011
 10
1834.004358
 20
-2469.022457
 0
VERTEX
 8
011
 10
1836.319566
 20
-2468.538214
 0
VERTEX
 8
011
 10
1838.485852
 20
-2468.483963
 0
VERTEX
 8
011
 10
1840.589762
 20
-2468.817522
 0
VERTEX
 8
011
 10
1842.280150
 20
-2469.426141
 0
VERTEX
 8
011
 10
1843.773485
 20
-2470.311221
 0
VERTEX
 8
011
 10
1845.587358
 20
-2472.262901
 0
SEQEND
 8
011
 0
POLYLINE
 8
011
 66
1
 0
VERTEX
 8
011
 10
2085.150451
 20
-2492.990217
 0
VERTEX
 8
011
 10
2084.977381
 20
-2492.994749
 0
VERTEX
 8
011
 10
2084.484533
 20
-2493.007655
 0
VERTEX
 8
011
 10
2083.746925
 20
-2493.026971
 0
VERTEX
 8
011
 10
2082.876854
 20
-2493.049753
 0
VERTEX
 8
011
 10
2082.006790
 20
-2493.072537
 0
VERTEX
 8
011
 10
2081.269183
 20
-2493.091852
 0
VERTEX
 8
011
 10
2080.776327
 20
-2493.104758
 0
VERTEX
 8
011
 10
2080.603257
 20
-2493.109290
 0
SEQEND
 8
011
 0
LINE
 8
011
 10
2049.757906
 20
-2460.584157
 11
2037.957906
 21
-2460.584157
 0
LINE
 8
011
 10
2012.345668
 20
-2478.739716
 11
2072.798283
 21
-2478.739716
 0
POLYLINE
 8
011
 66
1
 0
VERTEX
 8
011
 10
2072.939713
 20
-2478.739344
 0
VERTEX
 8
011
 10
2069.835566
 20
-2478.116714
 0
VERTEX
 8
011
 10
2066.096589
 20
-2477.395677
 0
SEQEND
 8
011
 0
LINE
 8
011
 10
2072.798283
 20
-2478.739716
 11
2072.939713
 21
-2478.739345
 0
LINE
 8
011
 10
2057.492141
 20
-2476.900188
 11
2030.223670
 21
-2476.900188
 0
ARC
 8
011
 10
2072.902178
 20
-2478.396412
 40
0.344980
 50
276.246330
 51
310.137751
 0
ARC
 8
011
 10
2105.389848
 20
-2546.431543
 40
75.053535
 50
114.693271
 51
115.458614
 0
ARC
 8
011
 10
2079.497909
 20
-2485.163955
 40
8.917378
 50
112.320722
 51
128.525390
 0
LINE
 8
011
 10
2076.380964
 20
-2486.998469
 11
2011.051655
 21
-2486.998469
 0
POLYLINE
 8
011
 66
1
 0
VERTEX
 8
011
 10
2076.050140
 20
-2488.390443
 0
VERTEX
 8
011
 10
2076.054670
 20
-2488.095679
 0
VERTEX
 8
011
 10
2076.066651
 20
-2487.316088
 0
SEQEND
 8
011
 0
LINE
 8
011
 10
2076.250842
 20
-2488.390443
 11
2076.050141
 21
-2488.390443
 0
POLYLINE
 8
011
 66
1
 0
VERTEX
 8
011
 10
2076.224450
 20
-2489.795432
 0
VERTEX
 8
011
 10
2076.235719
 20
-2489.195633
 0
VERTEX
 8
011
 10
2076.250844
 20
-2488.390443
 0
SEQEND
 8
011
 0
ARC
 8
011
 10
2077.425722
 20
-2490.298021
 40
1.418002
 50
170.860857
 51
185.349686
 0
POLYLINE
 8
011
 66
1
 0
VERTEX
 8
011
 10
2078.089748
 20
-2485.001095
 0
VERTEX
 8
011
 10
2078.073245
 20
-2486.080353
 0
VERTEX
 8
011
 10
2078.072455
 20
-2486.132168
 0
SEQEND
 8
011
 0
ARC
 8
011
 10
2063.887199
 20
-2465.789404
 40
24.800193
 50
303.032701
 51
304.888531
 0
ARC
 8
011
 10
2075.545418
 20
-2483.561091
 40
3.547073
 50
287.078272
 51
301.641469
 0
ARC
 8
011
 10
2076.550392
 20
-2488.395266
 40
0.299587
 50
90.072215
 51
179.077527
 0
POLYLINE
 8
011
 66
1
 0
VERTEX
 8
011
 10
2076.472756
 20
-2487.226733
 0
VERTEX
 8
011
 10
2076.203954
 20
-2487.292067
 0
VERTEX
 8
011
 10
2076.066651
 20
-2487.316088
 0
SEQEND
 8
011
 0
ARC
 8
011
 10
2075.755317
 20
-2484.173496
 40
3.136395
 50
283.223268
 51
305.172044
 0
ARC
 8
011
 10
2075.924550
 20
-2489.790432
 40
0.299942
 50
290.100123
 51
359.044774
 0
POLYLINE
 8
011
 66
1
 0
VERTEX
 8
011
 10
2078.072455
 20
-2486.132168
 0
VERTEX
 8
011
 10
2078.067813
 20
-2486.138240
 0
VERTEX
 8
011
 10
2077.561986
 20
-2486.737267
 0
SEQEND
 8
011
 0
LINE
 8
011
 10
2081.249863
 20
-2484.756035
 11
2081.234947
 21
-2484.761447
 0
ARC
 8
011
 10
2082.265385
 20
-2487.586891
 40
3.007479
 50
170.599720
 51
180.025398
 0
LINE
 8
011
 10
2067.157906
 20
-2481.221360
 11
2067.157906
 21
-2485.195678
 0
LINE
 8
011
 10
2020.557905
 20
-2481.221360
 11
2020.557905
 21
-2485.195678
 0
LINE
 8
011
 10
2018.857906
 20
-2481.221360
 11
2018.857906
 21
-2485.195678
 0
POLYLINE
 8
011
 66
1
 0
VERTEX
 8
011
 10
2079.473533
 20
-2486.497969
 0
VERTEX
 8
011
 10
2080.000222
 20
-2485.638977
 0
VERTEX
 8
011
 10
2080.369018
 20
-2485.283767
 0
SEQEND
 8
011
 0
POLYLINE
 8
011
 66
1
 0
VERTEX
 8
011
 10
2081.232272
 20
-2484.798011
 0
VERTEX
 8
011
 10
2081.496485
 20
-2484.704175
 0
VERTEX
 8
011
 10
2081.705824
 20
-2484.630276
 0
VERTEX
 8
011
 10
2081.792497
 20
-2484.599796
 0
VERTEX
 8
011
 10
2081.785046
 20
-2484.602415
 0
SEQEND
 8
011
 0
LINE
 8
011
 10
2076.225244
 20
-2489.795830
 11
2076.224451
 21
-2489.795433
 0
LINE
 8
011
 10
2076.251590
 20
-2488.389961
 11
2076.250842
 21
-2488.390443
 0
LINE
 8
011
 10
2082.197011
 20
-2484.422465
 11
2082.199920
 21
-2484.430421
 0
LINE
 8
011
 10
2008.857906
 20
-2492.584157
 11
2009.587050
 21
-2492.584157
 0
LINE
 8
011
 10
2014.239051
 20
-2498.291264
 11
2013.617392
 21
-2498.291264
 0
POLYLINE
 8
011
 66
1
 0
VERTEX
 8
011
 10
2014.817332
 20
-2497.220712
 0
VERTEX
 8
011
 10
2014.786375
 20
-2497.594605
 0
VERTEX
 8
011
 10
2014.687548
 20
-2497.931598
 0
VERTEX
 8
011
 10
2014.540446
 20
-2498.158076
 0
VERTEX
 8
011
 10
2014.381901
 20
-2498.265500
 0
VERTEX
 8
011
 10
2014.239051
 20
-2498.291264
 0
SEQEND
 8
011
 0
LINE
 8
011
 10
2014.817332
 20
-2492.584157
 11
2014.817332
 21
-2497.220712
 0
LINE
 8
011
 10
2014.817332
 20
-2492.584157
 11
2078.646826
 21
-2492.584157
 0
LINE
 8
011
 10
2078.646824
 20
-2497.084156
 11
2078.646826
 21
-2492.584157
 0
POLYLINE
 8
011
 66
1
 0
VERTEX
 8
011
 10
2013.145887
 20
-2491.417727
 0
VERTEX
 8
011
 10
2013.335766
 20
-2491.297581
 0
VERTEX
 8
011
 10
2014.024249
 20
-2491.116875
 0
VERTEX
 8
011
 10
2014.629341
 20
-2491.084541
 0
VERTEX
 8
011
 10
2014.826019
 20
-2491.084157
 0
VERTEX
 8
011
 10
2015.113507
 20
-2491.090390
 0
VERTEX
 8
011
 10
2015.158507
 20
-2491.111344
 0
VERTEX
 8
011
 10
2015.122230
 20
-2491.247794
 0
VERTEX
 8
011
 10
2015.010165
 20
-2491.507872
 0
VERTEX
 8
011
 10
2014.911110
 20
-2491.821957
 0
VERTEX
 8
011
 10
2014.844301
 20
-2492.171149
 0
VERTEX
 8
011
 10
2014.817332
 20
-2492.584157
 0
SEQEND
 8
011
 0
ARC
 8
011
 10
2069.548163
 20
-2503.775179
 40
1.283750
 50
9.379091
 51
68.089579
 0
LINE
 8
011
 10
2068.044679
 20
-2502.584157
 11
2068.044679
 21
-2503.565972
 0
LINE
 8
011
 10
2019.671132
 20
-2502.584157
 11
2019.671132
 21
-2503.565972
 0
ARC
 8
011
 10
2018.167634
 20
-2503.775168
 40
1.283734
 50
111.909975
 51
170.621306
 0
LINE
 8
011
 10
2064.821873
 20
-2502.371625
 11
2067.848131
 21
-2502.584156
 0
ARC
 8
011
 10
2043.857906
 20
-2723.414768
 40
222.035041
 50
84.582212
 51
95.417788
 0
LINE
 8
011
 10
2019.867677
 20
-2502.584156
 11
2022.893939
 21
-2502.371625
 0
LINE
 8
011
 10
2022.913647
 20
-2502.584156
 11
2022.893939
 21
-2502.371625
 0
LINE
 8
011
 10
2064.802163
 20
-2502.584156
 11
2064.821873
 21
-2502.371625
 0
POLYLINE
 8
011
 66
1
 0
VERTEX
 8
011
 10
1850.354419
 20
-2493.361934
 0
VERTEX
 8
011
 10
1850.453154
 20
-2493.215556
 0
VERTEX
 8
011
 10
1850.741342
 20
-2492.788280
 0
VERTEX
 8
011
 10
1851.195664
 20
-2492.114722
 0
VERTEX
 8
011
 10
1851.779297
 20
-2491.249450
 0
VERTEX
 8
011
 10
1852.444962
 20
-2490.262561
 0
VERTEX
 8
011
 10
1853.138730
 20
-2489.234010
 0
VERTEX
 8
011
 10
1853.804395
 20
-2488.247123
 0
VERTEX
 8
011
 10
1854.388029
 20
-2487.381850
 0
VERTEX
 8
011
 10
1854.842350
 20
-2486.708292
 0
VERTEX
 8
011
 10
1855.130554
 20
-2486.281016
 0
VERTEX
 8
011
 10
1855.229289
 20
-2486.134638
 0
SEQEND
 8
011
 0
POLYLINE
 8
011
 66
1
 0
VERTEX
 8
011
 10
1859.748856
 20
-2479.434103
 0
VERTEX
 8
011
 10
1859.847591
 20
-2479.287726
 0
VERTEX
 8
011
 10
1860.135794
 20
-2478.860450
 0
VERTEX
 8
011
 10
1860.590116
 20
-2478.186891
 0
VERTEX
 8
011
 10
1861.173749
 20
-2477.321618
 0
VERTEX
 8
011
 10
1861.839414
 20
-2476.334729
 0
VERTEX
 8
011
 10
1862.533167
 20
-2475.306180
 0
VERTEX
 8
011
 10
1863.198832
 20
-2474.319291
 0
VERTEX
 8
011
 10
1863.782466
 20
-2473.454018
 0
VERTEX
 8
011
 10
1864.236787
 20
-2472.780463
 0
VERTEX
 8
011
 10
1864.524991
 20
-2472.353187
 0
VERTEX
 8
011
 10
1864.623726
 20
-2472.206809
 0
SEQEND
 8
011
 0
POLYLINE
 8
011
 66
1
 0
VERTEX
 8
011
 10
1843.711038
 20
-2503.963595
 0
VERTEX
 8
011
 10
1843.109176
 20
-2505.682362
 0
VERTEX
 8
011
 10
1843.104288
 20
-2505.700563
 0
SEQEND
 8
011
 0
POLYLINE
 8
011
 66
1
 0
VERTEX
 8
011
 10
2168.101848
 20
-2503.584157
 0
VERTEX
 8
011
 10
2169.686705
 20
-2503.425599
 0
VERTEX
 8
011
 10
2171.679121
 20
-2502.808583
 0
SEQEND
 8
011
 0
POLYLINE
 8
011
 66
1
 0
VERTEX
 8
011
 10
2079.291428
 20
-2487.095677
 0
VERTEX
 8
011
 10
2079.371751
 20
-2486.796819
 0
VERTEX
 8
011
 10
2079.473533
 20
-2486.497969
 0
SEQEND
 8
011
 0
POLYLINE
 8
011
 66
1
 0
VERTEX
 8
011
 10
2076.001020
 20
-2491.084157
 0
VERTEX
 8
011
 10
2076.006733
 20
-2490.794050
 0
VERTEX
 8
011
 10
2076.013897
 20
-2490.430227
 0
SEQEND
 8
011
  0
POLYLINE
  8
011
 66
1
  0
VERTEX
  8
011
 10
1826.857905
 20
-2509.584157
  0
VERTEX
  8
011
 10
1826.717905
 20
-2511.584157
  0
VERTEX
  8
011
 10
1826.337905
 20
-2513.584157
  0
VERTEX
  8
011
 10
1825.777905
 20
-2515.584157
  0
VERTEX
  8
011
 10
1825.097905
 20
-2517.584157
  0
VERTEX
  8
011
 10
1824.357905
 20
-2519.584157
  0
VERTEX
  8
011
 10
1823.617905
 20
-2521.584157
  0
VERTEX
  8
011
 10
1822.937905
 20
-2523.584157
  0
VERTEX
  8
011
 10
1822.377905
 20
-2525.584157
  0
VERTEX
  8
011
 10
1821.997905
 20
-2527.584157
  0
VERTEX
  8
011
 10
1821.857905
 20
-2529.584157
  0
VERTEX
  8
011
 10
1821.997905
 20
-2531.584157
  0
VERTEX
  8
011
 10
1822.377905
 20
-2533.584157
  0
VERTEX
  8
011
 10
1822.937905
 20
-2535.584157
  0
VERTEX
  8
011
 10
1823.617905
 20
-2537.584157
  0
VERTEX
  8
011
 10
1824.357905
 20
-2539.584157
  0
VERTEX
  8
011
 10
1825.097905
 20
-2541.584157
  0
VERTEX
  8
011
 10
1825.777905
 20
-2543.584157
  0
VERTEX
  8
011
 10
1826.337905
 20
-2545.584157
  0
VERTEX
  8
011
 10
1826.717905
 20
-2547.584157
  0
VERTEX
  8
011
 10
1826.857905
 20
-2549.584157
  0
VERTEX
  8
011
 10
1826.717905
 20
-2551.584157
  0
VERTEX
  8
011
 10
1826.337905
 20
-2553.584157
  0
VERTEX
  8
011
 10
1825.777905
 20
-2555.584157
  0
VERTEX
  8
011
 10
1825.097905
 20
-2557.584157
  0
VERTEX
  8
011
 10
1824.357905
 20
-2559.584157
  0
VERTEX
  8
011
 10
1823.617905
 20
-2561.584157
  0
VERTEX
  8
011
 10
1822.937905
 20
-2563.584157
  0
VERTEX
  8
011
 10
1822.377905
 20
-2565.584157
  0
VERTEX
  8
011
 10
1821.997905
 20
-2567.584157
  0
VERTEX
  8
011
 10
1821.857905
 20
-2569.584157
  0
SEQEND
  8
011
 0
POLYLINE
 8
011
 66
1
 0
VERTEX
 8
011
 10
1481.082221
 20
-2480.916771
 0
VERTEX
 8
011
 10
1475.887422
 20
-2489.871867
 0
VERTEX
 8
011
 10
1484.863797
 20
-2484.713925
 0
SEQEND
 8
011
 0
LINE
 8
011
 10
1475.887422
 20
-2489.871867
 11
1513.614746
 21
-2452.299316
 0
LINE
 8
011
 10
1513.614746
 20
-2452.299316
 11
1612.614746
 21
-2452.299316
 0
TEXT
 8
011
 10
1525.614746
 20
-2447.299316
 40
16.000000
 1
電池交換サイン
 41
0.546875
 7
STANDARD
 0
TEXT
 8
011
 62
3
 10
2451.022243
 20
-2948.195778
 40
32.000000
 1
DC1004SA
 41
0.818182
 7
STANDARD
 0
LINE
 8
011
 62
3
 10
1653.542035
 20
-2175.377042
 11
2279.757812
 21
-2175.377042
 0
ARC
 8
011
 62
3
 10
2279.757813
 20
-2155.377042
 40
20.000000
 50
270.000000
 51
0.000000
 0
LINE
 8
011
 62
3
 10
2299.757813
 20
-2155.377042
 11
2299.757813
 21
-1781.929246
 0
ARC
 8
011
 62
3
 10
2279.757813
 20
-1781.929246
 40
20.000000
 50
0.000000
 51
90.000000
 0
LINE
 8
011
 62
3
 10
1653.542035
 20
-1761.929246
 11
2279.757812
 21
-1761.929246
 0
ARC
 8
011
 62
3
 10
1653.542035
 20
-1781.929246
 40
20.000000
 50
90.000000
 51
180.000000
 0
LINE
 8
011
 62
3
 10
1633.542035
 20
-2155.377042
 11
1633.542035
 21
-1781.929246
 0
LINE
 8
011
 62
3
 10
2355.629946
 20
-2121.929246
 11
2871.629946
 21
-2121.929246
 0
LINE
 8
011
 62
3
 10
2871.629946
 20
-2121.929246
 11
2871.629946
 21
-1761.929246
 0
LINE
 8
011
 62
3
 10
2871.629946
 20
-1761.929246
 11
2355.629946
 21
-1761.929246
 0
LINE
 8
011
 62
3
 10
2355.629946
 20
-2121.929246
 11
2355.629946
 21
-1761.929246
 0
POLYLINE
 8
011
 66
1
 0
VERTEX
 8
011
 10
1451.114565
 20
-2461.270747
 0
VERTEX
 8
011
 10
1447.780122
 20
-2471.071827
 0
VERTEX
 8
011
 10
1455.568374
 20
-2464.251064
 0
SEQEND
 8
011
 0
LINE
 8
011
 10
1447.780122
 20
-2471.071827
 11
1482.737331
 21
-2418.831496
 0
LINE
 8
011
 10
1482.737331
 20
-2418.831496
 11
1568.237328
 21
-2418.831496
 0
TEXT
 8
011
 10
1494.737331
 20
-2413.831496
 40
16.000000
 1
器具栓つまみ
 41
0.546875
 7
STANDARD
 0
ARC
 8
011
 62
3
 10
1653.542035
 20
-2155.377042
 40
20.000000
 50
180.000000
 51
270.000000
 0
TEXT
 8
011
 62
3
 10
2808.522017
 20
-2930.197505
 40
16.000000
 1
2012. 2
 41
1.149483
 7
STANDARD
 0
TEXT
 8
011
 62
3
 10
2808.522017
 20
-2951.197505
 40
16.000000
 1
2015. 4
 41
1.149483
 7
STANDARD
 0
LINE
 8
019
 10
1244.376104
 20
-2519.584157
 11
1244.376104
 21
-2594.584157
 0
ARC
 8
019
 10
1264.376104
 20
-2594.584157
 40
20.000000
 50
180.000000
 51
270.000000
 0
LINE
 8
019
 10
1419.976104
 20
-2540.484157
 11
1419.976104
 21
-2535.484157
 0
LINE
 8
019
 10
1419.976104
 20
-2535.484157
 11
1419.376104
 21
-2535.484157
 0
LINE
 8
019
 10
1419.376104
 20
-2535.484157
 11
1419.376104
 21
-2532.984157
 0
LINE
 8
019
 10
1422.376104
 20
-2532.984157
 11
1419.376104
 21
-2532.984157
 0
ARC
 8
019
 10
1422.376104
 20
-2536.484157
 40
3.500000
 50
0.000000
 51
90.000000
 0
LINE
 8
019
 10
1425.876104
 20
-2539.484157
 11
1425.876104
 21
-2536.484157
 0
ARC
 8
019
 10
1422.376104
 20
-2539.484157
 40
3.500000
 50
270.000000
 51
0.000000
 0
LINE
 8
019
 10
1422.376104
 20
-2542.984157
 11
1419.376104
 21
-2542.984157
 0
LINE
 8
019
 10
1419.376104
 20
-2540.484157
 11
1419.376104
 21
-2542.984157
 0
LINE
 8
019
 10
1419.976104
 20
-2540.484157
 11
1419.376104
 21
-2540.484157
 0
LINE
 8
019
 10
1448.376104
 20
-2527.584157
 11
1456.376104
 21
-2527.584157
 0
LINE
 8
019
 10
1448.376104
 20
-2527.584157
 11
1448.376104
 21
-2523.584157
 0
LINE
 8
019
 10
1448.376104
 20
-2523.584157
 11
1456.376104
 21
-2523.584157
 0
LINE
 8
019
 10
1456.376104
 20
-2523.584157
 11
1456.376104
 21
-2527.584157
 0
ARC
 8
019
 10
1458.376104
 20
-2536.484157
 40
3.500000
 50
90.000000
 51
180.000000
 0
LINE
 8
019
 10
1458.376104
 20
-2532.984157
 11
1461.376104
 21
-2532.984157
 0
LINE
 8
019
 10
1461.376104
 20
-2535.484157
 11
1461.376104
 21
-2532.984157
 0
LINE
 8
019
 10
1460.776104
 20
-2535.484157
 11
1461.376104
 21
-2535.484157
 0
LINE
 8
019
 10
1460.776104
 20
-2540.484157
 11
1460.776104
 21
-2535.484157
 0
LINE
 8
019
 10
1460.776104
 20
-2540.484157
 11
1461.376104
 21
-2540.484157
 0
LINE
 8
019
 10
1461.376104
 20
-2540.484157
 11
1461.376104
 21
-2542.984157
 0
LINE
 8
019
 10
1458.376104
 20
-2542.984157
 11
1461.376104
 21
-2542.984157
 0
ARC
 8
019
 10
1458.376104
 20
-2539.484157
 40
3.500000
 50
180.000000
 51
270.000000
 0
LINE
 8
019
 10
1454.876104
 20
-2539.484157
 11
1454.876104
 21
-2536.484157
 0
LINE
 8
019
 10
1506.376104
 20
-2519.584157
 11
1506.376104
 21
-2594.584157
 0
ARC
 8
019
 10
1486.376104
 20
-2594.584157
 40
20.000000
 50
270.000000
 51
0.000000
 0
LINE
 8
019
 10
1264.376104
 20
-2614.584157
 11
1486.376104
 21
-2614.584157
 0
ARC
 8
019
 10
1505.813604
 20
-2530.784157
 40
2.562500
 50
282.680383
 51
77.319617
 0
ARC
 8
019
 10
1244.938604
 20
-2530.784157
 40
2.562500
 50
102.680383
 51
157.030323
 0
ARC
 8
019
 10
1244.938604
 20
-2530.784157
 40
2.562500
 50
175.523582
 51
237.879116
 0
LINE
 8
019
 10
2157.357905
 20
-2519.584157
 11
2157.357905
 21
-2594.584157
 0
ARC
 8
019
 10
2137.357905
 20
-2594.584157
 40
20.000000
 50
270.000000
 51
0.000000
 0
ARC
 8
019
 10
1894.357905
 20
-2594.584157
 40
20.000000
 50
180.000000
 51
270.000000
 0
LINE
 8
019
 10
1874.357905
 20
-2519.584157
 11
1874.357905
 21
-2594.584157
 0
ARC
 8
019
 10
1874.920405
 20
-2530.784157
 40
2.562500
 50
102.680383
 51
257.319617
 0
ARC
 8
019
 10
1975.357905
 20
-2530.784157
 40
2.500000
 50
90.000000
 51
270.000000
 0
LINE
 8
019
 10
1975.357905
 20
-2533.284157
 11
1975.357905
 21
-2528.284157
 0
LINE
 8
019
 10
1894.357905
 20
-2614.584157
 11
2026.857905
 21
-2614.584157
 0
LINE
 8
019
 10
2066.857905
 20
-2614.584157
 11
2137.357905
 21
-2614.584157
 0
ARC
 8
019
 10
2156.795405
 20
-2530.784157
 40
2.562500
 50
302.120884
 51
4.476418
 0
ARC
 8
019
 10
2156.795405
 20
-2530.784157
 40
2.562500
 50
22.969677
 51
77.319617
 0
LINE
 8
021
 6
CENTER
 62
4
 10
1463.376104
 20
-2650.584157
 11
1463.376104
 21
-2609.584157
 0
LINE
 8
021
 6
CENTER
 62
4
 10
1950.297905
 20
-2650.584157
 11
1950.297905
 21
-2609.584157
 0
LINE
 8
021
 6
CENTER
 62
4
 10
1931.857905
 20
-2587.484157
 11
1931.857905
 21
-2625.234157
 0
LINE
 8
021
 6
CENTER
 62
4
 10
2046.857905
 20
-2680.622112
 11
2046.857905
 21
-2557.515798
 0
LINE
 8
021
 6
CENTER
 62
4
 10
2043.857905
 20
-2441.929189
 11
2043.857905
 21
-2512.299316
 0
LINE
 8
021
 10
1845.954570
 20
-2519.584157
 11
2182.761241
 21
-2519.584157
 0
LINE
 8
021
 10
1218.472769
 20
-2519.584157
 11
1532.279439
 21
-2519.584157
 0
LINE
 8
021
 6
CENTER
 62
10
 10
1555.000957
 20
-1998.631657
 11
1202.706360
 21
-1998.631637
 0
LINE
 8
021
 6
CENTER
 62
10
 10
1375.376104
 20
-2213.891943
 11
1375.376104
 21
-1838.527005
 0
LINE
 8
021
 6
CENTER
 62
4
 10
1375.376104
 20
-2448.409969
 11
1375.376104
 21
-2685.280731
 0
LINE
 8
021
 6
CENTER
 62
10
 10
1440.376104
 20
-2163.432919
 11
1440.376104
 21
-2233.916675
 0
LINE
 8
031
 10
2275.614746
 20
-3037.299316
 11
2905.614746
 21
-3037.299316
 0
LINE
 8
031
 10
2275.614746
 20
-2953.299316
 11
2905.614746
 21
-2953.299316
 0
LINE
 8
031
 10
2275.614746
 20
-2995.299316
 11
2905.614746
 21
-2995.299316
 0
LINE
 8
031
 10
2751.614746
 20
-2995.299316
 11
2751.614746
 21
-2911.299316
 0
LINE
 8
031
 10
2805.614746
 20
-2995.299316
 11
2805.614746
 21
-2911.299316
 0
LINE
 8
031
 10
2338.614746
 20
-2995.299316
 11
2338.614746
 21
-2911.299316
 0
TEXT
 8
031
 10
2175.556230
 20
-3079.296947
 40
16.000000
 1
単位（ｍ／ｍ）
 41
0.716146
 7
STANDARD
 0
TEXT
 8
031
 10
2291.661254
 20
-2985.158832
 40
16.000000
 1
名称
 41
0.716146
 7
STANDARD
 0
TEXT
 8
031
 10
2764.661254
 20
-2982.658832
 40
16.000000
 1
尺度
 41
0.716146
 7
STANDARD
 0
TEXT
 8
031
 10
2291.661254
 20
-2943.158832
 40
16.000000
 1
品名
 41
0.716146
 7
STANDARD
 0
TEXT
 8
031
 10
2764.661254
 20
-2928.658832
 40
16.000000
 1
作成
 41
0.716146
 7
STANDARD
 0
TEXT
 8
031
 10
1701.725319
 20
-2097.964574
 40
12.799999
 1
Ａタイプ（標準穴明寸法）
 41
0.716146
 7
STANDARD
 0
TEXT
 8
031
 10
1879.525319
 20
-2097.964574
 40
12.799999
 1
Ｂタイプ（穴明寸法）
 41
0.716146
 7
STANDARD
 0
LINE
 8
031
 10
2101.552180
 20
-1919.962967
 11
2048.525319
 21
-1919.962967
 0
TEXT
 8
031
 10
2194.415222
 20
-2111.991741
 40
12.799999
 1
電池交換出来る様に
 41
0.546875
 7
STANDARD
 0
LINE
 8
031
 10
2129.552180
 20
-1851.364574
 11
2284.467896
 21
-1851.364574
 0
TEXT
 8
031
 10
2127.552180
 20
-1848.364574
 40
12.799999
 1
カウンター厚み１５～４０ｍｍ
 41
0.716146
 7
STANDARD
 0
TEXT
 8
031
 10
2714.772983
 20
-1779.929246
 40
12.799994
 1
記
 41
0.716146
 7
STANDARD
 0
TEXT
 8
031
 10
2408.616823
 20
-1777.929246
 40
12.799994
 1
項
 41
0.859375
 7
STANDARD
 0
TEXT
 8
031
 10
2508.616823
 20
-1777.929246
 40
12.799994
 1
目
 41
0.859375
 7
STANDARD
 0
LINE
 8
031
 10
2871.629946
 20
-1781.929246
 11
2355.629946
 21
-1781.929246
 0
TEXT
 8
031
 10
2630.129946
 20
-1939.929246
 40
12.799994
 1
13A
 41
0.966797
 7
STANDARD
 0
TEXT
 8
031
 10
2591.629946
 20
-1959.929246
 40
12.799994
 1
kW(kcal/h)
 41
0.937500
 7
STANDARD
 0
TEXT
 8
031
 10
2591.629946
 20
-1979.929246
 40
12.799999
 1
2.56(2200)
 41
1.031250
 7
STANDARD
 0
TEXT
 8
031
 10
2364.585207
 20
-1839.929246
 40
12.799994
 1
外形寸法（ｍｍ）
 41
0.716146
 7
STANDARD
 0
TEXT
 8
031
 10
2364.585207
 20
-1909.929246
 40
12.799994
 1
接
 41
0.859375
 7
STANDARD
 0
TEXT
 8
031
 10
2432.585207
 20
-1909.929246
 40
12.799994
 1
続
 41
0.859375
 7
STANDARD
 0
TEXT
 8
031
 10
2699.629946
 20
-2039.929246
 40
12.799994
 1
熱電対式
 41
0.716146
 7
STANDARD
 0
LINE
 8
031
 10
2455.629946
 20
-1861.929246
 11
2455.629946
 21
-1801.929246
 0
LINE
 8
031
 10
2455.629946
 20
-1981.929246
 11
2455.629946
 21
-1881.929246
 0
LINE
 8
031
 10
2355.629946
 20
-2081.929246
 11
2871.629946
 21
-2081.929246
 0
TEXT
 8
031
 10
2364.585207
 20
-2019.929246
 40
12.799994
 1
点
 41
0.859375
 7
STANDARD
 0
TEXT
 8
031
 10
2425.785200
 20
-2019.929246
 40
12.799994
 1
火
 41
0.859375
 7
STANDARD
 0
TEXT
 8
031
 10
2486.985193
 20
-2019.929246
 40
12.799994
 1
方
 41
0.859375
 7
STANDARD
 0
TEXT
 8
031
 10
2548.185186
 20
-2019.929246
 40
12.799994
 1
式
 41
0.859375
 7
STANDARD
 0
TEXT
 8
031
 10
2364.585207
 20
-2039.929246
 40
12.799994
 1
立
 41
0.859375
 7
STANDARD
 0
TEXT
 8
031
 10
2395.385202
 20
-2039.929246
 40
12.799994
 1
消
 41
0.859375
 7
STANDARD
 0
TEXT
 8
031
 10
2426.185198
 20
-2039.929246
 40
12.799994
 1
え
 41
0.859375
 7
STANDARD
 0
TEXT
 8
031
 10
2456.985193
 20
-2039.929246
 40
12.799994
 1
安
 41
0.859375
 7
STANDARD
 0
TEXT
 8
031
 10
2487.785189
 20
-2039.929246
 40
12.799994
 1
全
 41
0.859375
 7
STANDARD
 0
TEXT
 8
031
 10
2518.585184
 20
-2039.929246
 40
12.799994
 1
装
 41
0.859375
 7
STANDARD
 0
TEXT
 8
031
 10
2549.385180
 20
-2039.929246
 40
12.799994
 1
置
 41
0.859375
 7
STANDARD
 0
LINE
 8
031
 10
2871.629946
 20
-2001.929246
 11
2355.629946
 21
-2001.929246
 0
LINE
 8
031
 10
2871.629946
 20
-2021.929246
 11
2355.629946
 21
-2021.929246
 0
TEXT
 8
031
 10
2583.588455
 20
-2058.514316
 40
12.000000
 1
天ぷら油過熱防止機能、焦げ付き消火機能
 41
0.763889
 7
STANDARD
 0
TEXT
 8
031
 10
2582.129946
 20
-2019.929246
 40
12.799994
 1
乾電池式連続放電点火　単２形－２個（アルカリ乾電池）
 41
0.716146
 7
STANDARD
 0
TEXT
 8
031
 10
2583.088455
 20
-2078.614536
 40
12.000000
 1
消し忘れ消火機能（１２０分・３０分）
 41
0.763889
 7
STANDARD
 0
LINE
 8
031
 10
2871.629946
 20
-2041.929246
 11
2355.629946
 21
-2041.929246
 0
TEXT
 8
031
 10
2503.787844
 20
-1839.929246
 40
12.799994
 1
幅
 41
0.716146
 7
STANDARD
 0
TEXT
 8
031
 10
2468.585207
 20
-1859.929246
 40
12.799994
 1
奥
 41
0.859375
 7
STANDARD
 0
TEXT
 8
031
 10
2548.585207
 20
-1859.929246
 40
12.799994
 1
行
 41
0.859375
 7
STANDARD
 0
TEXT
 8
031
 10
2524.223159
 20
-1879.929246
 40
12.799994
 1
(kg)
 41
1.031250
 7
STANDARD
 0
TEXT
 8
031
 10
2468.585207
 20
-1979.929246
 40
12.799994
 1
全
 41
0.859375
 7
STANDARD
 0
TEXT
 8
031
 10
2495.385201
 20
-1979.929246
 40
12.799994
 1
点
 41
0.859375
 7
STANDARD
 0
TEXT
 8
031
 10
2522.185194
 20
-1979.929246
 40
12.799994
 1
火
 41
0.859375
 7
STANDARD
 0
TEXT
 8
031
 10
2548.985188
 20
-1979.929246
 40
12.799994
 1
時
 41
0.859375
 7
STANDARD
 0
TEXT
 8
031
 10
2468.585207
 20
-1819.929246
 40
12.799994
 1
高
 41
0.859375
 7
STANDARD
 0
TEXT
 8
031
 10
2550.585207
 20
-1819.929246
 40
12.799994
 1
さ
 41
0.859375
 7
STANDARD
 0
TEXT
 8
031
 10
2468.585207
 20
-1899.929246
 40
12.799994
 1
ガ
 41
0.859375
 7
STANDARD
 0
TEXT
 8
031
 10
2550.585207
 20
-1899.929246
 40
12.799994
 1
ス
 41
0.859375
 7
STANDARD
 0
LINE
 8
031
 10
2871.629946
 20
-1821.929246
 11
2455.629946
 21
-1821.929246
 0
LINE
 8
031
 10
2871.629946
 20
-1841.929246
 11
2455.629946
 21
-1841.929246
 0
LINE
 8
031
 10
2871.629946
 20
-1961.929246
 11
2455.629946
 21
-1961.929246
 0
LINE
 8
031
 10
2871.629946
 20
-1861.929246
 11
2355.629946
 21
-1861.929246
 0
LINE
 8
031
 10
2871.629946
 20
-1881.929246
 11
2355.629946
 21
-1881.929246
 0
LINE
 8
031
 10
2871.629946
 20
-1901.929246
 11
2455.629946
 21
-1901.929246
 0
LINE
 8
031
 10
2871.629946
 20
-1921.929246
 11
2355.629946
 21
-1921.929246
 0
TEXT
 8
031
 10
2468.585207
 20
-1919.929246
 40
12.799994
 1
電
 41
0.859375
 7
STANDARD
 0
TEXT
 8
031
 10
2550.585207
 20
-1919.929246
 40
12.799994
 1
気
 41
0.859375
 7
STANDARD
 0
LINE
 8
031
 10
2871.629946
 20
-1941.929246
 11
2571.629946
 21
-1941.929246
 0
TEXT
 8
031
 10
2774.629946
 20
-1939.929246
 40
12.799994
 1
ＬＰガス
 41
0.716146
 7
STANDARD
 0
TEXT
 8
031
 10
2752.629946
 20
-1959.929246
 40
12.799994
 1
kW(kg/h)
 41
0.896740
 7
STANDARD
 0
TEXT
 8
031
 10
2364.585207
 20
-1999.929246
 40
12.799994
 1
器
 41
0.859375
 7
STANDARD
 0
TEXT
 8
031
 10
2425.785200
 20
-1999.929246
 40
12.799994
 1
具
 41
0.859375
 7
STANDARD
 0
TEXT
 8
031
 10
2486.985193
 20
-1999.929246
 40
12.799994
 1
栓
 41
0.859375
 7
STANDARD
 0
TEXT
 8
031
 10
2677.629946
 20
-1999.929246
 40
12.799994
 1
押し回し式器具栓
 41
0.716146
 7
STANDARD
 0
LINE
 8
031
 10
2721.629946
 20
-1981.929246
 11
2721.629946
 21
-1921.929246
 0
LINE
 8
031
 10
2871.629946
 20
-1981.929246
 11
2355.629946
 21
-1981.929246
 0
TEXT
 8
031
 10
2364.585207
 20
-1879.929246
 40
12.799994
 1
質
 41
0.859375
 7
STANDARD
 0
TEXT
 8
031
 10
2508.585207
 20
-1879.929246
 40
12.799994
 1
量
 41
0.859375
 7
STANDARD
 0
TEXT
 8
031
 10
2736.129946
 20
-1979.929246
 40
12.799994
 1
2.56(0.184)
 41
1.112133
 7
STANDARD
 0
LINE
 8
031
 10
2788.167153
 20
-1911.929246
 11
2655.092739
 21
-1911.929246
 0
TEXT
 8
031
 10
2364.585207
 20
-2108.929246
 40
12.799994
 1
そ
 41
0.859375
 7
STANDARD
 0
TEXT
 8
031
 10
2425.785200
 20
-2108.929246
 40
12.799994
 1
の
 41
0.859375
 7
STANDARD
 0
TEXT
 8
031
 10
2486.985193
 20
-2108.929246
 40
12.799994
 1
他
 41
0.859375
 7
STANDARD
 0
POLYLINE
 8
031
 66
1
 0
VERTEX
 8
031
 10
1971.228583
 20
-2541.763302
 0
VERTEX
 8
031
 10
1975.857905
 20
-2534.895670
 0
VERTEX
 8
031
 10
1968.414979
 20
-2538.528553
 0
SEQEND
 8
031
 0
LINE
 8
031
 10
1975.857905
 20
-2534.895670
 11
1803.718238
 21
-2684.623824
 0
POLYLINE
 8
031
 66
1
 0
VERTEX
 8
031
 10
2155.123527
 20
-1906.339889
 0
VERTEX
 8
031
 10
2148.113446
 20
-1901.929246
 0
VERTEX
 8
031
 10
2151.979033
 20
-1909.254015
 0
SEQEND
 8
031
 0
LINE
 8
031
 10
2148.113446
 20
-1901.929246
 11
2190.113446
 21
-1947.249432
 0
LINE
 8
031
 10
2190.113446
 20
-1947.249432
 11
2275.313446
 21
-1947.249432
 0
TEXT
 8
031
 10
2198.513448
 20
-1943.249431
 40
12.799999
 1
電池交換必要寸法
 41
0.546875
 7
STANDARD
 0
POLYLINE
 8
031
 66
1
 0
VERTEX
 8
031
 10
1284.029332
 20
-2553.196342
 0
VERTEX
 8
031
 10
1288.614746
 20
-2546.299316
 0
VERTEX
 8
031
 10
1281.195148
 20
-2549.979609
 0
SEQEND
 8
031
 0
LINE
 8
031
 10
1288.614746
 20
-2546.299316
 11
1199.718238
 21
-2624.623824
 0
TEXT
 8
031
 10
2675.629946
 20
-1880.166022
 40
12.799999
 1
４　（梱包時　５）
 41
0.716146
 7
STANDARD
 0
TEXT
 8
031
 10
2630.129946
 20
-1818.948636
 40
12.799994
 1
１４６．５（配管含む　１７７．５）
 41
0.716146
 7
STANDARD
 0
TEXT
 8
031
 10
2705.129946
 20
-1838.948636
 40
12.799994
 1
324
 41
0.859375
 7
STANDARD
 0
TEXT
 8
031
 10
2705.129946
 20
-1858.948636
 40
12.799994
 1
347
 41
0.859375
 7
STANDARD
 0
POLYLINE
 8
031
 66
1
 0
VERTEX
 8
031
 10
2161.036670
 20
-2077.452533
 0
VERTEX
 8
031
 10
2155.213612
 20
-2071.562967
 0
VERTEX
 8
031
 10
2157.311746
 20
-2079.575009
 0
SEQEND
 8
031
 0
LINE
 8
031
 10
2155.213612
 20
-2071.562967
 11
2187.895904
 21
-2128.920045
 0
LINE
 8
031
 10
2187.895904
 20
-2128.920045
 11
2289.895900
 21
-2128.920045
 0
TEXT
 8
031
 10
2196.295904
 20
-2124.920043
 40
12.799999
 1
配慮されていること。
 41
0.546875
 7
STANDARD
 0
TEXT
 8
031
 10
2612.129946
 20
-1898.329246
 40
12.799994
 1
Ｒ１／２（オネジ）、鉄管又は金属可とう管
 41
0.716146
 7
STANDARD
 0
POLYLINE
 8
031
 66
1
 0
VERTEX
 8
031
 10
1233.087889
 20
-2537.768597
 0
VERTEX
 8
031
 10
1233.876104
 20
-2527.445884
 0
VERTEX
 8
031
 10
1228.032134
 20
-2535.991508
 0
SEQEND
 8
031
 0
LINE
 8
031
 10
1233.876104
 20
-2527.445884
 11
1199.718238
 21
-2624.623824
 0
LINE
 8
031
 10
1199.718238
 20
-2624.623824
 11
1121.718238
 21
-2624.623824
 0
TEXT
 8
031
 10
1133.718238
 20
-2619.623824
 40
16.000000
 1
本体案内板
 41
0.546875
 7
STANDARD
 0
POLYLINE
 8
031
 66
1
 0
VERTEX
 8
031
 10
1862.739597
 20
-2539.876342
 0
VERTEX
 8
031
 10
1863.857905
 20
-2529.584157
 0
VERTEX
 8
031
 10
1857.743330
 20
-2537.938297
 0
SEQEND
 8
031
 0
LINE
 8
031
 10
1863.857905
 20
-2529.584157
 11
1803.718238
 21
-2684.623824
 0
LINE
 8
031
 10
1803.718238
 20
-2684.623824
 11
1725.718238
 21
-2684.623824
 0
TEXT
 8
031
 10
1737.718238
 20
-2679.623824
 40
16.000000
 1
本体案内板
 41
0.546875
 7
STANDARD
 0
POLYLINE
 8
031
 66
1
 0
VERTEX
 8
031
 10
1475.415450
 20
-2651.347671
 0
VERTEX
 8
031
 10
1466.815358
 20
-2645.584157
 0
VERTEX
 8
031
 10
1471.381499
 20
-2654.875553
 0
SEQEND
 8
031
 0
LINE
 8
031
 10
1466.815358
 20
-2645.584157
 11
1552.737331
 21
-2743.831496
 0
LINE
 8
031
 10
1552.737331
 20
-2743.831496
 11
1725.237331
 21
-2743.831496
 0
TEXT
 8
031
 10
1564.737331
 20
-2738.831496
 40
16.000000
 1
ガス接続口Ｒ１／２（オネジ）
 41
0.546875
 7
STANDARD
 0
POLYLINE
 8
031
 66
1
 0
VERTEX
 8
031
 10
2071.030180
 20
-2668.409713
 0
VERTEX
 8
031
 10
2060.839644
 20
-2666.584157
 0
VERTEX
 8
031
 10
2068.752129
 20
-2673.260402
 0
SEQEND
 8
031
 0
LINE
 8
031
 10
2060.839644
 20
-2666.584157
 11
2182.737331
 21
-2723.831496
 0
LINE
 8
031
 10
2182.737331
 20
-2723.831496
 11
2292.237331
 21
-2723.831496
 0
TEXT
 8
031
 10
2194.737331
 20
-2718.831496
 40
16.000000
 1
本体取付アングル
 41
0.546875
 7
STANDARD
 0
POLYLINE
 8
031
 66
1
 0
VERTEX
 8
031
 10
1719.552836
 20
-1926.570664
 0
VERTEX
 8
031
 10
1714.559507
 20
-1919.962967
 0
VERTEX
 8
031
 10
1715.580008
 20
-1928.182065
 0
SEQEND
 8
031
 0
LINE
 8
031
 10
1714.559507
 20
-1919.962967
 11
1727.737331
 21
-1952.452225
 0
LINE
 8
031
 10
1727.737331
 20
-1952.452225
 11
1804.537328
 21
-1952.452225
 0
TEXT
 8
031
 10
1736.137331
 20
-1948.452225
 40
12.799999
 1
４ーＲ３０以下
 41
0.546875
 7
STANDARD
 0
POLYLINE
 8
031
 66
1
 0
VERTEX
 8
031
 10
1893.827867
 20
-1918.263270
 0
VERTEX
 8
031
 10
1888.959507
 20
-1911.562967
 0
VERTEX
 8
031
 10
1889.825479
 20
-1919.799779
 0
SEQEND
 8
031
 0
LINE
 8
031
 10
1888.959507
 20
-1911.562967
 11
1902.737331
 21
-1947.452225
 0
LINE
 8
031
 10
1902.737331
 20
-1947.452225
 11
1979.537328
 21
-1947.452225
 0
TEXT
 8
031
 10
1911.137331
 20
-1943.452225
 40
12.799999
 1
４ーＲ３０以下
 41
0.546875
 7
STANDARD
 0
TEXT
 8
031
 10
1694.747070
 20
-2201.689010
 40
16.000000
 1
本体案内板の取付位置について　
 41
0.716146
 7
STANDARD
 0
TEXT
 8
031
 10
1727.077154
 20
-2222.907762
 40
16.000000
 1
１．ワークトップ穴開け寸法Ａタイプ　……　左右各１ケ使用（計２ケ）
 41
0.716146
 7
STANDARD
 0
TEXT
 8
031
 10
1727.077154
 20
-2241.950730
 40
16.000000
 1
２．ワークトップ穴開け寸法Ｂタイプ　……　前後各１ケ使用（計２ケ）
 41
0.716146
 7
STANDARD
 0
LINE
 8
031
 10
2571.629946
 20
-2121.929246
 11
2571.629946
 21
-1761.929246
 0
TEXT
 8
031
 10
2364.809797
 20
-1958.331183
 40
12.500000
 1
ガス消費量
 41
1.166667
 7
STANDARD
 0
TEXT
 8
031
 10
2364.585207
 20
-2067.929246
 40
12.000000
 1
安
 41
0.916667
 7
STANDARD
 0
TEXT
 8
031
 10
2404.585207
 20
-2067.929246
 40
12.000000
 1
全
 41
0.916667
 7
STANDARD
 0
TEXT
 8
031
 10
2444.585207
 20
-2067.929246
 40
12.000000
 1
モ
 41
0.916667
 7
STANDARD
 0
TEXT
 8
031
 10
2484.585207
 20
-2067.929246
 40
12.000000
 1
ー
 41
0.916667
 7
STANDARD
 0
TEXT
 8
031
 10
2524.585207
 20
-2067.929246
 40
12.000000
 1
ド
 41
0.916667
 7
STANDARD
 0
POLYLINE
 8
031
 66
1
 0
VERTEX
 8
031
 10
1348.091151
 20
-2630.578438
 0
VERTEX
 8
031
 10
1347.672184
 20
-2620.234157
 0
VERTEX
 8
031
 10
1342.862880
 20
-2629.402050
 0
SEQEND
 8
031
 0
LINE
 8
031
 10
1347.672184
 20
-2620.234157
 11
1327.737331
 21
-2708.831496
 0
LINE
 8
031
 10
1327.737331
 20
-2708.831496
 11
1252.737334
 21
-2708.831496
 0
TEXT
 8
031
 10
1261.737327
 20
-2703.831496
 40
16.000000
 1
電池ケース
 41
0.546875
 7
STANDARD
 0
TEXT
 8
031
 10
2582.629946
 20
-2118.929246
 40
12.799994
 1
ホーロートッププレート
 41
0.716146
 7
STANDARD
 0
TEXT
 8
031
 10
2583.629946
 20
-2099.929246
 40
12.799994
 1
電池交換サイン、楽々点火、器具栓つまみ戻し忘れブザー
 41
0.716146
 7
STANDARD
 0
LINE
 8
031
 10
2871.629946
 20
-1801.929246
 11
2355.629946
 21
-1801.929246
 0
TEXT
 8
031
 10
2407.616823
 20
-1797.929246
 40
13.000000
 1
型　　　式　　　名
 41
0.801282
 7
STANDARD
 0
TEXT
 8
031
 10
2682.772983
 20
-1799.929246
 40
12.799994
 1
DC1004S
 41
0.949836
 7
STANDARD
 0
LINE
 8
031
 10
2751.614746
 20
-2932.299316
 11
2905.614746
 21
-2932.299316
 0
TEXT
 8
031
 10
2764.661254
 20
-2950.658832
 40
16.000000
 1
調整
 41
0.716146
 7
STANDARD
 0
LINE
 8
051
 62
11
 10
1448.254784
 20
-2544.398371
 11
1449.315444
 21
-2543.337711
 0
LINE
 8
051
 62
11
 10
1448.961890
 20
-2545.105478
 11
1448.254784
 21
-2544.398371
 0
LINE
 8
051
 62
11
 10
1450.022551
 20
-2544.044817
 11
1448.961890
 21
-2545.105478
 0
ARC
 8
051
 62
11
 10
1450.376104
 20
-2544.398371
 40
0.500000
 50
45.000000
 51
135.000000
 0
LINE
 8
051
 62
11
 10
1451.790318
 20
-2545.105478
 11
1450.729657
 21
-2544.044817
 0
LINE
 8
051
 62
11
 10
1452.497424
 20
-2544.398371
 11
1451.790318
 21
-2545.105478
 0
LINE
 8
051
 62
11
 10
1452.497424
 20
-2544.398371
 11
1451.436764
 21
-2543.337711
 0
ARC
 8
051
 62
11
 10
1451.790318
 20
-2542.984157
 40
0.500000
 50
135.000000
 51
225.000000
 0
LINE
 8
051
 62
11
 10
1451.436764
 20
-2542.630604
 11
1452.497424
 21
-2541.569944
 0
LINE
 8
051
 62
11
 10
1450.022551
 20
-2541.923497
 11
1448.961890
 21
-2540.862837
 0
ARC
 8
051
 62
11
 10
1450.376104
 20
-2541.569944
 40
0.500000
 50
225.000000
 51
315.000000
 0
LINE
 8
051
 62
11
 10
1450.729657
 20
-2541.923497
 11
1451.790318
 21
-2540.862837
 0
LINE
 8
051
 62
11
 10
1451.790318
 20
-2540.862837
 11
1452.497424
 21
-2541.569944
 0
ARC
 8
051
 62
11
 10
1448.961890
 20
-2542.984157
 40
0.500000
 50
315.000000
 51
45.000000
 0
LINE
 8
051
 62
11
 10
1449.315444
 20
-2542.630604
 11
1448.254784
 21
-2541.569944
 0
LINE
 8
051
 62
11
 10
1448.254784
 20
-2541.569944
 11
1448.961890
 21
-2540.862837
 0
CIRCLE
 8
051
 62
11
 10
1450.376104
 20
-2542.984157
 40
4.100000
 0
LINE
 8
051
 62
11
 10
1309.254784
 20
-2540.198371
 11
1310.315444
 21
-2539.137711
 0
LINE
 8
051
 62
11
 10
1309.961890
 20
-2540.905478
 11
1309.254784
 21
-2540.198371
 0
LINE
 8
051
 62
11
 10
1311.022551
 20
-2539.844817
 11
1309.961890
 21
-2540.905478
 0
ARC
 8
051
 62
11
 10
1311.376104
 20
-2540.198371
 40
0.500000
 50
45.000000
 51
135.000000
 0
LINE
 8
051
 62
11
 10
1312.790318
 20
-2540.905478
 11
1311.729657
 21
-2539.844817
 0
LINE
 8
051
 62
11
 10
1313.497424
 20
-2540.198371
 11
1312.790318
 21
-2540.905478
 0
LINE
 8
051
 62
11
 10
1313.497424
 20
-2540.198371
 11
1312.436764
 21
-2539.137711
 0
ARC
 8
051
 62
11
 10
1312.790318
 20
-2538.784157
 40
0.500000
 50
135.000000
 51
225.000000
 0
LINE
 8
051
 62
11
 10
1312.436764
 20
-2538.430604
 11
1313.497424
 21
-2537.369944
 0
LINE
 8
051
 62
11
 10
1311.022551
 20
-2537.723497
 11
1309.961890
 21
-2536.662837
 0
ARC
 8
051
 62
11
 10
1311.376104
 20
-2537.369944
 40
0.500000
 50
225.000000
 51
315.000000
 0
LINE
 8
051
 62
11
 10
1311.729657
 20
-2537.723497
 11
1312.790318
 21
-2536.662837
 0
LINE
 8
051
 62
11
 10
1312.790318
 20
-2536.662837
 11
1313.497424
 21
-2537.369944
 0
ARC
 8
051
 62
11
 10
1309.961890
 20
-2538.784157
 40
0.500000
 50
315.000000
 51
45.000000
 0
LINE
 8
051
 62
11
 10
1310.315444
 20
-2538.430604
 11
1309.254784
 21
-2537.369944
 0
LINE
 8
051
 62
11
 10
1309.254784
 20
-2537.369944
 11
1309.961890
 21
-2536.662837
 0
CIRCLE
 8
051
 62
11
 10
1311.376104
 20
-2538.784157
 40
3.600000
 0
LINE
 8
051
 62
11
 10
1507.176104
 20
-2535.284157
 11
1507.176104
 21
-2542.284157
 0
ARC
 8
051
 62
11
 10
1504.842771
 20
-2538.784157
 40
4.833333
 50
313.602819
 51
46.397181
 0
LINE
 8
051
 62
11
 10
1507.176104
 20
-2542.284157
 11
1508.176104
 21
-2542.284157
 0
LINE
 8
051
 62
11
 10
1508.176104
 20
-2535.284157
 11
1507.176104
 21
-2535.284157
 0
LINE
 8
051
 62
11
 10
1243.576104
 20
-2535.284157
 11
1243.576104
 21
-2542.284157
 0
ARC
 8
051
 62
11
 10
1245.909437
 20
-2538.784157
 40
4.833333
 50
133.602819
 51
226.397181
 0
LINE
 8
051
 62
11
 10
1243.576104
 20
-2542.284157
 11
1242.576104
 21
-2542.284157
 0
LINE
 8
051
 62
11
 10
1242.576104
 20
-2535.284157
 11
1243.576104
 21
-2535.284157
 0
LINE
 8
051
 62
11
 10
1428.254784
 20
-2544.398371
 11
1429.315444
 21
-2543.337711
 0
LINE
 8
051
 62
11
 10
1428.961890
 20
-2545.105478
 11
1428.254784
 21
-2544.398371
 0
LINE
 8
051
 62
11
 10
1430.022551
 20
-2544.044817
 11
1428.961890
 21
-2545.105478
 0
ARC
 8
051
 62
11
 10
1430.376104
 20
-2544.398371
 40
0.500000
 50
45.000000
 51
135.000000
 0
LINE
 8
051
 62
11
 10
1431.790318
 20
-2545.105478
 11
1430.729657
 21
-2544.044817
 0
LINE
 8
051
 62
11
 10
1432.497424
 20
-2544.398371
 11
1431.790318
 21
-2545.105478
 0
LINE
 8
051
 62
11
 10
1432.497424
 20
-2544.398371
 11
1431.436764
 21
-2543.337711
 0
ARC
 8
051
 62
11
 10
1431.790318
 20
-2542.984157
 40
0.500000
 50
135.000000
 51
225.000000
 0
LINE
 8
051
 62
11
 10
1431.436764
 20
-2542.630604
 11
1432.497424
 21
-2541.569944
 0
LINE
 8
051
 62
11
 10
1430.022551
 20
-2541.923497
 11
1428.961890
 21
-2540.862837
 0
ARC
 8
051
 62
11
 10
1430.376104
 20
-2541.569944
 40
0.500000
 50
225.000000
 51
315.000000
 0
LINE
 8
051
 62
11
 10
1430.729657
 20
-2541.923497
 11
1431.790318
 21
-2540.862837
 0
LINE
 8
051
 62
11
 10
1431.790318
 20
-2540.862837
 11
1432.497424
 21
-2541.569944
 0
ARC
 8
051
 62
11
 10
1428.961890
 20
-2542.984157
 40
0.500000
 50
315.000000
 51
45.000000
 0
LINE
 8
051
 62
11
 10
1429.315444
 20
-2542.630604
 11
1428.254784
 21
-2541.569944
 0
LINE
 8
051
 62
11
 10
1428.254784
 20
-2541.569944
 11
1428.961890
 21
-2540.862837
 0
CIRCLE
 8
051
 62
11
 10
1430.376104
 20
-2542.984157
 40
4.100000
 0
ARC
 8
051
 62
11
 10
1875.891238
 20
-2538.784157
 40
4.833333
 50
133.602819
 51
226.397181
 0
LINE
 8
051
 62
11
 10
1872.557905
 20
-2535.284157
 11
1873.557905
 21
-2535.284157
 0
LINE
 8
051
 62
11
 10
1873.557905
 20
-2542.284157
 11
1872.557905
 21
-2542.284157
 0
LINE
 8
051
 62
11
 10
2158.157905
 20
-2542.284157
 11
2159.157905
 21
-2542.284157
 0
ARC
 8
051
 62
11
 10
2155.824571
 20
-2538.784157
 40
4.833333
 50
313.602819
 51
46.397181
 0
LINE
 8
051
 62
11
 10
2159.157905
 20
-2535.284157
 11
2158.157905
 21
-2535.284157
 0
LINE
 8
051
 62
11
 10
2014.443691
 20
-2536.662837
 11
2015.504351
 21
-2537.723497
 0
LINE
 8
051
 62
11
 10
2013.736584
 20
-2537.369944
 11
2014.443691
 21
-2536.662837
 0
LINE
 8
051
 62
11
 10
2014.797245
 20
-2538.430604
 11
2013.736584
 21
-2537.369944
 0
ARC
 8
051
 62
11
 10
2014.443691
 20
-2538.784157
 40
0.500000
 50
315.000000
 51
45.000000
 0
LINE
 8
051
 62
11
 10
2013.736584
 20
-2540.198371
 11
2014.797245
 21
-2539.137711
 0
LINE
 8
051
 62
11
 10
2014.443691
 20
-2540.905478
 11
2013.736584
 21
-2540.198371
 0
LINE
 8
051
 62
11
 10
2014.443691
 20
-2540.905478
 11
2015.504351
 21
-2539.844817
 0
ARC
 8
051
 62
11
 10
2015.857905
 20
-2540.198371
 40
0.500000
 50
45.000000
 51
135.000000
 0
LINE
 8
051
 62
11
 10
2016.211458
 20
-2539.844817
 11
2017.272118
 21
-2540.905478
 0
LINE
 8
051
 62
11
 10
2016.918565
 20
-2538.430604
 11
2017.979225
 21
-2537.369944
 0
ARC
 8
051
 62
11
 10
2017.272118
 20
-2538.784157
 40
0.500000
 50
135.000000
 51
225.000000
 0
LINE
 8
051
 62
11
 10
2016.918565
 20
-2539.137711
 11
2017.979225
 21
-2540.198371
 0
LINE
 8
051
 62
11
 10
2017.979225
 20
-2540.198371
 11
2017.272118
 21
-2540.905478
 0
ARC
 8
051
 62
11
 10
2015.857905
 20
-2537.369944
 40
0.500000
 50
225.000000
 51
315.000000
 0
LINE
 8
051
 62
11
 10
2016.211458
 20
-2537.723497
 11
2017.272118
 21
-2536.662837
 0
LINE
 8
051
 62
11
 10
2017.272118
 20
-2536.662837
 11
2017.979225
 21
-2537.369944
 0
CIRCLE
 8
051
 62
11
 10
2015.857905
 20
-2538.784157
 40
3.600000
 0
LINE
 8
051
 6
PHANTOM
 62
15
 10
2215.152180
 20
-2048.362967
 11
2227.552180
 21
-2085.962967
 0
LINE
 8
051
 6
PHANTOM
 62
15
 10
2073.552180
 20
-1899.962967
 11
2061.152180
 21
-1864.362967
 0
ARC
 8
051
 62
11
 10
1356.790318
 20
-2537.584157
 40
0.500000
 50
135.000000
 51
225.000000
 0
LINE
 8
051
 62
11
 10
1353.254784
 20
-2538.998371
 11
1354.315444
 21
-2537.937711
 0
LINE
 8
051
 62
11
 10
1353.961890
 20
-2539.705478
 11
1353.254784
 21
-2538.998371
 0
LINE
 8
051
 62
11
 10
1355.022551
 20
-2538.644817
 11
1353.961890
 21
-2539.705478
 0
ARC
 8
051
 62
11
 10
1355.376104
 20
-2538.998371
 40
0.500000
 50
45.000000
 51
135.000000
 0
LINE
 8
051
 62
11
 10
1356.790318
 20
-2539.705478
 11
1355.729657
 21
-2538.644817
 0
LINE
 8
051
 62
11
 10
1357.497424
 20
-2538.998371
 11
1356.436764
 21
-2537.937711
 0
LINE
 8
051
 62
11
 10
1356.436764
 20
-2537.230604
 11
1357.497424
 21
-2536.169944
 0
ARC
 8
051
 62
11
 10
1353.961890
 20
-2537.584157
 40
0.500000
 50
315.000000
 51
45.000000
 0
LINE
 8
051
 62
11
 10
1354.315444
 20
-2537.230604
 11
1353.254784
 21
-2536.169944
 0
LINE
 8
051
 62
11
 10
1353.254784
 20
-2536.169944
 11
1353.961890
 21
-2535.462837
 0
LINE
 8
051
 62
11
 10
1355.022551
 20
-2536.523497
 11
1353.961890
 21
-2535.462837
 0
ARC
 8
051
 62
11
 10
1355.376104
 20
-2536.169944
 40
0.500000
 50
225.000000
 51
315.000000
 0
LINE
 8
051
 62
11
 10
1355.729657
 20
-2536.523497
 11
1356.790318
 21
-2535.462837
 0
LINE
 8
051
 62
11
 10
1356.790318
 20
-2535.462837
 11
1357.497424
 21
-2536.169944
 0
LINE
 8
051
 62
11
 10
1357.497424
 20
-2538.998371
 11
1356.790318
 21
-2539.705478
 0
ARC
 8
051
 62
11
 10
1396.790318
 20
-2537.584157
 40
0.500000
 50
135.000000
 51
225.000000
 0
LINE
 8
051
 62
11
 10
1393.254784
 20
-2538.998371
 11
1394.315444
 21
-2537.937711
 0
LINE
 8
051
 62
11
 10
1393.961890
 20
-2539.705478
 11
1393.254784
 21
-2538.998371
 0
LINE
 8
051
 62
11
 10
1395.022551
 20
-2538.644817
 11
1393.961890
 21
-2539.705478
 0
ARC
 8
051
 62
11
 10
1395.376104
 20
-2538.998371
 40
0.500000
 50
45.000000
 51
135.000000
 0
LINE
 8
051
 62
11
 10
1396.790318
 20
-2539.705478
 11
1395.729657
 21
-2538.644817
 0
LINE
 8
051
 62
11
 10
1397.497424
 20
-2538.998371
 11
1396.436764
 21
-2537.937711
 0
LINE
 8
051
 62
11
 10
1396.436764
 20
-2537.230604
 11
1397.497424
 21
-2536.169944
 0
ARC
 8
051
 62
11
 10
1393.961890
 20
-2537.584157
 40
0.500000
 50
315.000000
 51
45.000000
 0
LINE
 8
051
 62
11
 10
1394.315444
 20
-2537.230604
 11
1393.254784
 21
-2536.169944
 0
LINE
 8
051
 62
11
 10
1393.254784
 20
-2536.169944
 11
1393.961890
 21
-2535.462837
 0
LINE
 8
051
 62
11
 10
1395.022551
 20
-2536.523497
 11
1393.961890
 21
-2535.462837
 0
ARC
 8
051
 62
11
 10
1395.376104
 20
-2536.169944
 40
0.500000
 50
225.000000
 51
315.000000
 0
LINE
 8
051
 62
11
 10
1395.729657
 20
-2536.523497
 11
1396.790318
 21
-2535.462837
 0
LINE
 8
051
 62
11
 10
1396.790318
 20
-2535.462837
 11
1397.497424
 21
-2536.169944
 0
LINE
 8
051
 62
11
 10
1397.497424
 20
-2538.998371
 11
1396.790318
 21
-2539.705478
 0
LINE
 8
061
 6
DASHED
 62
15
 10
1195.376104
 20
-2519.584157
 11
1555.376104
 21
-2519.584157
  0
POLYLINE
  8
061
  6
DASHED
 62
15
 66
1
  0
VERTEX
  8
061
  6
DASHED
 62
15
 10
1552.876104
 20
-2509.584157
  0
VERTEX
  8
061
  6
DASHED
 62
15
 10
1553.016104
 20
-2511.584157
  0
VERTEX
  8
061
  6
DASHED
 62
15
 10
1553.396104
 20
-2513.584157
  0
VERTEX
  8
061
  6
DASHED
 62
15
 10
1553.956104
 20
-2515.584157
  0
VERTEX
  8
061
  6
DASHED
 62
15
 10
1554.636104
 20
-2517.584157
  0
VERTEX
  8
061
  6
DASHED
 62
15
 10
1555.376104
 20
-2519.584157
  0
VERTEX
  8
061
  6
DASHED
 62
15
 10
1556.116104
 20
-2521.584157
  0
VERTEX
  8
061
  6
DASHED
 62
15
 10
1556.796104
 20
-2523.584157
  0
VERTEX
  8
061
  6
DASHED
 62
15
 10
1557.356104
 20
-2525.584157
  0
VERTEX
  8
061
  6
DASHED
 62
15
 10
1557.736104
 20
-2527.584157
  0
VERTEX
  8
061
  6
DASHED
 62
15
 10
1557.876104
 20
-2529.584157
  0
VERTEX
  8
061
  6
DASHED
 62
15
 10
1557.736104
 20
-2531.584157
  0
VERTEX
  8
061
  6
DASHED
 62
15
 10
1557.356104
 20
-2533.584157
  0
VERTEX
  8
061
  6
DASHED
 62
15
 10
1556.796104
 20
-2535.584157
  0
VERTEX
  8
061
  6
DASHED
 62
15
 10
1556.116104
 20
-2537.584157
  0
VERTEX
  8
061
  6
DASHED
 62
15
 10
1555.376104
 20
-2539.584157
  0
VERTEX
  8
061
  6
DASHED
 62
15
 10
1554.636104
 20
-2541.584157
  0
VERTEX
  8
061
  6
DASHED
 62
15
 10
1553.956104
 20
-2543.584157
  0
VERTEX
  8
061
  6
DASHED
 62
15
 10
1553.396104
 20
-2545.584157
  0
VERTEX
  8
061
  6
DASHED
 62
15
 10
1553.016104
 20
-2547.584157
  0
VERTEX
  8
061
  6
DASHED
 62
15
 10
1552.876104
 20
-2549.584157
  0
VERTEX
  8
061
  6
DASHED
 62
15
 10
1553.016104
 20
-2551.584157
  0
VERTEX
  8
061
  6
DASHED
 62
15
 10
1553.396104
 20
-2553.584157
  0
VERTEX
  8
061
  6
DASHED
 62
15
 10
1553.956104
 20
-2555.584157
  0
VERTEX
  8
061
  6
DASHED
 62
15
 10
1554.636104
 20
-2557.584157
  0
VERTEX
  8
061
  6
DASHED
 62
15
 10
1555.376104
 20
-2559.584157
  0
VERTEX
  8
061
  6
DASHED
 62
15
 10
1556.116104
 20
-2561.584157
  0
VERTEX
  8
061
  6
DASHED
 62
15
 10
1556.796104
 20
-2563.584157
  0
VERTEX
  8
061
  6
DASHED
 62
15
 10
1557.356104
 20
-2565.584157
  0
VERTEX
  8
061
  6
DASHED
 62
15
 10
1557.736104
 20
-2567.584157
  0
VERTEX
  8
061
  6
DASHED
 62
15
 10
1557.876104
 20
-2569.584157
  0
SEQEND
  8
061
 0
LINE
 8
061
 6
DASHED
 62
15
 10
1195.376104
 20
-2559.584157
 11
1555.376104
 21
-2559.584157
 0
LINE
 8
061
 6
DASHED
 62
15
 10
1548.560930
 20
-2559.584157
 11
1553.636625
 21
-2554.508463
 0
LINE
 8
061
 6
DASHED
 62
15
 10
1534.418794
 20
-2559.584157
 11
1555.943359
 21
-2538.059593
 0
LINE
 8
061
 6
DASHED
 62
15
 10
1520.276659
 20
-2559.584157
 11
1556.669609
 21
-2523.191207
 0
LINE
 8
061
 6
DASHED
 62
15
 10
1506.134523
 20
-2559.584157
 11
1546.134523
 21
-2519.584157
 0
LINE
 8
061
 6
DASHED
 62
15
 10
1491.992387
 20
-2559.584157
 11
1531.992387
 21
-2519.584157
 0
LINE
 8
061
 6
DASHED
 62
15
 10
1477.850252
 20
-2559.584157
 11
1517.850252
 21
-2519.584157
 0
LINE
 8
061
 6
DASHED
 62
15
 10
1463.708116
 20
-2559.584157
 11
1503.708116
 21
-2519.584157
 0
LINE
 8
061
 6
DASHED
 62
15
 10
1449.565981
 20
-2559.584157
 11
1489.565981
 21
-2519.584157
 0
LINE
 8
061
 6
DASHED
 62
15
 10
1435.423845
 20
-2559.584157
 11
1475.423845
 21
-2519.584157
 0
LINE
 8
061
 6
DASHED
 62
15
 10
1421.281709
 20
-2559.584157
 11
1461.281709
 21
-2519.584157
 0
LINE
 8
061
 6
DASHED
 62
15
 10
1407.139574
 20
-2559.584157
 11
1447.139574
 21
-2519.584157
 0
LINE
 8
061
 6
DASHED
 62
15
 10
1392.997438
 20
-2559.584157
 11
1432.997438
 21
-2519.584157
 0
LINE
 8
061
 6
DASHED
 62
15
 10
1378.855302
 20
-2559.584157
 11
1418.855302
 21
-2519.584157
 0
LINE
 8
061
 6
DASHED
 62
15
 10
1364.713167
 20
-2559.584157
 11
1404.713167
 21
-2519.584157
 0
LINE
 8
061
 6
DASHED
 62
15
 10
1350.571031
 20
-2559.584157
 11
1390.571031
 21
-2519.584157
 0
LINE
 8
061
 6
DASHED
 62
15
 10
1336.428896
 20
-2559.584157
 11
1376.428896
 21
-2519.584157
 0
LINE
 8
061
 6
DASHED
 62
15
 10
1322.286760
 20
-2559.584157
 11
1362.286760
 21
-2519.584157
 0
LINE
 8
061
 6
DASHED
 62
15
 10
1308.144624
 20
-2559.584157
 11
1348.144624
 21
-2519.584157
 0
LINE
 8
061
 6
DASHED
 62
15
 10
1294.002489
 20
-2559.584157
 11
1334.002489
 21
-2519.584157
 0
LINE
 8
061
 6
DASHED
 62
15
 10
1279.860353
 20
-2559.584157
 11
1319.860353
 21
-2519.584157
 0
LINE
 8
061
 6
DASHED
 62
15
 10
1265.718217
 20
-2559.584157
 11
1305.718217
 21
-2519.584157
 0
LINE
 8
061
 6
DASHED
 62
15
 10
1251.576082
 20
-2559.584157
 11
1291.576082
 21
-2519.584157
 0
LINE
 8
061
 6
DASHED
 62
15
 10
1237.433946
 20
-2559.584157
 11
1277.433946
 21
-2519.584157
 0
LINE
 8
061
 6
DASHED
 62
15
 10
1223.291811
 20
-2559.584157
 11
1263.291811
 21
-2519.584157
 0
LINE
 8
061
 6
DASHED
 62
15
 10
1209.149675
 20
-2559.584157
 11
1249.149675
 21
-2519.584157
 0
LINE
 8
061
 6
DASHED
 62
15
 10
1195.596705
 20
-2558.994991
 11
1235.007539
 21
-2519.584157
 0
LINE
 8
061
 6
DASHED
 62
15
 10
1196.812248
 20
-2543.637313
 11
1220.865404
 21
-2519.584157
 0
LINE
 8
061
 6
DASHED
 62
15
 10
1193.271573
 20
-2533.035852
 11
1206.723268
 21
-2519.584157
  0
POLYLINE
  8
061
  6
DASHED
 62
15
 66
1
  0
VERTEX
  8
061
  6
DASHED
 62
15
 10
2204.857905
 20
-2509.584157
  0
VERTEX
  8
061
  6
DASHED
 62
15
 10
2204.997905
 20
-2511.584157
  0
VERTEX
  8
061
  6
DASHED
 62
15
 10
2205.377905
 20
-2513.584157
  0
VERTEX
  8
061
  6
DASHED
 62
15
 10
2205.937905
 20
-2515.584157
  0
VERTEX
  8
061
  6
DASHED
 62
15
 10
2206.617905
 20
-2517.584157
  0
VERTEX
  8
061
  6
DASHED
 62
15
 10
2207.357905
 20
-2519.584157
  0
VERTEX
  8
061
  6
DASHED
 62
15
 10
2208.097905
 20
-2521.584157
  0
VERTEX
  8
061
  6
DASHED
 62
15
 10
2208.777905
 20
-2523.584157
  0
VERTEX
  8
061
  6
DASHED
 62
15
 10
2209.337905
 20
-2525.584157
  0
VERTEX
  8
061
  6
DASHED
 62
15
 10
2209.717905
 20
-2527.584157
  0
VERTEX
  8
061
  6
DASHED
 62
15
 10
2209.857905
 20
-2529.584157
  0
VERTEX
  8
061
  6
DASHED
 62
15
 10
2209.717905
 20
-2531.584157
  0
VERTEX
  8
061
  6
DASHED
 62
15
 10
2209.337905
 20
-2533.584157
  0
VERTEX
  8
061
  6
DASHED
 62
15
 10
2208.777905
 20
-2535.584157
  0
VERTEX
  8
061
  6
DASHED
 62
15
 10
2208.097905
 20
-2537.584157
  0
VERTEX
  8
061
  6
DASHED
 62
15
 10
2207.357905
 20
-2539.584157
  0
VERTEX
  8
061
  6
DASHED
 62
15
 10
2206.617905
 20
-2541.584157
  0
VERTEX
  8
061
  6
DASHED
 62
15
 10
2205.937905
 20
-2543.584157
  0
VERTEX
  8
061
  6
DASHED
 62
15
 10
2205.377905
 20
-2545.584157
  0
VERTEX
  8
061
  6
DASHED
 62
15
 10
2204.997905
 20
-2547.584157
  0
VERTEX
  8
061
  6
DASHED
 62
15
 10
2204.857905
 20
-2549.584157
  0
VERTEX
  8
061
  6
DASHED
 62
15
 10
2204.997905
 20
-2551.584157
  0
VERTEX
  8
061
  6
DASHED
 62
15
 10
2205.377905
 20
-2553.584157
  0
VERTEX
  8
061
  6
DASHED
 62
15
 10
2205.937905
 20
-2555.584157
  0
VERTEX
  8
061
  6
DASHED
 62
15
 10
2206.617905
 20
-2557.584157
  0
VERTEX
  8
061
  6
DASHED
 62
15
 10
2207.357905
 20
-2559.584157
  0
VERTEX
  8
061
  6
DASHED
 62
15
 10
2208.097905
 20
-2561.584157
  0
VERTEX
  8
061
  6
DASHED
 62
15
 10
2208.777905
 20
-2563.584157
  0
VERTEX
  8
061
  6
DASHED
 62
15
 10
2209.337905
 20
-2565.584157
  0
VERTEX
  8
061
  6
DASHED
 62
15
 10
2209.717905
 20
-2567.584157
  0
VERTEX
  8
061
  6
DASHED
 62
15
 10
2209.857905
 20
-2569.584157
  0
SEQEND
  8
061
 0
LINE
 8
061
 6
DASHED
 62
15
 10
2195.251406
 20
-2559.584157
 11
2204.863518
 21
-2549.972045
 0
LINE
 8
061
 6
DASHED
 62
15
 10
2181.109270
 20
-2559.584157
 11
2209.794779
 21
-2530.898648
 0
LINE
 8
061
 6
DASHED
 62
15
 10
2166.967134
 20
-2559.584157
 11
2206.967134
 21
-2519.584157
 0
LINE
 8
061
 6
DASHED
 62
15
 10
2152.824999
 20
-2559.584157
 11
2192.824999
 21
-2519.584157
 0
LINE
 8
061
 6
DASHED
 62
15
 10
2138.682863
 20
-2559.584157
 11
2178.682863
 21
-2519.584157
 0
LINE
 8
061
 6
DASHED
 62
15
 10
2124.540727
 20
-2559.584157
 11
2164.540727
 21
-2519.584157
 0
LINE
 8
061
 6
DASHED
 62
15
 10
2110.398592
 20
-2559.584157
 11
2150.398592
 21
-2519.584157
 0
LINE
 8
061
 6
DASHED
 62
15
 10
2096.256456
 20
-2559.584157
 11
2136.256456
 21
-2519.584157
 0
LINE
 8
061
 6
DASHED
 62
15
 10
2082.114321
 20
-2559.584157
 11
2122.114321
 21
-2519.584157
 0
LINE
 8
061
 6
DASHED
 62
15
 10
2067.972185
 20
-2559.584157
 11
2107.972185
 21
-2519.584157
 0
LINE
 8
061
 6
DASHED
 62
15
 10
2053.830049
 20
-2559.584157
 11
2093.830049
 21
-2519.584157
 0
LINE
 8
061
 6
DASHED
 62
15
 10
2039.687914
 20
-2559.584157
 11
2079.687914
 21
-2519.584157
 0
LINE
 8
061
 6
DASHED
 62
15
 10
2025.545778
 20
-2559.584157
 11
2065.545778
 21
-2519.584157
 0
LINE
 8
061
 6
DASHED
 62
15
 10
2011.403642
 20
-2559.584157
 11
2051.403642
 21
-2519.584157
 0
LINE
 8
061
 6
DASHED
 62
15
 10
1997.261507
 20
-2559.584157
 11
2037.261507
 21
-2519.584157
 0
LINE
 8
061
 6
DASHED
 62
15
 10
1983.119371
 20
-2559.584157
 11
2023.119371
 21
-2519.584157
 0
LINE
 8
061
 6
DASHED
 62
15
 10
1968.977236
 20
-2559.584157
 11
2008.977236
 21
-2519.584157
 0
LINE
 8
061
 6
DASHED
 62
15
 10
1954.835100
 20
-2559.584157
 11
1994.835100
 21
-2519.584157
 0
LINE
 8
061
 6
DASHED
 62
15
 10
1940.692964
 20
-2559.584157
 11
1980.692964
 21
-2519.584157
 0
LINE
 8
061
 6
DASHED
 62
15
 10
1926.550829
 20
-2559.584157
 11
1966.550829
 21
-2519.584157
 0
LINE
 8
061
 6
DASHED
 62
15
 10
1912.408693
 20
-2559.584157
 11
1952.408693
 21
-2519.584157
 0
LINE
 8
061
 6
DASHED
 62
15
 10
1898.266557
 20
-2559.584157
 11
1938.266557
 21
-2519.584157
 0
LINE
 8
061
 6
DASHED
 62
15
 10
1884.124422
 20
-2559.584157
 11
1924.124422
 21
-2519.584157
 0
LINE
 8
061
 6
DASHED
 62
15
 10
1869.982286
 20
-2559.584157
 11
1909.982286
 21
-2519.584157
 0
LINE
 8
061
 6
DASHED
 62
15
 10
1855.840151
 20
-2559.584157
 11
1895.840151
 21
-2519.584157
 0
LINE
 8
061
 6
DASHED
 62
15
 10
1841.698015
 20
-2559.584157
 11
1881.698015
 21
-2519.584157
 0
LINE
 8
061
 6
DASHED
 62
15
 10
1827.555879
 20
-2559.584157
 11
1867.555879
 21
-2519.584157
 0
LINE
 8
061
 6
DASHED
 62
15
 10
1826.531015
 20
-2546.466886
 11
1853.413744
 21
-2519.584157
 0
LINE
 8
061
 6
DASHED
 62
15
 10
1823.018852
 20
-2535.836914
 11
1839.271608
 21
-2519.584157
 0
LINE
 8
061
 6
DASHED
 62
15
 10
1823.898877
 20
-2520.814753
 11
1825.129472
 21
-2519.584157
 0
LINE
 8
061
 6
DASHED
 62
15
 10
1824.357905
 20
-2559.584157
 11
2207.357905
 21
-2559.584157
 0
LINE
 8
061
 6
DASHED
 62
15
 10
1824.357905
 20
-2519.584157
 11
2207.357905
 21
-2519.584157
 0
TEXT
 8
061
 62
3
 10
2386.206704
 20
-1753.215184
 40
17.999994
 1
仕様
 41
0.740741
 7
STANDARD
 0
LINE
 8
061
 62
2
 10
2117.552180
 20
-1881.268020
 11
2112.247127
 21
-1875.962967
 0
LINE
 8
061
 62
2
 10
2117.552180
 20
-1886.924874
 11
2106.590272
 21
-1875.962967
 0
LINE
 8
061
 62
2
 10
2117.552180
 20
-1892.581728
 11
2100.933418
 21
-1875.962967
 0
LINE
 8
061
 62
2
 10
2117.552180
 20
-1898.238583
 11
2095.276564
 21
-1875.962967
 0
LINE
 8
061
 62
2
 10
2117.552180
 20
-1903.895437
 11
2105.552180
 21
-1891.895437
 0
LINE
 8
061
 62
2
 10
2101.619710
 20
-1887.962967
 11
2089.619710
 21
-1875.962967
 0
LINE
 8
061
 62
2
 10
2117.552180
 20
-1909.552291
 11
2105.552180
 21
-1897.552291
 0
LINE
 8
061
 62
2
 10
2095.962855
 20
-1887.962967
 11
2083.962855
 21
-1875.962967
 0
LINE
 8
061
 62
2
 10
2117.552180
 20
-1915.209145
 11
2105.552180
 21
-1903.209145
 0
LINE
 8
061
 62
2
 10
2090.306001
 20
-1887.962967
 11
2078.306001
 21
-1875.962967
 0
LINE
 8
061
 62
2
 10
2116.649147
 20
-1919.962967
 11
2105.552180
 21
-1908.866000
 0
LINE
 8
061
 62
2
 10
2084.649147
 20
-1887.962967
 11
2072.649147
 21
-1875.962967
 0
LINE
 8
061
 62
2
 10
2110.992293
 20
-1919.962967
 11
2105.552180
 21
-1914.522854
 0
LINE
 8
061
 62
2
 10
2078.992293
 20
-1887.962967
 11
2066.992293
 21
-1875.962967
 0
LINE
 8
061
 62
2
 10
2073.335438
 20
-1887.962967
 11
2067.254231
 21
-1881.881760
 0
LINE
 8
061
 62
2
 10
2117.552180
 20
-2039.659939
 11
2113.455208
 21
-2035.562967
 0
LINE
 8
061
 62
2
 10
2117.552180
 20
-2045.316793
 11
2107.798353
 21
-2035.562967
 0
LINE
 8
061
 62
2
 10
2117.552180
 20
-2050.973647
 11
2105.552180
 21
-2038.973647
 0
LINE
 8
061
 62
2
 10
2117.552180
 20
-2056.630502
 11
2105.552180
 21
-2044.630502
 0
LINE
 8
061
 62
2
 10
2121.552180
 20
-2066.287356
 11
2118.827791
 21
-2063.562967
 0
LINE
 8
061
 62
2
 10
2117.552180
 20
-2062.287356
 11
2105.552180
 21
-2050.287356
 0
LINE
 8
061
 62
2
 10
2121.552180
 20
-2071.944210
 11
2105.552180
 21
-2055.944210
 0
LINE
 8
061
 62
2
 10
2121.552180
 20
-2077.601064
 11
2105.552180
 21
-2061.601064
 0
LINE
 8
061
 62
2
 10
2121.110668
 20
-2082.816407
 11
2103.704704
 21
-2065.410443
 0
LINE
 8
061
 62
2
 10
2116.200374
 20
-2083.562967
 11
2101.552180
 21
-2068.914773
 0
LINE
 8
061
 62
2
 10
2110.543519
 20
-2083.562967
 11
2101.552180
 21
-2074.571627
 0
LINE
 8
061
 62
2
 10
2104.886665
 20
-2083.562967
 11
2101.552180
 21
-2080.228481
 0
LINE
 8
061
 62
2
 10
2222.709225
 20
-2071.277879
 11
2214.994313
 21
-2063.562967
 0
LINE
 8
061
 62
2
 10
2217.337459
 20
-2071.562967
 11
2209.337459
 21
-2063.562967
 0
LINE
 8
061
 62
2
 10
2211.680604
 20
-2071.562967
 11
2203.680604
 21
-2063.562967
 0
LINE
 8
061
 62
2
 10
2206.023750
 20
-2071.562967
 11
2198.023750
 21
-2063.562967
 0
LINE
 8
061
 62
2
 10
2200.366896
 20
-2071.562967
 11
2192.366896
 21
-2063.562967
 0
LINE
 8
061
 62
2
 10
2194.710042
 20
-2071.562967
 11
2189.552180
 21
-2066.405105
 0
LINE
 8
061
 62
2
 10
2133.552180
 20
-2055.659939
 11
2133.455208
 21
-2055.562967
 0
LINE
 8
061
 62
2
 10
2133.552180
 20
-2061.316793
 11
2127.798353
 21
-2055.562967
 0
LINE
 8
061
 62
2
 10
2130.141499
 20
-2063.562967
 11
2122.141499
 21
-2055.562967
 0
LINE
 8
061
 62
2
 10
2124.484645
 20
-2063.562967
 11
2117.552180
 21
-2056.630502
 0
LINE
 8
061
 62
2
 10
2118.827791
 20
-2063.562967
 11
2117.552180
 21
-2062.287356
 0
LINE
 8
071
 62
6
 10
1453.348337
 20
-2644.584543
 11
1452.931659
 21
-2629.584157
 0
LINE
 8
071
 62
6
 10
1453.348337
 20
-2644.584543
 11
1454.376104
 21
-2645.584157
 0
LINE
 8
071
 62
6
 10
1473.403871
 20
-2644.584543
 11
1473.820548
 21
-2629.584157
 0
LINE
 8
071
 62
6
 10
1473.403871
 20
-2644.584543
 11
1472.376104
 21
-2645.584157
 0
LINE
 8
071
 62
6
 10
1453.348337
 20
-2644.584543
 11
1473.403871
 21
-2644.584543
 0
LINE
 8
071
 62
6
 10
1452.376104
 20
-2629.584157
 11
1474.376104
 21
-2629.584157
 0
LINE
 8
071
 62
6
 10
1468.126104
 20
-2614.584157
 11
1468.126104
 21
-2629.584157
 0
LINE
 8
071
 62
6
 10
1458.626104
 20
-2629.584157
 11
1458.626104
 21
-2614.584157
 0
LINE
 8
071
 62
6
 10
1452.376104
 20
-2614.584157
 11
1452.376104
 21
-2629.584157
 0
LINE
 8
071
 62
6
 10
1474.376104
 20
-2614.584157
 11
1474.376104
 21
-2629.584157
 0
LINE
 8
071
 62
6
 10
1454.376104
 20
-2645.584157
 11
1472.376104
 21
-2645.584157
 0
LINE
 8
071
 62
6
 10
1940.270138
 20
-2644.584543
 11
1939.853460
 21
-2629.584157
 0
LINE
 8
071
 62
6
 10
1940.270138
 20
-2644.584543
 11
1941.297905
 21
-2645.584157
 0
LINE
 8
071
 62
6
 10
1960.325672
 20
-2644.584543
 11
1960.742349
 21
-2629.584157
 0
LINE
 8
071
 62
6
 10
1960.325672
 20
-2644.584543
 11
1959.297905
 21
-2645.584157
 0
LINE
 8
071
 62
6
 10
1940.270138
 20
-2644.584543
 11
1960.325672
 21
-2644.584543
 0
LINE
 8
071
 62
6
 10
1939.297905
 20
-2629.584157
 11
1961.297905
 21
-2629.584157
 0
LINE
 8
071
 62
6
 10
1939.297905
 20
-2614.584157
 11
1939.297905
 21
-2629.584157
 0
LINE
 8
071
 62
6
 10
1961.297905
 20
-2614.584157
 11
1961.297905
 21
-2629.584157
 0
LINE
 8
071
 62
6
 10
1941.297905
 20
-2645.584157
 11
1959.297905
 21
-2645.584157
 0
LINE
 8
081
 62
11
 10
1375.426104
 20
-2620.234157
 11
1331.326104
 21
-2620.234157
 0
ARC
 8
081
 62
11
 10
1331.326104
 20
-2618.234157
 40
2.000000
 50
180.000000
 51
270.000000
 0
LINE
 8
081
 62
11
 10
1329.326104
 20
-2614.584157
 11
1329.326104
 21
-2618.234157
 0
LINE
 8
081
 62
11
 10
1377.426104
 20
-2614.584157
 11
1377.426104
 21
-2618.234157
 0
ARC
 8
081
 62
11
 10
1375.426104
 20
-2618.234157
 40
2.000000
 50
270.000000
 51
0.000000
 0
LINE
 8
081
 6
DASHED
 62
11
 10
1329.326104
 20
-2614.584157
 11
1329.326104
 21
-2596.734157
 0
LINE
 8
081
 6
DASHED
 62
11
 10
1328.326104
 20
-2610.734157
 11
1329.326104
 21
-2610.734157
 0
ARC
 8
081
 6
DASHED
 62
11
 10
1328.326104
 20
-2610.234157
 40
0.500000
 50
180.000000
 51
270.000000
 0
LINE
 8
081
 6
DASHED
 62
11
 10
1327.826104
 20
-2610.234157
 11
1327.826104
 21
-2604.734157
 0
ARC
 8
081
 6
DASHED
 62
11
 10
1328.326104
 20
-2604.734157
 40
0.500000
 50
90.000000
 51
180.000000
 0
LINE
 8
081
 6
DASHED
 62
11
 10
1328.326104
 20
-2604.234157
 11
1329.326104
 21
-2604.234157
 0
ARC
 8
081
 6
DASHED
 62
11
 10
1331.326104
 20
-2596.734157
 40
2.000000
 50
90.000000
 51
180.000000
 0
LINE
 8
081
 6
DASHED
 62
11
 10
1375.426104
 20
-2594.734157
 11
1331.326104
 21
-2594.734157
 0
ARC
 8
081
 6
DASHED
 62
11
 10
1375.426104
 20
-2596.734157
 40
2.000000
 50
0.000000
 51
90.000000
 0
LINE
 8
081
 6
DASHED
 62
11
 10
1377.426104
 20
-2614.584157
 11
1377.426104
 21
-2596.734157
 0
ARC
 8
081
 62
11
 10
1931.857905
 20
-2607.484157
 40
12.750000
 50
218.862310
 51
305.699167
 0
ARC
 8
081
 6
DASHED
 62
11
 10
1931.857905
 20
-2607.484157
 40
12.750000
 50
305.699167
 51
218.862310
 0
LINE
 8
081
 6
DASHED
 62
11
 10
1378.926104
 20
-2614.584157
 11
1378.926104
 21
-2596.734157
 0
ARC
 8
081
 6
DASHED
 62
11
 10
1380.926104
 20
-2596.734157
 40
2.000000
 50
90.000000
 51
180.000000
 0
LINE
 8
081
 6
DASHED
 62
11
 10
1425.026104
 20
-2594.734157
 11
1380.926104
 21
-2594.734157
 0
LINE
 8
081
 6
DASHED
 62
11
 10
1377.426104
 20
-2610.234157
 11
1377.426104
 21
-2604.734157
 0
ARC
 8
081
 6
DASHED
 62
11
 10
1377.926104
 20
-2610.234157
 40
0.500000
 50
180.000000
 51
270.000000
 0
ARC
 8
081
 6
DASHED
 62
11
 10
1377.926104
 20
-2604.734157
 40
0.500000
 50
90.000000
 51
180.000000
 0
LINE
 8
081
 6
DASHED
 62
11
 10
1377.926104
 20
-2604.234157
 11
1378.926104
 21
-2604.234157
 0
LINE
 8
081
 6
DASHED
 62
11
 10
1377.926104
 20
-2610.734157
 11
1378.926104
 21
-2610.734157
 0
ARC
 8
081
 6
DASHED
 62
11
 10
1425.026104
 20
-2596.734157
 40
2.000000
 50
0.000000
 51
90.000000
 0
LINE
 8
081
 6
DASHED
 62
11
 10
1427.026104
 20
-2614.584157
 11
1427.026104
 21
-2596.734157
 0
LINE
 8
081
 62
11
 10
1427.026104
 20
-2614.584157
 11
1427.026104
 21
-2618.234157
 0
ARC
 8
081
 62
11
 10
1425.026104
 20
-2618.234157
 40
2.000000
 50
270.000000
 51
0.000000
 0
LINE
 8
081
 62
11
 10
1425.026104
 20
-2620.234157
 11
1380.926104
 21
-2620.234157
 0
ARC
 8
081
 62
11
 10
1380.926104
 20
-2618.234157
 40
2.000000
 50
180.000000
 51
270.000000
 0
LINE
 8
081
 62
11
 10
1378.926104
 20
-2614.584157
 11
1378.926104
 21
-2618.234157
 0
TEXT
 8
081
 10
2524.864121
 20
-2859.808750
 40
16.000000
 1
本機器は防火性能評定品であり、周囲に可燃物がある場合は
 41
0.716146
 7
STANDARD
 0
TEXT
 8
081
 10
2524.864121
 20
-2880.433750
 40
16.000000
 1
防火性能評定品ラベル内容に従って設置してください。
 41
0.716146
 7
STANDARD
 0
LINE
 8
091
 62
9
 10
1432.226104
 20
-2615.484157
 11
1430.226104
 21
-2615.484157
 0
LINE
 8
091
 62
9
 10
1324.626104
 20
-2615.484157
 11
1322.626104
 21
-2615.484157
 0
LINE
 8
091
 62
9
 10
1359.243322
 20
-2618.484157
 11
1342.008886
 21
-2618.484157
 0
ARC
 8
091
 62
9
 10
1359.243322
 20
-2617.484157
 40
1.000000
 50
270.000000
 51
352.874984
 0
ARC
 8
091
 62
9
 10
1342.008886
 20
-2617.484157
 40
1.000000
 50
187.125016
 51
270.000000
 0
LINE
 8
091
 62
9
 10
1322.626104
 20
-2614.584157
 11
1322.626104
 21
-2615.484157
 0
LINE
 8
091
 62
9
 10
1324.626104
 20
-2614.584157
 11
1324.626104
 21
-2615.484157
 0
LINE
 8
091
 62
9
 10
1340.638604
 20
-2614.584157
 11
1341.016608
 21
-2617.608192
 0
LINE
 8
091
 62
9
 10
1360.613604
 20
-2614.584157
 11
1360.235600
 21
-2617.608192
 0
LINE
 8
091
 62
9
 10
1432.226104
 20
-2614.584157
 11
1432.226104
 21
-2615.484157
 0
LINE
 8
091
 62
9
 10
1430.226104
 20
-2614.584157
 11
1430.226104
 21
-2615.484157
 0
LINE
 8
091
 6
DASHED
 62
9
 10
1434.226104
 20
-2592.484157
 11
1434.226104
 21
-2612.484157
 0
LINE
 8
091
 6
DASHED
 62
9
 10
1360.626104
 20
-2607.484157
 11
1360.626104
 21
-2614.484157
 0
LINE
 8
091
 6
DASHED
 62
9
 10
1422.226104
 20
-2605.484157
 11
1422.226104
 21
-2607.484157
 0
LINE
 8
091
 6
DASHED
 62
9
 10
1419.226104
 20
-2605.484157
 11
1419.226104
 21
-2607.484157
 0
LINE
 8
091
 6
DASHED
 62
9
 10
1353.126104
 20
-2595.484157
 11
1353.126104
 21
-2592.484157
 0
LINE
 8
091
 6
DASHED
 62
9
 10
1360.626104
 20
-2600.184157
 11
1360.626104
 21
-2595.484157
 0
LINE
 8
091
 6
DASHED
 62
9
 10
1353.126104
 20
-2595.484157
 11
1360.626104
 21
-2595.484157
 0
LINE
 8
091
 6
DASHED
 62
9
 10
1432.226104
 20
-2605.484157
 11
1419.226104
 21
-2605.484157
 0
LINE
 8
091
 6
DASHED
 62
9
 10
1434.226104
 20
-2612.484157
 11
1432.226104
 21
-2612.484157
 0
LINE
 8
091
 6
DASHED
 62
9
 10
1432.226104
 20
-2614.584157
 11
1432.226104
 21
-2592.484157
 0
LINE
 8
091
 6
DASHED
 62
9
 10
1430.226104
 20
-2614.584157
 11
1430.226104
 21
-2607.484157
 0
LINE
 8
091
 6
DASHED
 62
9
 10
1362.613604
 20
-2614.584157
 11
1362.626104
 21
-2614.484157
 0
LINE
 8
091
 6
DASHED
 62
9
 10
1340.626104
 20
-2607.484157
 11
1340.626104
 21
-2614.484157
 0
LINE
 8
091
 6
DASHED
 62
9
 10
1348.126104
 20
-2595.484157
 11
1348.126104
 21
-2592.484157
 0
LINE
 8
091
 6
DASHED
 62
9
 10
1340.626104
 20
-2600.184157
 11
1340.626104
 21
-2595.484157
 0
LINE
 8
091
 6
DASHED
 62
9
 10
1340.626104
 20
-2595.484157
 11
1348.126104
 21
-2595.484157
 0
LINE
 8
091
 6
DASHED
 62
9
 10
1360.626104
 20
-2600.184157
 11
1340.626104
 21
-2600.184157
 0
LINE
 8
091
 6
DASHED
 62
9
 10
1350.626104
 20
-2592.484157
 11
1350.626104
 21
-2600.184157
 0
LINE
 8
091
 6
DASHED
 62
9
 10
1350.626104
 20
-2600.184157
 11
1348.126104
 21
-2595.484157
 0
LINE
 8
091
 6
DASHED
 62
9
 10
1353.126104
 20
-2595.484157
 11
1350.626104
 21
-2600.184157
 0
LINE
 8
091
 6
DASHED
 62
9
 10
1342.638604
 20
-2614.584157
 11
1342.626104
 21
-2614.484157
 0
LINE
 8
091
 6
DASHED
 62
9
 10
1320.626104
 20
-2592.484157
 11
1320.626104
 21
-2612.484157
 0
LINE
 8
091
 6
DASHED
 62
9
 10
1332.626104
 20
-2605.484157
 11
1332.626104
 21
-2607.484157
 0
LINE
 8
091
 6
DASHED
 62
9
 10
1335.626104
 20
-2605.484157
 11
1335.626104
 21
-2607.484157
 0
LINE
 8
091
 6
DASHED
 62
9
 10
1335.626104
 20
-2605.484157
 11
1322.626104
 21
-2605.484157
 0
LINE
 8
091
 6
DASHED
 62
9
 10
1322.626104
 20
-2612.484157
 11
1320.626104
 21
-2612.484157
 0
LINE
 8
091
 6
DASHED
 62
9
 10
1322.626104
 20
-2614.584157
 11
1322.626104
 21
-2592.484157
 0
LINE
 8
091
 6
DASHED
 62
9
 10
1324.626104
 20
-2614.584157
 11
1324.626104
 21
-2607.484157
 0
LINE
 8
091
 6
DASHED
 62
9
 10
1340.626104
 20
-2607.484157
 11
1322.626104
 21
-2607.484157
 0
LINE
 8
091
 6
DASHED
 62
9
 10
1434.226104
 20
-2592.484157
 11
1320.626104
 21
-2592.484157
 0
LINE
 8
091
 62
12
 10
1242.176104
 20
-2666.584157
 11
1508.576104
 21
-2666.584157
 0
LINE
 8
091
 62
12
 10
1217.176104
 20
-2559.584157
 11
1217.176104
 21
-2641.584157
 0
ARC
 8
091
 62
12
 10
1242.176104
 20
-2641.584157
 40
25.000000
 50
180.000000
 51
270.000000
 0
LINE
 8
091
 62
12
 10
1227.176104
 20
-2559.584157
 11
1227.176104
 21
-2631.584157
 0
LINE
 8
091
 62
12
 10
1252.176104
 20
-2656.584157
 11
1498.576104
 21
-2656.584157
 0
ARC
 8
091
 62
12
 10
1242.176104
 20
-2641.584157
 40
18.000000
 50
180.000000
 51
270.000000
 0
LINE
 8
091
 62
12
 10
1242.176104
 20
-2659.584157
 11
1252.176104
 21
-2656.584157
 0
LINE
 8
091
 62
12
 10
1224.176104
 20
-2641.584157
 11
1227.176104
 21
-2631.584157
 0
LINE
 8
091
 62
12
 10
1217.176104
 20
-2559.584157
 11
1227.176104
 21
-2559.584157
 0
LINE
 8
091
 62
12
 10
1533.576104
 20
-2559.584157
 11
1533.576104
 21
-2641.584157
 0
ARC
 8
091
 62
12
 10
1508.576104
 20
-2641.584157
 40
25.000000
 50
270.000000
 51
0.000000
 0
LINE
 8
091
 62
12
 10
1523.576104
 20
-2559.584157
 11
1523.576104
 21
-2631.584157
 0
ARC
 8
091
 62
12
 10
1508.576104
 20
-2641.584157
 40
18.000000
 50
270.000000
 51
0.000000
 0
LINE
 8
091
 62
12
 10
1508.576104
 20
-2659.584157
 11
1498.576104
 21
-2656.584157
 0
LINE
 8
091
 62
12
 10
1526.576104
 20
-2641.584157
 11
1523.576104
 21
-2631.584157
 0
LINE
 8
091
 62
12
 10
1523.576104
 20
-2559.584157
 11
1533.576104
 21
-2559.584157
 0
LINE
 8
091
 62
9
 10
1921.857905
 20
-2618.484157
 11
1921.857905
 21
-2616.712736
 0
ARC
 8
091
 62
9
 10
1933.052349
 20
-2607.484157
 40
15.694444
 50
206.897088
 51
224.498047
 0
ARC
 8
091
 62
9
 10
1934.552349
 20
-2607.484157
 40
15.694444
 50
206.897088
 51
216.016318
 0
LINE
 8
091
 62
9
 10
1939.297905
 20
-2615.484157
 11
1921.049920
 21
-2615.484157
 0
LINE
 8
091
 6
DASHED
 62
9
 10
1939.297905
 20
-2615.484157
 11
1942.665889
 21
-2615.484157
 0
LINE
 8
091
 6
DASHED
 62
9
 10
1941.857905
 20
-2618.484157
 11
1941.857905
 21
-2616.712736
 0
LINE
 8
091
 6
DASHED
 62
9
 10
1915.857905
 20
-2592.484157
 11
1944.857905
 21
-2592.484157
 0
LINE
 8
091
 6
DASHED
 62
9
 10
1915.357905
 20
-2607.484157
 11
1915.357905
 21
-2605.484157
 0
LINE
 8
091
 6
DASHED
 62
9
 10
1948.357905
 20
-2607.484157
 11
1948.357905
 21
-2605.484157
 0
LINE
 8
091
 6
DASHED
 62
9
 10
1915.357905
 20
-2605.484157
 11
1917.357905
 21
-2605.484157
 0
LINE
 8
091
 6
DASHED
 62
9
 10
1946.357905
 20
-2605.484157
 11
1948.357905
 21
-2605.484157
 0
LINE
 8
091
 6
DASHED
 62
9
 10
1915.357905
 20
-2607.484157
 11
1918.857905
 21
-2607.484157
 0
LINE
 8
091
 6
DASHED
 62
9
 10
1944.857905
 20
-2607.484157
 11
1948.357905
 21
-2607.484157
 0
LINE
 8
091
 6
DASHED
 62
9
 10
1917.357905
 20
-2593.984157
 11
1917.357905
 21
-2605.484157
 0
LINE
 8
091
 6
DASHED
 62
9
 10
1946.357905
 20
-2593.984157
 11
1946.357905
 21
-2605.484157
 0
LINE
 8
091
 6
DASHED
 62
9
 10
1916.357905
 20
-2600.184157
 11
1917.357905
 21
-2595.484157
 0
LINE
 8
091
 6
DASHED
 62
9
 10
1947.357905
 20
-2600.184157
 11
1946.357905
 21
-2595.484157
 0
LINE
 8
091
 6
DASHED
 62
9
 10
1915.857905
 20
-2600.184157
 11
1917.357905
 21
-2600.184157
 0
LINE
 8
091
 6
DASHED
 62
9
 10
1946.357905
 20
-2600.184157
 11
1947.357905
 21
-2600.184157
 0
ARC
 8
091
 6
DASHED
 62
9
 10
1944.857905
 20
-2593.984157
 40
1.500000
 50
0.000000
 51
90.000000
 0
ARC
 8
091
 6
DASHED
 62
9
 10
1918.857905
 20
-2593.984157
 40
1.500000
 50
90.000000
 51
180.000000
 0
CIRCLE
 8
091
 6
DASHED
 62
9
 10
1931.857905
 20
-2607.484157
 40
1.600000
 0
LINE
 8
091
 6
DASHED
 62
9
 10
1928.357905
 20
-2610.984157
 11
1935.357905
 21
-2610.984157
 0
LINE
 8
091
 6
DASHED
 62
9
 10
1926.857905
 20
-2612.484157
 11
1936.857905
 21
-2612.484157
 0
LINE
 8
091
 6
DASHED
 62
9
 10
1928.357905
 20
-2597.484157
 11
1928.357905
 21
-2610.984157
 0
LINE
 8
091
 6
DASHED
 62
9
 10
1935.357905
 20
-2597.484157
 11
1935.357905
 21
-2610.984157
 0
LINE
 8
091
 6
DASHED
 62
9
 10
1926.857905
 20
-2592.484157
 11
1926.857905
 21
-2612.484157
 0
LINE
 8
091
 6
DASHED
 62
9
 10
1936.857905
 20
-2592.484157
 11
1936.857905
 21
-2612.484157
 0
LINE
 8
091
 6
DASHED
 62
9
 10
1928.357905
 20
-2597.484157
 11
1935.357905
 21
-2597.484157
 0
LINE
 8
091
 6
DASHED
 62
9
 10
1915.857905
 20
-2592.484157
 11
1915.857905
 21
-2600.184157
 0
LINE
 8
091
 6
DASHED
 62
9
 10
1935.357905
 20
-2597.484157
 11
1935.357905
 21
-2592.484157
 0
LINE
 8
091
 6
DASHED
 62
9
 10
1928.357905
 20
-2597.484157
 11
1928.357905
 21
-2592.484157
 0
LINE
 8
091
 6
DASHED
 62
9
 10
1918.857905
 20
-2607.484157
 11
1918.857905
 21
-2594.484157
 0
LINE
 8
091
 6
DASHED
 62
9
 10
1944.857905
 20
-2607.484157
 11
1944.857905
 21
-2594.484157
 0
LINE
 8
091
 6
DASHED
 62
9
 10
1918.857905
 20
-2594.484157
 11
1944.857905
 21
-2594.484157
 0
ARC
 8
091
 6
DASHED
 62
9
 10
1929.163460
 20
-2607.484157
 40
15.694444
 50
323.983682
 51
0.000000
 0
ARC
 8
091
 6
DASHED
 62
9
 10
1930.663460
 20
-2607.484157
 40
15.694444
 50
315.501953
 51
0.000000
 0
ARC
 8
091
 6
DASHED
 62
9
 10
1934.552349
 20
-2607.484157
 40
15.694444
 50
180.000000
 51
206.897088
 0
ARC
 8
091
 6
DASHED
 62
9
 10
1933.052349
 20
-2607.484157
 40
15.694444
 50
180.000000
 51
206.897088
 0
LINE
 8
091
 62
12
 10
2028.057905
 20
-2666.584157
 11
2065.657905
 21
-2666.584157
 0
LINE
 8
091
 62
12
 10
2026.857905
 20
-2665.384157
 11
2026.857905
 21
-2559.584157
 0
LINE
 8
091
 62
12
 10
2066.857905
 20
-2665.384157
 11
2066.857905
 21
-2559.584157
 0
LINE
 8
091
 62
12
 10
2066.857905
 20
-2559.584157
 11
2026.857905
 21
-2559.584157
 0
ARC
 8
091
 62
12
 10
2065.657905
 20
-2665.384157
 40
1.200000
 50
270.000000
 51
0.000000
 0
ARC
 8
091
 62
12
 10
2028.057905
 20
-2665.384157
 40
1.200000
 50
180.000000
 51
270.000000
 0
LINE
 8
091
 6
DASHED
 62
9
 10
1394.226104
 20
-2607.484157
 11
1394.226104
 21
-2614.484157
 0
LINE
 8
091
 6
DASHED
 62
9
 10
1406.726104
 20
-2595.484157
 11
1406.726104
 21
-2592.484157
 0
LINE
 8
091
 6
DASHED
 62
9
 10
1414.226104
 20
-2600.184157
 11
1414.226104
 21
-2595.484157
 0
LINE
 8
091
 6
DASHED
 62
9
 10
1406.726104
 20
-2595.484157
 11
1414.226104
 21
-2595.484157
 0
LINE
 8
091
 6
DASHED
 62
9
 10
1401.726104
 20
-2595.484157
 11
1401.726104
 21
-2592.484157
 0
LINE
 8
091
 6
DASHED
 62
9
 10
1394.226104
 20
-2600.184157
 11
1394.226104
 21
-2595.484157
 0
LINE
 8
091
 6
DASHED
 62
9
 10
1394.226104
 20
-2595.484157
 11
1401.726104
 21
-2595.484157
 0
LINE
 8
091
 6
DASHED
 62
9
 10
1414.226104
 20
-2600.184157
 11
1394.226104
 21
-2600.184157
 0
LINE
 8
091
 6
DASHED
 62
9
 10
1404.226104
 20
-2592.484157
 11
1404.226104
 21
-2600.184157
 0
LINE
 8
091
 6
DASHED
 62
9
 10
1404.226104
 20
-2600.184157
 11
1401.726104
 21
-2595.484157
 0
LINE
 8
091
 6
DASHED
 62
9
 10
1406.726104
 20
-2595.484157
 11
1404.226104
 21
-2600.184157
 0
LINE
 8
091
 62
9
 10
1394.238604
 20
-2614.584157
 11
1394.616608
 21
-2617.608192
 0
ARC
 8
091
 62
9
 10
1395.608886
 20
-2617.484157
 40
1.000000
 50
187.125016
 51
270.000000
 0
LINE
 8
091
 62
9
 10
1412.843322
 20
-2618.484157
 11
1395.608886
 21
-2618.484157
 0
ARC
 8
091
 62
9
 10
1412.843322
 20
-2617.484157
 40
1.000000
 50
270.000000
 51
352.874984
 0
LINE
 8
091
 62
9
 10
1414.213604
 20
-2614.584157
 11
1413.835600
 21
-2617.608192
 0
LINE
 8
091
 6
DASHED
 62
9
 10
1414.226104
 20
-2607.484157
 11
1414.226104
 21
-2614.484157
 0
LINE
 8
091
 6
DASHED
 62
9
 10
1430.226104
 20
-2607.484157
 11
1414.226104
 21
-2607.484157
 0
LINE
 8
091
 6
DASHED
 62
9
 10
1394.226104
 20
-2607.484157
 11
1362.626104
 21
-2607.484157
 0
ENDSEC
 0
EOF
