  0
SECTION
  2
HEADER
  9
$ACADVER
  1
AC1009
  9
$DWGCODEPAGE
  3
dos932
  9
$INSBASE
 10
0.0
 20
0.0
 30
0.0
  9
$EXTMIN
 10
-97.10673963296617
 20
-44.8803805108338
 30
0.0
  9
$EXTMAX
 10
161.0314936867081
 20
137.0137104595024
 30
0.0
  9
$LIMMIN
 10
0.0
 20
0.0
  9
$LIMMAX
 10
12.0
 20
9.0
  9
$ORTHOMODE
 70
     0
  9
$REGENMODE
 70
     1
  9
$FILLMODE
 70
     1
  9
$QTEXTMODE
 70
     0
  9
$MIRRTEXT
 70
     1
  9
$DRAGMODE
 70
     2
  9
$LTSCALE
 40
2.0
  9
$OSMODE
 70
    37
  9
$ATTMODE
 70
     1
  9
$TEXTSIZE
 40
0.2
  9
$TRACEWID
 40
1.0
  9
$TEXTSTYLE
  7
STANDARD
  9
$CLAYER
  8
__
  9
$CELTYPE
  6
BYLAYER
  9
$CECOLOR
 62
   256
  9
$DIMSCALE
 40
1.0
  9
$DIMASZ
 40
4.4896484375
  9
$DIMEXO
 40
3.175
  9
$DIMDLI
 40
20.32
  9
$DIMRND
 40
0.0
  9
$DIMDLE
 40
3.175
  9
$DIMEXE
 40
6.35
  9
$DIMTP
 40
0.0
  9
$DIMTM
 40
0.0
  9
$DIMTXT
 40
1.598524305555549
  9
$DIMCEN
 40
0.0
  9
$DIMTSZ
 40
0.0
  9
$DIMTOL
 70
     0
  9
$DIMLIM
 70
     0
  9
$DIMTIH
 70
     0
  9
$DIMTOH
 70
     0
  9
$DIMSE1
 70
     0
  9
$DIMSE2
 70
     0
  9
$DIMTAD
 70
     1
  9
$DIMZIN
 70
     8
  9
$DIMBLK
  1
VW_SLASH
  9
$DIMASO
 70
     1
  9
$DIMSHO
 70
     1
  9
$DIMPOST
  1
<>
  9
$DIMAPOST
  1
[]
  9
$DIMALT
 70
     0
  9
$DIMALTD
 70
     3
  9
$DIMALTF
 40
0.0393700787401575
  9
$DIMLFAC
 40
1.0
  9
$DIMTOFL
 70
     1
  9
$DIMTVP
 40
0.0
  9
$DIMTIX
 70
     1
  9
$DIMSOXD
 70
     0
  9
$DIMSAH
 70
     0
  9
$DIMBLK1
  1
VW_SLASH
  9
$DIMBLK2
  1
VW_SLASH
  9
$DIMSTYLE
  2
ARCH
  9
$DIMCLRD
 70
     0
  9
$DIMCLRE
 70
     0
  9
$DIMCLRT
 70
     0
  9
$DIMTFAC
 40
1.0
  9
$DIMGAP
 40
3.175
  9
$LUNITS
 70
     2
  9
$LUPREC
 70
     2
  9
$SKETCHINC
 40
0.1
  9
$FILLETRAD
 40
0.0
  9
$AUNITS
 70
     0
  9
$AUPREC
 70
     2
  9
$MENU
  1
.
  9
$ELEVATION
 40
0.0
  9
$PELEVATION
 40
0.0
  9
$THICKNESS
 40
0.0
  9
$LIMCHECK
 70
     0
  9
$CHAMFERA
 40
0.0
  9
$CHAMFERB
 40
0.0
  9
$SKPOLY
 70
     0
  9
$TDCREATE
 40
2460341.506241956
  9
$TDUPDATE
 40
2460341.506264445
  9
$TDINDWG
 40
0.0000000116
  9
$TDUSRTIMER
 40
0.0000000116
  9
$USRTIMER
 70
     1
  9
$ANGBASE
 50
0.0
  9
$ANGDIR
 70
     0
  9
$PDMODE
 70
     1
  9
$PDSIZE
 40
-2.0
  9
$PLINEWID
 40
0.0
  9
$COORDS
 70
     1
  9
$SPLFRAME
 70
     0
  9
$SPLINETYPE
 70
     6
  9
$SPLINESEGS
 70
     8
  9
$ATTDIA
 70
     0
  9
$ATTREQ
 70
     1
  9
$HANDLING
 70
     1
  9
$HANDSEED
  5
60F
  9
$SURFTAB1
 70
     6
  9
$SURFTAB2
 70
     6
  9
$SURFTYPE
 70
     6
  9
$SURFU
 70
     6
  9
$SURFV
 70
     6
  9
$UCSNAME
  2

  9
$UCSORG
 10
0.0
 20
0.0
 30
0.0
  9
$UCSXDIR
 10
1.0
 20
0.0
 30
0.0
  9
$UCSYDIR
 10
0.0
 20
1.0
 30
0.0
  9
$PUCSNAME
  2

  9
$PUCSORG
 10
0.0
 20
0.0
 30
0.0
  9
$PUCSXDIR
 10
1.0
 20
0.0
 30
0.0
  9
$PUCSYDIR
 10
0.0
 20
1.0
 30
0.0
  9
$USERI1
 70
     0
  9
$USERI2
 70
     0
  9
$USERI3
 70
     0
  9
$USERI4
 70
     0
  9
$USERI5
 70
     0
  9
$USERR1
 40
0.0
  9
$USERR2
 40
0.0
  9
$USERR3
 40
0.0
  9
$USERR4
 40
0.0
  9
$USERR5
 40
0.0
  9
$WORLDVIEW
 70
     1
  9
$SHADEDGE
 70
     3
  9
$SHADEDIF
 70
    70
  9
$TILEMODE
 70
     1
  9
$MAXACTVP
 70
    64
  9
$PLIMCHECK
 70
     0
  9
$PEXTMIN
 10
1.000000000000000E+20
 20
1.000000000000000E+20
 30
1.000000000000000E+20
  9
$PEXTMAX
 10
-1.000000000000000E+20
 20
-1.000000000000000E+20
 30
-1.000000000000000E+20
  9
$PLIMMIN
 10
-20.0
 20
-7.5
  9
$PLIMMAX
 10
277.0
 20
202.5
  9
$UNITMODE
 70
     0
  9
$VISRETAIN
 70
     1
  9
$PLINEGEN
 70
     0
  9
$PSLTSCALE
 70
     1
  0
ENDSEC
  0
SECTION
  2
TABLES
  0
TABLE
  2
VPORT
 70
     1
  0
VPORT
  2
*ACTIVE
 70
     0
 10
0.0
 20
0.0
 11
1.0
 21
1.0
 12
31.962377026871
 22
46.0666649743343
 13
0.0
 23
0.0
 14
0.5
 24
0.5
 15
0.5
 25
0.5
 16
0.0
 26
0.0
 36
1.0
 17
0.0
 27
0.0
 37
0.0
 40
181.8940909703362
 41
1.419167780231916
 42
2000.0
 43
0.0
 44
0.0
 50
0.0
 51
0.0
 71
     0
 72
   100
 73
     1
 74
     3
 75
     0
 76
     0
 77
     0
 78
     0
  0
ENDTAB
  0
TABLE
  2
LTYPE
 70
     3
  0
LTYPE
  2
CONTINUOUS
 70
     0
  3
Solid line
 72
    65
 73
     0
 40
0.0
  0
LTYPE
  2
VW-01____
 70
     0
  3

 72
    65
 73
     2
 40
1.0580624
 49
0.5290311999999999
 49
-0.5290311999999999
  0
LTYPE
  2
ISO-07___
 70
     0
  3

 72
    65
 73
     2
 40
0.4445
 49
0.0635
 49
-0.3809999999999999
  0
ENDTAB
  0
TABLE
  2
LAYER
 70
     6
  0
LAYER
  2
0
 70
     0
 62
     7
  6
CONTINUOUS
  0
LAYER
  2
__
 70
     0
 62
     7
  6
CONTINUOUS
  0
LAYER
  2
__-2
 70
     0
 62
     7
  6
CONTINUOUS
  0
LAYER
  2
__-1-1
 70
     0
 62
     7
  6
CONTINUOUS
  0
LAYER
  2
DEFPOINTS
 70
     0
 62
     7
  6
CONTINUOUS
  0
ENDTAB
  0
TABLE
  2
STYLE
 70
     3
  0
STYLE
  2
STANDARD
 70
     0
 40
0.0
 41
1.0
 50
0.0
 71
     0
 42
0.2
  3
txt
  4
BIGFONT.SHX
  0
STYLE
  2
HELVETICA_NEUE
 70
     0
 40
0.0
 41
1.0
 50
0.0
 71
     0
 42
0.2
  3
HelveticaNeue.ttc
  4

  0
STYLE
  2
OSAKA
 70
     0
 40
0.0
 41
1.0
 50
0.0
 71
     0
 42
0.2
  3

  4
Osaka
  0
ENDTAB
  0
TABLE
  2
VIEW
 70
     0
  0
ENDTAB
  0
TABLE
  2
UCS
 70
     0
  0
ENDTAB
  0
TABLE
  2
APPID
 70
     4
  0
APPID
  2
ACAD
 70
     0
  0
APPID
  2
ACCMTRANSPARENCY
 70
     0
  0
APPID
  2
ACAECLAYERSTANDARD
 70
     0
  0
APPID
  2
ACADANNOTATIVE
 70
     0
  0
ENDTAB
  0
TABLE
  2
DIMSTYLE
 70
     3
  0
DIMSTYLE
  2
STANDARD
 70
     0
  3

  4

  5

  6

  7

 40
1.0
 41
0.18
 42
0.0625
 43
0.38
 44
0.18
 45
0.0
 46
0.0
 47
0.0
 48
0.0
140
0.18
141
0.09
142
0.0
143
25.4
144
1.0
145
0.0
146
1.0
147
0.09
 71
     0
 72
     0
 73
     1
 74
     1
 75
     0
 76
     0
 77
     0
 78
     0
170
     0
171
     2
172
     0
173
     0
174
     0
175
     0
176
     0
177
     0
178
     0
  0
DIMSTYLE
  2
___
 70
     0
  3
<>
  4
[]
  5
VW_FILLEDARROW
  6
VW_FILLEDARROW
  7
VW_FILLEDARROW
 40
1.0
 41
0.70693359375
 42
0.9999999999999999
 43
10.16
 44
0.4999999999999999
 45
0.0
 46
0.4999999999999999
 47
0.0
 48
0.0
140
1.598524305555549
141
0.0
142
0.0
143
0.0393700787401575
144
1.0
145
0.0
146
1.0
147
0.9999999999999999
 71
     0
 72
     0
 73
     0
 74
     0
 75
     0
 76
     0
 77
     1
 78
     8
170
     0
171
     3
172
     1
173
     0
174
     1
175
     0
176
     0
177
     0
178
     0
  0
DIMSTYLE
  2
ARCH
 70
     0
  3
<>
  4
[]
  5
VW_SLASH
  6
VW_SLASH
  7
VW_SLASH
 40
1.0
 41
4.4896484375
 42
3.175
 43
20.32
 44
6.35
 45
0.0
 46
3.175
 47
0.0
 48
0.0
140
1.598524305555549
141
0.0
142
0.0
143
0.0393700787401575
144
1.0
145
0.0
146
1.0
147
3.175
 71
     0
 72
     0
 73
     0
 74
     0
 75
     0
 76
     0
 77
     1
 78
     8
170
     0
171
     3
172
     1
173
     0
174
     1
175
     0
176
     0
177
     0
178
     0
  0
ENDTAB
  0
ENDSEC
  0
SECTION
  2
BLOCKS
  0
BLOCK
  8
0
  2
$MODEL_SPACE
 70
     0
 10
0.0
 20
0.0
 30
0.0
  3
$MODEL_SPACE
  1

  0
ENDBLK
  5
21
  8
0
  0
BLOCK
 67
     1
  8
0
  2
$PAPER_SPACE
 70
     0
 10
0.0
 20
0.0
 30
0.0
  3
$PAPER_SPACE
  1

  0
ENDBLK
  5
1D
 67
     1
  8
0
  0
BLOCK
  8
0
  2
*D1
 70
     1
 10
0.0
 20
0.0
 30
0.0
  3
*D1
  1

  0
LINE
  5
AD
  8
__-1-1
  6
CONTINUOUS
 62
     0
 10
-79.20514464079896
 20
79.34309384794038
 30
0.0
 11
-85.70514464079898
 21
79.34309384794038
 31
0.0
  0
LINE
  5
AE
  8
__-1-1
  6
CONTINUOUS
 62
     0
 10
-74.20514464079896
 20
49.34309384794041
 30
0.0
 11
-85.70514464079898
 21
49.34309384794041
 31
0.0
  0
LINE
  5
AF
  8
__-1-1
  6
CONTINUOUS
 62
     0
 10
-85.20514464079898
 20
78.63616025419039
 30
0.0
 11
-85.20514464079898
 21
50.05002744169041
 31
0.0
  0
INSERT
  5
B0
  8
__-1-1
 62
     0
  2
VW_FILLEDARROW
 10
-85.20514464079898
 20
79.34309384794038
 30
0.0
 41
0.70693359375
 42
0.70693359375
 43
0.70693359375
 50
90.0
  0
INSERT
  5
B1
  8
__-1-1
 62
     0
  2
VW_FILLEDARROW
 10
-85.20514464079898
 20
49.34309384794041
 30
0.0
 41
0.70693359375
 42
0.70693359375
 43
0.70693359375
 50
270.0
  0
TEXT
  5
B2
  8
__-1-1
 62
     0
 10
-86.22977176595461
 20
63.11285700493931
 30
0.0
 40
1.598524305555549
  1
30
 50
90.0
  7
HELVETICA_NEUE
1001
ACADANNOTATIVE
1000
AnnotativeData
1002
{
1070
     1
1070
     0
1002
}
  0
POINT
  5
B7
  8
DEFPOINTS
 62
     0
 10
-78.20514464079896
 20
79.34309384794038
 30
0.0
  0
POINT
  5
BC
  8
DEFPOINTS
 62
     0
 10
-73.20514464079896
 20
49.34309384794041
 30
0.0
  0
POINT
  5
BD
  8
DEFPOINTS
 62
     0
 10
-85.20514464079898
 20
49.34309384794041
 30
0.0
  0
ENDBLK
  5
61
  8
0
  0
BLOCK
  8
0
  2
*D2
 70
     1
 10
0.0
 20
0.0
 30
0.0
  3
*D2
  1

  0
LINE
  5
C0
  8
__-1-1
  6
CONTINUOUS
 62
     0
 10
-73.70514464079896
 20
48.34309384794041
 30
0.0
 11
-73.70514464079896
 21
38.63405997454802
 31
0.0
  0
LINE
  5
C1
  8
__-1-1
  6
CONTINUOUS
 62
     0
 10
-53.70514464079897
 20
48.34309384794041
 30
0.0
 11
-53.70514464079897
 21
38.63405997454802
 31
0.0
  0
LINE
  5
C2
  8
__-1-1
  6
CONTINUOUS
 62
     0
 10
-72.99821104704897
 20
39.13405997454802
 30
0.0
 11
-54.41207823454897
 21
39.13405997454802
 31
0.0
  0
INSERT
  5
C3
  8
__-1-1
 62
     0
  2
VW_FILLEDARROW
 10
-73.70514464079896
 20
39.13405997454802
 30
0.0
 41
0.70693359375
 42
0.70693359375
 43
0.70693359375
 50
180.0
  0
INSERT
  5
C4
  8
__-1-1
 62
     0
  2
VW_FILLEDARROW
 10
-53.70514464079897
 20
39.13405997454802
 30
0.0
 41
0.70693359375
 42
0.70693359375
 43
0.70693359375
  0
TEXT
  5
C5
  8
__-1-1
 62
     0
 10
-64.92978440990105
 20
40.15868709970363
 30
0.0
 40
1.598524305555549
  1
20
  7
HELVETICA_NEUE
1001
ACADANNOTATIVE
1000
AnnotativeData
1002
{
1070
     1
1070
     0
1002
}
  0
POINT
  5
CA
  8
DEFPOINTS
 62
     0
 10
-73.70514464079896
 20
49.34309384794041
 30
0.0
  0
POINT
  5
CF
  8
DEFPOINTS
 62
     0
 10
-53.70514464079897
 20
49.34309384794041
 30
0.0
  0
POINT
  5
D0
  8
DEFPOINTS
 62
     0
 10
-53.70514464079897
 20
39.13405997454802
 30
0.0
  0
ENDBLK
  5
64
  8
0
  0
BLOCK
  8
0
  2
*D3
 70
     1
 10
0.0
 20
0.0
 30
0.0
  3
*D3
  1

  0
LINE
  5
D3
  8
__-1-1
  6
CONTINUOUS
 62
     0
 10
-79.70514464079899
 20
113.7180938479404
 30
0.0
 11
-79.70514464079899
 21
116.0930938479404
 31
0.0
  0
LINE
  5
D4
  8
__-1-1
  6
CONTINUOUS
 62
     0
 10
-47.70514464079897
 20
113.7180938479404
 30
0.0
 11
-47.70514464079897
 21
116.0930938479404
 31
0.0
  0
LINE
  5
D5
  8
__-1-1
  6
CONTINUOUS
 62
     0
 10
-78.998211047049
 20
115.5930938479404
 30
0.0
 11
-48.41207823454897
 21
115.5930938479404
 31
0.0
  0
INSERT
  5
D6
  8
__-1-1
 62
     0
  2
VW_FILLEDARROW
 10
-79.70514464079899
 20
115.5930938479404
 30
0.0
 41
0.70693359375
 42
0.70693359375
 43
0.70693359375
 50
180.0
  0
INSERT
  5
D7
  8
__-1-1
 62
     0
  2
VW_FILLEDARROW
 10
-47.70514464079897
 20
115.5930938479404
 30
0.0
 41
0.70693359375
 42
0.70693359375
 43
0.70693359375
  0
TEXT
  5
D8
  8
__-1-1
 62
     0
 10
-64.91299318820404
 20
116.617720973096
 30
0.0
 40
1.598524305555549
  1
32
  7
HELVETICA_NEUE
1001
ACADANNOTATIVE
1000
AnnotativeData
1002
{
1070
     1
1070
     0
1002
}
  0
POINT
  5
DD
  8
DEFPOINTS
 62
     0
 10
-79.70514464079899
 20
112.7180938479404
 30
0.0
  0
POINT
  5
E2
  8
DEFPOINTS
 62
     0
 10
-47.70514464079897
 20
112.7180938479404
 30
0.0
  0
POINT
  5
E3
  8
DEFPOINTS
 62
     0
 10
-47.70514464079897
 20
115.5930938479404
 30
0.0
  0
ENDBLK
  5
67
  8
0
  0
BLOCK
  8
0
  2
*D4
 70
     1
 10
0.0
 20
0.0
 30
0.0
  3
*D4
  1

  0
LINE
  5
E6
  8
__-1-1
  6
CONTINUOUS
 62
     0
 10
-58.20514464079896
 20
60.34309384794041
 30
0.0
 11
-58.20514464079896
 21
63.09309384794039
 31
0.0
  0
LINE
  5
E7
  8
__-1-1
  6
CONTINUOUS
 62
     0
 10
-69.20514464079896
 20
60.34309384794041
 30
0.0
 11
-69.20514464079896
 21
63.09309384794039
 31
0.0
  0
LINE
  5
E8
  8
__-1-1
  6
CONTINUOUS
 62
     0
 10
-58.91207823454896
 20
62.59309384794039
 30
0.0
 11
-68.49821104704897
 21
62.59309384794039
 31
0.0
  0
INSERT
  5
E9
  8
__-1-1
 62
     0
  2
VW_FILLEDARROW
 10
-58.20514464079896
 20
62.59309384794039
 30
0.0
 41
0.70693359375
 42
0.70693359375
 43
0.70693359375
  0
INSERT
  5
EA
  8
__-1-1
 62
     0
  2
VW_FILLEDARROW
 10
-69.20514464079896
 20
62.59309384794039
 30
0.0
 41
0.70693359375
 42
0.70693359375
 43
0.70693359375
 50
180.0
  0
TEXT
  5
EB
  8
__-1-1
 62
     0
 10
-64.82344000581998
 20
63.59309384794039
 30
0.0
 40
1.598524305555549
  1
11
  7
HELVETICA_NEUE
1001
ACADANNOTATIVE
1000
AnnotativeData
1002
{
1070
     1
1070
     0
1002
}
  0
POINT
  5
F0
  8
DEFPOINTS
 62
     0
 10
-58.20514464079896
 20
59.34309384794041
 30
0.0
  0
POINT
  5
F5
  8
DEFPOINTS
 62
     0
 10
-69.20514464079896
 20
59.34309384794041
 30
0.0
  0
POINT
  5
F6
  8
DEFPOINTS
 62
     0
 10
-69.20514464079896
 20
62.59309384794039
 30
0.0
  0
ENDBLK
  5
6A
  8
0
  0
BLOCK
  8
0
  2
*D5
 70
     1
 10
0.0
 20
0.0
 30
0.0
  3
*D5
  1

  0
LINE
  5
F9
  8
__-1-1
  6
CONTINUOUS
 62
     0
 10
-57.20514464079896
 20
49.34309384794041
 30
0.0
 11
-49.40939179982554
 21
49.34309384794041
 31
0.0
  0
LINE
  5
FA
  8
__-1-1
  6
CONTINUOUS
 62
     0
 10
-57.20514464079896
 20
59.34309384794041
 30
0.0
 11
-49.40939179982554
 21
59.34309384794041
 31
0.0
  0
LINE
  5
FB
  8
__-1-1
  6
CONTINUOUS
 62
     0
 10
-49.90939179982554
 20
50.05002744169041
 30
0.0
 11
-49.90939179982554
 21
58.63616025419041
 31
0.0
  0
INSERT
  5
FC
  8
__-1-1
 62
     0
  2
VW_FILLEDARROW
 10
-49.90939179982554
 20
49.34309384794041
 30
0.0
 41
0.70693359375
 42
0.70693359375
 43
0.70693359375
 50
270.0
  0
INSERT
  5
FD
  8
__-1-1
 62
     0
  2
VW_FILLEDARROW
 10
-49.90939179982554
 20
59.34309384794041
 30
0.0
 41
0.70693359375
 42
0.70693359375
 43
0.70693359375
 50
90.0
  0
TEXT
  5
FE
  8
__-1-1
 62
     0
 10
-50.93401892498115
 20
53.04793094771088
 30
0.0
 40
1.598524305555549
  1
10
 50
90.0
  7
HELVETICA_NEUE
1001
ACADANNOTATIVE
1000
AnnotativeData
1002
{
1070
     1
1070
     0
1002
}
  0
POINT
  5
103
  8
DEFPOINTS
 62
     0
 10
-58.20514464079896
 20
49.34309384794041
 30
0.0
  0
POINT
  5
108
  8
DEFPOINTS
 62
     0
 10
-58.20514464079896
 20
59.34309384794041
 30
0.0
  0
POINT
  5
109
  8
DEFPOINTS
 62
     0
 10
-49.90939179982554
 20
59.34309384794041
 30
0.0
  0
ENDBLK
  5
6E
  8
0
  0
BLOCK
  8
0
  2
*D6
 70
     1
 10
0.0
 20
0.0
 30
0.0
  3
*D6
  1

  0
LINE
  5
10C
  8
__-1-1
  6
CONTINUOUS
 62
     0
 10
-47.70514464079897
 20
116.4993438479404
 30
0.0
 11
-47.70514464079897
 21
125.634059974548
 31
0.0
  0
LINE
  5
10D
  8
__-1-1
  6
CONTINUOUS
 62
     0
 10
-49.70514464079897
 20
116.5930938479404
 30
0.0
 11
-49.70514464079897
 21
125.634059974548
 31
0.0
  0
LINE
  5
10E
  8
__-1-1
  6
CONTINUOUS
 62
     0
 10
-47.70514464079897
 20
125.134059974548
 30
0.0
 11
-49.70514464079897
 21
125.134059974548
 31
0.0
  0
LINE
  5
10F
  8
__-1-1
  6
CONTINUOUS
 62
     0
 10
-46.99821104704897
 20
125.134059974548
 30
0.0
 11
-46.29127745329897
 21
125.134059974548
 31
0.0
  0
LINE
  5
110
  8
__-1-1
  6
CONTINUOUS
 62
     0
 10
-50.41207823454897
 20
125.134059974548
 30
0.0
 11
-51.11901182829897
 21
125.134059974548
 31
0.0
  0
INSERT
  5
111
  8
__-1-1
 62
     0
  2
VW_FILLEDARROW
 10
-47.70514464079897
 20
125.134059974548
 30
0.0
 41
0.70693359375
 42
0.70693359375
 43
0.70693359375
 50
180.0
  0
INSERT
  5
116
  8
__-1-1
 62
     0
  2
VW_FILLEDARROW
 10
-49.70514464079897
 20
125.134059974548
 30
0.0
 41
0.70693359375
 42
0.70693359375
 43
0.70693359375
  0
TEXT
  5
11B
  8
__-1-1
 62
     0
 10
-49.28500149673579
 20
126.134059974548
 30
0.0
 40
1.598524305555549
  1
2
  7
HELVETICA_NEUE
1001
ACADANNOTATIVE
1000
AnnotativeData
1002
{
1070
     1
1070
     0
1002
}
  0
POINT
  5
11C
  8
DEFPOINTS
 62
     0
 10
-47.70514464079897
 20
115.4993438479404
 30
0.0
  0
POINT
  5
11D
  8
DEFPOINTS
 62
     0
 10
-49.70514464079897
 20
115.5930938479404
 30
0.0
  0
POINT
  5
11E
  8
DEFPOINTS
 62
     0
 10
-49.70514464079897
 20
125.134059974548
 30
0.0
  0
ENDBLK
  5
71
  8
0
  0
BLOCK
  8
0
  2
CALLOUT-2
 70
     0
 10
0.0
 20
0.0
 30
0.0
  3
CALLOUT-2
  1

  0
LINE
  5
11F
  8
__-2
  6
CONTINUOUS
 62
     0
 10
0.0
 20
0.0
 30
0.0
 11
-7.034968498372721
 21
-12.1849228688281
 31
0.0
  0
LINE
  5
120
  8
__-2
  6
CONTINUOUS
 62
     0
 10
3.175
 20
0.0
 30
0.0
 11
0.0
 21
0.0
 31
0.0
  0
TEXT
  5
121
  8
__-2
 62
     0
 10
4.365
 20
-0.7284861111111114
 30
0.0
 40
1.864945023148148
  1
白濁釉
  7
OSAKA
 11
4.365
 21
1.136458912037037
 31
0.0
 73
     3
  0
ENDBLK
  5
74
  8
0
  0
BLOCK
  8
0
  2
CALLOUT-3
 70
     0
 10
0.0
 20
0.0
 30
0.0
  3
CALLOUT-3
  1

  0
LINE
  5
122
  8
__-2
  6
CONTINUOUS
 62
     0
 10
0.0
 20
0.0
 30
0.0
 11
-11.14011800990979
 21
-19.2952503954769
 31
0.0
  0
LINE
  5
123
  8
__-2
  6
CONTINUOUS
 62
     0
 10
3.175
 20
0.0
 30
0.0
 11
0.0
 21
0.0
 31
0.0
  0
TEXT
  5
124
  8
__-2
 62
     0
 10
4.365
 20
-0.7284861111111114
 30
0.0
 40
1.864945023148148
  1
高ナット 
  7
OSAKA
 11
4.365
 21
1.136458912037037
 31
0.0
 73
     3
  0
TEXT
  5
125
  8
__-2
 62
     0
 10
4.365
 20
-4.210402777777778
 30
0.0
 40
1.864945023148148
  1
M5×10mm
  7
OSAKA
 11
4.365
 21
-2.34545775462963
 31
0.0
 73
     3
  0
ENDBLK
  5
77
  8
0
  0
BLOCK
  8
0
  2
*D9
 70
     1
 10
0.0
 20
0.0
 30
0.0
  3
*D9
  1

  0
LINE
  5
126
  8
__-1-1
  6
CONTINUOUS
 62
     0
 10
55.52732004930461
 20
79.34309384794038
 30
0.0
 11
49.02732004930459
 21
79.34309384794038
 31
0.0
  0
LINE
  5
127
  8
__-1-1
  6
CONTINUOUS
 62
     0
 10
60.52732004930461
 20
49.34309384794041
 30
0.0
 11
49.02732004930459
 21
49.34309384794041
 31
0.0
  0
LINE
  5
128
  8
__-1-1
  6
CONTINUOUS
 62
     0
 10
49.52732004930459
 20
78.63616025419039
 30
0.0
 11
49.52732004930459
 21
50.05002744169041
 31
0.0
  0
INSERT
  5
129
  8
__-1-1
 62
     0
  2
VW_FILLEDARROW
 10
49.52732004930459
 20
79.34309384794038
 30
0.0
 41
0.70693359375
 42
0.70693359375
 43
0.70693359375
 50
90.0
  0
INSERT
  5
12A
  8
__-1-1
 62
     0
  2
VW_FILLEDARROW
 10
49.52732004930459
 20
49.34309384794041
 30
0.0
 41
0.70693359375
 42
0.70693359375
 43
0.70693359375
 50
270.0
  0
TEXT
  5
12B
  8
__-1-1
 62
     0
 10
48.50269292414897
 20
63.11285700493931
 30
0.0
 40
1.598524305555549
  1
30
 50
90.0
  7
HELVETICA_NEUE
1001
ACADANNOTATIVE
1000
AnnotativeData
1002
{
1070
     1
1070
     0
1002
}
  0
POINT
  5
130
  8
DEFPOINTS
 62
     0
 10
56.52732004930461
 20
79.34309384794038
 30
0.0
  0
POINT
  5
135
  8
DEFPOINTS
 62
     0
 10
61.52732004930461
 20
49.34309384794041
 30
0.0
  0
POINT
  5
136
  8
DEFPOINTS
 62
     0
 10
49.52732004930459
 20
49.34309384794041
 30
0.0
  0
ENDBLK
  5
7A
  8
0
  0
BLOCK
  8
0
  2
*D10
 70
     1
 10
0.0
 20
0.0
 30
0.0
  3
*D10
  1

  0
LINE
  5
139
  8
__-1-1
  6
CONTINUOUS
 62
     0
 10
61.02732004930461
 20
48.34309384794041
 30
0.0
 11
61.02732004930461
 21
38.63405997454802
 31
0.0
  0
LINE
  5
13A
  8
__-1-1
  6
CONTINUOUS
 62
     0
 10
81.0273200493046
 20
48.34309384794041
 30
0.0
 11
81.0273200493046
 21
38.63405997454802
 31
0.0
  0
LINE
  5
13B
  8
__-1-1
  6
CONTINUOUS
 62
     0
 10
61.73425364305461
 20
39.13405997454802
 30
0.0
 11
80.32038645555461
 21
39.13405997454802
 31
0.0
  0
INSERT
  5
13C
  8
__-1-1
 62
     0
  2
VW_FILLEDARROW
 10
61.02732004930461
 20
39.13405997454802
 30
0.0
 41
0.70693359375
 42
0.70693359375
 43
0.70693359375
 50
180.0
  0
INSERT
  5
13D
  8
__-1-1
 62
     0
  2
VW_FILLEDARROW
 10
81.0273200493046
 20
39.13405997454802
 30
0.0
 41
0.70693359375
 42
0.70693359375
 43
0.70693359375
  0
TEXT
  5
13E
  8
__-1-1
 62
     0
 10
69.80268028020252
 20
40.15868709970363
 30
0.0
 40
1.598524305555549
  1
20
  7
HELVETICA_NEUE
1001
ACADANNOTATIVE
1000
AnnotativeData
1002
{
1070
     1
1070
     0
1002
}
  0
POINT
  5
143
  8
DEFPOINTS
 62
     0
 10
61.02732004930461
 20
49.34309384794041
 30
0.0
  0
POINT
  5
148
  8
DEFPOINTS
 62
     0
 10
81.0273200493046
 20
49.34309384794041
 30
0.0
  0
POINT
  5
149
  8
DEFPOINTS
 62
     0
 10
81.0273200493046
 20
39.13405997454802
 30
0.0
  0
ENDBLK
  5
7D
  8
0
  0
BLOCK
  8
0
  2
*D11
 70
     1
 10
0.0
 20
0.0
 30
0.0
  3
*D11
  1

  0
LINE
  5
14C
  8
__-1-1
  6
CONTINUOUS
 62
     0
 10
55.02732004930458
 20
113.7180938479404
 30
0.0
 11
55.02732004930458
 21
116.0930938479404
 31
0.0
  0
LINE
  5
14D
  8
__-1-1
  6
CONTINUOUS
 62
     0
 10
87.0273200493046
 20
113.7180938479404
 30
0.0
 11
87.0273200493046
 21
116.0930938479404
 31
0.0
  0
LINE
  5
14E
  8
__-1-1
  6
CONTINUOUS
 62
     0
 10
55.73425364305458
 20
115.5930938479404
 30
0.0
 11
86.32038645555461
 21
115.5930938479404
 31
0.0
  0
INSERT
  5
14F
  8
__-1-1
 62
     0
  2
VW_FILLEDARROW
 10
55.02732004930458
 20
115.5930938479404
 30
0.0
 41
0.70693359375
 42
0.70693359375
 43
0.70693359375
 50
180.0
  0
INSERT
  5
150
  8
__-1-1
 62
     0
  2
VW_FILLEDARROW
 10
87.0273200493046
 20
115.5930938479404
 30
0.0
 41
0.70693359375
 42
0.70693359375
 43
0.70693359375
  0
TEXT
  5
151
  8
__-1-1
 62
     0
 10
69.81947150189953
 20
116.617720973096
 30
0.0
 40
1.598524305555549
  1
32
  7
HELVETICA_NEUE
1001
ACADANNOTATIVE
1000
AnnotativeData
1002
{
1070
     1
1070
     0
1002
}
  0
POINT
  5
156
  8
DEFPOINTS
 62
     0
 10
55.02732004930458
 20
112.7180938479404
 30
0.0
  0
POINT
  5
15B
  8
DEFPOINTS
 62
     0
 10
87.0273200493046
 20
112.7180938479404
 30
0.0
  0
POINT
  5
15C
  8
DEFPOINTS
 62
     0
 10
87.0273200493046
 20
115.5930938479404
 30
0.0
  0
ENDBLK
  5
80
  8
0
  0
BLOCK
  8
0
  2
*D12
 70
     1
 10
0.0
 20
0.0
 30
0.0
  3
*D12
  1

  0
LINE
  5
15F
  8
__-1-1
  6
CONTINUOUS
 62
     0
 10
76.52732004930462
 20
60.34309384794041
 30
0.0
 11
76.52732004930462
 21
63.09309384794039
 31
0.0
  0
LINE
  5
160
  8
__-1-1
  6
CONTINUOUS
 62
     0
 10
65.52732004930462
 20
60.34309384794041
 30
0.0
 11
65.52732004930462
 21
63.09309384794039
 31
0.0
  0
LINE
  5
161
  8
__-1-1
  6
CONTINUOUS
 62
     0
 10
75.82038645555463
 20
62.59309384794039
 30
0.0
 11
66.23425364305461
 21
62.59309384794039
 31
0.0
  0
INSERT
  5
162
  8
__-1-1
 62
     0
  2
VW_FILLEDARROW
 10
76.52732004930462
 20
62.59309384794039
 30
0.0
 41
0.70693359375
 42
0.70693359375
 43
0.70693359375
  0
INSERT
  5
163
  8
__-1-1
 62
     0
  2
VW_FILLEDARROW
 10
65.52732004930462
 20
62.59309384794039
 30
0.0
 41
0.70693359375
 42
0.70693359375
 43
0.70693359375
 50
180.0
  0
TEXT
  5
164
  8
__-1-1
 62
     0
 10
69.90902468428361
 20
63.59309384794039
 30
0.0
 40
1.598524305555549
  1
11
  7
HELVETICA_NEUE
1001
ACADANNOTATIVE
1000
AnnotativeData
1002
{
1070
     1
1070
     0
1002
}
  0
POINT
  5
169
  8
DEFPOINTS
 62
     0
 10
76.52732004930462
 20
59.34309384794041
 30
0.0
  0
POINT
  5
16E
  8
DEFPOINTS
 62
     0
 10
65.52732004930462
 20
59.34309384794041
 30
0.0
  0
POINT
  5
16F
  8
DEFPOINTS
 62
     0
 10
65.52732004930462
 20
62.59309384794039
 30
0.0
  0
ENDBLK
  5
83
  8
0
  0
BLOCK
  8
0
  2
*D13
 70
     1
 10
0.0
 20
0.0
 30
0.0
  3
*D13
  1

  0
LINE
  5
172
  8
__-1-1
  6
CONTINUOUS
 62
     0
 10
77.52732004930462
 20
49.34309384794041
 30
0.0
 11
85.32307289027804
 21
49.34309384794041
 31
0.0
  0
LINE
  5
173
  8
__-1-1
  6
CONTINUOUS
 62
     0
 10
77.52732004930462
 20
59.34309384794041
 30
0.0
 11
85.32307289027804
 21
59.34309384794041
 31
0.0
  0
LINE
  5
174
  8
__-1-1
  6
CONTINUOUS
 62
     0
 10
84.82307289027804
 20
50.05002744169041
 30
0.0
 11
84.82307289027804
 21
58.63616025419041
 31
0.0
  0
INSERT
  5
175
  8
__-1-1
 62
     0
  2
VW_FILLEDARROW
 10
84.82307289027804
 20
49.34309384794041
 30
0.0
 41
0.70693359375
 42
0.70693359375
 43
0.70693359375
 50
270.0
  0
INSERT
  5
176
  8
__-1-1
 62
     0
  2
VW_FILLEDARROW
 10
84.82307289027804
 20
59.34309384794041
 30
0.0
 41
0.70693359375
 42
0.70693359375
 43
0.70693359375
 50
90.0
  0
TEXT
  5
177
  8
__-1-1
 62
     0
 10
83.79844576512241
 20
53.04793094771088
 30
0.0
 40
1.598524305555549
  1
10
 50
90.0
  7
HELVETICA_NEUE
1001
ACADANNOTATIVE
1000
AnnotativeData
1002
{
1070
     1
1070
     0
1002
}
  0
POINT
  5
17C
  8
DEFPOINTS
 62
     0
 10
76.52732004930462
 20
49.34309384794041
 30
0.0
  0
POINT
  5
181
  8
DEFPOINTS
 62
     0
 10
76.52732004930462
 20
59.34309384794041
 30
0.0
  0
POINT
  5
182
  8
DEFPOINTS
 62
     0
 10
84.82307289027804
 20
59.34309384794041
 30
0.0
  0
ENDBLK
  5
86
  8
0
  0
BLOCK
  8
0
  2
*D14
 70
     1
 10
0.0
 20
0.0
 30
0.0
  3
*D14
  1

  0
LINE
  5
185
  8
__-1-1
  6
CONTINUOUS
 62
     0
 10
87.0273200493046
 20
116.4993438479404
 30
0.0
 11
87.0273200493046
 21
125.634059974548
 31
0.0
  0
LINE
  5
186
  8
__-1-1
  6
CONTINUOUS
 62
     0
 10
85.0273200493046
 20
116.5930938479404
 30
0.0
 11
85.0273200493046
 21
125.634059974548
 31
0.0
  0
LINE
  5
187
  8
__-1-1
  6
CONTINUOUS
 62
     0
 10
87.0273200493046
 20
125.134059974548
 30
0.0
 11
85.0273200493046
 21
125.134059974548
 31
0.0
  0
LINE
  5
188
  8
__-1-1
  6
CONTINUOUS
 62
     0
 10
87.7342536430546
 20
125.134059974548
 30
0.0
 11
88.4411872368046
 21
125.134059974548
 31
0.0
  0
LINE
  5
189
  8
__-1-1
  6
CONTINUOUS
 62
     0
 10
84.32038645555461
 20
125.134059974548
 30
0.0
 11
83.61345286180462
 21
125.134059974548
 31
0.0
  0
INSERT
  5
18A
  8
__-1-1
 62
     0
  2
VW_FILLEDARROW
 10
87.0273200493046
 20
125.134059974548
 30
0.0
 41
0.70693359375
 42
0.70693359375
 43
0.70693359375
 50
180.0
  0
INSERT
  5
18F
  8
__-1-1
 62
     0
  2
VW_FILLEDARROW
 10
85.0273200493046
 20
125.134059974548
 30
0.0
 41
0.70693359375
 42
0.70693359375
 43
0.70693359375
  0
TEXT
  5
194
  8
__-1-1
 62
     0
 10
85.4474631933678
 20
126.134059974548
 30
0.0
 40
1.598524305555549
  1
2
  7
HELVETICA_NEUE
1001
ACADANNOTATIVE
1000
AnnotativeData
1002
{
1070
     1
1070
     0
1002
}
  0
POINT
  5
195
  8
DEFPOINTS
 62
     0
 10
87.0273200493046
 20
115.4993438479404
 30
0.0
  0
POINT
  5
196
  8
DEFPOINTS
 62
     0
 10
85.0273200493046
 20
115.5930938479404
 30
0.0
  0
POINT
  5
197
  8
DEFPOINTS
 62
     0
 10
85.0273200493046
 20
125.134059974548
 30
0.0
  0
ENDBLK
  5
89
  8
0
  0
BLOCK
  8
0
  2
CALLOUT-4
 70
     0
 10
0.0
 20
0.0
 30
0.0
  3
CALLOUT-4
  1

  0
LINE
  5
198
  8
__-2
  6
CONTINUOUS
 62
     0
 10
0.0
 20
0.0
 30
0.0
 11
-7.034968498372721
 21
-12.1849228688281
 31
0.0
  0
LINE
  5
199
  8
__-2
  6
CONTINUOUS
 62
     0
 10
3.175
 20
0.0
 30
0.0
 11
0.0
 21
0.0
 31
0.0
  0
TEXT
  5
19A
  8
__-2
 62
     0
 10
4.365
 20
-0.7284859800000003
 30
0.0
 40
1.8649446875
  1
ガラス釉
  7
OSAKA
 11
4.365
 21
1.1364587075
 31
0.0
 73
     3
  0
ENDBLK
  5
8C
  8
0
  0
BLOCK
  8
0
  2
CALLOUT-5
 70
     0
 10
0.0
 20
0.0
 30
0.0
  3
CALLOUT-5
  1

  0
LINE
  5
19B
  8
__-2
  6
CONTINUOUS
 62
     0
 10
0.0
 20
0.0
 30
0.0
 11
-11.14011800990979
 21
-19.2952503954769
 31
0.0
  0
LINE
  5
19C
  8
__-2
  6
CONTINUOUS
 62
     0
 10
3.175
 20
0.0
 30
0.0
 11
0.0
 21
0.0
 31
0.0
  0
TEXT
  5
19D
  8
__-2
 62
     0
 10
4.365
 20
-0.7284861111111114
 30
0.0
 40
1.864945023148148
  1
高ナット 
  7
OSAKA
 11
4.365
 21
1.136458912037037
 31
0.0
 73
     3
  0
TEXT
  5
19E
  8
__-2
 62
     0
 10
4.365
 20
-4.210402777777778
 30
0.0
 40
1.864945023148148
  1
M5×10mm
  7
OSAKA
 11
4.365
 21
-2.34545775462963
 31
0.0
 73
     3
  0
ENDBLK
  5
8F
  8
0
  0
BLOCK
  8
0
  2
VW_FILLEDARROW
 70
     0
 10
0.0
 20
0.0
 30
0.0
  3
VW_FILLEDARROW
  1

  0
POLYLINE
  5
9F
  8
0
  6
CONTINUOUS
 62
     0
 66
     1
 10
0.0
 20
0.0
 30
0.0
 70
   129
  0
VERTEX
  5
A0
  8
0
  6
CONTINUOUS
 62
     0
 10
-1.0
 20
0.1227845609029044
 30
0.0
  0
VERTEX
  5
A1
  8
0
  6
CONTINUOUS
 62
     0
 10
0.0
 20
0.0
 30
0.0
  0
VERTEX
  5
A2
  8
0
  6
CONTINUOUS
 62
     0
 10
-1.0
 20
-0.1227845609029047
 30
0.0
  0
SEQEND
  5
A3
  8
0
  6
CONTINUOUS
 62
     0
  0
ENDBLK
  5
9E
  8
0
  0
BLOCK
  8
0
  2
VW_SLASH
 70
     0
 10
0.0
 20
0.0
 30
0.0
  3
VW_SLASH
  1

  0
LINE
  5
A8
  8
0
  6
BYBLOCK
 62
     0
 10
0.7071823204419889
 20
0.0
 30
0.0
 11
-1.0
 21
0.0
 31
0.0
  0
POLYLINE
  5
A9
  8
0
  6
CONTINUOUS
 62
     0
 66
     1
 10
0.0
 20
0.0
 30
0.0
 70
   128
  0
VERTEX
  5
AA
  8
0
  6
CONTINUOUS
 62
     0
 10
0.5000534143197685
 20
0.5000534143197684
 30
0.0
  0
VERTEX
  5
AB
  8
0
  6
CONTINUOUS
 62
     0
 10
-0.5000534143197684
 20
-0.5000534143197685
 30
0.0
  0
SEQEND
  5
AC
  8
0
  6
CONTINUOUS
 62
     0
  0
ENDBLK
  5
A7
  8
0
  0
ENDSEC
  0
SECTION
  2
ENTITIES
  0
LINE
  5
19F
  8
__-2
  6
CONTINUOUS
 62
     0
 10
-69.20514464079896
 20
49.34309384794041
 30
0.0
 11
-58.20514464079896
 21
49.34309384794041
 31
0.0
  0
LINE
  5
1A0
  8
__-2
  6
ISO-07___
 62
     0
 10
-47.70514464079897
 20
115.5930938479404
 30
0.0
 11
-47.70514464079897
 21
10.51550105877233
 31
0.0
  0
CIRCLE
  5
1A1
  8
__-2
  6
CONTINUOUS
 62
     0
 10
-63.70514464079896
 20
115.5930938479404
 30
0.0
 40
15.99999999999999
  0
CIRCLE
  5
1A2
  8
__-2
  6
CONTINUOUS
 62
     0
 10
-63.70514464079896
 20
115.5930938479404
 30
0.0
 40
13.99999999999999
  0
LINE
  5
1A3
  8
__-2
  6
ISO-07___
 62
     0
 10
-79.70514464079899
 20
115.5930938479404
 30
0.0
 11
-79.70514464079899
 21
11.13405997454802
 31
0.0
  0
CIRCLE
  5
1A4
  8
__-2
  6
CONTINUOUS
 62
     0
 10
-63.70514464079896
 20
10.51550105877233
 30
0.0
 40
16.00000000000001
  0
POLYLINE
  5
1A5
  8
__-2
  6
VW-01____
 62
     0
 66
     1
 10
0.0
 20
0.0
 30
0.0
 70
   129
  0
VERTEX
  5
1A6
  8
__-2
  6
VW-01____
 62
     0
 10
-65.20514464079896
 20
13.11357727012565
 30
0.0
  0
VERTEX
  5
1A7
  8
__-2
  6
VW-01____
 62
     0
 10
-66.70514464079896
 20
10.51550105877233
 30
0.0
  0
VERTEX
  5
1A8
  8
__-2
  6
VW-01____
 62
     0
 10
-65.20514464079896
 20
7.917424847419014
 30
0.0
  0
VERTEX
  5
1A9
  8
__-2
  6
VW-01____
 62
     0
 10
-62.20514464079896
 20
7.917424847419014
 30
0.0
  0
VERTEX
  5
1AA
  8
__-2
  6
VW-01____
 62
     0
 10
-60.70514464079896
 20
10.51550105877233
 30
0.0
  0
VERTEX
  5
1AB
  8
__-2
  6
VW-01____
 62
     0
 10
-62.20514464079896
 20
13.11357727012565
 30
0.0
  0
SEQEND
  5
1AC
  8
__-2
  6
VW-01____
 62
     0
  0
LINE
  5
1AD
  8
__-2
  6
CONTINUOUS
 62
     0
 10
-79.70514464079899
 20
72.39160502699468
 30
0.0
 11
-79.70514464079899
 21
78.34309384794037
 31
0.0
  0
ARC
  5
1AE
  8
__-2
  6
CONTINUOUS
 62
     0
 10
-78.70514464079899
 20
78.34309384794037
 30
0.0
 40
1.000000000000014
 50
90.0
 51
179.9999999999992
  0
LINE
  5
1AF
  8
__-2
  6
CONTINUOUS
 62
     0
 10
-72.9549925771601
 20
70.48133043076069
 30
0.0
 11
-78.96396368590153
 21
71.42567920070562
 31
0.0
  0
CIRCLE
  5
1B0
  8
__-2
  6
CONTINUOUS
 62
     0
 10
-63.70514464079896
 20
10.51550105877233
 30
0.0
 40
10.00000000000001
  0
CIRCLE
  5
1B1
  8
__-2
  6
CONTINUOUS
 62
     0
 10
-63.70514464079896
 20
10.51550105877233
 30
0.0
 40
5.500000000000014
  0
POLYLINE
  5
1B2
  8
__-2
  6
CONTINUOUS
 62
     0
 66
     1
 10
0.0
 20
0.0
 30
0.0
 70
   128
  0
VERTEX
  5
1B3
  8
__-2
  6
CONTINUOUS
 62
     0
 10
-69.20514464079896
 20
49.34309384794041
 30
0.0
  0
VERTEX
  5
1B4
  8
__-2
  6
CONTINUOUS
 62
     0
 10
-69.20514464079896
 20
59.34309384794041
 30
0.0
  0
VERTEX
  5
1B5
  8
__-2
  6
CONTINUOUS
 62
     0
 10
-58.20514464079896
 20
59.34309384794041
 30
0.0
  0
VERTEX
  5
1B6
  8
__-2
  6
CONTINUOUS
 62
     0
 10
-58.20514464079896
 20
49.34309384794041
 30
0.0
  0
SEQEND
  5
1B7
  8
__-2
  6
CONTINUOUS
 62
     0
  0
ARC
  5
1B8
  8
__-2
  6
CONTINUOUS
 62
     0
 10
-78.70514464079899
 20
72.39160502699467
 30
0.0
 40
1.0
 50
180.0
 51
255.0000000000004
  0
LINE
  5
1B9
  8
__-2
  6
ISO-07___
 62
     0
 10
-47.205144640799
 20
79.34309384794038
 30
0.0
 11
-16.09209629563498
 21
79.29847114714798
 31
0.0
  0
LINE
  5
1BA
  8
__-2
  6
ISO-07___
 62
     0
 10
-54.20514464079897
 20
49.34309384794041
 30
0.0
 11
-11.09209629563498
 21
49.29847114714802
 31
0.0
  0
DIMENSION
  5
1BB
  8
__-1-1
  6
CONTINUOUS
 62
     0
  2
*D1
 10
-85.20514464079898
 20
49.34309384794041
 30
0.0
 11
-87.01672035615456
 21
64.3430938479404
 31
0.0
 70
    32
  3
___
 13
-78.20514464079896
 23
79.34309384794038
 33
0.0
 14
-73.20514464079896
 24
49.34309384794041
 34
0.0
 50
-90.0
  0
DIMENSION
  5
1BC
  8
__-1-1
  6
CONTINUOUS
 62
     0
  2
*D2
 10
-53.70514464079897
 20
39.13405997454802
 30
0.0
 11
-63.70514464079896
 21
40.9456356899036
 31
0.0
 70
    32
  3
___
 13
-73.70514464079896
 23
49.34309384794041
 33
0.0
 14
-53.70514464079897
 24
49.34309384794041
 34
0.0
  0
DIMENSION
  5
1BD
  8
__-1-1
  6
CONTINUOUS
 62
     0
  2
*D3
 10
-47.70514464079897
 20
115.5930938479404
 30
0.0
 11
-63.70514464079898
 21
117.404669563296
 31
0.0
 70
    32
  3
___
 13
-79.70514464079899
 23
112.7180938479404
 33
0.0
 14
-47.70514464079897
 24
112.7180938479404
 34
0.0
  0
DIMENSION
  5
1BE
  8
__-1-1
  6
CONTINUOUS
 62
     0
  2
*D4
 10
-69.20514464079896
 20
62.59309384794039
 30
0.0
 11
-63.70514464079896
 21
64.39235600071817
 31
0.0
 70
    32
  3
___
 13
-58.20514464079896
 23
59.34309384794041
 33
0.0
 14
-69.20514464079896
 24
59.34309384794041
 34
0.0
  0
LINE
  5
1BF
  8
__-2
  6
ISO-07___
 62
     0
 10
-73.71518444474658
 20
10.56012375956473
 30
0.0
 11
-73.71518444474658
 21
49.38771654873283
 31
0.0
  0
TEXT
  5
1C0
  8
__-2
 62
     0
 10
10.5964675078595
 20
44.33115357048002
 30
0.0
 40
2.397786458333333
  1
姿図
  7
OSAKA
 72
     2
 11
14.36441765666902
 21
45.53004679964668
 31
0.0
 73
     2
  0
TEXT
  5
1C1
  8
__-2
 62
     0
 10
-43.67769114699019
 20
44.33115357048002
 30
0.0
 40
2.397786458333333
  1
断面図
  7
OSAKA
 72
     2
 11
-37.85449546246638
 21
45.53004679964668
 31
0.0
 73
     2
  0
TEXT
  5
1C2
  8
__-2
 62
     0
 10
-43.67769114699019
 20
95.93516674538134
 30
0.0
 40
2.397786458333333
  1
平面図
  7
OSAKA
 72
     2
 11
-37.85449546246638
 21
97.13405997454801
 31
0.0
 73
     2
  0
TEXT
  5
1C3
  8
__-2
 62
     0
 10
-43.67769114699019
 20
-7.097907470017249
 30
0.0
 40
2.397786458333333
  1
背面図
  7
OSAKA
 72
     2
 11
-37.85449546246638
 21
-5.899014240850583
 31
0.0
 73
     2
  0
POLYLINE
  5
1C4
  8
__-2
  6
CONTINUOUS
 62
     0
 66
     1
 10
0.0
 20
0.0
 30
0.0
 70
   128
  0
VERTEX
  5
1C5
  8
__-2
  6
CONTINUOUS
 62
     0
 10
-69.20514464079896
 20
49.34309384794041
 30
0.0
  0
VERTEX
  5
1C6
  8
__-2
  6
CONTINUOUS
 62
     0
 10
-73.70514464079896
 20
49.34309384794041
 30
0.0
  0
VERTEX
  5
1C7
  8
__-2
  6
CONTINUOUS
 62
     0
 10
-71.70514464079896
 20
68.87064848081573
 30
0.0
  0
SEQEND
  5
1C8
  8
__-2
  6
CONTINUOUS
 62
     0
  0
DIMENSION
  5
1C9
  8
__-1-1
  6
CONTINUOUS
 62
     0
  2
*D5
 10
-49.90939179982554
 20
59.34309384794041
 30
0.0
 11
-51.72096751518112
 21
54.34309384794041
 31
0.0
 70
    32
  3
___
 13
-58.20514464079896
 23
49.34309384794041
 33
0.0
 14
-58.20514464079896
 24
59.34309384794041
 34
0.0
 50
-90.0
  0
LINE
  5
1CA
  8
__-2
  6
CONTINUOUS
 62
     0
 10
-78.70514464079899
 20
79.34309384794038
 30
0.0
 11
-48.70514464079897
 21
79.34309384794038
 31
0.0
  0
DIMENSION
  5
1CB
  8
__-1-1
  6
CONTINUOUS
 62
     0
  2
*D6
 10
-49.70514464079897
 20
125.134059974548
 30
0.0
 11
-48.70514464079897
 21
126.9333221273258
 31
0.0
 70
    32
  3
___
 13
-47.70514464079897
 23
115.4993438479404
 33
0.0
 14
-49.70514464079897
 24
115.5930938479404
 34
0.0
  0
INSERT
  5
1CC
  8
__-2
 62
     7
  2
CALLOUT-2
 10
-47.06502663088917
 20
135.2727521261691
 30
0.0
  0
INSERT
  5
1CD
  8
__-2
 62
     7
  2
CALLOUT-3
 10
-51.77737939460189
 20
32.1946365819487
 30
0.0
  0
ARC
  5
1CE
  8
__-2
  6
CONTINUOUS
 62
     0
 10
-73.19943668793657
 20
69.00138209493723
 30
0.0
 40
1.499999999999988
 50
354.9999999999996
 51
80.6210936806437
  0
LINE
  5
1CF
  8
__-2
  6
CONTINUOUS
 62
     0
 10
-47.705144640799
 20
72.39160502699467
 30
0.0
 11
-47.705144640799
 21
78.34309384794035
 31
0.0
  0
ARC
  5
1D0
  8
__-2
  6
CONTINUOUS
 62
     0
 10
-48.705144640799
 20
78.34309384794035
 30
0.0
 40
1.0
 50
0.0000000000007958
 51
90.0
  0
ARC
  5
1D1
  8
__-2
  6
CONTINUOUS
 62
     0
 10
-48.705144640799
 20
72.39160502699465
 30
0.0
 40
0.9999999999999893
 50
285.0000000000014
 51
0.0
  0
LINE
  5
1D2
  8
__-2
  6
ISO-07___
 62
     0
 10
-53.70514464079897
 20
10.51550105877233
 30
0.0
 11
-53.705144640799
 21
49.34309384794041
 31
0.0
  0
LINE
  5
1D3
  8
__-2
  6
CONTINUOUS
 62
     0
 10
-6.592096295635002
 20
49.29847114714802
 30
0.0
 11
4.407903704365026
 21
49.29847114714802
 31
0.0
  0
LINE
  5
1D4
  8
__-2
  6
CONTINUOUS
 62
     0
 10
-17.09209629563495
 20
72.34698232620228
 30
0.0
 11
-17.09209629563495
 21
78.29847114714796
 31
0.0
  0
ARC
  5
1D5
  8
__-2
  6
CONTINUOUS
 62
     0
 10
-16.09209629563498
 20
78.29847114714796
 30
0.0
 40
1.000000000000014
 50
90.0
 51
179.9999999999992
  0
LINE
  5
1D6
  8
__-2
  6
CONTINUOUS
 62
     0
 10
-10.63350457523637
 20
70.4367077299683
 30
0.0
 11
-16.35091534073752
 21
71.38105649991321
 31
0.0
  0
ARC
  5
1D7
  8
__-2
  6
CONTINUOUS
 62
     0
 10
-16.09209629563498
 20
72.34698232620227
 30
0.0
 40
0.999999999999968
 50
180.0
 51
255.0000000000002
  0
POLYLINE
  5
1D8
  8
__-2
  6
CONTINUOUS
 62
     0
 66
     1
 10
0.0
 20
0.0
 30
0.0
 70
   128
  0
VERTEX
  5
1D9
  8
__-2
  6
CONTINUOUS
 62
     0
 10
-6.592096295635002
 20
49.29847114714802
 30
0.0
  0
VERTEX
  5
1DA
  8
__-2
  6
CONTINUOUS
 62
     0
 10
-11.09209629563498
 20
49.29847114714802
 30
0.0
  0
VERTEX
  5
1DB
  8
__-2
  6
CONTINUOUS
 62
     0
 10
-9.383656638875266
 20
68.82602578002333
 30
0.0
  0
SEQEND
  5
1DC
  8
__-2
  6
CONTINUOUS
 62
     0
  0
LINE
  5
1DD
  8
__-2
  6
CONTINUOUS
 62
     0
 10
-16.09209629563498
 20
79.29847114714798
 30
0.0
 11
13.90790370436503
 21
79.29847114714798
 31
0.0
  0
ARC
  5
1DE
  8
__-2
  6
CONTINUOUS
 62
     0
 10
-10.87794868601287
 20
68.95675939414484
 30
0.0
 40
1.499999999999988
 50
354.9999999999996
 51
80.62109368064256
  0
POLYLINE
  5
1DF
  8
__-2
  6
CONTINUOUS
 62
     0
 66
     1
 10
0.0
 20
0.0
 30
0.0
 70
   128
  0
VERTEX
  5
1E0
  8
__-2
  6
CONTINUOUS
 62
     0
 10
4.407903704365026
 20
49.29847114714802
 30
0.0
  0
VERTEX
  5
1E1
  8
__-2
  6
CONTINUOUS
 62
     0
 10
8.907903704365026
 20
49.29847114714802
 30
0.0
  0
VERTEX
  5
1E2
  8
__-2
  6
CONTINUOUS
 62
     0
 10
7.199464047605261
 20
68.82602578002333
 30
0.0
  0
SEQEND
  5
1E3
  8
__-2
  6
CONTINUOUS
 62
     0
  0
LINE
  5
1E4
  8
__-2
  6
CONTINUOUS
 62
     0
 10
14.90790370436503
 20
72.34698232620227
 30
0.0
 11
14.90790370436503
 21
78.29847114714795
 31
0.0
  0
ARC
  5
1E5
  8
__-2
  6
CONTINUOUS
 62
     0
 10
13.90790370436503
 20
78.29847114714795
 30
0.0
 40
1.0
 50
0.0000000000007958
 51
90.0
  0
LINE
  5
1E6
  8
__-2
  6
CONTINUOUS
 62
     0
 10
8.449311983966368
 20
70.43670772996829
 30
0.0
 11
14.16672274946757
 21
71.3810564999132
 31
0.0
  0
ARC
  5
1E7
  8
__-2
  6
CONTINUOUS
 62
     0
 10
13.90790370436503
 20
72.34698232620225
 30
0.0
 40
0.9999999999999893
 50
285.0000000000014
 51
0.0
  0
ARC
  5
1E8
  8
__-2
  6
CONTINUOUS
 62
     0
 10
8.693756094742866
 20
68.95675939414483
 30
0.0
 40
1.499999999999986
 50
99.37890631935743
 51
185.0000000000004
  0
LINE
  5
1E9
  8
__-2
  6
CONTINUOUS
 62
     0
 10
-78.70514464079899
 20
79.34309384794038
 30
0.0
 11
-77.70514464079899
 21
79.34309384794038
 31
0.0
  0
LINE
  5
1EA
  8
__-2
  6
CONTINUOUS
 62
     0
 10
-49.70514464079897
 20
79.34309384794038
 30
0.0
 11
-48.70514464079897
 21
79.34309384794038
 31
0.0
  0
POLYLINE
  5
1EB
  8
__-2
  6
CONTINUOUS
 62
     0
 66
     1
 10
0.0
 20
0.0
 30
0.0
 70
   128
  0
VERTEX
  5
1EC
  8
__-2
  6
CONTINUOUS
 62
     0
 10
-49.705144640799
 20
79.34309384794038
 30
0.0
  0
VERTEX
  5
1ED
  8
__-2
  6
CONTINUOUS
 62
     0
 10
-49.70560256178216
 20
79.33472919993102
 30
0.0
  0
VERTEX
  5
1EE
  8
__-2
  6
CONTINUOUS
 62
     0
 10
-49.70697632473163
 20
79.3263820804299
 30
0.0
  0
VERTEX
  5
1EF
  8
__-2
  6
CONTINUOUS
 62
     0
 10
-49.70926592964742
 20
79.31805248943701
 30
0.0
  0
VERTEX
  5
1F0
  8
__-2
  6
CONTINUOUS
 62
     0
 10
-49.71247137652954
 20
79.30974042695236
 30
0.0
  0
VERTEX
  5
1F1
  8
__-2
  6
CONTINUOUS
 62
     0
 10
-49.71659266537797
 20
79.30144589297595
 30
0.0
  0
VERTEX
  5
1F2
  8
__-2
  6
CONTINUOUS
 62
     0
 10
-49.72162979619272
 20
79.29316888750776
 30
0.0
  0
VERTEX
  5
1F3
  8
__-2
  6
CONTINUOUS
 62
     0
 10
-49.72758276897378
 20
79.2849094105478
 30
0.0
  0
VERTEX
  5
1F4
  8
__-2
  6
CONTINUOUS
 62
     0
 10
-49.73445158372115
 20
79.27666746209607
 30
0.0
  0
VERTEX
  5
1F5
  8
__-2
  6
CONTINUOUS
 62
     0
 10
-49.74223624043485
 20
79.26844304215258
 30
0.0
  0
VERTEX
  5
1F6
  8
__-2
  6
CONTINUOUS
 62
     0
 10
-49.75093673911486
 20
79.26023615071733
 30
0.0
  0
VERTEX
  5
1F7
  8
__-2
  6
CONTINUOUS
 62
     0
 10
-49.76055307976119
 20
79.2520467877903
 30
0.0
  0
VERTEX
  5
1F8
  8
__-2
  6
CONTINUOUS
 62
     0
 10
-49.77108526237384
 20
79.24387495337152
 30
0.0
  0
VERTEX
  5
1F9
  8
__-2
  6
CONTINUOUS
 62
     0
 10
-49.78253328695281
 20
79.23572064746097
 30
0.0
  0
VERTEX
  5
1FA
  8
__-2
  6
CONTINUOUS
 62
     0
 10
-49.79489715349809
 20
79.22758387005865
 30
0.0
  0
VERTEX
  5
1FB
  8
__-2
  6
CONTINUOUS
 62
     0
 10
-49.80817686200969
 20
79.21946462116456
 30
0.0
  0
VERTEX
  5
1FC
  8
__-2
  6
CONTINUOUS
 62
     0
 10
-49.82237241248761
 20
79.21136290077871
 30
0.0
  0
VERTEX
  5
1FD
  8
__-2
  6
CONTINUOUS
 62
     0
 10
-49.83748380493185
 20
79.2032787089011
 30
0.0
  0
VERTEX
  5
1FE
  8
__-2
  6
CONTINUOUS
 62
     0
 10
-49.8535110393424
 20
79.19521204553172
 30
0.0
  0
VERTEX
  5
1FF
  8
__-2
  6
CONTINUOUS
 62
     0
 10
-49.87045411571927
 20
79.18716291067057
 30
0.0
  0
VERTEX
  5
200
  8
__-2
  6
CONTINUOUS
 62
     0
 10
-49.88831303406246
 20
79.17913130431764
 30
0.0
  0
VERTEX
  5
201
  8
__-2
  6
CONTINUOUS
 62
     0
 10
-49.90708779437197
 20
79.17111722647294
 30
0.0
  0
VERTEX
  5
202
  8
__-2
  6
CONTINUOUS
 62
     0
 10
-49.92677839664779
 20
79.16312067713649
 30
0.0
  0
VERTEX
  5
203
  8
__-2
  6
CONTINUOUS
 62
     0
 10
-49.94738484088992
 20
79.15514165630827
 30
0.0
  0
VERTEX
  5
204
  8
__-2
  6
CONTINUOUS
 62
     0
 10
-49.96890712709838
 20
79.14718016398828
 30
0.0
  0
VERTEX
  5
205
  8
__-2
  6
CONTINUOUS
 62
     0
 10
-49.99134525527316
 20
79.13923620017653
 30
0.0
  0
VERTEX
  5
206
  8
__-2
  6
CONTINUOUS
 62
     0
 10
-50.01469922541425
 20
79.13130976487301
 30
0.0
  0
VERTEX
  5
207
  8
__-2
  6
CONTINUOUS
 62
     0
 10
-50.03896903752165
 20
79.12340085807773
 30
0.0
  0
VERTEX
  5
208
  8
__-2
  6
CONTINUOUS
 62
     0
 10
-50.06415469159538
 20
79.11550947979069
 30
0.0
  0
VERTEX
  5
209
  8
__-2
  6
CONTINUOUS
 62
     0
 10
-50.09025618763543
 20
79.10763563001187
 30
0.0
  0
VERTEX
  5
20A
  8
__-2
  6
CONTINUOUS
 62
     0
 10
-50.11727352564179
 20
79.09977930874129
 30
0.0
  0
VERTEX
  5
20B
  8
__-2
  6
CONTINUOUS
 62
     0
 10
-50.14520670561446
 20
79.09194051597893
 30
0.0
  0
VERTEX
  5
20C
  8
__-2
  6
CONTINUOUS
 62
     0
 10
-50.17405572755346
 20
79.08411925172481
 30
0.0
  0
VERTEX
  5
20D
  8
__-2
  6
CONTINUOUS
 62
     0
 10
-50.20382059145877
 20
79.07631551597893
 30
0.0
  0
VERTEX
  5
20E
  8
__-2
  6
CONTINUOUS
 62
     0
 10
-50.2345012973304
 20
79.06852930874129
 30
0.0
  0
VERTEX
  5
20F
  8
__-2
  6
CONTINUOUS
 62
     0
 10
-50.26609784516834
 20
79.06076063001187
 30
0.0
  0
VERTEX
  5
210
  8
__-2
  6
CONTINUOUS
 62
     0
 10
-50.29861023497261
 20
79.05300947979069
 30
0.0
  0
VERTEX
  5
211
  8
__-2
  6
CONTINUOUS
 62
     0
 10
-50.33203846674319
 20
79.04527585807773
 30
0.0
  0
VERTEX
  5
212
  8
__-2
  6
CONTINUOUS
 62
     0
 10
-50.36638254048009
 20
79.03755976487301
 30
0.0
  0
VERTEX
  5
213
  8
__-2
  6
CONTINUOUS
 62
     0
 10
-50.4016424561833
 20
79.02986120017653
 30
0.0
  0
VERTEX
  5
214
  8
__-2
  6
CONTINUOUS
 62
     0
 10
-50.43781821385284
 20
79.02218016398828
 30
0.0
  0
VERTEX
  5
215
  8
__-2
  6
CONTINUOUS
 62
     0
 10
-50.47490981348869
 20
79.01451665630827
 30
0.0
  0
VERTEX
  5
216
  8
__-2
  6
CONTINUOUS
 62
     0
 10
-50.51291725509085
 20
79.00687067713649
 30
0.0
  0
VERTEX
  5
217
  8
__-2
  6
CONTINUOUS
 62
     0
 10
-50.55184053865934
 20
78.99924222647294
 30
0.0
  0
VERTEX
  5
218
  8
__-2
  6
CONTINUOUS
 62
     0
 10
-50.59167966419415
 20
78.99163130431764
 30
0.0
  0
VERTEX
  5
219
  8
__-2
  6
CONTINUOUS
 62
     0
 10
-50.63243463169527
 20
78.98403791067057
 30
0.0
  0
VERTEX
  5
21A
  8
__-2
  6
CONTINUOUS
 62
     0
 10
-50.67410544116271
 20
78.97646204553172
 30
0.0
  0
VERTEX
  5
21B
  8
__-2
  6
CONTINUOUS
 62
     0
 10
-50.71669209259646
 20
78.9689037089011
 30
0.0
  0
VERTEX
  5
21C
  8
__-2
  6
CONTINUOUS
 62
     0
 10
-50.76019458599653
 20
78.96136290077871
 30
0.0
  0
VERTEX
  5
21D
  8
__-2
  6
CONTINUOUS
 62
     0
 10
-50.80461292136292
 20
78.95383962116456
 30
0.0
  0
VERTEX
  5
21E
  8
__-2
  6
CONTINUOUS
 62
     0
 10
-50.84994709869563
 20
78.94633387005865
 30
0.0
  0
VERTEX
  5
21F
  8
__-2
  6
CONTINUOUS
 62
     0
 10
-50.89619711799465
 20
78.93884564746097
 30
0.0
  0
VERTEX
  5
220
  8
__-2
  6
CONTINUOUS
 62
     0
 10
-50.94336297925999
 20
78.93137495337152
 30
0.0
  0
VERTEX
  5
221
  8
__-2
  6
CONTINUOUS
 62
     0
 10
-50.99144468249165
 20
78.9239217877903
 30
0.0
  0
VERTEX
  5
222
  8
__-2
  6
CONTINUOUS
 62
     0
 10
-51.04044222768963
 20
78.91648615071733
 30
0.0
  0
VERTEX
  5
223
  8
__-2
  6
CONTINUOUS
 62
     0
 10
-51.09035561485392
 20
78.90906804215258
 30
0.0
  0
VERTEX
  5
224
  8
__-2
  6
CONTINUOUS
 62
     0
 10
-51.14118484398453
 20
78.90166746209607
 30
0.0
  0
VERTEX
  5
225
  8
__-2
  6
CONTINUOUS
 62
     0
 10
-51.19292991508146
 20
78.8942844105478
 30
0.0
  0
VERTEX
  5
226
  8
__-2
  6
CONTINUOUS
 62
     0
 10
-51.24559082814471
 20
78.88691888750776
 30
0.0
  0
VERTEX
  5
227
  8
__-2
  6
CONTINUOUS
 62
     0
 10
-51.29916758317427
 20
78.87957089297595
 30
0.0
  0
VERTEX
  5
228
  8
__-2
  6
CONTINUOUS
 62
     0
 10
-51.35366018017015
 20
78.87224042695236
 30
0.0
  0
VERTEX
  5
229
  8
__-2
  6
CONTINUOUS
 62
     0
 10
-51.40906861913235
 20
78.86492748943701
 30
0.0
  0
VERTEX
  5
22A
  8
__-2
  6
CONTINUOUS
 62
     0
 10
-51.46539290006086
 20
78.8576320804299
 30
0.0
  0
VERTEX
  5
22B
  8
__-2
  6
CONTINUOUS
 62
     0
 10
-51.52263302295569
 20
78.85035419993102
 30
0.0
  0
VERTEX
  5
22C
  8
__-2
  6
CONTINUOUS
 62
     0
 10
-51.58078898781684
 20
78.84309384794038
 30
0.0
  0
VERTEX
  5
22D
  8
__-2
  6
CONTINUOUS
 62
     0
 10
-51.58078898781684
 20
78.84309384794038
 30
0.0
  0
VERTEX
  5
22E
  8
__-2
  6
CONTINUOUS
 62
     0
 10
-51.63973809508667
 20
78.83586620459138
 30
0.0
  0
VERTEX
  5
22F
  8
__-2
  6
CONTINUOUS
 62
     0
 10
-51.69935764520754
 20
78.82868645001747
 30
0.0
  0
VERTEX
  5
230
  8
__-2
  6
CONTINUOUS
 62
     0
 10
-51.75964763817947
 20
78.82155458421863
 30
0.0
  0
VERTEX
  5
231
  8
__-2
  6
CONTINUOUS
 62
     0
 10
-51.82060807400245
 20
78.81447060719486
 30
0.0
  0
VERTEX
  5
232
  8
__-2
  6
CONTINUOUS
 62
     0
 10
-51.88223895267647
 20
78.80743451894617
 30
0.0
  0
VERTEX
  5
233
  8
__-2
  6
CONTINUOUS
 62
     0
 10
-51.94454027420154
 20
78.80044631947254
 30
0.0
  0
VERTEX
  5
234
  8
__-2
  6
CONTINUOUS
 62
     0
 10
-52.00751203857767
 20
78.793506008774
 30
0.0
  0
VERTEX
  5
235
  8
__-2
  6
CONTINUOUS
 62
     0
 10
-52.07115424580484
 20
78.78661358685055
 30
0.0
  0
VERTEX
  5
236
  8
__-2
  6
CONTINUOUS
 62
     0
 10
-52.13546689588306
 20
78.77976905370217
 30
0.0
  0
VERTEX
  5
237
  8
__-2
  6
CONTINUOUS
 62
     0
 10
-52.20044998881232
 20
78.77297240932884
 30
0.0
  0
VERTEX
  5
238
  8
__-2
  6
CONTINUOUS
 62
     0
 10
-52.26610352459264
 20
78.7662236537306
 30
0.0
  0
VERTEX
  5
239
  8
__-2
  6
CONTINUOUS
 62
     0
 10
-52.332427503224
 20
78.75952278690744
 30
0.0
  0
VERTEX
  5
23A
  8
__-2
  6
CONTINUOUS
 62
     0
 10
-52.39942192470641
 20
78.75286980885934
 30
0.0
  0
VERTEX
  5
23B
  8
__-2
  6
CONTINUOUS
 62
     0
 10
-52.46708678903987
 20
78.74626471958632
 30
0.0
  0
VERTEX
  5
23C
  8
__-2
  6
CONTINUOUS
 62
     0
 10
-52.53542209622437
 20
78.73970751908838
 30
0.0
  0
VERTEX
  5
23D
  8
__-2
  6
CONTINUOUS
 62
     0
 10
-52.60442784625992
 20
78.73319820736552
 30
0.0
  0
VERTEX
  5
23E
  8
__-2
  6
CONTINUOUS
 62
     0
 10
-52.67410403914653
 20
78.72673678441772
 30
0.0
  0
VERTEX
  5
23F
  8
__-2
  6
CONTINUOUS
 62
     0
 10
-52.74445067488417
 20
78.720323250245
 30
0.0
  0
VERTEX
  5
240
  8
__-2
  6
CONTINUOUS
 62
     0
 10
-52.81546775347287
 20
78.71395760484737
 30
0.0
  0
VERTEX
  5
241
  8
__-2
  6
CONTINUOUS
 62
     0
 10
-52.88715527491262
 20
78.7076398482248
 30
0.0
  0
VERTEX
  5
242
  8
__-2
  6
CONTINUOUS
 62
     0
 10
-52.95951323920341
 20
78.70136998037731
 30
0.0
  0
VERTEX
  5
243
  8
__-2
  6
CONTINUOUS
 62
     0
 10
-53.03254164634525
 20
78.69514800130489
 30
0.0
  0
VERTEX
  5
244
  8
__-2
  6
CONTINUOUS
 62
     0
 10
-53.10624049633814
 20
78.68897391100755
 30
0.0
  0
VERTEX
  5
245
  8
__-2
  6
CONTINUOUS
 62
     0
 10
-53.18060978918208
 20
78.68284770948527
 30
0.0
  0
VERTEX
  5
246
  8
__-2
  6
CONTINUOUS
 62
     0
 10
-53.25564952487706
 20
78.67676939673807
 30
0.0
  0
VERTEX
  5
247
  8
__-2
  6
CONTINUOUS
 62
     0
 10
-53.3313597034231
 20
78.67073897276595
 30
0.0
  0
VERTEX
  5
248
  8
__-2
  6
CONTINUOUS
 62
     0
 10
-53.40774032482018
 20
78.66475643756891
 30
0.0
  0
VERTEX
  5
249
  8
__-2
  6
CONTINUOUS
 62
     0
 10
-53.48479138906831
 20
78.65882179114695
 30
0.0
  0
VERTEX
  5
24A
  8
__-2
  6
CONTINUOUS
 62
     0
 10
-53.56251289616748
 20
78.65293503350006
 30
0.0
  0
VERTEX
  5
24B
  8
__-2
  6
CONTINUOUS
 62
     0
 10
-53.64090484611771
 20
78.64709616462824
 30
0.0
  0
VERTEX
  5
24C
  8
__-2
  6
CONTINUOUS
 62
     0
 10
-53.71996723891898
 20
78.64130518453149
 30
0.0
  0
VERTEX
  5
24D
  8
__-2
  6
CONTINUOUS
 62
     0
 10
-53.79970007457131
 20
78.63556209320983
 30
0.0
  0
VERTEX
  5
24E
  8
__-2
  6
CONTINUOUS
 62
     0
 10
-53.88010335307467
 20
78.62986689066324
 30
0.0
  0
VERTEX
  5
24F
  8
__-2
  6
CONTINUOUS
 62
     0
 10
-53.96117707442909
 20
78.6242195768917
 30
0.0
  0
VERTEX
  5
250
  8
__-2
  6
CONTINUOUS
 62
     0
 10
-54.04292123863456
 20
78.61862015189527
 30
0.0
  0
VERTEX
  5
251
  8
__-2
  6
CONTINUOUS
 62
     0
 10
-54.12533584569107
 20
78.6130686156739
 30
0.0
  0
VERTEX
  5
252
  8
__-2
  6
CONTINUOUS
 62
     0
 10
-54.20842089559863
 20
78.6075649682276
 30
0.0
  0
VERTEX
  5
253
  8
__-2
  6
CONTINUOUS
 62
     0
 10
-54.29217638835724
 20
78.60210920955639
 30
0.0
  0
VERTEX
  5
254
  8
__-2
  6
CONTINUOUS
 62
     0
 10
-54.37660232396691
 20
78.59670133966024
 30
0.0
  0
VERTEX
  5
255
  8
__-2
  6
CONTINUOUS
 62
     0
 10
-54.46169870242761
 20
78.59134135853917
 30
0.0
  0
VERTEX
  5
256
  8
__-2
  6
CONTINUOUS
 62
     0
 10
-54.54746552373937
 20
78.58602926619317
 30
0.0
  0
VERTEX
  5
257
  8
__-2
  6
CONTINUOUS
 62
     0
 10
-54.63390278790217
 20
78.58076506262225
 30
0.0
  0
VERTEX
  5
258
  8
__-2
  6
CONTINUOUS
 62
     0
 10
-54.72101049491602
 20
78.5755487478264
 30
0.0
  0
VERTEX
  5
259
  8
__-2
  6
CONTINUOUS
 62
     0
 10
-54.80878864478092
 20
78.57038032180563
 30
0.0
  0
VERTEX
  5
25A
  8
__-2
  6
CONTINUOUS
 62
     0
 10
-54.89723723749687
 20
78.56525978455993
 30
0.0
  0
VERTEX
  5
25B
  8
__-2
  6
CONTINUOUS
 62
     0
 10
-54.98635627306385
 20
78.56018713608931
 30
0.0
  0
VERTEX
  5
25C
  8
__-2
  6
CONTINUOUS
 62
     0
 10
-55.0761457514819
 20
78.55516237639377
 30
0.0
  0
VERTEX
  5
25D
  8
__-2
  6
CONTINUOUS
 62
     0
 10
-55.16660567275099
 20
78.5501855054733
 30
0.0
  0
VERTEX
  5
25E
  8
__-2
  6
CONTINUOUS
 62
     0
 10
-55.25773603687113
 20
78.54525652332791
 30
0.0
  0
VERTEX
  5
25F
  8
__-2
  6
CONTINUOUS
 62
     0
 10
-55.34953684384232
 20
78.54037542995758
 30
0.0
  0
VERTEX
  5
260
  8
__-2
  6
CONTINUOUS
 62
     0
 10
-55.44200809366455
 20
78.53554222536233
 30
0.0
  0
VERTEX
  5
261
  8
__-2
  6
CONTINUOUS
 62
     0
 10
-55.53514978633784
 20
78.53075690954216
 30
0.0
  0
VERTEX
  5
262
  8
__-2
  6
CONTINUOUS
 62
     0
 10
-55.62896192186217
 20
78.52601948249706
 30
0.0
  0
VERTEX
  5
263
  8
__-2
  6
CONTINUOUS
 62
     0
 10
-55.72344450023755
 20
78.52132994422703
 30
0.0
  0
VERTEX
  5
264
  8
__-2
  6
CONTINUOUS
 62
     0
 10
-55.81859752146398
 20
78.51668829473209
 30
0.0
  0
VERTEX
  5
265
  8
__-2
  6
CONTINUOUS
 62
     0
 10
-55.91442098554145
 20
78.51209453401222
 30
0.0
  0
VERTEX
  5
266
  8
__-2
  6
CONTINUOUS
 62
     0
 10
-56.01091489246998
 20
78.50754866206742
 30
0.0
  0
VERTEX
  5
267
  8
__-2
  6
CONTINUOUS
 62
     0
 10
-56.10807924224954
 20
78.5030506788977
 30
0.0
  0
VERTEX
  5
268
  8
__-2
  6
CONTINUOUS
 62
     0
 10
-56.20591403488017
 20
78.49860058450305
 30
0.0
  0
VERTEX
  5
269
  8
__-2
  6
CONTINUOUS
 62
     0
 10
-56.30441927036183
 20
78.49419837888348
 30
0.0
  0
VERTEX
  5
26A
  8
__-2
  6
CONTINUOUS
 62
     0
 10
-56.40359494869455
 20
78.48984406203898
 30
0.0
  0
VERTEX
  5
26B
  8
__-2
  6
CONTINUOUS
 62
     0
 10
-56.50344106987831
 20
78.48553763396956
 30
0.0
  0
VERTEX
  5
26C
  8
__-2
  6
CONTINUOUS
 62
     0
 10
-56.60395763391312
 20
78.4812790946752
 30
0.0
  0
VERTEX
  5
26D
  8
__-2
  6
CONTINUOUS
 62
     0
 10
-56.70514464079898
 20
78.47706844415593
 30
0.0
  0
VERTEX
  5
26E
  8
__-2
  6
CONTINUOUS
 62
     0
 10
-56.70514464079898
 20
78.47706844415593
 30
0.0
  0
VERTEX
  5
26F
  8
__-2
  6
CONTINUOUS
 62
     0
 10
-56.80678956866801
 20
78.47291444666585
 30
0.0
  0
VERTEX
  5
270
  8
__-2
  6
CONTINUOUS
 62
     0
 10
-56.90867989565229
 20
78.46882586645907
 30
0.0
  0
VERTEX
  5
271
  8
__-2
  6
CONTINUOUS
 62
     0
 10
-57.01081562175185
 20
78.4648027035356
 30
0.0
  0
VERTEX
  5
272
  8
__-2
  6
CONTINUOUS
 62
     0
 10
-57.11319674696667
 20
78.46084495789545
 30
0.0
  0
VERTEX
  5
273
  8
__-2
  6
CONTINUOUS
 62
     0
 10
-57.21582327129677
 20
78.4569526295386
 30
0.0
  0
VERTEX
  5
274
  8
__-2
  6
CONTINUOUS
 62
     0
 10
-57.31869519474213
 20
78.45312571846506
 30
0.0
  0
VERTEX
  5
275
  8
__-2
  6
CONTINUOUS
 62
     0
 10
-57.42181251730277
 20
78.44936422467482
 30
0.0
  0
VERTEX
  5
276
  8
__-2
  6
CONTINUOUS
 62
     0
 10
-57.52517523897867
 20
78.44566814816791
 30
0.0
  0
VERTEX
  5
277
  8
__-2
  6
CONTINUOUS
 62
     0
 10
-57.62878335976984
 20
78.44203748894431
 30
0.0
  0
VERTEX
  5
278
  8
__-2
  6
CONTINUOUS
 62
     0
 10
-57.73263687967628
 20
78.438472247004
 30
0.0
  0
VERTEX
  5
279
  8
__-2
  6
CONTINUOUS
 62
     0
 10
-57.836735798698
 20
78.434972422347
 30
0.0
  0
VERTEX
  5
27A
  8
__-2
  6
CONTINUOUS
 62
     0
 10
-57.94108011683497
 20
78.43153801497331
 30
0.0
  0
VERTEX
  5
27B
  8
__-2
  6
CONTINUOUS
 62
     0
 10
-58.04566983408722
 20
78.42816902488293
 30
0.0
  0
VERTEX
  5
27C
  8
__-2
  6
CONTINUOUS
 62
     0
 10
-58.15050495045474
 20
78.42486545207585
 30
0.0
  0
VERTEX
  5
27D
  8
__-2
  6
CONTINUOUS
 62
     0
 10
-58.25558546593753
 20
78.42162729655207
 30
0.0
  0
VERTEX
  5
27E
  8
__-2
  6
CONTINUOUS
 62
     0
 10
-58.36091138053558
 20
78.41845455831162
 30
0.0
  0
VERTEX
  5
27F
  8
__-2
  6
CONTINUOUS
 62
     0
 10
-58.46648269424891
 20
78.41534723735448
 30
0.0
  0
VERTEX
  5
280
  8
__-2
  6
CONTINUOUS
 62
     0
 10
-58.5722994070775
 20
78.41230533368064
 30
0.0
  0
VERTEX
  5
281
  8
__-2
  6
CONTINUOUS
 62
     0
 10
-58.67836151902137
 20
78.4093288472901
 30
0.0
  0
VERTEX
  5
282
  8
__-2
  6
CONTINUOUS
 62
     0
 10
-58.7846690300805
 20
78.40641777818288
 30
0.0
  0
VERTEX
  5
283
  8
__-2
  6
CONTINUOUS
 62
     0
 10
-58.89122194025491
 20
78.40357212635897
 30
0.0
  0
VERTEX
  5
284
  8
__-2
  6
CONTINUOUS
 62
     0
 10
-58.99802024954458
 20
78.40079189181836
 30
0.0
  0
VERTEX
  5
285
  8
__-2
  6
CONTINUOUS
 62
     0
 10
-59.10506395794952
 20
78.39807707456106
 30
0.0
  0
VERTEX
  5
286
  8
__-2
  6
CONTINUOUS
 62
     0
 10
-59.21235306546973
 20
78.39542767458707
 30
0.0
  0
VERTEX
  5
287
  8
__-2
  6
CONTINUOUS
 62
     0
 10
-59.31988757210521
 20
78.39284369189639
 30
0.0
  0
VERTEX
  5
288
  8
__-2
  6
CONTINUOUS
 62
     0
 10
-59.42766747785596
 20
78.39032512648902
 30
0.0
  0
VERTEX
  5
289
  8
__-2
  6
CONTINUOUS
 62
     0
 10
-59.53569278272198
 20
78.38787197836496
 30
0.0
  0
VERTEX
  5
28A
  8
__-2
  6
CONTINUOUS
 62
     0
 10
-59.64396348670327
 20
78.3854842475242
 30
0.0
  0
VERTEX
  5
28B
  8
__-2
  6
CONTINUOUS
 62
     0
 10
-59.75247958979983
 20
78.38316193396676
 30
0.0
  0
VERTEX
  5
28C
  8
__-2
  6
CONTINUOUS
 62
     0
 10
-59.86124109201165
 20
78.38090503769261
 30
0.0
  0
VERTEX
  5
28D
  8
__-2
  6
CONTINUOUS
 62
     0
 10
-59.97024799333875
 20
78.37871355870178
 30
0.0
  0
VERTEX
  5
28E
  8
__-2
  6
CONTINUOUS
 62
     0
 10
-60.07950029378112
 20
78.37658749699426
 30
0.0
  0
VERTEX
  5
28F
  8
__-2
  6
CONTINUOUS
 62
     0
 10
-60.18899799333875
 20
78.37452685257006
 30
0.0
  0
VERTEX
  5
290
  8
__-2
  6
CONTINUOUS
 62
     0
 10
-60.29874109201165
 20
78.37253162542915
 30
0.0
  0
VERTEX
  5
291
  8
__-2
  6
CONTINUOUS
 62
     0
 10
-60.40872958979983
 20
78.37060181557155
 30
0.0
  0
VERTEX
  5
292
  8
__-2
  6
CONTINUOUS
 62
     0
 10
-60.51896348670327
 20
78.36873742299727
 30
0.0
  0
VERTEX
  5
293
  8
__-2
  6
CONTINUOUS
 62
     0
 10
-60.62944278272198
 20
78.36693844770629
 30
0.0
  0
VERTEX
  5
294
  8
__-2
  6
CONTINUOUS
 62
     0
 10
-60.74016747785596
 20
78.36520488969862
 30
0.0
  0
VERTEX
  5
295
  8
__-2
  6
CONTINUOUS
 62
     0
 10
-60.85113757210521
 20
78.36353674897425
 30
0.0
  0
VERTEX
  5
296
  8
__-2
  6
CONTINUOUS
 62
     0
 10
-60.96235306546973
 20
78.3619340255332
 30
0.0
  0
VERTEX
  5
297
  8
__-2
  6
CONTINUOUS
 62
     0
 10
-61.07381395794952
 20
78.36039671937546
 30
0.0
  0
VERTEX
  5
298
  8
__-2
  6
CONTINUOUS
 62
     0
 10
-61.18552024954458
 20
78.35892483050102
 30
0.0
  0
VERTEX
  5
299
  8
__-2
  6
CONTINUOUS
 62
     0
 10
-61.29747194025491
 20
78.35751835890989
 30
0.0
  0
VERTEX
  5
29A
  8
__-2
  6
CONTINUOUS
 62
     0
 10
-61.4096690300805
 20
78.35617730460207
 30
0.0
  0
VERTEX
  5
29B
  8
__-2
  6
CONTINUOUS
 62
     0
 10
-61.52211151902137
 20
78.35490166757756
 30
0.0
  0
VERTEX
  5
29C
  8
__-2
  6
CONTINUOUS
 62
     0
 10
-61.6347994070775
 20
78.35369144783635
 30
0.0
  0
VERTEX
  5
29D
  8
__-2
  6
CONTINUOUS
 62
     0
 10
-61.74773269424891
 20
78.35254664537845
 30
0.0
  0
VERTEX
  5
29E
  8
__-2
  6
CONTINUOUS
 62
     0
 10
-61.86091138053558
 20
78.35146726020386
 30
0.0
  0
VERTEX
  5
29F
  8
__-2
  6
CONTINUOUS
 62
     0
 10
-61.97433546593753
 20
78.35045329231258
 30
0.0
  0
VERTEX
  5
2A0
  8
__-2
  6
CONTINUOUS
 62
     0
 10
-62.08800495045474
 20
78.3495047417046
 30
0.0
  0
VERTEX
  5
2A1
  8
__-2
  6
CONTINUOUS
 62
     0
 10
-62.20191983408722
 20
78.34862160837994
 30
0.0
  0
VERTEX
  5
2A2
  8
__-2
  6
CONTINUOUS
 62
     0
 10
-62.31608011683497
 20
78.34780389233859
 30
0.0
  0
VERTEX
  5
2A3
  8
__-2
  6
CONTINUOUS
 62
     0
 10
-62.430485798698
 20
78.34705159358053
 30
0.0
  0
VERTEX
  5
2A4
  8
__-2
  6
CONTINUOUS
 62
     0
 10
-62.54513687967628
 20
78.3463647121058
 30
0.0
  0
VERTEX
  5
2A5
  8
__-2
  6
CONTINUOUS
 62
     0
 10
-62.66003335976984
 20
78.34574324791437
 30
0.0
  0
VERTEX
  5
2A6
  8
__-2
  6
CONTINUOUS
 62
     0
 10
-62.77517523897867
 20
78.34518720100624
 30
0.0
  0
VERTEX
  5
2A7
  8
__-2
  6
CONTINUOUS
 62
     0
 10
-62.89056251730277
 20
78.34469657138143
 30
0.0
  0
VERTEX
  5
2A8
  8
__-2
  6
CONTINUOUS
 62
     0
 10
-63.00619519474213
 20
78.34427135903994
 30
0.0
  0
VERTEX
  5
2A9
  8
__-2
  6
CONTINUOUS
 62
     0
 10
-63.12207327129677
 20
78.34391156398173
 30
0.0
  0
VERTEX
  5
2AA
  8
__-2
  6
CONTINUOUS
 62
     0
 10
-63.23819674696667
 20
78.34361718620684
 30
0.0
  0
VERTEX
  5
2AB
  8
__-2
  6
CONTINUOUS
 62
     0
 10
-63.35456562175185
 20
78.34338822571526
 30
0.0
  0
VERTEX
  5
2AC
  8
__-2
  6
CONTINUOUS
 62
     0
 10
-63.47117989565229
 20
78.34322468250699
 30
0.0
  0
VERTEX
  5
2AD
  8
__-2
  6
CONTINUOUS
 62
     0
 10
-63.58803956866801
 20
78.34312655658204
 30
0.0
  0
VERTEX
  5
2AE
  8
__-2
  6
CONTINUOUS
 62
     0
 10
-63.70514464079898
 20
78.34309384794038
 30
0.0
  0
VERTEX
  5
2AF
  8
__-2
  6
CONTINUOUS
 62
     0
 10
-63.70514464079898
 20
78.34309384794038
 30
0.0
  0
VERTEX
  5
2B0
  8
__-2
  6
CONTINUOUS
 62
     0
 10
-63.82224971292996
 20
78.34312655658204
 30
0.0
  0
VERTEX
  5
2B1
  8
__-2
  6
CONTINUOUS
 62
     0
 10
-63.93910938594567
 20
78.34322468250699
 30
0.0
  0
VERTEX
  5
2B2
  8
__-2
  6
CONTINUOUS
 62
     0
 10
-64.05572365984611
 20
78.34338822571526
 30
0.0
  0
VERTEX
  5
2B3
  8
__-2
  6
CONTINUOUS
 62
     0
 10
-64.17209253463129
 20
78.34361718620684
 30
0.0
  0
VERTEX
  5
2B4
  8
__-2
  6
CONTINUOUS
 62
     0
 10
-64.2882160103012
 20
78.34391156398173
 30
0.0
  0
VERTEX
  5
2B5
  8
__-2
  6
CONTINUOUS
 62
     0
 10
-64.40409408685584
 20
78.34427135903994
 30
0.0
  0
VERTEX
  5
2B6
  8
__-2
  6
CONTINUOUS
 62
     0
 10
-64.5197267642952
 20
78.34469657138143
 30
0.0
  0
VERTEX
  5
2B7
  8
__-2
  6
CONTINUOUS
 62
     0
 10
-64.63511404261929
 20
78.34518720100624
 30
0.0
  0
VERTEX
  5
2B8
  8
__-2
  6
CONTINUOUS
 62
     0
 10
-64.75025592182811
 20
78.34574324791437
 30
0.0
  0
VERTEX
  5
2B9
  8
__-2
  6
CONTINUOUS
 62
     0
 10
-64.86515240192168
 20
78.3463647121058
 30
0.0
  0
VERTEX
  5
2BA
  8
__-2
  6
CONTINUOUS
 62
     0
 10
-64.97980348289997
 20
78.34705159358053
 30
0.0
  0
VERTEX
  5
2BB
  8
__-2
  6
CONTINUOUS
 62
     0
 10
-65.09420916476299
 20
78.34780389233859
 30
0.0
  0
VERTEX
  5
2BC
  8
__-2
  6
CONTINUOUS
 62
     0
 10
-65.20836944751073
 20
78.34862160837994
 30
0.0
  0
VERTEX
  5
2BD
  8
__-2
  6
CONTINUOUS
 62
     0
 10
-65.32228433114321
 20
78.3495047417046
 30
0.0
  0
VERTEX
  5
2BE
  8
__-2
  6
CONTINUOUS
 62
     0
 10
-65.43595381566043
 20
78.35045329231258
 30
0.0
  0
VERTEX
  5
2BF
  8
__-2
  6
CONTINUOUS
 62
     0
 10
-65.54937790106237
 20
78.35146726020386
 30
0.0
  0
VERTEX
  5
2C0
  8
__-2
  6
CONTINUOUS
 62
     0
 10
-65.66255658734904
 20
78.35254664537845
 30
0.0
  0
VERTEX
  5
2C1
  8
__-2
  6
CONTINUOUS
 62
     0
 10
-65.77548987452045
 20
78.35369144783635
 30
0.0
  0
VERTEX
  5
2C2
  8
__-2
  6
CONTINUOUS
 62
     0
 10
-65.88817776257659
 20
78.35490166757756
 30
0.0
  0
VERTEX
  5
2C3
  8
__-2
  6
CONTINUOUS
 62
     0
 10
-66.00062025151746
 20
78.35617730460207
 30
0.0
  0
VERTEX
  5
2C4
  8
__-2
  6
CONTINUOUS
 62
     0
 10
-66.11281734134306
 20
78.35751835890989
 30
0.0
  0
VERTEX
  5
2C5
  8
__-2
  6
CONTINUOUS
 62
     0
 10
-66.22476903205339
 20
78.35892483050102
 30
0.0
  0
VERTEX
  5
2C6
  8
__-2
  6
CONTINUOUS
 62
     0
 10
-66.33647532364844
 20
78.36039671937546
 30
0.0
  0
VERTEX
  5
2C7
  8
__-2
  6
CONTINUOUS
 62
     0
 10
-66.44793621612823
 20
78.3619340255332
 30
0.0
  0
VERTEX
  5
2C8
  8
__-2
  6
CONTINUOUS
 62
     0
 10
-66.55915170949274
 20
78.36353674897425
 30
0.0
  0
VERTEX
  5
2C9
  8
__-2
  6
CONTINUOUS
 62
     0
 10
-66.67012180374199
 20
78.36520488969862
 30
0.0
  0
VERTEX
  5
2CA
  8
__-2
  6
CONTINUOUS
 62
     0
 10
-66.78084649887597
 20
78.36693844770629
 30
0.0
  0
VERTEX
  5
2CB
  8
__-2
  6
CONTINUOUS
 62
     0
 10
-66.8913257948947
 20
78.36873742299727
 30
0.0
  0
VERTEX
  5
2CC
  8
__-2
  6
CONTINUOUS
 62
     0
 10
-67.00155969179814
 20
78.37060181557155
 30
0.0
  0
VERTEX
  5
2CD
  8
__-2
  6
CONTINUOUS
 62
     0
 10
-67.1115481895863
 20
78.37253162542915
 30
0.0
  0
VERTEX
  5
2CE
  8
__-2
  6
CONTINUOUS
 62
     0
 10
-67.22129128825921
 20
78.37452685257006
 30
0.0
  0
VERTEX
  5
2CF
  8
__-2
  6
CONTINUOUS
 62
     0
 10
-67.33078898781685
 20
78.37658749699426
 30
0.0
  0
VERTEX
  5
2D0
  8
__-2
  6
CONTINUOUS
 62
     0
 10
-67.44004128825921
 20
78.37871355870178
 30
0.0
  0
VERTEX
  5
2D1
  8
__-2
  6
CONTINUOUS
 62
     0
 10
-67.5490481895863
 20
78.38090503769261
 30
0.0
  0
VERTEX
  5
2D2
  8
__-2
  6
CONTINUOUS
 62
     0
 10
-67.65780969179814
 20
78.38316193396676
 30
0.0
  0
VERTEX
  5
2D3
  8
__-2
  6
CONTINUOUS
 62
     0
 10
-67.7663257948947
 20
78.3854842475242
 30
0.0
  0
VERTEX
  5
2D4
  8
__-2
  6
CONTINUOUS
 62
     0
 10
-67.87459649887597
 20
78.38787197836496
 30
0.0
  0
VERTEX
  5
2D5
  8
__-2
  6
CONTINUOUS
 62
     0
 10
-67.98262180374199
 20
78.39032512648902
 30
0.0
  0
VERTEX
  5
2D6
  8
__-2
  6
CONTINUOUS
 62
     0
 10
-68.09040170949274
 20
78.39284369189639
 30
0.0
  0
VERTEX
  5
2D7
  8
__-2
  6
CONTINUOUS
 62
     0
 10
-68.19793621612823
 20
78.39542767458707
 30
0.0
  0
VERTEX
  5
2D8
  8
__-2
  6
CONTINUOUS
 62
     0
 10
-68.30522532364844
 20
78.39807707456106
 30
0.0
  0
VERTEX
  5
2D9
  8
__-2
  6
CONTINUOUS
 62
     0
 10
-68.41226903205339
 20
78.40079189181836
 30
0.0
  0
VERTEX
  5
2DA
  8
__-2
  6
CONTINUOUS
 62
     0
 10
-68.51906734134306
 20
78.40357212635897
 30
0.0
  0
VERTEX
  5
2DB
  8
__-2
  6
CONTINUOUS
 62
     0
 10
-68.62562025151746
 20
78.40641777818288
 30
0.0
  0
VERTEX
  5
2DC
  8
__-2
  6
CONTINUOUS
 62
     0
 10
-68.73192776257659
 20
78.4093288472901
 30
0.0
  0
VERTEX
  5
2DD
  8
__-2
  6
CONTINUOUS
 62
     0
 10
-68.83798987452046
 20
78.41230533368064
 30
0.0
  0
VERTEX
  5
2DE
  8
__-2
  6
CONTINUOUS
 62
     0
 10
-68.94380658734906
 20
78.41534723735448
 30
0.0
  0
VERTEX
  5
2DF
  8
__-2
  6
CONTINUOUS
 62
     0
 10
-69.04937790106239
 20
78.41845455831162
 30
0.0
  0
VERTEX
  5
2E0
  8
__-2
  6
CONTINUOUS
 62
     0
 10
-69.15470381566044
 20
78.42162729655207
 30
0.0
  0
VERTEX
  5
2E1
  8
__-2
  6
CONTINUOUS
 62
     0
 10
-69.25978433114324
 20
78.42486545207585
 30
0.0
  0
VERTEX
  5
2E2
  8
__-2
  6
CONTINUOUS
 62
     0
 10
-69.36461944751076
 20
78.42816902488293
 30
0.0
  0
VERTEX
  5
2E3
  8
__-2
  6
CONTINUOUS
 62
     0
 10
-69.46920916476301
 20
78.43153801497331
 30
0.0
  0
VERTEX
  5
2E4
  8
__-2
  6
CONTINUOUS
 62
     0
 10
-69.5735534829
 20
78.434972422347
 30
0.0
  0
VERTEX
  5
2E5
  8
__-2
  6
CONTINUOUS
 62
     0
 10
-69.6776524019217
 20
78.438472247004
 30
0.0
  0
VERTEX
  5
2E6
  8
__-2
  6
CONTINUOUS
 62
     0
 10
-69.78150592182814
 20
78.44203748894431
 30
0.0
  0
VERTEX
  5
2E7
  8
__-2
  6
CONTINUOUS
 62
     0
 10
-69.8851140426193
 20
78.44566814816791
 30
0.0
  0
VERTEX
  5
2E8
  8
__-2
  6
CONTINUOUS
 62
     0
 10
-69.9884767642952
 20
78.44936422467482
 30
0.0
  0
VERTEX
  5
2E9
  8
__-2
  6
CONTINUOUS
 62
     0
 10
-70.09159408685584
 20
78.45312571846506
 30
0.0
  0
VERTEX
  5
2EA
  8
__-2
  6
CONTINUOUS
 62
     0
 10
-70.1944660103012
 20
78.4569526295386
 30
0.0
  0
VERTEX
  5
2EB
  8
__-2
  6
CONTINUOUS
 62
     0
 10
-70.2970925346313
 20
78.46084495789545
 30
0.0
  0
VERTEX
  5
2EC
  8
__-2
  6
CONTINUOUS
 62
     0
 10
-70.39947365984612
 20
78.4648027035356
 30
0.0
  0
VERTEX
  5
2ED
  8
__-2
  6
CONTINUOUS
 62
     0
 10
-70.50160938594567
 20
78.46882586645907
 30
0.0
  0
VERTEX
  5
2EE
  8
__-2
  6
CONTINUOUS
 62
     0
 10
-70.60349971292996
 20
78.47291444666585
 30
0.0
  0
VERTEX
  5
2EF
  8
__-2
  6
CONTINUOUS
 62
     0
 10
-70.70514464079899
 20
78.47706844415593
 30
0.0
  0
VERTEX
  5
2F0
  8
__-2
  6
CONTINUOUS
 62
     0
 10
-70.70514464079899
 20
78.47706844415593
 30
0.0
  0
VERTEX
  5
2F1
  8
__-2
  6
CONTINUOUS
 62
     0
 10
-70.80633164768486
 20
78.4812790946752
 30
0.0
  0
VERTEX
  5
2F2
  8
__-2
  6
CONTINUOUS
 62
     0
 10
-70.90684821171968
 20
78.48553763396956
 30
0.0
  0
VERTEX
  5
2F3
  8
__-2
  6
CONTINUOUS
 62
     0
 10
-71.00669433290344
 20
78.48984406203898
 30
0.0
  0
VERTEX
  5
2F4
  8
__-2
  6
CONTINUOUS
 62
     0
 10
-71.10587001123615
 20
78.49419837888348
 30
0.0
  0
VERTEX
  5
2F5
  8
__-2
  6
CONTINUOUS
 62
     0
 10
-71.20437524671782
 20
78.49860058450305
 30
0.0
  0
VERTEX
  5
2F6
  8
__-2
  6
CONTINUOUS
 62
     0
 10
-71.30221003934844
 20
78.5030506788977
 30
0.0
  0
VERTEX
  5
2F7
  8
__-2
  6
CONTINUOUS
 62
     0
 10
-71.39937438912801
 20
78.50754866206742
 30
0.0
  0
VERTEX
  5
2F8
  8
__-2
  6
CONTINUOUS
 62
     0
 10
-71.49586829605653
 20
78.51209453401222
 30
0.0
  0
VERTEX
  5
2F9
  8
__-2
  6
CONTINUOUS
 62
     0
 10
-71.591691760134
 20
78.51668829473209
 30
0.0
  0
VERTEX
  5
2FA
  8
__-2
  6
CONTINUOUS
 62
     0
 10
-71.68684478136043
 20
78.52132994422703
 30
0.0
  0
VERTEX
  5
2FB
  8
__-2
  6
CONTINUOUS
 62
     0
 10
-71.7813273597358
 20
78.52601948249706
 30
0.0
  0
VERTEX
  5
2FC
  8
__-2
  6
CONTINUOUS
 62
     0
 10
-71.87513949526014
 20
78.53075690954216
 30
0.0
  0
VERTEX
  5
2FD
  8
__-2
  6
CONTINUOUS
 62
     0
 10
-71.96828118793343
 20
78.53554222536233
 30
0.0
  0
VERTEX
  5
2FE
  8
__-2
  6
CONTINUOUS
 62
     0
 10
-72.06075243775567
 20
78.54037542995758
 30
0.0
  0
VERTEX
  5
2FF
  8
__-2
  6
CONTINUOUS
 62
     0
 10
-72.15255324472685
 20
78.54525652332791
 30
0.0
  0
VERTEX
  5
300
  8
__-2
  6
CONTINUOUS
 62
     0
 10
-72.24368360884698
 20
78.5501855054733
 30
0.0
  0
VERTEX
  5
301
  8
__-2
  6
CONTINUOUS
 62
     0
 10
-72.33414353011605
 20
78.55516237639377
 30
0.0
  0
VERTEX
  5
302
  8
__-2
  6
CONTINUOUS
 62
     0
 10
-72.4239330085341
 20
78.56018713608931
 30
0.0
  0
VERTEX
  5
303
  8
__-2
  6
CONTINUOUS
 62
     0
 10
-72.5130520441011
 20
78.56525978455993
 30
0.0
  0
VERTEX
  5
304
  8
__-2
  6
CONTINUOUS
 62
     0
 10
-72.60150063681705
 20
78.57038032180563
 30
0.0
  0
VERTEX
  5
305
  8
__-2
  6
CONTINUOUS
 62
     0
 10
-72.68927878668194
 20
78.5755487478264
 30
0.0
  0
VERTEX
  5
306
  8
__-2
  6
CONTINUOUS
 62
     0
 10
-72.7763864936958
 20
78.58076506262225
 30
0.0
  0
VERTEX
  5
307
  8
__-2
  6
CONTINUOUS
 62
     0
 10
-72.8628237578586
 20
78.58602926619317
 30
0.0
  0
VERTEX
  5
308
  8
__-2
  6
CONTINUOUS
 62
     0
 10
-72.94859057917036
 20
78.59134135853917
 30
0.0
  0
VERTEX
  5
309
  8
__-2
  6
CONTINUOUS
 62
     0
 10
-73.03368695763106
 20
78.59670133966024
 30
0.0
  0
VERTEX
  5
30A
  8
__-2
  6
CONTINUOUS
 62
     0
 10
-73.11811289324072
 20
78.60210920955639
 30
0.0
  0
VERTEX
  5
30B
  8
__-2
  6
CONTINUOUS
 62
     0
 10
-73.20186838599932
 20
78.6075649682276
 30
0.0
  0
VERTEX
  5
30C
  8
__-2
  6
CONTINUOUS
 62
     0
 10
-73.28495343590689
 20
78.6130686156739
 30
0.0
  0
VERTEX
  5
30D
  8
__-2
  6
CONTINUOUS
 62
     0
 10
-73.36736804296339
 20
78.61862015189527
 30
0.0
  0
VERTEX
  5
30E
  8
__-2
  6
CONTINUOUS
 62
     0
 10
-73.44911220716887
 20
78.6242195768917
 30
0.0
  0
VERTEX
  5
30F
  8
__-2
  6
CONTINUOUS
 62
     0
 10
-73.53018592852328
 20
78.62986689066324
 30
0.0
  0
VERTEX
  5
310
  8
__-2
  6
CONTINUOUS
 62
     0
 10
-73.61058920702666
 20
78.63556209320983
 30
0.0
  0
VERTEX
  5
311
  8
__-2
  6
CONTINUOUS
 62
     0
 10
-73.69032204267899
 20
78.64130518453149
 30
0.0
  0
VERTEX
  5
312
  8
__-2
  6
CONTINUOUS
 62
     0
 10
-73.76938443548026
 20
78.64709616462824
 30
0.0
  0
VERTEX
  5
313
  8
__-2
  6
CONTINUOUS
 62
     0
 10
-73.84777638543048
 20
78.65293503350006
 30
0.0
  0
VERTEX
  5
314
  8
__-2
  6
CONTINUOUS
 62
     0
 10
-73.92549789252966
 20
78.65882179114695
 30
0.0
  0
VERTEX
  5
315
  8
__-2
  6
CONTINUOUS
 62
     0
 10
-74.0025489567778
 20
78.66475643756891
 30
0.0
  0
VERTEX
  5
316
  8
__-2
  6
CONTINUOUS
 62
     0
 10
-74.07892957817488
 20
78.67073897276595
 30
0.0
  0
VERTEX
  5
317
  8
__-2
  6
CONTINUOUS
 62
     0
 10
-74.15463975672091
 20
78.67676939673807
 30
0.0
  0
VERTEX
  5
318
  8
__-2
  6
CONTINUOUS
 62
     0
 10
-74.2296794924159
 20
78.68284770948527
 30
0.0
  0
VERTEX
  5
319
  8
__-2
  6
CONTINUOUS
 62
     0
 10
-74.30404878525982
 20
78.68897391100755
 30
0.0
  0
VERTEX
  5
31A
  8
__-2
  6
CONTINUOUS
 62
     0
 10
-74.37774763525272
 20
78.69514800130489
 30
0.0
  0
VERTEX
  5
31B
  8
__-2
  6
CONTINUOUS
 62
     0
 10
-74.45077604239455
 20
78.70136998037731
 30
0.0
  0
VERTEX
  5
31C
  8
__-2
  6
CONTINUOUS
 62
     0
 10
-74.52313400668535
 20
78.7076398482248
 30
0.0
  0
VERTEX
  5
31D
  8
__-2
  6
CONTINUOUS
 62
     0
 10
-74.5948215281251
 20
78.71395760484737
 30
0.0
  0
VERTEX
  5
31E
  8
__-2
  6
CONTINUOUS
 62
     0
 10
-74.6658386067138
 20
78.720323250245
 30
0.0
  0
VERTEX
  5
31F
  8
__-2
  6
CONTINUOUS
 62
     0
 10
-74.73618524245144
 20
78.72673678441772
 30
0.0
  0
VERTEX
  5
320
  8
__-2
  6
CONTINUOUS
 62
     0
 10
-74.80586143533804
 20
78.73319820736552
 30
0.0
  0
VERTEX
  5
321
  8
__-2
  6
CONTINUOUS
 62
     0
 10
-74.8748671853736
 20
78.73970751908838
 30
0.0
  0
VERTEX
  5
322
  8
__-2
  6
CONTINUOUS
 62
     0
 10
-74.9432024925581
 20
78.74626471958632
 30
0.0
  0
VERTEX
  5
323
  8
__-2
  6
CONTINUOUS
 62
     0
 10
-75.01086735689155
 20
78.75286980885934
 30
0.0
  0
VERTEX
  5
324
  8
__-2
  6
CONTINUOUS
 62
     0
 10
-75.07786177837397
 20
78.75952278690744
 30
0.0
  0
VERTEX
  5
325
  8
__-2
  6
CONTINUOUS
 62
     0
 10
-75.14418575700535
 20
78.7662236537306
 30
0.0
  0
VERTEX
  5
326
  8
__-2
  6
CONTINUOUS
 62
     0
 10
-75.20983929278566
 20
78.77297240932884
 30
0.0
  0
VERTEX
  5
327
  8
__-2
  6
CONTINUOUS
 62
     0
 10
-75.27482238571491
 20
78.77976905370217
 30
0.0
  0
VERTEX
  5
328
  8
__-2
  6
CONTINUOUS
 62
     0
 10
-75.33913503579313
 20
78.78661358685055
 30
0.0
  0
VERTEX
  5
329
  8
__-2
  6
CONTINUOUS
 62
     0
 10
-75.4027772430203
 20
78.793506008774
 30
0.0
  0
VERTEX
  5
32A
  8
__-2
  6
CONTINUOUS
 62
     0
 10
-75.46574900739643
 20
78.80044631947254
 30
0.0
  0
VERTEX
  5
32B
  8
__-2
  6
CONTINUOUS
 62
     0
 10
-75.5280503289215
 20
78.80743451894617
 30
0.0
  0
VERTEX
  5
32C
  8
__-2
  6
CONTINUOUS
 62
     0
 10
-75.58968120759552
 20
78.81447060719486
 30
0.0
  0
VERTEX
  5
32D
  8
__-2
  6
CONTINUOUS
 62
     0
 10
-75.6506416434185
 20
78.82155458421863
 30
0.0
  0
VERTEX
  5
32E
  8
__-2
  6
CONTINUOUS
 62
     0
 10
-75.71093163639041
 20
78.82868645001747
 30
0.0
  0
VERTEX
  5
32F
  8
__-2
  6
CONTINUOUS
 62
     0
 10
-75.77055118651128
 20
78.83586620459138
 30
0.0
  0
VERTEX
  5
330
  8
__-2
  6
CONTINUOUS
 62
     0
 10
-75.82950029378112
 20
78.84309384794038
 30
0.0
  0
VERTEX
  5
331
  8
__-2
  6
CONTINUOUS
 62
     0
 10
-75.82950029378112
 20
78.84309384794038
 30
0.0
  0
VERTEX
  5
332
  8
__-2
  6
CONTINUOUS
 62
     0
 10
-75.88765625864227
 20
78.85035419993102
 30
0.0
  0
VERTEX
  5
333
  8
__-2
  6
CONTINUOUS
 62
     0
 10
-75.94489638153709
 20
78.8576320804299
 30
0.0
  0
VERTEX
  5
334
  8
__-2
  6
CONTINUOUS
 62
     0
 10
-76.00122066246561
 20
78.86492748943701
 30
0.0
  0
VERTEX
  5
335
  8
__-2
  6
CONTINUOUS
 62
     0
 10
-76.0566291014278
 20
78.87224042695236
 30
0.0
  0
VERTEX
  5
336
  8
__-2
  6
CONTINUOUS
 62
     0
 10
-76.11112169842369
 20
78.87957089297595
 30
0.0
  0
VERTEX
  5
337
  8
__-2
  6
CONTINUOUS
 62
     0
 10
-76.16469845345325
 20
78.88691888750776
 30
0.0
  0
VERTEX
  5
338
  8
__-2
  6
CONTINUOUS
 62
     0
 10
-76.21735936651649
 20
78.8942844105478
 30
0.0
  0
VERTEX
  5
339
  8
__-2
  6
CONTINUOUS
 62
     0
 10
-76.26910443761344
 20
78.90166746209607
 30
0.0
  0
VERTEX
  5
33A
  8
__-2
  6
CONTINUOUS
 62
     0
 10
-76.31993366674403
 20
78.90906804215258
 30
0.0
  0
VERTEX
  5
33B
  8
__-2
  6
CONTINUOUS
 62
     0
 10
-76.36984705390833
 20
78.91648615071733
 30
0.0
  0
VERTEX
  5
33C
  8
__-2
  6
CONTINUOUS
 62
     0
 10
-76.41884459910631
 20
78.9239217877903
 30
0.0
  0
VERTEX
  5
33D
  8
__-2
  6
CONTINUOUS
 62
     0
 10
-76.46692630233797
 20
78.93137495337152
 30
0.0
  0
VERTEX
  5
33E
  8
__-2
  6
CONTINUOUS
 62
     0
 10
-76.51409216360331
 20
78.93884564746097
 30
0.0
  0
VERTEX
  5
33F
  8
__-2
  6
CONTINUOUS
 62
     0
 10
-76.56034218290233
 20
78.94633387005865
 30
0.0
  0
VERTEX
  5
340
  8
__-2
  6
CONTINUOUS
 62
     0
 10
-76.60567636023504
 20
78.95383962116456
 30
0.0
  0
VERTEX
  5
341
  8
__-2
  6
CONTINUOUS
 62
     0
 10
-76.65009469560144
 20
78.96136290077871
 30
0.0
  0
VERTEX
  5
342
  8
__-2
  6
CONTINUOUS
 62
     0
 10
-76.69359718900151
 20
78.9689037089011
 30
0.0
  0
VERTEX
  5
343
  8
__-2
  6
CONTINUOUS
 62
     0
 10
-76.73618384043527
 20
78.97646204553172
 30
0.0
  0
VERTEX
  5
344
  8
__-2
  6
CONTINUOUS
 62
     0
 10
-76.77785464990271
 20
78.98403791067057
 30
0.0
  0
VERTEX
  5
345
  8
__-2
  6
CONTINUOUS
 62
     0
 10
-76.81860961740384
 20
78.99163130431764
 30
0.0
  0
VERTEX
  5
346
  8
__-2
  6
CONTINUOUS
 62
     0
 10
-76.85844874293863
 20
78.99924222647294
 30
0.0
  0
VERTEX
  5
347
  8
__-2
  6
CONTINUOUS
 62
     0
 10
-76.89737202650713
 20
79.00687067713649
 30
0.0
  0
VERTEX
  5
348
  8
__-2
  6
CONTINUOUS
 62
     0
 10
-76.93537946810929
 20
79.01451665630827
 30
0.0
  0
VERTEX
  5
349
  8
__-2
  6
CONTINUOUS
 62
     0
 10
-76.97247106774515
 20
79.02218016398828
 30
0.0
  0
VERTEX
  5
34A
  8
__-2
  6
CONTINUOUS
 62
     0
 10
-77.00864682541467
 20
79.02986120017653
 30
0.0
  0
VERTEX
  5
34B
  8
__-2
  6
CONTINUOUS
 62
     0
 10
-77.0439067411179
 20
79.03755976487301
 30
0.0
  0
VERTEX
  5
34C
  8
__-2
  6
CONTINUOUS
 62
     0
 10
-77.07825081485478
 20
79.04527585807773
 30
0.0
  0
VERTEX
  5
34D
  8
__-2
  6
CONTINUOUS
 62
     0
 10
-77.11167904662537
 20
79.05300947979069
 30
0.0
  0
VERTEX
  5
34E
  8
__-2
  6
CONTINUOUS
 62
     0
 10
-77.14419143642962
 20
79.06076063001187
 30
0.0
  0
VERTEX
  5
34F
  8
__-2
  6
CONTINUOUS
 62
     0
 10
-77.17578798426759
 20
79.06852930874129
 30
0.0
  0
VERTEX
  5
350
  8
__-2
  6
CONTINUOUS
 62
     0
 10
-77.20646869013922
 20
79.07631551597893
 30
0.0
  0
VERTEX
  5
351
  8
__-2
  6
CONTINUOUS
 62
     0
 10
-77.23623355404453
 20
79.08411925172481
 30
0.0
  0
VERTEX
  5
352
  8
__-2
  6
CONTINUOUS
 62
     0
 10
-77.26508257598351
 20
79.09194051597893
 30
0.0
  0
VERTEX
  5
353
  8
__-2
  6
CONTINUOUS
 62
     0
 10
-77.2930157559562
 20
79.09977930874129
 30
0.0
  0
VERTEX
  5
354
  8
__-2
  6
CONTINUOUS
 62
     0
 10
-77.32003309396256
 20
79.10763563001187
 30
0.0
  0
VERTEX
  5
355
  8
__-2
  6
CONTINUOUS
 62
     0
 10
-77.3461345900026
 20
79.11550947979069
 30
0.0
  0
VERTEX
  5
356
  8
__-2
  6
CONTINUOUS
 62
     0
 10
-77.37132024407634
 20
79.12340085807773
 30
0.0
  0
VERTEX
  5
357
  8
__-2
  6
CONTINUOUS
 62
     0
 10
-77.39559005618375
 20
79.13130976487301
 30
0.0
  0
VERTEX
  5
358
  8
__-2
  6
CONTINUOUS
 62
     0
 10
-77.41894402632484
 20
79.13923620017653
 30
0.0
  0
VERTEX
  5
359
  8
__-2
  6
CONTINUOUS
 62
     0
 10
-77.44138215449962
 20
79.14718016398828
 30
0.0
  0
VERTEX
  5
35A
  8
__-2
  6
CONTINUOUS
 62
     0
 10
-77.46290444070809
 20
79.15514165630827
 30
0.0
  0
VERTEX
  5
35B
  8
__-2
  6
CONTINUOUS
 62
     0
 10
-77.48351088495022
 20
79.16312067713649
 30
0.0
  0
VERTEX
  5
35C
  8
__-2
  6
CONTINUOUS
 62
     0
 10
-77.50320148722604
 20
79.17111722647294
 30
0.0
  0
VERTEX
  5
35D
  8
__-2
  6
CONTINUOUS
 62
     0
 10
-77.52197624753555
 20
79.17913130431764
 30
0.0
  0
VERTEX
  5
35E
  8
__-2
  6
CONTINUOUS
 62
     0
 10
-77.53983516587874
 20
79.18716291067057
 30
0.0
  0
VERTEX
  5
35F
  8
__-2
  6
CONTINUOUS
 62
     0
 10
-77.5567782422556
 20
79.19521204553172
 30
0.0
  0
VERTEX
  5
360
  8
__-2
  6
CONTINUOUS
 62
     0
 10
-77.57280547666615
 20
79.2032787089011
 30
0.0
  0
VERTEX
  5
361
  8
__-2
  6
CONTINUOUS
 62
     0
 10
-77.58791686911039
 20
79.21136290077871
 30
0.0
  0
VERTEX
  5
362
  8
__-2
  6
CONTINUOUS
 62
     0
 10
-77.60211241958831
 20
79.21946462116456
 30
0.0
  0
VERTEX
  5
363
  8
__-2
  6
CONTINUOUS
 62
     0
 10
-77.6153921280999
 20
79.22758387005865
 30
0.0
  0
VERTEX
  5
364
  8
__-2
  6
CONTINUOUS
 62
     0
 10
-77.62775599464517
 20
79.23572064746097
 30
0.0
  0
VERTEX
  5
365
  8
__-2
  6
CONTINUOUS
 62
     0
 10
-77.63920401922414
 20
79.24387495337152
 30
0.0
  0
VERTEX
  5
366
  8
__-2
  6
CONTINUOUS
 62
     0
 10
-77.64973620183679
 20
79.2520467877903
 30
0.0
  0
VERTEX
  5
367
  8
__-2
  6
CONTINUOUS
 62
     0
 10
-77.65935254248312
 20
79.26023615071733
 30
0.0
  0
VERTEX
  5
368
  8
__-2
  6
CONTINUOUS
 62
     0
 10
-77.66805304116313
 20
79.26844304215258
 30
0.0
  0
VERTEX
  5
369
  8
__-2
  6
CONTINUOUS
 62
     0
 10
-77.67583769787683
 20
79.27666746209607
 30
0.0
  0
VERTEX
  5
36A
  8
__-2
  6
CONTINUOUS
 62
     0
 10
-77.68270651262421
 20
79.2849094105478
 30
0.0
  0
VERTEX
  5
36B
  8
__-2
  6
CONTINUOUS
 62
     0
 10
-77.68865948540528
 20
79.29316888750776
 30
0.0
  0
VERTEX
  5
36C
  8
__-2
  6
CONTINUOUS
 62
     0
 10
-77.69369661622002
 20
79.30144589297595
 30
0.0
  0
VERTEX
  5
36D
  8
__-2
  6
CONTINUOUS
 62
     0
 10
-77.69781790506846
 20
79.30974042695236
 30
0.0
  0
VERTEX
  5
36E
  8
__-2
  6
CONTINUOUS
 62
     0
 10
-77.70102335195057
 20
79.31805248943701
 30
0.0
  0
VERTEX
  5
36F
  8
__-2
  6
CONTINUOUS
 62
     0
 10
-77.70331295686637
 20
79.3263820804299
 30
0.0
  0
VERTEX
  5
370
  8
__-2
  6
CONTINUOUS
 62
     0
 10
-77.70468671981584
 20
79.33472919993102
 30
0.0
  0
VERTEX
  5
371
  8
__-2
  6
CONTINUOUS
 62
     0
 10
-77.70514464079899
 20
79.34309384794038
 30
0.0
  0
VERTEX
  5
372
  8
__-2
  6
CONTINUOUS
 62
     0
 10
-77.70514464079899
 20
79.34309384794038
 30
0.0
  0
SEQEND
  5
373
  8
__-2
  6
CONTINUOUS
 62
     0
  0
LINE
  5
374
  8
__-2
  6
CONTINUOUS
 62
     0
 10
-54.45529670443786
 20
70.48133043076069
 30
0.0
 11
-48.4463255956964
 21
71.42567920070562
 31
0.0
  0
POLYLINE
  5
375
  8
__-2
  6
CONTINUOUS
 62
     0
 66
     1
 10
0.0
 20
0.0
 30
0.0
 70
   128
  0
VERTEX
  5
376
  8
__-2
  6
CONTINUOUS
 62
     0
 10
-58.20514464079898
 20
49.34309384794041
 30
0.0
  0
VERTEX
  5
377
  8
__-2
  6
CONTINUOUS
 62
     0
 10
-53.705144640799
 20
49.34309384794041
 30
0.0
  0
VERTEX
  5
378
  8
__-2
  6
CONTINUOUS
 62
     0
 10
-55.70514464079897
 20
68.87064848081573
 30
0.0
  0
SEQEND
  5
379
  8
__-2
  6
CONTINUOUS
 62
     0
  0
ARC
  5
37A
  8
__-2
  6
CONTINUOUS
 62
     0
 10
-54.21085259366136
 20
69.00138209493723
 30
0.0
 40
1.499999999999986
 50
99.37890631935743
 51
185.0000000000004
  0
LINE
  5
37B
  8
__-2
  6
CONTINUOUS
 62
     0
 10
65.52732004930462
 20
49.34309384794041
 30
0.0
 11
76.52732004930462
 21
49.34309384794041
 31
0.0
  0
LINE
  5
37C
  8
__-2
  6
ISO-07___
 62
     0
 10
87.0273200493046
 20
115.5930938479404
 30
0.0
 11
87.0273200493046
 21
10.51550105877233
 31
0.0
  0
CIRCLE
  5
37D
  8
__-2
  6
CONTINUOUS
 62
     0
 10
71.02732004930462
 20
115.5930938479404
 30
0.0
 40
16.0
  0
CIRCLE
  5
37E
  8
__-2
  6
CONTINUOUS
 62
     0
 10
71.02732004930462
 20
115.5930938479404
 30
0.0
 40
14.0
  0
LINE
  5
37F
  8
__-2
  6
ISO-07___
 62
     0
 10
55.02732004930458
 20
115.5930938479404
 30
0.0
 11
55.02732004930458
 21
11.13405997454802
 31
0.0
  0
CIRCLE
  5
380
  8
__-2
  6
CONTINUOUS
 62
     0
 10
71.02732004930462
 20
10.51550105877233
 30
0.0
 40
16.00000000000001
  0
POLYLINE
  5
381
  8
__-2
  6
VW-01____
 62
     0
 66
     1
 10
0.0
 20
0.0
 30
0.0
 70
   129
  0
VERTEX
  5
382
  8
__-2
  6
VW-01____
 62
     0
 10
69.52732004930462
 20
13.11357727012565
 30
0.0
  0
VERTEX
  5
383
  8
__-2
  6
VW-01____
 62
     0
 10
68.02732004930462
 20
10.51550105877233
 30
0.0
  0
VERTEX
  5
384
  8
__-2
  6
VW-01____
 62
     0
 10
69.52732004930462
 20
7.917424847419014
 30
0.0
  0
VERTEX
  5
385
  8
__-2
  6
VW-01____
 62
     0
 10
72.52732004930462
 20
7.917424847419014
 30
0.0
  0
VERTEX
  5
386
  8
__-2
  6
VW-01____
 62
     0
 10
74.02732004930462
 20
10.51550105877233
 30
0.0
  0
VERTEX
  5
387
  8
__-2
  6
VW-01____
 62
     0
 10
72.52732004930462
 20
13.11357727012565
 30
0.0
  0
SEQEND
  5
388
  8
__-2
  6
VW-01____
 62
     0
  0
LINE
  5
389
  8
__-2
  6
CONTINUOUS
 62
     0
 10
55.02732004930458
 20
72.39160502699468
 30
0.0
 11
55.02732004930458
 21
78.34309384794037
 31
0.0
  0
ARC
  5
38A
  8
__-2
  6
CONTINUOUS
 62
     0
 10
56.02732004930458
 20
78.34309384794037
 30
0.0
 40
1.000000000000014
 50
90.0
 51
179.9999999999992
  0
LINE
  5
38B
  8
__-2
  6
CONTINUOUS
 62
     0
 10
61.77747211294347
 20
70.48133043076069
 30
0.0
 11
55.76850100420204
 21
71.42567920070562
 31
0.0
  0
CIRCLE
  5
38C
  8
__-2
  6
CONTINUOUS
 62
     0
 10
71.02732004930462
 20
10.51550105877233
 30
0.0
 40
10.00000000000001
  0
CIRCLE
  5
38D
  8
__-2
  6
CONTINUOUS
 62
     0
 10
71.02732004930462
 20
10.51550105877233
 30
0.0
 40
5.5
  0
POLYLINE
  5
38E
  8
__-2
  6
CONTINUOUS
 62
     0
 66
     1
 10
0.0
 20
0.0
 30
0.0
 70
   128
  0
VERTEX
  5
38F
  8
__-2
  6
CONTINUOUS
 62
     0
 10
65.52732004930462
 20
49.34309384794041
 30
0.0
  0
VERTEX
  5
390
  8
__-2
  6
CONTINUOUS
 62
     0
 10
65.52732004930462
 20
59.34309384794041
 30
0.0
  0
VERTEX
  5
391
  8
__-2
  6
CONTINUOUS
 62
     0
 10
76.52732004930462
 20
59.34309384794041
 30
0.0
  0
VERTEX
  5
392
  8
__-2
  6
CONTINUOUS
 62
     0
 10
76.52732004930462
 20
49.34309384794041
 30
0.0
  0
SEQEND
  5
393
  8
__-2
  6
CONTINUOUS
 62
     0
  0
ARC
  5
394
  8
__-2
  6
CONTINUOUS
 62
     0
 10
56.02732004930458
 20
72.39160502699467
 30
0.0
 40
1.0
 50
180.0
 51
254.9999999999996
  0
LINE
  5
395
  8
__-2
  6
ISO-07___
 62
     0
 10
87.52732004930458
 20
79.34309384794038
 30
0.0
 11
118.6403683944686
 21
79.29847114714798
 31
0.0
  0
LINE
  5
396
  8
__-2
  6
ISO-07___
 62
     0
 10
80.5273200493046
 20
49.34309384794041
 30
0.0
 11
123.6403683944686
 21
49.29847114714802
 31
0.0
  0
DIMENSION
  5
397
  8
__-1-1
  6
CONTINUOUS
 62
     0
  2
*D9
 10
49.52732004930459
 20
49.34309384794041
 30
0.0
 11
47.715744333949
 21
64.3430938479404
 31
0.0
 70
    32
  3
___
 13
56.52732004930461
 23
79.34309384794038
 33
0.0
 14
61.52732004930461
 24
49.34309384794041
 34
0.0
 50
-90.0
  0
DIMENSION
  5
398
  8
__-1-1
  6
CONTINUOUS
 62
     0
  2
*D10
 10
81.0273200493046
 20
39.13405997454802
 30
0.0
 11
71.0273200493046
 21
40.9456356899036
 31
0.0
 70
    32
  3
___
 13
61.02732004930461
 23
49.34309384794041
 33
0.0
 14
81.0273200493046
 24
49.34309384794041
 34
0.0
  0
DIMENSION
  5
399
  8
__-1-1
  6
CONTINUOUS
 62
     0
  2
*D11
 10
87.0273200493046
 20
115.5930938479404
 30
0.0
 11
71.02732004930459
 21
117.404669563296
 31
0.0
 70
    32
  3
___
 13
55.02732004930458
 23
112.7180938479404
 33
0.0
 14
87.0273200493046
 24
112.7180938479404
 34
0.0
  0
DIMENSION
  5
39A
  8
__-1-1
  6
CONTINUOUS
 62
     0
  2
*D12
 10
65.52732004930462
 20
62.59309384794039
 30
0.0
 11
71.02732004930462
 21
64.39235600071817
 31
0.0
 70
    32
  3
___
 13
76.52732004930462
 23
59.34309384794041
 33
0.0
 14
65.52732004930462
 24
59.34309384794041
 34
0.0
  0
TEXT
  5
39B
  8
__-2
 62
     0
 10
136.5824866898303
 20
-7.111898191709167
 30
0.0
 40
2.664207175925926
  1
S=1/1
  7
OSAKA
 72
     2
 11
149.1423205191954
 21
-5.779794603746204
 31
0.0
 73
     2
  0
LINE
  5
39C
  8
__-2
  6
ISO-07___
 62
     0
 10
61.01728024535699
 20
10.56012375956473
 30
0.0
 11
61.01728024535699
 21
49.38771654873283
 31
0.0
  0
TEXT
  5
39D
  8
__-2
 62
     0
 10
145.3289321979631
 20
44.33115357048002
 30
0.0
 40
2.397786458333333
  1
姿図
  7
OSAKA
 72
     2
 11
149.0968823467726
 21
45.53004679964668
 31
0.0
 73
     2
  0
TEXT
  5
39E
  8
__-2
 62
     0
 10
91.05477354311337
 20
44.33115357048002
 30
0.0
 40
2.397786458333333
  1
断面図
  7
OSAKA
 72
     2
 11
96.87796922763718
 21
45.53004679964668
 31
0.0
 73
     2
  0
TEXT
  5
39F
  8
__-2
 62
     0
 10
91.05477354311337
 20
95.93516674538134
 30
0.0
 40
2.397786458333333
  1
平面図
  7
OSAKA
 72
     2
 11
96.87796922763718
 21
97.13405997454801
 31
0.0
 73
     2
  0
TEXT
  5
3A0
  8
__-2
 62
     0
 10
91.05477354311337
 20
-7.097907470017249
 30
0.0
 40
2.397786458333333
  1
背面図
  7
OSAKA
 72
     2
 11
96.87796922763718
 21
-5.899014240850583
 31
0.0
 73
     2
  0
POLYLINE
  5
3A1
  8
__-2
  6
CONTINUOUS
 62
     0
 66
     1
 10
0.0
 20
0.0
 30
0.0
 70
   128
  0
VERTEX
  5
3A2
  8
__-2
  6
CONTINUOUS
 62
     0
 10
65.52732004930462
 20
49.34309384794041
 30
0.0
  0
VERTEX
  5
3A3
  8
__-2
  6
CONTINUOUS
 62
     0
 10
61.02732004930461
 20
49.34309384794041
 30
0.0
  0
VERTEX
  5
3A4
  8
__-2
  6
CONTINUOUS
 62
     0
 10
63.02732004930462
 20
68.87064848081573
 30
0.0
  0
SEQEND
  5
3A5
  8
__-2
  6
CONTINUOUS
 62
     0
  0
DIMENSION
  5
3A6
  8
__-1-1
  6
CONTINUOUS
 62
     0
  2
*D13
 10
84.82307289027804
 20
59.34309384794041
 30
0.0
 11
83.01149717492245
 21
54.34309384794041
 31
0.0
 70
    32
  3
___
 13
76.52732004930462
 23
49.34309384794041
 33
0.0
 14
76.52732004930462
 24
59.34309384794041
 34
0.0
 50
-90.0
  0
LINE
  5
3A7
  8
__-2
  6
CONTINUOUS
 62
     0
 10
56.02732004930458
 20
79.34309384794038
 30
0.0
 11
86.0273200493046
 21
79.34309384794038
 31
0.0
  0
DIMENSION
  5
3A8
  8
__-1-1
  6
CONTINUOUS
 62
     0
  2
*D14
 10
85.0273200493046
 20
125.134059974548
 30
0.0
 11
86.0273200493046
 21
126.9333221273258
 31
0.0
 70
    32
  3
___
 13
87.0273200493046
 23
115.4993438479404
 33
0.0
 14
85.0273200493046
 24
115.5930938479404
 34
0.0
  0
INSERT
  5
3A9
  8
__-2
 62
     7
  2
CALLOUT-4
 10
87.6674380592144
 20
135.2727521261691
 30
0.0
  0
INSERT
  5
3AA
  8
__-2
 62
     7
  2
CALLOUT-5
 10
82.95508529550169
 20
32.1946365819487
 30
0.0
  0
ARC
  5
3AB
  8
__-2
  6
CONTINUOUS
 62
     0
 10
61.533028002167
 20
69.00138209493723
 30
0.0
 40
1.500000000000002
 50
354.9999999999997
 51
80.62109368064375
  0
LINE
  5
3AC
  8
__-2
  6
CONTINUOUS
 62
     0
 10
87.02732004930458
 20
72.39160502699467
 30
0.0
 11
87.02732004930458
 21
78.34309384794035
 31
0.0
  0
ARC
  5
3AD
  8
__-2
  6
CONTINUOUS
 62
     0
 10
86.02732004930458
 20
78.34309384794035
 30
0.0
 40
1.0
 50
0.0000000000007958
 51
90.0
  0
ARC
  5
3AE
  8
__-2
  6
CONTINUOUS
 62
     0
 10
86.02732004930458
 20
72.39160502699465
 30
0.0
 40
0.9999999999999893
 50
285.0000000000014
 51
0.0
  0
LINE
  5
3AF
  8
__-2
  6
ISO-07___
 62
     0
 10
81.0273200493046
 20
10.51550105877233
 30
0.0
 11
81.02732004930458
 21
49.34309384794041
 31
0.0
  0
LINE
  5
3B0
  8
__-2
  6
CONTINUOUS
 62
     0
 10
128.1403683944686
 20
49.29847114714802
 30
0.0
 11
139.1403683944686
 21
49.29847114714802
 31
0.0
  0
LINE
  5
3B1
  8
__-2
  6
CONTINUOUS
 62
     0
 10
117.6403683944687
 20
72.34698232620228
 30
0.0
 11
117.6403683944687
 21
78.29847114714796
 31
0.0
  0
ARC
  5
3B2
  8
__-2
  6
CONTINUOUS
 62
     0
 10
118.6403683944686
 20
78.29847114714796
 30
0.0
 40
1.000000000000014
 50
90.0
 51
179.9999999999992
  0
LINE
  5
3B3
  8
__-2
  6
CONTINUOUS
 62
     0
 10
124.0989601148672
 20
70.4367077299683
 30
0.0
 11
118.3815493493661
 21
71.38105649991321
 31
0.0
  0
ARC
  5
3B4
  8
__-2
  6
CONTINUOUS
 62
     0
 10
118.6403683944686
 20
72.34698232620227
 30
0.0
 40
0.9999999999999432
 50
180.0
 51
255.0000000000015
  0
POLYLINE
  5
3B5
  8
__-2
  6
CONTINUOUS
 62
     0
 66
     1
 10
0.0
 20
0.0
 30
0.0
 70
   128
  0
VERTEX
  5
3B6
  8
__-2
  6
CONTINUOUS
 62
     0
 10
128.1403683944686
 20
49.29847114714802
 30
0.0
  0
VERTEX
  5
3B7
  8
__-2
  6
CONTINUOUS
 62
     0
 10
123.6403683944686
 20
49.29847114714802
 30
0.0
  0
VERTEX
  5
3B8
  8
__-2
  6
CONTINUOUS
 62
     0
 10
125.3488080512283
 20
68.82602578002333
 30
0.0
  0
SEQEND
  5
3B9
  8
__-2
  6
CONTINUOUS
 62
     0
  0
LINE
  5
3BA
  8
__-2
  6
CONTINUOUS
 62
     0
 10
118.6403683944686
 20
79.29847114714798
 30
0.0
 11
148.6403683944686
 21
79.29847114714798
 31
0.0
  0
ARC
  5
3BB
  8
__-2
  6
CONTINUOUS
 62
     0
 10
123.8545160040907
 20
68.95675939414484
 30
0.0
 40
1.499999999999988
 50
354.9999999999996
 51
80.62109368064256
  0
POLYLINE
  5
3BC
  8
__-2
  6
CONTINUOUS
 62
     0
 66
     1
 10
0.0
 20
0.0
 30
0.0
 70
   128
  0
VERTEX
  5
3BD
  8
__-2
  6
CONTINUOUS
 62
     0
 10
139.1403683944686
 20
49.29847114714802
 30
0.0
  0
VERTEX
  5
3BE
  8
__-2
  6
CONTINUOUS
 62
     0
 10
143.6403683944686
 20
49.29847114714802
 30
0.0
  0
VERTEX
  5
3BF
  8
__-2
  6
CONTINUOUS
 62
     0
 10
141.9319287377089
 20
68.82602578002333
 30
0.0
  0
SEQEND
  5
3C0
  8
__-2
  6
CONTINUOUS
 62
     0
  0
LINE
  5
3C1
  8
__-2
  6
CONTINUOUS
 62
     0
 10
149.6403683944686
 20
72.34698232620227
 30
0.0
 11
149.6403683944686
 21
78.29847114714795
 31
0.0
  0
ARC
  5
3C2
  8
__-2
  6
CONTINUOUS
 62
     0
 10
148.6403683944686
 20
78.29847114714795
 30
0.0
 40
1.0
 50
0.0000000000007958
 51
90.0
  0
LINE
  5
3C3
  8
__-2
  6
CONTINUOUS
 62
     0
 10
143.18177667407
 20
70.43670772996829
 30
0.0
 11
148.8991874395712
 21
71.3810564999132
 31
0.0
  0
ARC
  5
3C4
  8
__-2
  6
CONTINUOUS
 62
     0
 10
148.6403683944686
 20
72.34698232620225
 30
0.0
 40
0.9999999999999893
 50
285.0000000000014
 51
0.0
  0
ARC
  5
3C5
  8
__-2
  6
CONTINUOUS
 62
     0
 10
143.4262207848465
 20
68.95675939414483
 30
0.0
 40
1.499999999999986
 50
99.37890631935743
 51
185.0000000000004
  0
LINE
  5
3C6
  8
__-2
  6
CONTINUOUS
 62
     0
 10
56.02732004930458
 20
79.34309384794038
 30
0.0
 11
57.02732004930458
 21
79.34309384794038
 31
0.0
  0
LINE
  5
3C7
  8
__-2
  6
CONTINUOUS
 62
     0
 10
85.0273200493046
 20
79.34309384794038
 30
0.0
 11
86.0273200493046
 21
79.34309384794038
 31
0.0
  0
POLYLINE
  5
3C8
  8
__-2
  6
CONTINUOUS
 62
     0
 66
     1
 10
0.0
 20
0.0
 30
0.0
 70
   128
  0
VERTEX
  5
3C9
  8
__-2
  6
CONTINUOUS
 62
     0
 10
85.02732004930458
 20
79.34309384794038
 30
0.0
  0
VERTEX
  5
3CA
  8
__-2
  6
CONTINUOUS
 62
     0
 10
85.02686212832143
 20
79.33472919993102
 30
0.0
  0
VERTEX
  5
3CB
  8
__-2
  6
CONTINUOUS
 62
     0
 10
85.02548836537196
 20
79.3263820804299
 30
0.0
  0
VERTEX
  5
3CC
  8
__-2
  6
CONTINUOUS
 62
     0
 10
85.02319876045615
 20
79.31805248943701
 30
0.0
  0
VERTEX
  5
3CD
  8
__-2
  6
CONTINUOUS
 62
     0
 10
85.01999331357405
 20
79.30974042695236
 30
0.0
  0
VERTEX
  5
3CE
  8
__-2
  6
CONTINUOUS
 62
     0
 10
85.01587202472561
 20
79.30144589297595
 30
0.0
  0
VERTEX
  5
3CF
  8
__-2
  6
CONTINUOUS
 62
     0
 10
85.01083489391087
 20
79.29316888750776
 30
0.0
  0
VERTEX
  5
3D0
  8
__-2
  6
CONTINUOUS
 62
     0
 10
85.0048819211298
 20
79.2849094105478
 30
0.0
  0
VERTEX
  5
3D1
  8
__-2
  6
CONTINUOUS
 62
     0
 10
84.99801310638242
 20
79.27666746209607
 30
0.0
  0
VERTEX
  5
3D2
  8
__-2
  6
CONTINUOUS
 62
     0
 10
84.99022844966872
 20
79.26844304215258
 30
0.0
  0
VERTEX
  5
3D3
  8
__-2
  6
CONTINUOUS
 62
     0
 10
84.9815279509887
 20
79.26023615071733
 30
0.0
  0
VERTEX
  5
3D4
  8
__-2
  6
CONTINUOUS
 62
     0
 10
84.97191161034237
 20
79.2520467877903
 30
0.0
  0
VERTEX
  5
3D5
  8
__-2
  6
CONTINUOUS
 62
     0
 10
84.96137942772972
 20
79.24387495337152
 30
0.0
  0
VERTEX
  5
3D6
  8
__-2
  6
CONTINUOUS
 62
     0
 10
84.94993140315076
 20
79.23572064746097
 30
0.0
  0
VERTEX
  5
3D7
  8
__-2
  6
CONTINUOUS
 62
     0
 10
84.93756753660548
 20
79.22758387005865
 30
0.0
  0
VERTEX
  5
3D8
  8
__-2
  6
CONTINUOUS
 62
     0
 10
84.9242878280939
 20
79.21946462116456
 30
0.0
  0
VERTEX
  5
3D9
  8
__-2
  6
CONTINUOUS
 62
     0
 10
84.91009227761597
 20
79.21136290077871
 30
0.0
  0
VERTEX
  5
3DA
  8
__-2
  6
CONTINUOUS
 62
     0
 10
84.89498088517173
 20
79.2032787089011
 30
0.0
  0
VERTEX
  5
3DB
  8
__-2
  6
CONTINUOUS
 62
     0
 10
84.87895365076119
 20
79.19521204553172
 30
0.0
  0
VERTEX
  5
3DC
  8
__-2
  6
CONTINUOUS
 62
     0
 10
84.86201057438433
 20
79.18716291067057
 30
0.0
  0
VERTEX
  5
3DD
  8
__-2
  6
CONTINUOUS
 62
     0
 10
84.84415165604113
 20
79.17913130431764
 30
0.0
  0
VERTEX
  5
3DE
  8
__-2
  6
CONTINUOUS
 62
     0
 10
84.82537689573162
 20
79.17111722647294
 30
0.0
  0
VERTEX
  5
3DF
  8
__-2
  6
CONTINUOUS
 62
     0
 10
84.8056862934558
 20
79.16312067713649
 30
0.0
  0
VERTEX
  5
3E0
  8
__-2
  6
CONTINUOUS
 62
     0
 10
84.78507984921367
 20
79.15514165630827
 30
0.0
  0
VERTEX
  5
3E1
  8
__-2
  6
CONTINUOUS
 62
     0
 10
84.76355756300521
 20
79.14718016398828
 30
0.0
  0
VERTEX
  5
3E2
  8
__-2
  6
CONTINUOUS
 62
     0
 10
84.74111943483042
 20
79.13923620017653
 30
0.0
  0
VERTEX
  5
3E3
  8
__-2
  6
CONTINUOUS
 62
     0
 10
84.71776546468934
 20
79.13130976487301
 30
0.0
  0
VERTEX
  5
3E4
  8
__-2
  6
CONTINUOUS
 62
     0
 10
84.69349565258193
 20
79.12340085807773
 30
0.0
  0
VERTEX
  5
3E5
  8
__-2
  6
CONTINUOUS
 62
     0
 10
84.66830999850819
 20
79.11550947979069
 30
0.0
  0
VERTEX
  5
3E6
  8
__-2
  6
CONTINUOUS
 62
     0
 10
84.64220850246815
 20
79.10763563001187
 30
0.0
  0
VERTEX
  5
3E7
  8
__-2
  6
CONTINUOUS
 62
     0
 10
84.61519116446179
 20
79.09977930874129
 30
0.0
  0
VERTEX
  5
3E8
  8
__-2
  6
CONTINUOUS
 62
     0
 10
84.5872579844891
 20
79.09194051597893
 30
0.0
  0
VERTEX
  5
3E9
  8
__-2
  6
CONTINUOUS
 62
     0
 10
84.55840896255012
 20
79.08411925172481
 30
0.0
  0
VERTEX
  5
3EA
  8
__-2
  6
CONTINUOUS
 62
     0
 10
84.5286440986448
 20
79.07631551597893
 30
0.0
  0
VERTEX
  5
3EB
  8
__-2
  6
CONTINUOUS
 62
     0
 10
84.49796339277317
 20
79.06852930874129
 30
0.0
  0
VERTEX
  5
3EC
  8
__-2
  6
CONTINUOUS
 62
     0
 10
84.46636684493521
 20
79.06076063001187
 30
0.0
  0
VERTEX
  5
3ED
  8
__-2
  6
CONTINUOUS
 62
     0
 10
84.43385445513096
 20
79.05300947979069
 30
0.0
  0
VERTEX
  5
3EE
  8
__-2
  6
CONTINUOUS
 62
     0
 10
84.40042622336037
 20
79.04527585807773
 30
0.0
  0
VERTEX
  5
3EF
  8
__-2
  6
CONTINUOUS
 62
     0
 10
84.36608214962348
 20
79.03755976487301
 30
0.0
  0
VERTEX
  5
3F0
  8
__-2
  6
CONTINUOUS
 62
     0
 10
84.33082223392026
 20
79.02986120017653
 30
0.0
  0
VERTEX
  5
3F1
  8
__-2
  6
CONTINUOUS
 62
     0
 10
84.29464647625073
 20
79.02218016398828
 30
0.0
  0
VERTEX
  5
3F2
  8
__-2
  6
CONTINUOUS
 62
     0
 10
84.25755487661488
 20
79.01451665630827
 30
0.0
  0
VERTEX
  5
3F3
  8
__-2
  6
CONTINUOUS
 62
     0
 10
84.21954743501271
 20
79.00687067713649
 30
0.0
  0
VERTEX
  5
3F4
  8
__-2
  6
CONTINUOUS
 62
     0
 10
84.18062415144422
 20
78.99924222647294
 30
0.0
  0
VERTEX
  5
3F5
  8
__-2
  6
CONTINUOUS
 62
     0
 10
84.14078502590942
 20
78.99163130431764
 30
0.0
  0
VERTEX
  5
3F6
  8
__-2
  6
CONTINUOUS
 62
     0
 10
84.1000300584083
 20
78.98403791067057
 30
0.0
  0
VERTEX
  5
3F7
  8
__-2
  6
CONTINUOUS
 62
     0
 10
84.05835924894086
 20
78.97646204553172
 30
0.0
  0
VERTEX
  5
3F8
  8
__-2
  6
CONTINUOUS
 62
     0
 10
84.01577259750711
 20
78.9689037089011
 30
0.0
  0
VERTEX
  5
3F9
  8
__-2
  6
CONTINUOUS
 62
     0
 10
83.97227010410704
 20
78.96136290077871
 30
0.0
  0
VERTEX
  5
3FA
  8
__-2
  6
CONTINUOUS
 62
     0
 10
83.92785176874065
 20
78.95383962116456
 30
0.0
  0
VERTEX
  5
3FB
  8
__-2
  6
CONTINUOUS
 62
     0
 10
83.88251759140795
 20
78.94633387005865
 30
0.0
  0
VERTEX
  5
3FC
  8
__-2
  6
CONTINUOUS
 62
     0
 10
83.83626757210892
 20
78.93884564746097
 30
0.0
  0
VERTEX
  5
3FD
  8
__-2
  6
CONTINUOUS
 62
     0
 10
83.78910171084358
 20
78.93137495337152
 30
0.0
  0
VERTEX
  5
3FE
  8
__-2
  6
CONTINUOUS
 62
     0
 10
83.74102000761192
 20
78.9239217877903
 30
0.0
  0
VERTEX
  5
3FF
  8
__-2
  6
CONTINUOUS
 62
     0
 10
83.69202246241395
 20
78.91648615071733
 30
0.0
  0
VERTEX
  5
400
  8
__-2
  6
CONTINUOUS
 62
     0
 10
83.64210907524965
 20
78.90906804215258
 30
0.0
  0
VERTEX
  5
401
  8
__-2
  6
CONTINUOUS
 62
     0
 10
83.59127984611904
 20
78.90166746209607
 30
0.0
  0
VERTEX
  5
402
  8
__-2
  6
CONTINUOUS
 62
     0
 10
83.5395347750221
 20
78.8942844105478
 30
0.0
  0
VERTEX
  5
403
  8
__-2
  6
CONTINUOUS
 62
     0
 10
83.48687386195886
 20
78.88691888750776
 30
0.0
  0
VERTEX
  5
404
  8
__-2
  6
CONTINUOUS
 62
     0
 10
83.43329710692929
 20
78.87957089297595
 30
0.0
  0
VERTEX
  5
405
  8
__-2
  6
CONTINUOUS
 62
     0
 10
83.37880450993342
 20
78.87224042695236
 30
0.0
  0
VERTEX
  5
406
  8
__-2
  6
CONTINUOUS
 62
     0
 10
83.32339607097123
 20
78.86492748943701
 30
0.0
  0
VERTEX
  5
407
  8
__-2
  6
CONTINUOUS
 62
     0
 10
83.2670717900427
 20
78.8576320804299
 30
0.0
  0
VERTEX
  5
408
  8
__-2
  6
CONTINUOUS
 62
     0
 10
83.20983166714788
 20
78.85035419993102
 30
0.0
  0
VERTEX
  5
409
  8
__-2
  6
CONTINUOUS
 62
     0
 10
83.15167570228674
 20
78.84309384794038
 30
0.0
  0
VERTEX
  5
40A
  8
__-2
  6
CONTINUOUS
 62
     0
 10
83.15167570228674
 20
78.84309384794038
 30
0.0
  0
VERTEX
  5
40B
  8
__-2
  6
CONTINUOUS
 62
     0
 10
83.0927265950169
 20
78.83586620459138
 30
0.0
  0
VERTEX
  5
40C
  8
__-2
  6
CONTINUOUS
 62
     0
 10
83.03310704489603
 20
78.82868645001747
 30
0.0
  0
VERTEX
  5
40D
  8
__-2
  6
CONTINUOUS
 62
     0
 10
82.97281705192411
 20
78.82155458421863
 30
0.0
  0
VERTEX
  5
40E
  8
__-2
  6
CONTINUOUS
 62
     0
 10
82.91185661610113
 20
78.81447060719486
 30
0.0
  0
VERTEX
  5
40F
  8
__-2
  6
CONTINUOUS
 62
     0
 10
82.85022573742711
 20
78.80743451894617
 30
0.0
  0
VERTEX
  5
410
  8
__-2
  6
CONTINUOUS
 62
     0
 10
82.78792441590204
 20
78.80044631947254
 30
0.0
  0
VERTEX
  5
411
  8
__-2
  6
CONTINUOUS
 62
     0
 10
82.72495265152591
 20
78.793506008774
 30
0.0
  0
VERTEX
  5
412
  8
__-2
  6
CONTINUOUS
 62
     0
 10
82.66131044429875
 20
78.78661358685055
 30
0.0
  0
VERTEX
  5
413
  8
__-2
  6
CONTINUOUS
 62
     0
 10
82.59699779422053
 20
78.77976905370217
 30
0.0
  0
VERTEX
  5
414
  8
__-2
  6
CONTINUOUS
 62
     0
 10
82.53201470129127
 20
78.77297240932884
 30
0.0
  0
VERTEX
  5
415
  8
__-2
  6
CONTINUOUS
 62
     0
 10
82.46636116551096
 20
78.7662236537306
 30
0.0
  0
VERTEX
  5
416
  8
__-2
  6
CONTINUOUS
 62
     0
 10
82.40003718687959
 20
78.75952278690744
 30
0.0
  0
VERTEX
  5
417
  8
__-2
  6
CONTINUOUS
 62
     0
 10
82.33304276539717
 20
78.75286980885934
 30
0.0
  0
VERTEX
  5
418
  8
__-2
  6
CONTINUOUS
 62
     0
 10
82.26537790106372
 20
78.74626471958632
 30
0.0
  0
VERTEX
  5
419
  8
__-2
  6
CONTINUOUS
 62
     0
 10
82.19704259387922
 20
78.73970751908838
 30
0.0
  0
VERTEX
  5
41A
  8
__-2
  6
CONTINUOUS
 62
     0
 10
82.12803684384366
 20
78.73319820736552
 30
0.0
  0
VERTEX
  5
41B
  8
__-2
  6
CONTINUOUS
 62
     0
 10
82.05836065095706
 20
78.72673678441772
 30
0.0
  0
VERTEX
  5
41C
  8
__-2
  6
CONTINUOUS
 62
     0
 10
81.98801401521942
 20
78.720323250245
 30
0.0
  0
VERTEX
  5
41D
  8
__-2
  6
CONTINUOUS
 62
     0
 10
81.91699693663071
 20
78.71395760484737
 30
0.0
  0
VERTEX
  5
41E
  8
__-2
  6
CONTINUOUS
 62
     0
 10
81.84530941519097
 20
78.7076398482248
 30
0.0
  0
VERTEX
  5
41F
  8
__-2
  6
CONTINUOUS
 62
     0
 10
81.77295145090017
 20
78.70136998037731
 30
0.0
  0
VERTEX
  5
420
  8
__-2
  6
CONTINUOUS
 62
     0
 10
81.69992304375833
 20
78.69514800130489
 30
0.0
  0
VERTEX
  5
421
  8
__-2
  6
CONTINUOUS
 62
     0
 10
81.62622419376544
 20
78.68897391100755
 30
0.0
  0
VERTEX
  5
422
  8
__-2
  6
CONTINUOUS
 62
     0
 10
81.55185490092151
 20
78.68284770948527
 30
0.0
  0
VERTEX
  5
423
  8
__-2
  6
CONTINUOUS
 62
     0
 10
81.47681516522653
 20
78.67676939673807
 30
0.0
  0
VERTEX
  5
424
  8
__-2
  6
CONTINUOUS
 62
     0
 10
81.4011049866805
 20
78.67073897276595
 30
0.0
  0
VERTEX
  5
425
  8
__-2
  6
CONTINUOUS
 62
     0
 10
81.3247243652834
 20
78.66475643756891
 30
0.0
  0
VERTEX
  5
426
  8
__-2
  6
CONTINUOUS
 62
     0
 10
81.24767330103526
 20
78.65882179114695
 30
0.0
  0
VERTEX
  5
427
  8
__-2
  6
CONTINUOUS
 62
     0
 10
81.1699517939361
 20
78.65293503350006
 30
0.0
  0
VERTEX
  5
428
  8
__-2
  6
CONTINUOUS
 62
     0
 10
81.09155984398586
 20
78.64709616462824
 30
0.0
  0
VERTEX
  5
429
  8
__-2
  6
CONTINUOUS
 62
     0
 10
81.01249745118459
 20
78.64130518453149
 30
0.0
  0
VERTEX
  5
42A
  8
__-2
  6
CONTINUOUS
 62
     0
 10
80.93276461553226
 20
78.63556209320983
 30
0.0
  0
VERTEX
  5
42B
  8
__-2
  6
CONTINUOUS
 62
     0
 10
80.8523613370289
 20
78.62986689066324
 30
0.0
  0
VERTEX
  5
42C
  8
__-2
  6
CONTINUOUS
 62
     0
 10
80.77128761567448
 20
78.6242195768917
 30
0.0
  0
VERTEX
  5
42D
  8
__-2
  6
CONTINUOUS
 62
     0
 10
80.689543451469
 20
78.61862015189527
 30
0.0
  0
VERTEX
  5
42E
  8
__-2
  6
CONTINUOUS
 62
     0
 10
80.6071288444125
 20
78.6130686156739
 30
0.0
  0
VERTEX
  5
42F
  8
__-2
  6
CONTINUOUS
 62
     0
 10
80.52404379450493
 20
78.6075649682276
 30
0.0
  0
VERTEX
  5
430
  8
__-2
  6
CONTINUOUS
 62
     0
 10
80.44028830174632
 20
78.60210920955639
 30
0.0
  0
VERTEX
  5
431
  8
__-2
  6
CONTINUOUS
 62
     0
 10
80.35586236613665
 20
78.59670133966024
 30
0.0
  0
VERTEX
  5
432
  8
__-2
  6
CONTINUOUS
 62
     0
 10
80.27076598767596
 20
78.59134135853917
 30
0.0
  0
VERTEX
  5
433
  8
__-2
  6
CONTINUOUS
 62
     0
 10
80.1849991663642
 20
78.58602926619317
 30
0.0
  0
VERTEX
  5
434
  8
__-2
  6
CONTINUOUS
 62
     0
 10
80.0985619022014
 20
78.58076506262225
 30
0.0
  0
VERTEX
  5
435
  8
__-2
  6
CONTINUOUS
 62
     0
 10
80.01145419518755
 20
78.5755487478264
 30
0.0
  0
VERTEX
  5
436
  8
__-2
  6
CONTINUOUS
 62
     0
 10
79.92367604532265
 20
78.57038032180563
 30
0.0
  0
VERTEX
  5
437
  8
__-2
  6
CONTINUOUS
 62
     0
 10
79.8352274526067
 20
78.56525978455993
 30
0.0
  0
VERTEX
  5
438
  8
__-2
  6
CONTINUOUS
 62
     0
 10
79.74610841703972
 20
78.56018713608931
 30
0.0
  0
VERTEX
  5
439
  8
__-2
  6
CONTINUOUS
 62
     0
 10
79.65631893862167
 20
78.55516237639377
 30
0.0
  0
VERTEX
  5
43A
  8
__-2
  6
CONTINUOUS
 62
     0
 10
79.56585901735258
 20
78.5501855054733
 30
0.0
  0
VERTEX
  5
43B
  8
__-2
  6
CONTINUOUS
 62
     0
 10
79.47472865323243
 20
78.54525652332791
 30
0.0
  0
VERTEX
  5
43C
  8
__-2
  6
CONTINUOUS
 62
     0
 10
79.38292784626125
 20
78.54037542995758
 30
0.0
  0
VERTEX
  5
43D
  8
__-2
  6
CONTINUOUS
 62
     0
 10
79.29045659643901
 20
78.53554222536233
 30
0.0
  0
VERTEX
  5
43E
  8
__-2
  6
CONTINUOUS
 62
     0
 10
79.19731490376573
 20
78.53075690954216
 30
0.0
  0
VERTEX
  5
43F
  8
__-2
  6
CONTINUOUS
 62
     0
 10
79.10350276824138
 20
78.52601948249706
 30
0.0
  0
VERTEX
  5
440
  8
__-2
  6
CONTINUOUS
 62
     0
 10
79.00902018986602
 20
78.52132994422703
 30
0.0
  0
VERTEX
  5
441
  8
__-2
  6
CONTINUOUS
 62
     0
 10
78.91386716863958
 20
78.51668829473209
 30
0.0
  0
VERTEX
  5
442
  8
__-2
  6
CONTINUOUS
 62
     0
 10
78.81804370456211
 20
78.51209453401222
 30
0.0
  0
VERTEX
  5
443
  8
__-2
  6
CONTINUOUS
 62
     0
 10
78.7215497976336
 20
78.50754866206742
 30
0.0
  0
VERTEX
  5
444
  8
__-2
  6
CONTINUOUS
 62
     0
 10
78.62438544785402
 20
78.5030506788977
 30
0.0
  0
VERTEX
  5
445
  8
__-2
  6
CONTINUOUS
 62
     0
 10
78.5265506552234
 20
78.49860058450305
 30
0.0
  0
VERTEX
  5
446
  8
__-2
  6
CONTINUOUS
 62
     0
 10
78.42804541974174
 20
78.49419837888348
 30
0.0
  0
VERTEX
  5
447
  8
__-2
  6
CONTINUOUS
 62
     0
 10
78.32886974140902
 20
78.48984406203898
 30
0.0
  0
VERTEX
  5
448
  8
__-2
  6
CONTINUOUS
 62
     0
 10
78.22902362022526
 20
78.48553763396956
 30
0.0
  0
VERTEX
  5
449
  8
__-2
  6
CONTINUOUS
 62
     0
 10
78.12850705619044
 20
78.4812790946752
 30
0.0
  0
VERTEX
  5
44A
  8
__-2
  6
CONTINUOUS
 62
     0
 10
78.02732004930459
 20
78.47706844415593
 30
0.0
  0
VERTEX
  5
44B
  8
__-2
  6
CONTINUOUS
 62
     0
 10
78.02732004930459
 20
78.47706844415593
 30
0.0
  0
VERTEX
  5
44C
  8
__-2
  6
CONTINUOUS
 62
     0
 10
77.92567512143557
 20
78.47291444666585
 30
0.0
  0
VERTEX
  5
44D
  8
__-2
  6
CONTINUOUS
 62
     0
 10
77.82378479445129
 20
78.46882586645907
 30
0.0
  0
VERTEX
  5
44E
  8
__-2
  6
CONTINUOUS
 62
     0
 10
77.72164906835172
 20
78.4648027035356
 30
0.0
  0
VERTEX
  5
44F
  8
__-2
  6
CONTINUOUS
 62
     0
 10
77.6192679431369
 20
78.46084495789545
 30
0.0
  0
VERTEX
  5
450
  8
__-2
  6
CONTINUOUS
 62
     0
 10
77.51664141880681
 20
78.4569526295386
 30
0.0
  0
VERTEX
  5
451
  8
__-2
  6
CONTINUOUS
 62
     0
 10
77.41376949536145
 20
78.45312571846506
 30
0.0
  0
VERTEX
  5
452
  8
__-2
  6
CONTINUOUS
 62
     0
 10
77.31065217280081
 20
78.44936422467482
 30
0.0
  0
VERTEX
  5
453
  8
__-2
  6
CONTINUOUS
 62
     0
 10
77.20728945112491
 20
78.44566814816791
 30
0.0
  0
VERTEX
  5
454
  8
__-2
  6
CONTINUOUS
 62
     0
 10
77.10368133033373
 20
78.44203748894431
 30
0.0
  0
VERTEX
  5
455
  8
__-2
  6
CONTINUOUS
 62
     0
 10
76.99982781042729
 20
78.438472247004
 30
0.0
  0
VERTEX
  5
456
  8
__-2
  6
CONTINUOUS
 62
     0
 10
76.89572889140558
 20
78.434972422347
 30
0.0
  0
VERTEX
  5
457
  8
__-2
  6
CONTINUOUS
 62
     0
 10
76.7913845732686
 20
78.43153801497331
 30
0.0
  0
VERTEX
  5
458
  8
__-2
  6
CONTINUOUS
 62
     0
 10
76.68679485601635
 20
78.42816902488293
 30
0.0
  0
VERTEX
  5
459
  8
__-2
  6
CONTINUOUS
 62
     0
 10
76.58195973964882
 20
78.42486545207585
 30
0.0
  0
VERTEX
  5
45A
  8
__-2
  6
CONTINUOUS
 62
     0
 10
76.47687922416604
 20
78.42162729655207
 30
0.0
  0
VERTEX
  5
45B
  8
__-2
  6
CONTINUOUS
 62
     0
 10
76.37155330956799
 20
78.41845455831162
 30
0.0
  0
VERTEX
  5
45C
  8
__-2
  6
CONTINUOUS
 62
     0
 10
76.26598199585466
 20
78.41534723735448
 30
0.0
  0
VERTEX
  5
45D
  8
__-2
  6
CONTINUOUS
 62
     0
 10
76.16016528302606
 20
78.41230533368064
 30
0.0
  0
VERTEX
  5
45E
  8
__-2
  6
CONTINUOUS
 62
     0
 10
76.0541031710822
 20
78.4093288472901
 30
0.0
  0
VERTEX
  5
45F
  8
__-2
  6
CONTINUOUS
 62
     0
 10
75.94779566002308
 20
78.40641777818288
 30
0.0
  0
VERTEX
  5
460
  8
__-2
  6
CONTINUOUS
 62
     0
 10
75.84124274984867
 20
78.40357212635897
 30
0.0
  0
VERTEX
  5
461
  8
__-2
  6
CONTINUOUS
 62
     0
 10
75.734444440559
 20
78.40079189181836
 30
0.0
  0
VERTEX
  5
462
  8
__-2
  6
CONTINUOUS
 62
     0
 10
75.62740073215406
 20
78.39807707456106
 30
0.0
  0
VERTEX
  5
463
  8
__-2
  6
CONTINUOUS
 62
     0
 10
75.52011162463384
 20
78.39542767458707
 30
0.0
  0
VERTEX
  5
464
  8
__-2
  6
CONTINUOUS
 62
     0
 10
75.41257711799835
 20
78.39284369189639
 30
0.0
  0
VERTEX
  5
465
  8
__-2
  6
CONTINUOUS
 62
     0
 10
75.3047972122476
 20
78.39032512648902
 30
0.0
  0
VERTEX
  5
466
  8
__-2
  6
CONTINUOUS
 62
     0
 10
75.19677190738159
 20
78.38787197836496
 30
0.0
  0
VERTEX
  5
467
  8
__-2
  6
CONTINUOUS
 62
     0
 10
75.08850120340031
 20
78.3854842475242
 30
0.0
  0
VERTEX
  5
468
  8
__-2
  6
CONTINUOUS
 62
     0
 10
74.97998510030375
 20
78.38316193396676
 30
0.0
  0
VERTEX
  5
469
  8
__-2
  6
CONTINUOUS
 62
     0
 10
74.87122359809192
 20
78.38090503769261
 30
0.0
  0
VERTEX
  5
46A
  8
__-2
  6
CONTINUOUS
 62
     0
 10
74.76221669676482
 20
78.37871355870178
 30
0.0
  0
VERTEX
  5
46B
  8
__-2
  6
CONTINUOUS
 62
     0
 10
74.65296439632246
 20
78.37658749699426
 30
0.0
  0
VERTEX
  5
46C
  8
__-2
  6
CONTINUOUS
 62
     0
 10
74.54346669676482
 20
78.37452685257006
 30
0.0
  0
VERTEX
  5
46D
  8
__-2
  6
CONTINUOUS
 62
     0
 10
74.43372359809192
 20
78.37253162542915
 30
0.0
  0
VERTEX
  5
46E
  8
__-2
  6
CONTINUOUS
 62
     0
 10
74.32373510030375
 20
78.37060181557155
 30
0.0
  0
VERTEX
  5
46F
  8
__-2
  6
CONTINUOUS
 62
     0
 10
74.21350120340031
 20
78.36873742299727
 30
0.0
  0
VERTEX
  5
470
  8
__-2
  6
CONTINUOUS
 62
     0
 10
74.10302190738159
 20
78.36693844770629
 30
0.0
  0
VERTEX
  5
471
  8
__-2
  6
CONTINUOUS
 62
     0
 10
73.9922972122476
 20
78.36520488969862
 30
0.0
  0
VERTEX
  5
472
  8
__-2
  6
CONTINUOUS
 62
     0
 10
73.88132711799835
 20
78.36353674897425
 30
0.0
  0
VERTEX
  5
473
  8
__-2
  6
CONTINUOUS
 62
     0
 10
73.77011162463384
 20
78.3619340255332
 30
0.0
  0
VERTEX
  5
474
  8
__-2
  6
CONTINUOUS
 62
     0
 10
73.65865073215406
 20
78.36039671937546
 30
0.0
  0
VERTEX
  5
475
  8
__-2
  6
CONTINUOUS
 62
     0
 10
73.546944440559
 20
78.35892483050102
 30
0.0
  0
VERTEX
  5
476
  8
__-2
  6
CONTINUOUS
 62
     0
 10
73.43499274984867
 20
78.35751835890989
 30
0.0
  0
VERTEX
  5
477
  8
__-2
  6
CONTINUOUS
 62
     0
 10
73.32279566002308
 20
78.35617730460207
 30
0.0
  0
VERTEX
  5
478
  8
__-2
  6
CONTINUOUS
 62
     0
 10
73.2103531710822
 20
78.35490166757756
 30
0.0
  0
VERTEX
  5
479
  8
__-2
  6
CONTINUOUS
 62
     0
 10
73.09766528302606
 20
78.35369144783635
 30
0.0
  0
VERTEX
  5
47A
  8
__-2
  6
CONTINUOUS
 62
     0
 10
72.98473199585466
 20
78.35254664537845
 30
0.0
  0
VERTEX
  5
47B
  8
__-2
  6
CONTINUOUS
 62
     0
 10
72.87155330956799
 20
78.35146726020386
 30
0.0
  0
VERTEX
  5
47C
  8
__-2
  6
CONTINUOUS
 62
     0
 10
72.75812922416604
 20
78.35045329231258
 30
0.0
  0
VERTEX
  5
47D
  8
__-2
  6
CONTINUOUS
 62
     0
 10
72.64445973964882
 20
78.3495047417046
 30
0.0
  0
VERTEX
  5
47E
  8
__-2
  6
CONTINUOUS
 62
     0
 10
72.53054485601635
 20
78.34862160837994
 30
0.0
  0
VERTEX
  5
47F
  8
__-2
  6
CONTINUOUS
 62
     0
 10
72.4163845732686
 20
78.34780389233859
 30
0.0
  0
VERTEX
  5
480
  8
__-2
  6
CONTINUOUS
 62
     0
 10
72.30197889140558
 20
78.34705159358053
 30
0.0
  0
VERTEX
  5
481
  8
__-2
  6
CONTINUOUS
 62
     0
 10
72.18732781042729
 20
78.3463647121058
 30
0.0
  0
VERTEX
  5
482
  8
__-2
  6
CONTINUOUS
 62
     0
 10
72.07243133033373
 20
78.34574324791437
 30
0.0
  0
VERTEX
  5
483
  8
__-2
  6
CONTINUOUS
 62
     0
 10
71.95728945112491
 20
78.34518720100624
 30
0.0
  0
VERTEX
  5
484
  8
__-2
  6
CONTINUOUS
 62
     0
 10
71.84190217280081
 20
78.34469657138143
 30
0.0
  0
VERTEX
  5
485
  8
__-2
  6
CONTINUOUS
 62
     0
 10
71.72626949536145
 20
78.34427135903994
 30
0.0
  0
VERTEX
  5
486
  8
__-2
  6
CONTINUOUS
 62
     0
 10
71.61039141880681
 20
78.34391156398173
 30
0.0
  0
VERTEX
  5
487
  8
__-2
  6
CONTINUOUS
 62
     0
 10
71.4942679431369
 20
78.34361718620684
 30
0.0
  0
VERTEX
  5
488
  8
__-2
  6
CONTINUOUS
 62
     0
 10
71.37789906835172
 20
78.34338822571526
 30
0.0
  0
VERTEX
  5
489
  8
__-2
  6
CONTINUOUS
 62
     0
 10
71.26128479445129
 20
78.34322468250699
 30
0.0
  0
VERTEX
  5
48A
  8
__-2
  6
CONTINUOUS
 62
     0
 10
71.14442512143557
 20
78.34312655658204
 30
0.0
  0
VERTEX
  5
48B
  8
__-2
  6
CONTINUOUS
 62
     0
 10
71.02732004930459
 20
78.34309384794038
 30
0.0
  0
VERTEX
  5
48C
  8
__-2
  6
CONTINUOUS
 62
     0
 10
71.02732004930459
 20
78.34309384794038
 30
0.0
  0
VERTEX
  5
48D
  8
__-2
  6
CONTINUOUS
 62
     0
 10
70.91021497717361
 20
78.34312655658204
 30
0.0
  0
VERTEX
  5
48E
  8
__-2
  6
CONTINUOUS
 62
     0
 10
70.7933553041579
 20
78.34322468250699
 30
0.0
  0
VERTEX
  5
48F
  8
__-2
  6
CONTINUOUS
 62
     0
 10
70.67674103025746
 20
78.34338822571526
 30
0.0
  0
VERTEX
  5
490
  8
__-2
  6
CONTINUOUS
 62
     0
 10
70.56037215547228
 20
78.34361718620684
 30
0.0
  0
VERTEX
  5
491
  8
__-2
  6
CONTINUOUS
 62
     0
 10
70.44424867980237
 20
78.34391156398173
 30
0.0
  0
VERTEX
  5
492
  8
__-2
  6
CONTINUOUS
 62
     0
 10
70.32837060324775
 20
78.34427135903994
 30
0.0
  0
VERTEX
  5
493
  8
__-2
  6
CONTINUOUS
 62
     0
 10
70.21273792580838
 20
78.34469657138143
 30
0.0
  0
VERTEX
  5
494
  8
__-2
  6
CONTINUOUS
 62
     0
 10
70.09735064748429
 20
78.34518720100624
 30
0.0
  0
VERTEX
  5
495
  8
__-2
  6
CONTINUOUS
 62
     0
 10
69.98220876827546
 20
78.34574324791437
 30
0.0
  0
VERTEX
  5
496
  8
__-2
  6
CONTINUOUS
 62
     0
 10
69.86731228818189
 20
78.3463647121058
 30
0.0
  0
VERTEX
  5
497
  8
__-2
  6
CONTINUOUS
 62
     0
 10
69.7526612072036
 20
78.34705159358053
 30
0.0
  0
VERTEX
  5
498
  8
__-2
  6
CONTINUOUS
 62
     0
 10
69.63825552534058
 20
78.34780389233859
 30
0.0
  0
VERTEX
  5
499
  8
__-2
  6
CONTINUOUS
 62
     0
 10
69.52409524259284
 20
78.34862160837994
 30
0.0
  0
VERTEX
  5
49A
  8
__-2
  6
CONTINUOUS
 62
     0
 10
69.41018035896036
 20
78.3495047417046
 30
0.0
  0
VERTEX
  5
49B
  8
__-2
  6
CONTINUOUS
 62
     0
 10
69.29651087444314
 20
78.35045329231258
 30
0.0
  0
VERTEX
  5
49C
  8
__-2
  6
CONTINUOUS
 62
     0
 10
69.1830867890412
 20
78.35146726020386
 30
0.0
  0
VERTEX
  5
49D
  8
__-2
  6
CONTINUOUS
 62
     0
 10
69.06990810275452
 20
78.35254664537845
 30
0.0
  0
VERTEX
  5
49E
  8
__-2
  6
CONTINUOUS
 62
     0
 10
68.95697481558312
 20
78.35369144783635
 30
0.0
  0
VERTEX
  5
49F
  8
__-2
  6
CONTINUOUS
 62
     0
 10
68.84428692752698
 20
78.35490166757756
 30
0.0
  0
VERTEX
  5
4A0
  8
__-2
  6
CONTINUOUS
 62
     0
 10
68.73184443858611
 20
78.35617730460207
 30
0.0
  0
VERTEX
  5
4A1
  8
__-2
  6
CONTINUOUS
 62
     0
 10
68.61964734876051
 20
78.35751835890989
 30
0.0
  0
VERTEX
  5
4A2
  8
__-2
  6
CONTINUOUS
 62
     0
 10
68.50769565805018
 20
78.35892483050102
 30
0.0
  0
VERTEX
  5
4A3
  8
__-2
  6
CONTINUOUS
 62
     0
 10
68.39598936645513
 20
78.36039671937546
 30
0.0
  0
VERTEX
  5
4A4
  8
__-2
  6
CONTINUOUS
 62
     0
 10
68.28452847397534
 20
78.3619340255332
 30
0.0
  0
VERTEX
  5
4A5
  8
__-2
  6
CONTINUOUS
 62
     0
 10
68.17331298061083
 20
78.36353674897425
 30
0.0
  0
VERTEX
  5
4A6
  8
__-2
  6
CONTINUOUS
 62
     0
 10
68.06234288636159
 20
78.36520488969862
 30
0.0
  0
VERTEX
  5
4A7
  8
__-2
  6
CONTINUOUS
 62
     0
 10
67.95161819122761
 20
78.36693844770629
 30
0.0
  0
VERTEX
  5
4A8
  8
__-2
  6
CONTINUOUS
 62
     0
 10
67.8411388952089
 20
78.36873742299727
 30
0.0
  0
VERTEX
  5
4A9
  8
__-2
  6
CONTINUOUS
 62
     0
 10
67.73090499830545
 20
78.37060181557155
 30
0.0
  0
VERTEX
  5
4AA
  8
__-2
  6
CONTINUOUS
 62
     0
 10
67.62091650051727
 20
78.37253162542915
 30
0.0
  0
VERTEX
  5
4AB
  8
__-2
  6
CONTINUOUS
 62
     0
 10
67.51117340184436
 20
78.37452685257006
 30
0.0
  0
VERTEX
  5
4AC
  8
__-2
  6
CONTINUOUS
 62
     0
 10
67.40167570228674
 20
78.37658749699426
 30
0.0
  0
VERTEX
  5
4AD
  8
__-2
  6
CONTINUOUS
 62
     0
 10
67.29242340184436
 20
78.37871355870178
 30
0.0
  0
VERTEX
  5
4AE
  8
__-2
  6
CONTINUOUS
 62
     0
 10
67.18341650051727
 20
78.38090503769261
 30
0.0
  0
VERTEX
  5
4AF
  8
__-2
  6
CONTINUOUS
 62
     0
 10
67.07465499830545
 20
78.38316193396676
 30
0.0
  0
VERTEX
  5
4B0
  8
__-2
  6
CONTINUOUS
 62
     0
 10
66.9661388952089
 20
78.3854842475242
 30
0.0
  0
VERTEX
  5
4B1
  8
__-2
  6
CONTINUOUS
 62
     0
 10
66.85786819122761
 20
78.38787197836496
 30
0.0
  0
VERTEX
  5
4B2
  8
__-2
  6
CONTINUOUS
 62
     0
 10
66.74984288636159
 20
78.39032512648902
 30
0.0
  0
VERTEX
  5
4B3
  8
__-2
  6
CONTINUOUS
 62
     0
 10
66.64206298061083
 20
78.39284369189639
 30
0.0
  0
VERTEX
  5
4B4
  8
__-2
  6
CONTINUOUS
 62
     0
 10
66.53452847397534
 20
78.39542767458707
 30
0.0
  0
VERTEX
  5
4B5
  8
__-2
  6
CONTINUOUS
 62
     0
 10
66.42723936645513
 20
78.39807707456106
 30
0.0
  0
VERTEX
  5
4B6
  8
__-2
  6
CONTINUOUS
 62
     0
 10
66.32019565805018
 20
78.40079189181836
 30
0.0
  0
VERTEX
  5
4B7
  8
__-2
  6
CONTINUOUS
 62
     0
 10
66.21339734876051
 20
78.40357212635897
 30
0.0
  0
VERTEX
  5
4B8
  8
__-2
  6
CONTINUOUS
 62
     0
 10
66.10684443858611
 20
78.40641777818288
 30
0.0
  0
VERTEX
  5
4B9
  8
__-2
  6
CONTINUOUS
 62
     0
 10
66.00053692752698
 20
78.4093288472901
 30
0.0
  0
VERTEX
  5
4BA
  8
__-2
  6
CONTINUOUS
 62
     0
 10
65.89447481558312
 20
78.41230533368064
 30
0.0
  0
VERTEX
  5
4BB
  8
__-2
  6
CONTINUOUS
 62
     0
 10
65.78865810275452
 20
78.41534723735448
 30
0.0
  0
VERTEX
  5
4BC
  8
__-2
  6
CONTINUOUS
 62
     0
 10
65.6830867890412
 20
78.41845455831162
 30
0.0
  0
VERTEX
  5
4BD
  8
__-2
  6
CONTINUOUS
 62
     0
 10
65.57776087444314
 20
78.42162729655207
 30
0.0
  0
VERTEX
  5
4BE
  8
__-2
  6
CONTINUOUS
 62
     0
 10
65.47268035896036
 20
78.42486545207585
 30
0.0
  0
VERTEX
  5
4BF
  8
__-2
  6
CONTINUOUS
 62
     0
 10
65.36784524259284
 20
78.42816902488293
 30
0.0
  0
VERTEX
  5
4C0
  8
__-2
  6
CONTINUOUS
 62
     0
 10
65.26325552534058
 20
78.43153801497331
 30
0.0
  0
VERTEX
  5
4C1
  8
__-2
  6
CONTINUOUS
 62
     0
 10
65.1589112072036
 20
78.434972422347
 30
0.0
  0
VERTEX
  5
4C2
  8
__-2
  6
CONTINUOUS
 62
     0
 10
65.05481228818189
 20
78.438472247004
 30
0.0
  0
VERTEX
  5
4C3
  8
__-2
  6
CONTINUOUS
 62
     0
 10
64.95095876827546
 20
78.44203748894431
 30
0.0
  0
VERTEX
  5
4C4
  8
__-2
  6
CONTINUOUS
 62
     0
 10
64.84735064748429
 20
78.44566814816791
 30
0.0
  0
VERTEX
  5
4C5
  8
__-2
  6
CONTINUOUS
 62
     0
 10
64.74398792580838
 20
78.44936422467482
 30
0.0
  0
VERTEX
  5
4C6
  8
__-2
  6
CONTINUOUS
 62
     0
 10
64.64087060324775
 20
78.45312571846506
 30
0.0
  0
VERTEX
  5
4C7
  8
__-2
  6
CONTINUOUS
 62
     0
 10
64.53799867980237
 20
78.4569526295386
 30
0.0
  0
VERTEX
  5
4C8
  8
__-2
  6
CONTINUOUS
 62
     0
 10
64.43537215547228
 20
78.46084495789545
 30
0.0
  0
VERTEX
  5
4C9
  8
__-2
  6
CONTINUOUS
 62
     0
 10
64.33299103025746
 20
78.4648027035356
 30
0.0
  0
VERTEX
  5
4CA
  8
__-2
  6
CONTINUOUS
 62
     0
 10
64.2308553041579
 20
78.46882586645907
 30
0.0
  0
VERTEX
  5
4CB
  8
__-2
  6
CONTINUOUS
 62
     0
 10
64.12896497717361
 20
78.47291444666585
 30
0.0
  0
VERTEX
  5
4CC
  8
__-2
  6
CONTINUOUS
 62
     0
 10
64.02732004930459
 20
78.47706844415593
 30
0.0
  0
VERTEX
  5
4CD
  8
__-2
  6
CONTINUOUS
 62
     0
 10
64.02732004930459
 20
78.47706844415593
 30
0.0
  0
VERTEX
  5
4CE
  8
__-2
  6
CONTINUOUS
 62
     0
 10
63.92613304241874
 20
78.4812790946752
 30
0.0
  0
VERTEX
  5
4CF
  8
__-2
  6
CONTINUOUS
 62
     0
 10
63.82561647838392
 20
78.48553763396956
 30
0.0
  0
VERTEX
  5
4D0
  8
__-2
  6
CONTINUOUS
 62
     0
 10
63.72577035720016
 20
78.48984406203898
 30
0.0
  0
VERTEX
  5
4D1
  8
__-2
  6
CONTINUOUS
 62
     0
 10
63.62659467886745
 20
78.49419837888348
 30
0.0
  0
VERTEX
  5
4D2
  8
__-2
  6
CONTINUOUS
 62
     0
 10
63.52808944338578
 20
78.49860058450305
 30
0.0
  0
VERTEX
  5
4D3
  8
__-2
  6
CONTINUOUS
 62
     0
 10
63.43025465075516
 20
78.5030506788977
 30
0.0
  0
VERTEX
  5
4D4
  8
__-2
  6
CONTINUOUS
 62
     0
 10
63.33309030097558
 20
78.50754866206742
 30
0.0
  0
VERTEX
  5
4D5
  8
__-2
  6
CONTINUOUS
 62
     0
 10
63.23659639404707
 20
78.51209453401222
 30
0.0
  0
VERTEX
  5
4D6
  8
__-2
  6
CONTINUOUS
 62
     0
 10
63.14077292996959
 20
78.51668829473209
 30
0.0
  0
VERTEX
  5
4D7
  8
__-2
  6
CONTINUOUS
 62
     0
 10
63.04561990874316
 20
78.52132994422703
 30
0.0
  0
VERTEX
  5
4D8
  8
__-2
  6
CONTINUOUS
 62
     0
 10
62.95113733036779
 20
78.52601948249706
 30
0.0
  0
VERTEX
  5
4D9
  8
__-2
  6
CONTINUOUS
 62
     0
 10
62.85732519484345
 20
78.53075690954216
 30
0.0
  0
VERTEX
  5
4DA
  8
__-2
  6
CONTINUOUS
 62
     0
 10
62.76418350217017
 20
78.53554222536233
 30
0.0
  0
VERTEX
  5
4DB
  8
__-2
  6
CONTINUOUS
 62
     0
 10
62.67171225234793
 20
78.54037542995758
 30
0.0
  0
VERTEX
  5
4DC
  8
__-2
  6
CONTINUOUS
 62
     0
 10
62.57991144537675
 20
78.54525652332791
 30
0.0
  0
VERTEX
  5
4DD
  8
__-2
  6
CONTINUOUS
 62
     0
 10
62.4887810812566
 20
78.5501855054733
 30
0.0
  0
VERTEX
  5
4DE
  8
__-2
  6
CONTINUOUS
 62
     0
 10
62.39832115998752
 20
78.55516237639377
 30
0.0
  0
VERTEX
  5
4DF
  8
__-2
  6
CONTINUOUS
 62
     0
 10
62.30853168156946
 20
78.56018713608931
 30
0.0
  0
VERTEX
  5
4E0
  8
__-2
  6
CONTINUOUS
 62
     0
 10
62.21941264600247
 20
78.56525978455993
 30
0.0
  0
VERTEX
  5
4E1
  8
__-2
  6
CONTINUOUS
 62
     0
 10
62.13096405328653
 20
78.57038032180563
 30
0.0
  0
VERTEX
  5
4E2
  8
__-2
  6
CONTINUOUS
 62
     0
 10
62.04318590342163
 20
78.5755487478264
 30
0.0
  0
VERTEX
  5
4E3
  8
__-2
  6
CONTINUOUS
 62
     0
 10
61.95607819640777
 20
78.58076506262225
 30
0.0
  0
VERTEX
  5
4E4
  8
__-2
  6
CONTINUOUS
 62
     0
 10
61.86964093224498
 20
78.58602926619317
 30
0.0
  0
VERTEX
  5
4E5
  8
__-2
  6
CONTINUOUS
 62
     0
 10
61.78387411093323
 20
78.59134135853917
 30
0.0
  0
VERTEX
  5
4E6
  8
__-2
  6
CONTINUOUS
 62
     0
 10
61.69877773247252
 20
78.59670133966024
 30
0.0
  0
VERTEX
  5
4E7
  8
__-2
  6
CONTINUOUS
 62
     0
 10
61.61435179686285
 20
78.60210920955639
 30
0.0
  0
VERTEX
  5
4E8
  8
__-2
  6
CONTINUOUS
 62
     0
 10
61.53059630410425
 20
78.6075649682276
 30
0.0
  0
VERTEX
  5
4E9
  8
__-2
  6
CONTINUOUS
 62
     0
 10
61.44751125419668
 20
78.6130686156739
 30
0.0
  0
VERTEX
  5
4EA
  8
__-2
  6
CONTINUOUS
 62
     0
 10
61.36509664714018
 20
78.61862015189527
 30
0.0
  0
VERTEX
  5
4EB
  8
__-2
  6
CONTINUOUS
 62
     0
 10
61.2833524829347
 20
78.6242195768917
 30
0.0
  0
VERTEX
  5
4EC
  8
__-2
  6
CONTINUOUS
 62
     0
 10
61.20227876158029
 20
78.62986689066324
 30
0.0
  0
VERTEX
  5
4ED
  8
__-2
  6
CONTINUOUS
 62
     0
 10
61.12187548307692
 20
78.63556209320983
 30
0.0
  0
VERTEX
  5
4EE
  8
__-2
  6
CONTINUOUS
 62
     0
 10
61.0421426474246
 20
78.64130518453149
 30
0.0
  0
VERTEX
  5
4EF
  8
__-2
  6
CONTINUOUS
 62
     0
 10
60.96308025462332
 20
78.64709616462824
 30
0.0
  0
VERTEX
  5
4F0
  8
__-2
  6
CONTINUOUS
 62
     0
 10
60.88468830467309
 20
78.65293503350006
 30
0.0
  0
VERTEX
  5
4F1
  8
__-2
  6
CONTINUOUS
 62
     0
 10
60.80696679757392
 20
78.65882179114695
 30
0.0
  0
VERTEX
  5
4F2
  8
__-2
  6
CONTINUOUS
 62
     0
 10
60.72991573332578
 20
78.66475643756891
 30
0.0
  0
VERTEX
  5
4F3
  8
__-2
  6
CONTINUOUS
 62
     0
 10
60.6535351119287
 20
78.67073897276595
 30
0.0
  0
VERTEX
  5
4F4
  8
__-2
  6
CONTINUOUS
 62
     0
 10
60.57782493338267
 20
78.67676939673807
 30
0.0
  0
VERTEX
  5
4F5
  8
__-2
  6
CONTINUOUS
 62
     0
 10
60.50278519768769
 20
78.68284770948527
 30
0.0
  0
VERTEX
  5
4F6
  8
__-2
  6
CONTINUOUS
 62
     0
 10
60.42841590484375
 20
78.68897391100755
 30
0.0
  0
VERTEX
  5
4F7
  8
__-2
  6
CONTINUOUS
 62
     0
 10
60.35471705485085
 20
78.69514800130489
 30
0.0
  0
VERTEX
  5
4F8
  8
__-2
  6
CONTINUOUS
 62
     0
 10
60.28168864770902
 20
78.70136998037731
 30
0.0
  0
VERTEX
  5
4F9
  8
__-2
  6
CONTINUOUS
 62
     0
 10
60.20933068341822
 20
78.7076398482248
 30
0.0
  0
VERTEX
  5
4FA
  8
__-2
  6
CONTINUOUS
 62
     0
 10
60.13764316197847
 20
78.71395760484737
 30
0.0
  0
VERTEX
  5
4FB
  8
__-2
  6
CONTINUOUS
 62
     0
 10
60.06662608338979
 20
78.720323250245
 30
0.0
  0
VERTEX
  5
4FC
  8
__-2
  6
CONTINUOUS
 62
     0
 10
59.99627944765214
 20
78.72673678441772
 30
0.0
  0
VERTEX
  5
4FD
  8
__-2
  6
CONTINUOUS
 62
     0
 10
59.92660325476552
 20
78.73319820736552
 30
0.0
  0
VERTEX
  5
4FE
  8
__-2
  6
CONTINUOUS
 62
     0
 10
59.85759750472998
 20
78.73970751908838
 30
0.0
  0
VERTEX
  5
4FF
  8
__-2
  6
CONTINUOUS
 62
     0
 10
59.78926219754547
 20
78.74626471958632
 30
0.0
  0
VERTEX
  5
500
  8
__-2
  6
CONTINUOUS
 62
     0
 10
59.72159733321202
 20
78.75286980885934
 30
0.0
  0
VERTEX
  5
501
  8
__-2
  6
CONTINUOUS
 62
     0
 10
59.6546029117296
 20
78.75952278690744
 30
0.0
  0
VERTEX
  5
502
  8
__-2
  6
CONTINUOUS
 62
     0
 10
59.58827893309825
 20
78.7662236537306
 30
0.0
  0
VERTEX
  5
503
  8
__-2
  6
CONTINUOUS
 62
     0
 10
59.52262539731794
 20
78.77297240932884
 30
0.0
  0
VERTEX
  5
504
  8
__-2
  6
CONTINUOUS
 62
     0
 10
59.45764230438866
 20
78.77976905370217
 30
0.0
  0
VERTEX
  5
505
  8
__-2
  6
CONTINUOUS
 62
     0
 10
59.39332965431045
 20
78.78661358685055
 30
0.0
  0
VERTEX
  5
506
  8
__-2
  6
CONTINUOUS
 62
     0
 10
59.32968744708327
 20
78.793506008774
 30
0.0
  0
VERTEX
  5
507
  8
__-2
  6
CONTINUOUS
 62
     0
 10
59.26671568270716
 20
78.80044631947254
 30
0.0
  0
VERTEX
  5
508
  8
__-2
  6
CONTINUOUS
 62
     0
 10
59.20441436118209
 20
78.80743451894617
 30
0.0
  0
VERTEX
  5
509
  8
__-2
  6
CONTINUOUS
 62
     0
 10
59.14278348250807
 20
78.81447060719486
 30
0.0
  0
VERTEX
  5
50A
  8
__-2
  6
CONTINUOUS
 62
     0
 10
59.08182304668509
 20
78.82155458421863
 30
0.0
  0
VERTEX
  5
50B
  8
__-2
  6
CONTINUOUS
 62
     0
 10
59.02153305371316
 20
78.82868645001747
 30
0.0
  0
VERTEX
  5
50C
  8
__-2
  6
CONTINUOUS
 62
     0
 10
58.96191350359229
 20
78.83586620459138
 30
0.0
  0
VERTEX
  5
50D
  8
__-2
  6
CONTINUOUS
 62
     0
 10
58.90296439632245
 20
78.84309384794038
 30
0.0
  0
VERTEX
  5
50E
  8
__-2
  6
CONTINUOUS
 62
     0
 10
58.90296439632245
 20
78.84309384794038
 30
0.0
  0
VERTEX
  5
50F
  8
__-2
  6
CONTINUOUS
 62
     0
 10
58.8448084314613
 20
78.85035419993102
 30
0.0
  0
VERTEX
  5
510
  8
__-2
  6
CONTINUOUS
 62
     0
 10
58.78756830856646
 20
78.8576320804299
 30
0.0
  0
VERTEX
  5
511
  8
__-2
  6
CONTINUOUS
 62
     0
 10
58.73124402763796
 20
78.86492748943701
 30
0.0
  0
VERTEX
  5
512
  8
__-2
  6
CONTINUOUS
 62
     0
 10
58.67583558867575
 20
78.87224042695236
 30
0.0
  0
VERTEX
  5
513
  8
__-2
  6
CONTINUOUS
 62
     0
 10
58.62134299167987
 20
78.87957089297595
 30
0.0
  0
VERTEX
  5
514
  8
__-2
  6
CONTINUOUS
 62
     0
 10
58.5677662366503
 20
78.88691888750776
 30
0.0
  0
VERTEX
  5
515
  8
__-2
  6
CONTINUOUS
 62
     0
 10
58.51510532358706
 20
78.8942844105478
 30
0.0
  0
VERTEX
  5
516
  8
__-2
  6
CONTINUOUS
 62
     0
 10
58.46336025249013
 20
78.90166746209607
 30
0.0
  0
VERTEX
  5
517
  8
__-2
  6
CONTINUOUS
 62
     0
 10
58.41253102335952
 20
78.90906804215258
 30
0.0
  0
VERTEX
  5
518
  8
__-2
  6
CONTINUOUS
 62
     0
 10
58.36261763619524
 20
78.91648615071733
 30
0.0
  0
VERTEX
  5
519
  8
__-2
  6
CONTINUOUS
 62
     0
 10
58.31362009099726
 20
78.9239217877903
 30
0.0
  0
VERTEX
  5
51A
  8
__-2
  6
CONTINUOUS
 62
     0
 10
58.26553838776559
 20
78.93137495337152
 30
0.0
  0
VERTEX
  5
51B
  8
__-2
  6
CONTINUOUS
 62
     0
 10
58.21837252650025
 20
78.93884564746097
 30
0.0
  0
VERTEX
  5
51C
  8
__-2
  6
CONTINUOUS
 62
     0
 10
58.17212250720124
 20
78.94633387005865
 30
0.0
  0
VERTEX
  5
51D
  8
__-2
  6
CONTINUOUS
 62
     0
 10
58.12678832986853
 20
78.95383962116456
 30
0.0
  0
VERTEX
  5
51E
  8
__-2
  6
CONTINUOUS
 62
     0
 10
58.08236999450213
 20
78.96136290077871
 30
0.0
  0
VERTEX
  5
51F
  8
__-2
  6
CONTINUOUS
 62
     0
 10
58.03886750110206
 20
78.9689037089011
 30
0.0
  0
VERTEX
  5
520
  8
__-2
  6
CONTINUOUS
 62
     0
 10
57.9962808496683
 20
78.97646204553172
 30
0.0
  0
VERTEX
  5
521
  8
__-2
  6
CONTINUOUS
 62
     0
 10
57.95461004020086
 20
78.98403791067057
 30
0.0
  0
VERTEX
  5
522
  8
__-2
  6
CONTINUOUS
 62
     0
 10
57.91385507269975
 20
78.99163130431764
 30
0.0
  0
VERTEX
  5
523
  8
__-2
  6
CONTINUOUS
 62
     0
 10
57.87401594716493
 20
78.99924222647294
 30
0.0
  0
VERTEX
  5
524
  8
__-2
  6
CONTINUOUS
 62
     0
 10
57.83509266359646
 20
79.00687067713649
 30
0.0
  0
VERTEX
  5
525
  8
__-2
  6
CONTINUOUS
 62
     0
 10
57.79708522199428
 20
79.01451665630827
 30
0.0
  0
VERTEX
  5
526
  8
__-2
  6
CONTINUOUS
 62
     0
 10
57.75999362235842
 20
79.02218016398828
 30
0.0
  0
VERTEX
  5
527
  8
__-2
  6
CONTINUOUS
 62
     0
 10
57.7238178646889
 20
79.02986120017653
 30
0.0
  0
VERTEX
  5
528
  8
__-2
  6
CONTINUOUS
 62
     0
 10
57.68855794898568
 20
79.03755976487301
 30
0.0
  0
VERTEX
  5
529
  8
__-2
  6
CONTINUOUS
 62
     0
 10
57.65421387524879
 20
79.04527585807773
 30
0.0
  0
VERTEX
  5
52A
  8
__-2
  6
CONTINUOUS
 62
     0
 10
57.6207856434782
 20
79.05300947979069
 30
0.0
  0
VERTEX
  5
52B
  8
__-2
  6
CONTINUOUS
 62
     0
 10
57.58827325367392
 20
79.06076063001187
 30
0.0
  0
VERTEX
  5
52C
  8
__-2
  6
CONTINUOUS
 62
     0
 10
57.55667670583598
 20
79.06852930874129
 30
0.0
  0
VERTEX
  5
52D
  8
__-2
  6
CONTINUOUS
 62
     0
 10
57.52599599996435
 20
79.07631551597893
 30
0.0
  0
VERTEX
  5
52E
  8
__-2
  6
CONTINUOUS
 62
     0
 10
57.49623113605904
 20
79.08411925172481
 30
0.0
  0
VERTEX
  5
52F
  8
__-2
  6
CONTINUOUS
 62
     0
 10
57.46738211412006
 20
79.09194051597893
 30
0.0
  0
VERTEX
  5
530
  8
__-2
  6
CONTINUOUS
 62
     0
 10
57.43944893414738
 20
79.09977930874129
 30
0.0
  0
VERTEX
  5
531
  8
__-2
  6
CONTINUOUS
 62
     0
 10
57.412431596141
 20
79.10763563001187
 30
0.0
  0
VERTEX
  5
532
  8
__-2
  6
CONTINUOUS
 62
     0
 10
57.38633010010096
 20
79.11550947979069
 30
0.0
  0
VERTEX
  5
533
  8
__-2
  6
CONTINUOUS
 62
     0
 10
57.36114444602724
 20
79.12340085807773
 30
0.0
  0
VERTEX
  5
534
  8
__-2
  6
CONTINUOUS
 62
     0
 10
57.33687463391983
 20
79.13130976487301
 30
0.0
  0
VERTEX
  5
535
  8
__-2
  6
CONTINUOUS
 62
     0
 10
57.31352066377875
 20
79.13923620017653
 30
0.0
  0
VERTEX
  5
536
  8
__-2
  6
CONTINUOUS
 62
     0
 10
57.29108253560398
 20
79.14718016398828
 30
0.0
  0
VERTEX
  5
537
  8
__-2
  6
CONTINUOUS
 62
     0
 10
57.26956024939551
 20
79.15514165630827
 30
0.0
  0
VERTEX
  5
538
  8
__-2
  6
CONTINUOUS
 62
     0
 10
57.24895380515338
 20
79.16312067713649
 30
0.0
  0
VERTEX
  5
539
  8
__-2
  6
CONTINUOUS
 62
     0
 10
57.22926320287755
 20
79.17111722647294
 30
0.0
  0
VERTEX
  5
53A
  8
__-2
  6
CONTINUOUS
 62
     0
 10
57.21048844256805
 20
79.17913130431764
 30
0.0
  0
VERTEX
  5
53B
  8
__-2
  6
CONTINUOUS
 62
     0
 10
57.19262952422486
 20
79.18716291067057
 30
0.0
  0
VERTEX
  5
53C
  8
__-2
  6
CONTINUOUS
 62
     0
 10
57.17568644784799
 20
79.19521204553172
 30
0.0
  0
VERTEX
  5
53D
  8
__-2
  6
CONTINUOUS
 62
     0
 10
57.15965921343744
 20
79.2032787089011
 30
0.0
  0
VERTEX
  5
53E
  8
__-2
  6
CONTINUOUS
 62
     0
 10
57.1445478209932
 20
79.21136290077871
 30
0.0
  0
VERTEX
  5
53F
  8
__-2
  6
CONTINUOUS
 62
     0
 10
57.13035227051527
 20
79.21946462116456
 30
0.0
  0
VERTEX
  5
540
  8
__-2
  6
CONTINUOUS
 62
     0
 10
57.11707256200367
 20
79.22758387005865
 30
0.0
  0
VERTEX
  5
541
  8
__-2
  6
CONTINUOUS
 62
     0
 10
57.1047086954584
 20
79.23572064746097
 30
0.0
  0
VERTEX
  5
542
  8
__-2
  6
CONTINUOUS
 62
     0
 10
57.09326067087943
 20
79.24387495337152
 30
0.0
  0
VERTEX
  5
543
  8
__-2
  6
CONTINUOUS
 62
     0
 10
57.08272848826678
 20
79.2520467877903
 30
0.0
  0
VERTEX
  5
544
  8
__-2
  6
CONTINUOUS
 62
     0
 10
57.07311214762045
 20
79.26023615071733
 30
0.0
  0
VERTEX
  5
545
  8
__-2
  6
CONTINUOUS
 62
     0
 10
57.06441164894042
 20
79.26844304215258
 30
0.0
  0
VERTEX
  5
546
  8
__-2
  6
CONTINUOUS
 62
     0
 10
57.05662699222674
 20
79.27666746209607
 30
0.0
  0
VERTEX
  5
547
  8
__-2
  6
CONTINUOUS
 62
     0
 10
57.04975817747936
 20
79.2849094105478
 30
0.0
  0
VERTEX
  5
548
  8
__-2
  6
CONTINUOUS
 62
     0
 10
57.04380520469829
 20
79.29316888750776
 30
0.0
  0
VERTEX
  5
549
  8
__-2
  6
CONTINUOUS
 62
     0
 10
57.03876807388355
 20
79.30144589297595
 30
0.0
  0
VERTEX
  5
54A
  8
__-2
  6
CONTINUOUS
 62
     0
 10
57.03464678503511
 20
79.30974042695236
 30
0.0
  0
VERTEX
  5
54B
  8
__-2
  6
CONTINUOUS
 62
     0
 10
57.031441338153
 20
79.31805248943701
 30
0.0
  0
VERTEX
  5
54C
  8
__-2
  6
CONTINUOUS
 62
     0
 10
57.02915173323721
 20
79.3263820804299
 30
0.0
  0
VERTEX
  5
54D
  8
__-2
  6
CONTINUOUS
 62
     0
 10
57.02777797028773
 20
79.33472919993102
 30
0.0
  0
VERTEX
  5
54E
  8
__-2
  6
CONTINUOUS
 62
     0
 10
57.02732004930458
 20
79.34309384794038
 30
0.0
  0
VERTEX
  5
54F
  8
__-2
  6
CONTINUOUS
 62
     0
 10
57.02732004930458
 20
79.34309384794038
 30
0.0
  0
SEQEND
  5
550
  8
__-2
  6
CONTINUOUS
 62
     0
  0
LINE
  5
551
  8
__-2
  6
CONTINUOUS
 62
     0
 10
80.27716798566571
 20
70.48133043076069
 30
0.0
 11
86.28613909440718
 21
71.42567920070562
 31
0.0
  0
POLYLINE
  5
552
  8
__-2
  6
CONTINUOUS
 62
     0
 66
     1
 10
0.0
 20
0.0
 30
0.0
 70
   128
  0
VERTEX
  5
553
  8
__-2
  6
CONTINUOUS
 62
     0
 10
76.52732004930459
 20
49.34309384794041
 30
0.0
  0
VERTEX
  5
554
  8
__-2
  6
CONTINUOUS
 62
     0
 10
81.02732004930458
 20
49.34309384794041
 30
0.0
  0
VERTEX
  5
555
  8
__-2
  6
CONTINUOUS
 62
     0
 10
79.0273200493046
 20
68.87064848081573
 30
0.0
  0
SEQEND
  5
556
  8
__-2
  6
CONTINUOUS
 62
     0
  0
ARC
  5
557
  8
__-2
  6
CONTINUOUS
 62
     0
 10
80.52161209644221
 20
69.00138209493723
 30
0.0
 40
1.499999999999986
 50
99.37890631935743
 51
185.0000000000004
  0
TEXT
  5
558
  8
__-2
 62
     0
 10
-90.26815300255537
 20
-17.96696169990021
 30
0.0
 40
2.664207175925926
  1
品名
  7
OSAKA
 72
     2
 11
-86.08154172610034
 21
-16.63485811193725
 31
0.0
 73
     2
  0
POLYLINE
  5
559
  8
__-2
  6
CONTINUOUS
 62
     0
 66
     1
 10
0.0
 20
0.0
 30
0.0
 70
   129
  0
VERTEX
  5
55A
  8
__-2
  6
CONTINUOUS
 62
     0
 10
-97.10673963296617
 20
-11.72958961511761
 30
0.0
  0
VERTEX
  5
55B
  8
__-2
  6
CONTINUOUS
 62
     0
 10
-82.10673963296617
 20
-11.72958961511761
 30
0.0
  0
VERTEX
  5
55C
  8
__-2
  6
CONTINUOUS
 62
     0
 10
-82.10673963296617
 20
-20.72958961511761
 30
0.0
  0
VERTEX
  5
55D
  8
__-2
  6
CONTINUOUS
 62
     0
 10
-97.10673963296617
 20
-20.72958961511761
 30
0.0
  0
SEQEND
  5
55E
  8
__-2
  6
CONTINUOUS
 62
     0
  0
POLYLINE
  5
55F
  8
__-2
  6
CONTINUOUS
 62
     0
 66
     1
 10
0.0
 20
0.0
 30
0.0
 70
   129
  0
VERTEX
  5
560
  8
__-2
  6
CONTINUOUS
 62
     0
 10
-97.10673963296617
 20
-20.72958961511761
 30
0.0
  0
VERTEX
  5
561
  8
__-2
  6
CONTINUOUS
 62
     0
 10
-82.10673963296617
 20
-20.72958961511761
 30
0.0
  0
VERTEX
  5
562
  8
__-2
  6
CONTINUOUS
 62
     0
 10
-82.10673963296617
 20
-29.72958961511761
 30
0.0
  0
VERTEX
  5
563
  8
__-2
  6
CONTINUOUS
 62
     0
 10
-97.10673963296617
 20
-29.72958961511761
 30
0.0
  0
SEQEND
  5
564
  8
__-2
  6
CONTINUOUS
 62
     0
  0
POLYLINE
  5
565
  8
__-2
  6
CONTINUOUS
 62
     0
 66
     1
 10
0.0
 20
0.0
 30
0.0
 70
   129
  0
VERTEX
  5
566
  8
__-2
  6
CONTINUOUS
 62
     0
 10
-97.10673963296617
 20
-29.72958961511761
 30
0.0
  0
VERTEX
  5
567
  8
__-2
  6
CONTINUOUS
 62
     0
 10
-82.10673963296617
 20
-29.72958961511761
 30
0.0
  0
VERTEX
  5
568
  8
__-2
  6
CONTINUOUS
 62
     0
 10
-82.10673963296617
 20
-38.72958961511761
 30
0.0
  0
VERTEX
  5
569
  8
__-2
  6
CONTINUOUS
 62
     0
 10
-97.10673963296617
 20
-38.72958961511761
 30
0.0
  0
SEQEND
  5
56A
  8
__-2
  6
CONTINUOUS
 62
     0
  0
TEXT
  5
56B
  8
__-2
 62
     0
 10
-90.26815300255537
 20
-26.83023119017807
 30
0.0
 40
2.664207175925926
  1
材質
  7
OSAKA
 72
     2
 11
-86.08154172610034
 21
-25.49812760221511
 31
0.0
 73
     2
  0
TEXT
  5
56C
  8
__-2
 62
     0
 10
-91.07725828529345
 20
-35.81169679505814
 30
0.0
 40
2.664207175925926
  1
ネジ径
  7
OSAKA
 72
     2
 11
-84.60704085804478
 21
-34.47959320709518
 31
0.0
 73
     2
  0
POLYLINE
  5
56D
  8
__-2
  6
CONTINUOUS
 62
     0
 66
     1
 10
0.0
 20
0.0
 30
0.0
 70
   129
  0
VERTEX
  5
56E
  8
__-2
  6
CONTINUOUS
 62
     0
 10
-82.10673963296617
 20
-11.72958961511761
 30
0.0
  0
VERTEX
  5
56F
  8
__-2
  6
CONTINUOUS
 62
     0
 10
-35.10673963296617
 20
-11.72958961511761
 30
0.0
  0
VERTEX
  5
570
  8
__-2
  6
CONTINUOUS
 62
     0
 10
-35.10673963296617
 20
-20.72958961511761
 30
0.0
  0
VERTEX
  5
571
  8
__-2
  6
CONTINUOUS
 62
     0
 10
-82.10673963296617
 20
-20.72958961511761
 30
0.0
  0
SEQEND
  5
572
  8
__-2
  6
CONTINUOUS
 62
     0
  0
POLYLINE
  5
573
  8
__-2
  6
CONTINUOUS
 62
     0
 66
     1
 10
0.0
 20
0.0
 30
0.0
 70
   129
  0
VERTEX
  5
574
  8
__-2
  6
CONTINUOUS
 62
     0
 10
-82.10673963296617
 20
-20.72958961511761
 30
0.0
  0
VERTEX
  5
575
  8
__-2
  6
CONTINUOUS
 62
     0
 10
-35.10673963296617
 20
-20.72958961511761
 30
0.0
  0
VERTEX
  5
576
  8
__-2
  6
CONTINUOUS
 62
     0
 10
-35.10673963296617
 20
-29.72958961511761
 30
0.0
  0
VERTEX
  5
577
  8
__-2
  6
CONTINUOUS
 62
     0
 10
-82.10673963296617
 20
-29.72958961511761
 30
0.0
  0
SEQEND
  5
578
  8
__-2
  6
CONTINUOUS
 62
     0
  0
POLYLINE
  5
579
  8
__-2
  6
CONTINUOUS
 62
     0
 66
     1
 10
0.0
 20
0.0
 30
0.0
 70
   129
  0
VERTEX
  5
57A
  8
__-2
  6
CONTINUOUS
 62
     0
 10
-82.10673963296617
 20
-29.72958961511761
 30
0.0
  0
VERTEX
  5
57B
  8
__-2
  6
CONTINUOUS
 62
     0
 10
-35.10673963296617
 20
-29.72958961511761
 30
0.0
  0
VERTEX
  5
57C
  8
__-2
  6
CONTINUOUS
 62
     0
 10
-35.10673963296617
 20
-38.72958961511761
 30
0.0
  0
VERTEX
  5
57D
  8
__-2
  6
CONTINUOUS
 62
     0
 10
-82.10673963296617
 20
-38.72958961511761
 30
0.0
  0
SEQEND
  5
57E
  8
__-2
  6
CONTINUOUS
 62
     0
  0
TEXT
  5
57F
  8
__-2
 62
     0
 10
-79.3203372604429
 20
-17.96696169990021
 30
0.0
 40
2.664207175925926
  1
陶器のつまみ・ダークグレー
  7
OSAKA
 11
-79.3203372604429
 21
-16.63485811193725
 31
0.0
 73
     2
  0
TEXT
  5
580
  8
__-2
 62
     0
 10
-79.3203372604429
 20
-26.83023119017807
 30
0.0
 40
2.664207175925926
  1
陶器、白濁釉
  7
OSAKA
 11
-79.3203372604429
 21
-25.49812760221511
 31
0.0
 73
     2
  0
TEXT
  5
581
  8
__-2
 62
     0
 10
-79.3203372604429
 20
-35.81169679505814
 30
0.0
 40
2.664207175925926
  1
M5
  7
OSAKA
 11
-79.3203372604429
 21
-34.47959320709518
 31
0.0
 73
     2
  0
TEXT
  5
582
  8
__-2
 62
     0
 10
-28.26557313164341
 20
-17.77907838229599
 30
0.0
 40
2.664207175925926
  1
品番
  7
OSAKA
 72
     2
 11
-24.07896185518838
 21
-16.44697479433303
 31
0.0
 73
     2
  0
POLYLINE
  5
583
  8
__-2
  6
CONTINUOUS
 62
     0
 66
     1
 10
0.0
 20
0.0
 30
0.0
 70
   129
  0
VERTEX
  5
584
  8
__-2
  6
CONTINUOUS
 62
     0
 10
-35.10673963296615
 20
-11.72958961511761
 30
0.0
  0
VERTEX
  5
585
  8
__-2
  6
CONTINUOUS
 62
     0
 10
-20.10673963296615
 20
-11.72958961511761
 30
0.0
  0
VERTEX
  5
586
  8
__-2
  6
CONTINUOUS
 62
     0
 10
-20.10673963296615
 20
-20.72958961511761
 30
0.0
  0
VERTEX
  5
587
  8
__-2
  6
CONTINUOUS
 62
     0
 10
-35.10673963296615
 20
-20.72958961511761
 30
0.0
  0
SEQEND
  5
588
  8
__-2
  6
CONTINUOUS
 62
     0
  0
POLYLINE
  5
589
  8
__-2
  6
CONTINUOUS
 62
     0
 66
     1
 10
0.0
 20
0.0
 30
0.0
 70
   129
  0
VERTEX
  5
58A
  8
__-2
  6
CONTINUOUS
 62
     0
 10
-35.10673963296615
 20
-20.72958961511761
 30
0.0
  0
VERTEX
  5
58B
  8
__-2
  6
CONTINUOUS
 62
     0
 10
-20.10673963296615
 20
-20.72958961511761
 30
0.0
  0
VERTEX
  5
58C
  8
__-2
  6
CONTINUOUS
 62
     0
 10
-20.10673963296615
 20
-29.72958961511761
 30
0.0
  0
VERTEX
  5
58D
  8
__-2
  6
CONTINUOUS
 62
     0
 10
-35.10673963296615
 20
-29.72958961511761
 30
0.0
  0
SEQEND
  5
58E
  8
__-2
  6
CONTINUOUS
 62
     0
  0
POLYLINE
  5
58F
  8
__-2
  6
CONTINUOUS
 62
     0
 66
     1
 10
0.0
 20
0.0
 30
0.0
 70
   129
  0
VERTEX
  5
590
  8
__-2
  6
CONTINUOUS
 62
     0
 10
-35.10673963296615
 20
-29.72958961511761
 30
0.0
  0
VERTEX
  5
591
  8
__-2
  6
CONTINUOUS
 62
     0
 10
-20.10673963296615
 20
-29.72958961511761
 30
0.0
  0
VERTEX
  5
592
  8
__-2
  6
CONTINUOUS
 62
     0
 10
-20.10673963296615
 20
-38.72958961511761
 30
0.0
  0
VERTEX
  5
593
  8
__-2
  6
CONTINUOUS
 62
     0
 10
-35.10673963296615
 20
-38.72958961511761
 30
0.0
  0
SEQEND
  5
594
  8
__-2
  6
CONTINUOUS
 62
     0
  0
TEXT
  5
595
  8
__-2
 62
     0
 10
-29.21248223382595
 20
-26.67292913241659
 30
0.0
 40
2.664207175925926
  1
サイズ
  7
OSAKA
 72
     2
 11
-22.74226480657727
 21
-25.34082554445363
 31
0.0
 73
     2
  0
POLYLINE
  5
596
  8
__-2
  6
CONTINUOUS
 62
     0
 66
     1
 10
0.0
 20
0.0
 30
0.0
 70
   129
  0
VERTEX
  5
597
  8
__-2
  6
CONTINUOUS
 62
     0
 10
-20.10673963296616
 20
-11.72958961511761
 30
0.0
  0
VERTEX
  5
598
  8
__-2
  6
CONTINUOUS
 62
     0
 10
26.89326036703384
 20
-11.72958961511761
 30
0.0
  0
VERTEX
  5
599
  8
__-2
  6
CONTINUOUS
 62
     0
 10
26.89326036703384
 20
-20.72958961511761
 30
0.0
  0
VERTEX
  5
59A
  8
__-2
  6
CONTINUOUS
 62
     0
 10
-20.10673963296616
 20
-20.72958961511761
 30
0.0
  0
SEQEND
  5
59B
  8
__-2
  6
CONTINUOUS
 62
     0
  0
POLYLINE
  5
59C
  8
__-2
  6
CONTINUOUS
 62
     0
 66
     1
 10
0.0
 20
0.0
 30
0.0
 70
   129
  0
VERTEX
  5
59D
  8
__-2
  6
CONTINUOUS
 62
     0
 10
-20.10673963296616
 20
-20.72958961511761
 30
0.0
  0
VERTEX
  5
59E
  8
__-2
  6
CONTINUOUS
 62
     0
 10
26.89326036703384
 20
-20.72958961511761
 30
0.0
  0
VERTEX
  5
59F
  8
__-2
  6
CONTINUOUS
 62
     0
 10
26.89326036703384
 20
-29.72958961511761
 30
0.0
  0
VERTEX
  5
5A0
  8
__-2
  6
CONTINUOUS
 62
     0
 10
-20.10673963296616
 20
-29.72958961511761
 30
0.0
  0
SEQEND
  5
5A1
  8
__-2
  6
CONTINUOUS
 62
     0
  0
POLYLINE
  5
5A2
  8
__-2
  6
CONTINUOUS
 62
     0
 66
     1
 10
0.0
 20
0.0
 30
0.0
 70
   129
  0
VERTEX
  5
5A3
  8
__-2
  6
CONTINUOUS
 62
     0
 10
-20.10673963296616
 20
-29.72958961511761
 30
0.0
  0
VERTEX
  5
5A4
  8
__-2
  6
CONTINUOUS
 62
     0
 10
26.89326036703384
 20
-29.72958961511761
 30
0.0
  0
VERTEX
  5
5A5
  8
__-2
  6
CONTINUOUS
 62
     0
 10
26.89326036703384
 20
-38.72958961511761
 30
0.0
  0
VERTEX
  5
5A6
  8
__-2
  6
CONTINUOUS
 62
     0
 10
-20.10673963296616
 20
-38.72958961511761
 30
0.0
  0
SEQEND
  5
5A7
  8
__-2
  6
CONTINUOUS
 62
     0
  0
TEXT
  5
5A8
  8
__-2
 62
     0
 10
-17.32033726044287
 20
-17.96696169990021
 30
0.0
 40
2.664207175925926
  1
PS-HD016-02-G141
  7
OSAKA
 11
-17.32033726044287
 21
-16.63485811193725
 31
0.0
 73
     2
  0
TEXT
  5
5A9
  8
__-2
 62
     0
 10
-17.32033726044287
 20
-26.83023119017807
 30
0.0
 40
2.664207175925926
  1
Φ=32mm, H=30mm
  7
OSAKA
 11
-17.32033726044287
 21
-25.49812760221511
 31
0.0
 73
     2
  0
TEXT
  5
5AA
  8
__-2
 62
     0
 10
-28.2655731316434
 20
-35.64978893830983
 30
0.0
 40
2.664207175925926
  1
扉厚
  7
OSAKA
 72
     2
 11
-24.07896185518838
 21
-34.31768535034687
 31
0.0
 73
     2
  0
TEXT
  5
5AB
  8
__-2
 62
     0
 10
-17.32033726044287
 20
-36.0298110081354
 30
0.0
 40
2.664207175925926
  1
18~43mm（標準30mm）
  7
OSAKA
 11
-17.32033726044287
 21
-34.69770742017244
 31
0.0
 73
     2
  0
TEXT
  5
5AC
  8
__-2
 62
     0
 10
-70.60102738924788
 20
-43.9563967145375
 30
0.0
 40
2.13136574074074
  1
＊製品の特性上、釉薬のかかり（ムラ・垂れ・表面の凹凸）、サイズに相違があります。
  7
OSAKA
 72
     2
 11
2.169888616043082
 21
-42.89071384416714
 31
0.0
 73
     2
  0
TEXT
  5
5AD
  8
__-2
 62
     0
 10
43.87008031711893
 20
-17.96696169990021
 30
0.0
 40
2.664207175925926
  1
品名
  7
OSAKA
 72
     2
 11
48.05669159357396
 21
-16.63485811193725
 31
0.0
 73
     2
  0
POLYLINE
  5
5AE
  8
__-2
  6
CONTINUOUS
 62
     0
 66
     1
 10
0.0
 20
0.0
 30
0.0
 70
   129
  0
VERTEX
  5
5AF
  8
__-2
  6
CONTINUOUS
 62
     0
 10
37.03149368670813
 20
-11.72958961511761
 30
0.0
  0
VERTEX
  5
5B0
  8
__-2
  6
CONTINUOUS
 62
     0
 10
52.03149368670813
 20
-11.72958961511761
 30
0.0
  0
VERTEX
  5
5B1
  8
__-2
  6
CONTINUOUS
 62
     0
 10
52.03149368670813
 20
-20.72958961511761
 30
0.0
  0
VERTEX
  5
5B2
  8
__-2
  6
CONTINUOUS
 62
     0
 10
37.03149368670813
 20
-20.72958961511761
 30
0.0
  0
SEQEND
  5
5B3
  8
__-2
  6
CONTINUOUS
 62
     0
  0
POLYLINE
  5
5B4
  8
__-2
  6
CONTINUOUS
 62
     0
 66
     1
 10
0.0
 20
0.0
 30
0.0
 70
   129
  0
VERTEX
  5
5B5
  8
__-2
  6
CONTINUOUS
 62
     0
 10
37.03149368670813
 20
-20.72958961511761
 30
0.0
  0
VERTEX
  5
5B6
  8
__-2
  6
CONTINUOUS
 62
     0
 10
52.03149368670813
 20
-20.72958961511761
 30
0.0
  0
VERTEX
  5
5B7
  8
__-2
  6
CONTINUOUS
 62
     0
 10
52.03149368670813
 20
-29.72958961511761
 30
0.0
  0
VERTEX
  5
5B8
  8
__-2
  6
CONTINUOUS
 62
     0
 10
37.03149368670813
 20
-29.72958961511761
 30
0.0
  0
SEQEND
  5
5B9
  8
__-2
  6
CONTINUOUS
 62
     0
  0
POLYLINE
  5
5BA
  8
__-2
  6
CONTINUOUS
 62
     0
 66
     1
 10
0.0
 20
0.0
 30
0.0
 70
   129
  0
VERTEX
  5
5BB
  8
__-2
  6
CONTINUOUS
 62
     0
 10
37.03149368670813
 20
-29.72958961511761
 30
0.0
  0
VERTEX
  5
5BC
  8
__-2
  6
CONTINUOUS
 62
     0
 10
52.03149368670813
 20
-29.72958961511761
 30
0.0
  0
VERTEX
  5
5BD
  8
__-2
  6
CONTINUOUS
 62
     0
 10
52.03149368670813
 20
-38.72958961511761
 30
0.0
  0
VERTEX
  5
5BE
  8
__-2
  6
CONTINUOUS
 62
     0
 10
37.03149368670813
 20
-38.72958961511761
 30
0.0
  0
SEQEND
  5
5BF
  8
__-2
  6
CONTINUOUS
 62
     0
  0
TEXT
  5
5C0
  8
__-2
 62
     0
 10
43.87008031711893
 20
-26.83023119017807
 30
0.0
 40
2.664207175925926
  1
材質
  7
OSAKA
 72
     2
 11
48.05669159357396
 21
-25.49812760221511
 31
0.0
 73
     2
  0
TEXT
  5
5C1
  8
__-2
 62
     0
 10
43.06097503438084
 20
-35.81169679505814
 30
0.0
 40
2.664207175925926
  1
ネジ径
  7
OSAKA
 72
     2
 11
49.53119246162952
 21
-34.47959320709518
 31
0.0
 73
     2
  0
POLYLINE
  5
5C2
  8
__-2
  6
CONTINUOUS
 62
     0
 66
     1
 10
0.0
 20
0.0
 30
0.0
 70
   129
  0
VERTEX
  5
5C3
  8
__-2
  6
CONTINUOUS
 62
     0
 10
52.03149368670813
 20
-11.72958961511761
 30
0.0
  0
VERTEX
  5
5C4
  8
__-2
  6
CONTINUOUS
 62
     0
 10
99.03149368670813
 20
-11.72958961511761
 30
0.0
  0
VERTEX
  5
5C5
  8
__-2
  6
CONTINUOUS
 62
     0
 10
99.03149368670813
 20
-20.72958961511761
 30
0.0
  0
VERTEX
  5
5C6
  8
__-2
  6
CONTINUOUS
 62
     0
 10
52.03149368670813
 20
-20.72958961511761
 30
0.0
  0
SEQEND
  5
5C7
  8
__-2
  6
CONTINUOUS
 62
     0
  0
POLYLINE
  5
5C8
  8
__-2
  6
CONTINUOUS
 62
     0
 66
     1
 10
0.0
 20
0.0
 30
0.0
 70
   129
  0
VERTEX
  5
5C9
  8
__-2
  6
CONTINUOUS
 62
     0
 10
52.03149368670813
 20
-20.72958961511761
 30
0.0
  0
VERTEX
  5
5CA
  8
__-2
  6
CONTINUOUS
 62
     0
 10
99.03149368670813
 20
-20.72958961511761
 30
0.0
  0
VERTEX
  5
5CB
  8
__-2
  6
CONTINUOUS
 62
     0
 10
99.03149368670813
 20
-29.72958961511761
 30
0.0
  0
VERTEX
  5
5CC
  8
__-2
  6
CONTINUOUS
 62
     0
 10
52.03149368670813
 20
-29.72958961511761
 30
0.0
  0
SEQEND
  5
5CD
  8
__-2
  6
CONTINUOUS
 62
     0
  0
POLYLINE
  5
5CE
  8
__-2
  6
CONTINUOUS
 62
     0
 66
     1
 10
0.0
 20
0.0
 30
0.0
 70
   129
  0
VERTEX
  5
5CF
  8
__-2
  6
CONTINUOUS
 62
     0
 10
52.03149368670813
 20
-29.72958961511761
 30
0.0
  0
VERTEX
  5
5D0
  8
__-2
  6
CONTINUOUS
 62
     0
 10
99.03149368670813
 20
-29.72958961511761
 30
0.0
  0
VERTEX
  5
5D1
  8
__-2
  6
CONTINUOUS
 62
     0
 10
99.03149368670813
 20
-38.72958961511761
 30
0.0
  0
VERTEX
  5
5D2
  8
__-2
  6
CONTINUOUS
 62
     0
 10
52.03149368670813
 20
-38.72958961511761
 30
0.0
  0
SEQEND
  5
5D3
  8
__-2
  6
CONTINUOUS
 62
     0
  0
TEXT
  5
5D4
  8
__-2
 62
     0
 10
54.8178960592314
 20
-17.96696169990021
 30
0.0
 40
2.664207175925926
  1
陶器のつまみ・ホワイト
  7
OSAKA
 11
54.8178960592314
 21
-16.63485811193725
 31
0.0
 73
     2
  0
TEXT
  5
5D5
  8
__-2
 62
     0
 10
54.8178960592314
 20
-26.83023119017807
 30
0.0
 40
2.664207175925926
  1
陶器、ガラス釉
  7
OSAKA
 11
54.8178960592314
 21
-25.49812760221511
 31
0.0
 73
     2
  0
TEXT
  5
5D6
  8
__-2
 62
     0
 10
54.8178960592314
 20
-35.81169679505814
 30
0.0
 40
2.664207175925926
  1
M5
  7
OSAKA
 11
54.8178960592314
 21
-34.47959320709518
 31
0.0
 73
     2
  0
TEXT
  5
5D7
  8
__-2
 62
     0
 10
105.8726601880309
 20
-17.77907838229599
 30
0.0
 40
2.664207175925926
  1
品番
  7
OSAKA
 72
     2
 11
110.0592714644859
 21
-16.44697479433303
 31
0.0
 73
     2
  0
POLYLINE
  5
5D8
  8
__-2
  6
CONTINUOUS
 62
     0
 66
     1
 10
0.0
 20
0.0
 30
0.0
 70
   129
  0
VERTEX
  5
5D9
  8
__-2
  6
CONTINUOUS
 62
     0
 10
99.03149368670816
 20
-11.72958961511761
 30
0.0
  0
VERTEX
  5
5DA
  8
__-2
  6
CONTINUOUS
 62
     0
 10
114.0314936867082
 20
-11.72958961511761
 30
0.0
  0
VERTEX
  5
5DB
  8
__-2
  6
CONTINUOUS
 62
     0
 10
114.0314936867082
 20
-20.72958961511761
 30
0.0
  0
VERTEX
  5
5DC
  8
__-2
  6
CONTINUOUS
 62
     0
 10
99.03149368670816
 20
-20.72958961511761
 30
0.0
  0
SEQEND
  5
5DD
  8
__-2
  6
CONTINUOUS
 62
     0
  0
POLYLINE
  5
5DE
  8
__-2
  6
CONTINUOUS
 62
     0
 66
     1
 10
0.0
 20
0.0
 30
0.0
 70
   129
  0
VERTEX
  5
5DF
  8
__-2
  6
CONTINUOUS
 62
     0
 10
99.03149368670816
 20
-20.72958961511761
 30
0.0
  0
VERTEX
  5
5E0
  8
__-2
  6
CONTINUOUS
 62
     0
 10
114.0314936867082
 20
-20.72958961511761
 30
0.0
  0
VERTEX
  5
5E1
  8
__-2
  6
CONTINUOUS
 62
     0
 10
114.0314936867082
 20
-29.72958961511761
 30
0.0
  0
VERTEX
  5
5E2
  8
__-2
  6
CONTINUOUS
 62
     0
 10
99.03149368670816
 20
-29.72958961511761
 30
0.0
  0
SEQEND
  5
5E3
  8
__-2
  6
CONTINUOUS
 62
     0
  0
POLYLINE
  5
5E4
  8
__-2
  6
CONTINUOUS
 62
     0
 66
     1
 10
0.0
 20
0.0
 30
0.0
 70
   129
  0
VERTEX
  5
5E5
  8
__-2
  6
CONTINUOUS
 62
     0
 10
99.03149368670816
 20
-29.72958961511761
 30
0.0
  0
VERTEX
  5
5E6
  8
__-2
  6
CONTINUOUS
 62
     0
 10
114.0314936867082
 20
-29.72958961511761
 30
0.0
  0
VERTEX
  5
5E7
  8
__-2
  6
CONTINUOUS
 62
     0
 10
114.0314936867082
 20
-38.72958961511761
 30
0.0
  0
VERTEX
  5
5E8
  8
__-2
  6
CONTINUOUS
 62
     0
 10
99.03149368670816
 20
-38.72958961511761
 30
0.0
  0
SEQEND
  5
5E9
  8
__-2
  6
CONTINUOUS
 62
     0
  0
TEXT
  5
5EA
  8
__-2
 62
     0
 10
104.9257510858483
 20
-26.67292913241659
 30
0.0
 40
2.664207175925926
  1
サイズ
  7
OSAKA
 72
     2
 11
111.395968513097
 21
-25.34082554445363
 31
0.0
 73
     2
  0
POLYLINE
  5
5EB
  8
__-2
  6
CONTINUOUS
 62
     0
 66
     1
 10
0.0
 20
0.0
 30
0.0
 70
   129
  0
VERTEX
  5
5EC
  8
__-2
  6
CONTINUOUS
 62
     0
 10
114.0314936867081
 20
-11.72958961511761
 30
0.0
  0
VERTEX
  5
5ED
  8
__-2
  6
CONTINUOUS
 62
     0
 10
161.0314936867081
 20
-11.72958961511761
 30
0.0
  0
VERTEX
  5
5EE
  8
__-2
  6
CONTINUOUS
 62
     0
 10
161.0314936867081
 20
-20.72958961511761
 30
0.0
  0
VERTEX
  5
5EF
  8
__-2
  6
CONTINUOUS
 62
     0
 10
114.0314936867081
 20
-20.72958961511761
 30
0.0
  0
SEQEND
  5
5F0
  8
__-2
  6
CONTINUOUS
 62
     0
  0
POLYLINE
  5
5F1
  8
__-2
  6
CONTINUOUS
 62
     0
 66
     1
 10
0.0
 20
0.0
 30
0.0
 70
   129
  0
VERTEX
  5
5F2
  8
__-2
  6
CONTINUOUS
 62
     0
 10
114.0314936867081
 20
-20.72958961511761
 30
0.0
  0
VERTEX
  5
5F3
  8
__-2
  6
CONTINUOUS
 62
     0
 10
161.0314936867081
 20
-20.72958961511761
 30
0.0
  0
VERTEX
  5
5F4
  8
__-2
  6
CONTINUOUS
 62
     0
 10
161.0314936867081
 20
-29.72958961511761
 30
0.0
  0
VERTEX
  5
5F5
  8
__-2
  6
CONTINUOUS
 62
     0
 10
114.0314936867081
 20
-29.72958961511761
 30
0.0
  0
SEQEND
  5
5F6
  8
__-2
  6
CONTINUOUS
 62
     0
  0
POLYLINE
  5
5F7
  8
__-2
  6
CONTINUOUS
 62
     0
 66
     1
 10
0.0
 20
0.0
 30
0.0
 70
   129
  0
VERTEX
  5
5F8
  8
__-2
  6
CONTINUOUS
 62
     0
 10
114.0314936867081
 20
-29.72958961511761
 30
0.0
  0
VERTEX
  5
5F9
  8
__-2
  6
CONTINUOUS
 62
     0
 10
161.0314936867081
 20
-29.72958961511761
 30
0.0
  0
VERTEX
  5
5FA
  8
__-2
  6
CONTINUOUS
 62
     0
 10
161.0314936867081
 20
-38.72958961511761
 30
0.0
  0
VERTEX
  5
5FB
  8
__-2
  6
CONTINUOUS
 62
     0
 10
114.0314936867081
 20
-38.72958961511761
 30
0.0
  0
SEQEND
  5
5FC
  8
__-2
  6
CONTINUOUS
 62
     0
  0
TEXT
  5
5FD
  8
__-2
 62
     0
 10
116.8178960592314
 20
-17.96696169990021
 30
0.0
 40
2.664207175925926
  1
PS-HD016-01-G141
  7
OSAKA
 11
116.8178960592314
 21
-16.63485811193725
 31
0.0
 73
     2
  0
TEXT
  5
5FE
  8
__-2
 62
     0
 10
116.8178960592314
 20
-26.83023119017807
 30
0.0
 40
2.664207175925926
  1
Φ=32mm, H=30mm
  7
OSAKA
 11
116.8178960592314
 21
-25.49812760221511
 31
0.0
 73
     2
  0
TEXT
  5
5FF
  8
__-2
 62
     0
 10
105.8726601880309
 20
-35.64978893830983
 30
0.0
 40
2.664207175925926
  1
扉厚
  7
OSAKA
 72
     2
 11
110.0592714644859
 21
-34.31768535034687
 31
0.0
 73
     2
  0
TEXT
  5
600
  8
__-2
 62
     0
 10
116.8178960592314
 20
-36.0298110081354
 30
0.0
 40
2.664207175925926
  1
18~43mm（標準30mm）
  7
OSAKA
 11
116.8178960592314
 21
-34.69770742017244
 31
0.0
 73
     2
  0
TEXT
  5
601
  8
__-2
 62
     0
 10
63.53720593042644
 20
-43.9563967145375
 30
0.0
 40
2.13136574074074
  1
＊製品の特性上、釉薬のかかり（ムラ・垂れ・表面の凹凸）、サイズに相違があります。
  7
OSAKA
 72
     2
 11
136.3081219357174
 21
-42.89071384416714
 31
0.0
 73
     2
  0
TEXT
  5
602
  8
__-2
 62
     0
 10
1.440166170634919
 20
-7.111898191709167
 30
0.0
 40
2.664207175925926
  1
S=1/1
  7
OSAKA
 72
     2
 11
14.0
 21
-5.779794603746204
 31
0.0
 73
     2
  0
VIEWPORT
  5
603
 67
     1
  8
0
 10
128.5
 20
97.5
 30
0.0
 40
314.226
 41
222.18
 68
     1
 69
     1
1001
ACAD
1000
MVIEW
1002
{
1070
    16
1010
0.0
1020
0.0
1030
0.0
1010
0.0
1020
0.0
1030
1.0
1040
0.0
1040
222.18
1040
128.5
1040
97.5
1040
50.0
1040
0.0
1040
0.0
1070
     0
1070
   100
1070
     0
1070
     3
1070
     0
1070
     0
1070
     0
1070
     0
1040
0.0
1040
0.0
1040
0.0
1040
10.0
1040
10.0
1040
10.0
1040
10.0
1070
     0
1002
{
1002
}
1002
}
  0
ENDSEC
  0
EOF
