  0
SECTION
  2
HEADER
  9
$ACADVER
  1
AC1009
  9
$DWGCODEPAGE
  3
dos932
  9
$INSBASE
 10
0.0
 20
0.0
 30
0.0
  9
$EXTMIN
 10
0.0
 20
0.0
 30
0.0
  9
$EXTMAX
 10
630.0
 20
891.0
 30
0.0
  9
$LIMMIN
 10
0.0
 20
0.0
  9
$LIMMAX
 10
12.0
 20
9.0
  9
$ORTHOMODE
 70
     0
  9
$REGENMODE
 70
     1
  9
$FILLMODE
 70
     1
  9
$QTEXTMODE
 70
     0
  9
$MIRRTEXT
 70
     1
  9
$DRAGMODE
 70
     2
  9
$LTSCALE
 40
5.0
  9
$OSMODE
 70
    37
  9
$ATTMODE
 70
     1
  9
$TEXTSIZE
 40
0.2
  9
$TRACEWID
 40
1.0
  9
$TEXTSTYLE
  7
STANDARD
  9
$CLAYER
  8
__
  9
$CELTYPE
  6
BYLAYER
  9
$CECOLOR
 62
   256
  9
$DIMSCALE
 40
1.0
  9
$DIMASZ
 40
11.22412109375
  9
$DIMEXO
 40
7.9375
  9
$DIMDLI
 40
50.8
  9
$DIMRND
 40
0.0
  9
$DIMDLE
 40
7.9375
  9
$DIMEXE
 40
15.875
  9
$DIMTP
 40
0.0
  9
$DIMTM
 40
0.0
  9
$DIMTXT
 40
9.0
  9
$DIMCEN
 40
0.0
  9
$DIMTSZ
 40
0.0
  9
$DIMTOL
 70
     0
  9
$DIMLIM
 70
     0
  9
$DIMTIH
 70
     0
  9
$DIMTOH
 70
     0
  9
$DIMSE1
 70
     0
  9
$DIMSE2
 70
     0
  9
$DIMTAD
 70
     1
  9
$DIMZIN
 70
     8
  9
$DIMBLK
  1
VW_SLASH
  9
$DIMASO
 70
     1
  9
$DIMSHO
 70
     1
  9
$DIMPOST
  1
<>
  9
$DIMAPOST
  1
[]
  9
$DIMALT
 70
     0
  9
$DIMALTD
 70
     3
  9
$DIMALTF
 40
0.0393700787401575
  9
$DIMLFAC
 40
1.0
  9
$DIMTOFL
 70
     1
  9
$DIMTVP
 40
0.0
  9
$DIMTIX
 70
     1
  9
$DIMSOXD
 70
     0
  9
$DIMSAH
 70
     0
  9
$DIMBLK1
  1
VW_SLASH
  9
$DIMBLK2
  1
VW_SLASH
  9
$DIMSTYLE
  2
ARCH
  9
$DIMCLRD
 70
     0
  9
$DIMCLRE
 70
     0
  9
$DIMCLRT
 70
     0
  9
$DIMTFAC
 40
1.0
  9
$DIMGAP
 40
7.9375
  9
$LUNITS
 70
     2
  9
$LUPREC
 70
     2
  9
$SKETCHINC
 40
0.1
  9
$FILLETRAD
 40
0.0
  9
$AUNITS
 70
     0
  9
$AUPREC
 70
     2
  9
$MENU
  1
.
  9
$ELEVATION
 40
0.0
  9
$PELEVATION
 40
0.0
  9
$THICKNESS
 40
0.0
  9
$LIMCHECK
 70
     0
  9
$CHAMFERA
 40
0.0
  9
$CHAMFERB
 40
0.0
  9
$SKPOLY
 70
     0
  9
$TDCREATE
 40
2460808.604271667
  9
$TDUPDATE
 40
2460808.604291285
  9
$TDINDWG
 40
0.0000000116
  9
$TDUSRTIMER
 40
0.0000000116
  9
$USRTIMER
 70
     1
  9
$ANGBASE
 50
0.0
  9
$ANGDIR
 70
     0
  9
$PDMODE
 70
     1
  9
$PDSIZE
 40
-2.0
  9
$PLINEWID
 40
0.0
  9
$COORDS
 70
     1
  9
$SPLFRAME
 70
     0
  9
$SPLINETYPE
 70
     6
  9
$SPLINESEGS
 70
     8
  9
$ATTDIA
 70
     0
  9
$ATTREQ
 70
     1
  9
$HANDLING
 70
     1
  9
$HANDSEED
  5
1A2
  9
$SURFTAB1
 70
     6
  9
$SURFTAB2
 70
     6
  9
$SURFTYPE
 70
     6
  9
$SURFU
 70
     6
  9
$SURFV
 70
     6
  9
$UCSNAME
  2

  9
$UCSORG
 10
0.0
 20
0.0
 30
0.0
  9
$UCSXDIR
 10
1.0
 20
0.0
 30
0.0
  9
$UCSYDIR
 10
0.0
 20
1.0
 30
0.0
  9
$PUCSNAME
  2

  9
$PUCSORG
 10
0.0
 20
0.0
 30
0.0
  9
$PUCSXDIR
 10
1.0
 20
0.0
 30
0.0
  9
$PUCSYDIR
 10
0.0
 20
1.0
 30
0.0
  9
$USERI1
 70
     0
  9
$USERI2
 70
     0
  9
$USERI3
 70
     0
  9
$USERI4
 70
     0
  9
$USERI5
 70
     0
  9
$USERR1
 40
0.0
  9
$USERR2
 40
0.0
  9
$USERR3
 40
0.0
  9
$USERR4
 40
0.0
  9
$USERR5
 40
0.0
  9
$WORLDVIEW
 70
     1
  9
$SHADEDGE
 70
     3
  9
$SHADEDIF
 70
    70
  9
$TILEMODE
 70
     1
  9
$MAXACTVP
 70
    64
  9
$PLIMCHECK
 70
     0
  9
$PEXTMIN
 10
1.000000000000000E+20
 20
1.000000000000000E+20
 30
1.000000000000000E+20
  9
$PEXTMAX
 10
-1.000000000000000E+20
 20
-1.000000000000000E+20
 30
-1.000000000000000E+20
  9
$PLIMMIN
 10
-20.0
 20
-7.5
  9
$PLIMMAX
 10
277.0
 20
202.5
  9
$UNITMODE
 70
     0
  9
$VISRETAIN
 70
     1
  9
$PLINEGEN
 70
     0
  9
$PSLTSCALE
 70
     1
  0
ENDSEC
  0
SECTION
  2
TABLES
  0
TABLE
  2
VPORT
 70
     1
  0
VPORT
  2
*ACTIVE
 70
     0
 10
0.0
 20
0.0
 11
1.0
 21
1.0
 12
315.0
 22
445.5
 13
0.0
 23
0.0
 14
0.5
 24
0.5
 15
0.5
 25
0.5
 16
0.0
 26
0.0
 36
1.0
 17
0.0
 27
0.0
 37
0.0
 40
891.0
 41
0.7070707070707071
 42
2000.0
 43
0.0
 44
0.0
 50
0.0
 51
0.0
 71
     0
 72
   100
 73
     1
 74
     3
 75
     0
 76
     0
 77
     0
 78
     0
  0
ENDTAB
  0
TABLE
  2
LTYPE
 70
    10
  0
LTYPE
  2
CONTINUOUS
 70
     0
  3
Solid line
 72
    65
 73
     0
 40
0.0
  0
LTYPE
  2
CENTER
 70
     0
  3

 72
    65
 73
     4
 40
3.048
 49
1.905
 49
-0.3809999999999999
 49
0.3809999999999999
 49
-0.3809999999999999
  0
LTYPE
  2
CENTER2
 70
     0
  3

 72
    65
 73
     4
 40
1.7145
 49
1.143
 49
-0.1905
 49
0.1905
 49
-0.1905000000000002
  0
LTYPE
  2
HIDDEN2
 70
     0
  3

 72
    65
 73
     2
 40
0.2857499999999999
 49
0.1905
 49
-0.09525
  0
LTYPE
  2
CENTERX2
 70
     0
  3

 72
    65
 73
     4
 40
6.095999999999999
 49
3.81
 49
-0.7619999999999999
 49
0.7619999999999999
 49
-0.7619999999999999
  0
LTYPE
  2
HIDDEN
 70
     0
  3

 72
    65
 73
     2
 40
0.5714999999999999
 49
0.3809999999999999
 49
-0.1905
  0
LTYPE
  2
HIDDENX2
 70
     0
  3

 72
    65
 73
     2
 40
1.143
 49
0.7619999999999999
 49
-0.3809999999999999
  0
LTYPE
  2
PHANTOM
 70
     0
  3

 72
    65
 73
     6
 40
3.81
 49
1.905
 49
-0.3809999999999999
 49
0.3809999999999999
 49
-0.3809999999999999
 49
0.3810000000000003
 49
-0.3810000000000003
  0
LTYPE
  2
PHANTOM2
 70
     0
  3

 72
    65
 73
     6
 40
1.905
 49
0.9524999999999999
 49
-0.1905
 49
0.1905
 49
-0.1905
 49
0.1905000000000002
 49
-0.1905000000000002
  0
LTYPE
  2
PHANTOMX2
 70
     0
  3

 72
    65
 73
     6
 40
7.620000000000001
 49
3.81
 49
-0.7619999999999999
 49
0.7619999999999999
 49
-0.7619999999999999
 49
0.7620000000000007
 49
-0.7620000000000007
  0
ENDTAB
  0
TABLE
  2
LAYER
 70
    11
  0
LAYER
  2
0
 70
     0
 62
     7
  6
CONTINUOUS
  0
LAYER
  2
__
 70
     0
 62
     7
  6
CONTINUOUS
  0
LAYER
  2
__-1
 70
     0
 62
     2
  6
CONTINUOUS
  0
LAYER
  2
DEFPOINTS
 70
     0
 62
     7
  6
CONTINUOUS
  0
LAYER
  2
__-2
 70
     0
 62
     7
  6
CONTINUOUS
  0
LAYER
  2
__-3
 70
     0
 62
     3
  6
CONTINUOUS
  0
LAYER
  2
___X_5
 70
     0
 62
     4
  6
CENTER2
  0
LAYER
  2
TEXT
 70
     0
 62
     7
  6
CONTINUOUS
  0
LAYER
  2
HOJO
 70
     0
 62
     8
  6
CONTINUOUS
  0
LAYER
  2
__X2
 70
     0
 62
     1
  6
HIDDENX2
  0
LAYER
  2
___
 70
     0
 62
     4
  6
CENTER
  0
ENDTAB
  0
TABLE
  2
STYLE
 70
     2
  0
STYLE
  2
STANDARD
 70
     0
 40
0.0
 41
1.0
 50
0.0
 71
     0
 42
0.2
  3
txt
  4
BIGFONT.SHX
  0
STYLE
  2
HELVETICA_NEUE
 70
     0
 40
0.0
 41
1.0
 50
0.0
 71
     0
 42
0.2
  3
HelveticaNeue.ttc
  4

  0
ENDTAB
  0
TABLE
  2
VIEW
 70
     0
  0
ENDTAB
  0
TABLE
  2
UCS
 70
     0
  0
ENDTAB
  0
TABLE
  2
APPID
 70
     4
  0
APPID
  2
ACAD
 70
     0
  0
APPID
  2
ACCMTRANSPARENCY
 70
     0
  0
APPID
  2
ACAECLAYERSTANDARD
 70
     0
  0
APPID
  2
ACADANNOTATIVE
 70
     0
  0
ENDTAB
  0
TABLE
  2
DIMSTYLE
 70
     3
  0
DIMSTYLE
  2
STANDARD
 70
     0
  3

  4

  5

  6

  7

 40
1.0
 41
0.18
 42
0.0625
 43
0.38
 44
0.18
 45
0.0
 46
0.0
 47
0.0
 48
0.0
140
0.18
141
0.09
142
0.0
143
25.4
144
1.0
145
0.0
146
1.0
147
0.09
 71
     0
 72
     0
 73
     1
 74
     1
 75
     0
 76
     0
 77
     0
 78
     0
170
     0
171
     2
172
     0
173
     0
174
     0
175
     0
176
     0
177
     0
178
     0
  0
DIMSTYLE
  2
MYDIM_S_1_3
 70
     0
  3
<>
  4
[]
  5
VW_EMPTYARROW
  6
VW_EMPTYARROW
  7
VW_EMPTYARROW
 40
1.0
 41
7.49566650390625
 42
1.5
 43
21.0
 44
3.0
 45
0.0
 46
0.0
 47
0.0
 48
0.0
140
9.0
141
0.0
142
0.0
143
0.0393700787401575
144
1.0
145
0.0
146
1.0
147
3.0
 71
     0
 72
     0
 73
     0
 74
     0
 75
     0
 76
     0
 77
     1
 78
     8
170
     0
171
     3
172
     1
173
     0
174
     1
175
     0
176
     0
177
     0
178
     0
  0
DIMSTYLE
  2
ARCH
 70
     0
  3
<>
  4
[]
  5
VW_SLASH
  6
VW_SLASH
  7
VW_SLASH
 40
1.0
 41
11.22412109375
 42
7.9375
 43
50.8
 44
15.875
 45
0.0
 46
7.9375
 47
0.0
 48
0.0
140
9.0
141
0.0
142
0.0
143
0.0393700787401575
144
1.0
145
0.0
146
1.0
147
7.9375
 71
     0
 72
     0
 73
     0
 74
     0
 75
     0
 76
     0
 77
     1
 78
     8
170
     0
171
     3
172
     1
173
     0
174
     1
175
     0
176
     0
177
     0
178
     0
  0
ENDTAB
  0
ENDSEC
  0
SECTION
  2
BLOCKS
  0
BLOCK
  8
0
  2
$MODEL_SPACE
 70
     0
 10
0.0
 20
0.0
 30
0.0
  3
$MODEL_SPACE
  1

  0
ENDBLK
  5
21
  8
0
  0
BLOCK
 67
     1
  8
0
  2
$PAPER_SPACE
 70
     0
 10
0.0
 20
0.0
 30
0.0
  3
$PAPER_SPACE
  1

  0
ENDBLK
  5
1D
 67
     1
  8
0
  0
BLOCK
  8
0
  2
*D1
 70
     1
 10
0.0
 20
0.0
 30
0.0
  3
*D1
  1

  0
LINE
  5
98
  8
__-1
 62
     0
 10
411.3952435214178
 20
454.6735149890556
 30
0.0
 11
411.3952435214178
 21
487.6735149890556
 31
0.0
  0
LINE
  5
99
  8
__-1
 62
     0
 10
166.3952435214178
 20
454.6735149890556
 30
0.0
 11
166.3952435214178
 21
487.6735149890556
 31
0.0
  0
LINE
  5
9A
  8
__-1
 62
     0
 10
403.8995770175115
 20
484.6735149890556
 30
0.0
 11
173.890910025324
 21
484.6735149890556
 31
0.0
  0
INSERT
  5
9B
  8
__-1
 62
     0
  2
VW_EMPTYARROW
 10
411.3952435214178
 20
484.6735149890556
 30
0.0
 41
7.49566650390625
 42
7.49566650390625
 43
7.49566650390625
  0
INSERT
  5
A0
  8
__-1
 62
     0
  2
VW_EMPTYARROW
 10
166.3952435214178
 20
484.6735149890556
 30
0.0
 41
7.49566650390625
 42
7.49566650390625
 43
7.49566650390625
 50
180.0
  0
TEXT
  5
A5
  8
__-1
 62
     0
 10
278.5275964625943
 20
487.8121704512404
 30
0.0
 40
9.0
  1
245
  7
HELVETICA_NEUE
1001
ACADANNOTATIVE
1000
AnnotativeData
1002
{
1070
     1
1070
     0
1002
}
  0
POINT
  5
A6
  8
DEFPOINTS
 62
     0
 10
411.3952435214178
 20
453.1735149890556
 30
0.0
  0
POINT
  5
A7
  8
DEFPOINTS
 62
     0
 10
166.3952435214178
 20
453.1735149890556
 30
0.0
  0
POINT
  5
A8
  8
DEFPOINTS
 62
     0
 10
166.3952435214178
 20
484.6735149890556
 30
0.0
  0
ENDBLK
  5
61
  8
0
  0
BLOCK
  8
0
  2
*D2
 70
     1
 10
0.0
 20
0.0
 30
0.0
  3
*D2
  1

  0
LINE
  5
A9
  8
__-1
 62
     0
 10
169.8952435214178
 20
333.1735149890556
 30
0.0
 11
131.8952435214178
 21
333.1735149890556
 31
0.0
  0
LINE
  5
AA
  8
__-1
 62
     0
 10
164.8952435214178
 20
453.1735149890556
 30
0.0
 11
131.8952435214178
 21
453.1735149890556
 31
0.0
  0
LINE
  5
AB
  8
__-1
 62
     0
 10
134.8952435214178
 20
340.6691814929619
 30
0.0
 11
134.8952435214178
 21
445.6778484851494
 31
0.0
  0
INSERT
  5
AC
  8
__-1
 62
     0
  2
VW_EMPTYARROW
 10
134.8952435214178
 20
333.1735149890556
 30
0.0
 41
7.49566650390625
 42
7.49566650390625
 43
7.49566650390625
 50
270.0
  0
INSERT
  5
B1
  8
__-1
 62
     0
  2
VW_EMPTYARROW
 10
134.8952435214178
 20
453.1735149890556
 30
0.0
 41
7.49566650390625
 42
7.49566650390625
 43
7.49566650390625
 50
90.0
  0
TEXT
  5
B6
  8
__-1
 62
     0
 10
131.756588059233
 20
383.8772965016606
 30
0.0
 40
9.0
  1
120
 50
90.0
  7
HELVETICA_NEUE
1001
ACADANNOTATIVE
1000
AnnotativeData
1002
{
1070
     1
1070
     0
1002
}
  0
POINT
  5
B7
  8
DEFPOINTS
 62
     0
 10
171.3952435214178
 20
333.1735149890556
 30
0.0
  0
POINT
  5
B8
  8
DEFPOINTS
 62
     0
 10
166.3952435214178
 20
453.1735149890556
 30
0.0
  0
POINT
  5
B9
  8
DEFPOINTS
 62
     0
 10
134.8952435214178
 20
453.1735149890556
 30
0.0
  0
ENDBLK
  5
64
  8
0
  0
BLOCK
  8
0
  2
*D3
 70
     1
 10
0.0
 20
0.0
 30
0.0
  3
*D3
  1

  0
LINE
  5
BA
  8
__-1
 62
     0
 10
406.3952435214178
 20
331.6735149890556
 30
0.0
 11
406.3952435214178
 21
277.6735149890557
 31
0.0
  0
LINE
  5
BB
  8
__-1
 62
     0
 10
171.3952435214178
 20
331.6735149890557
 30
0.0
 11
171.3952435214178
 21
277.6735149890557
 31
0.0
  0
LINE
  5
BC
  8
__-1
 62
     0
 10
398.8995770175115
 20
280.6735149890557
 30
0.0
 11
178.890910025324
 21
280.6735149890557
 31
0.0
  0
INSERT
  5
BD
  8
__-1
 62
     0
  2
VW_EMPTYARROW
 10
406.3952435214178
 20
280.6735149890557
 30
0.0
 41
7.49566650390625
 42
7.49566650390625
 43
7.49566650390625
  0
INSERT
  5
C2
  8
__-1
 62
     0
  2
VW_EMPTYARROW
 10
171.3952435214178
 20
280.6735149890557
 30
0.0
 41
7.49566650390625
 42
7.49566650390625
 43
7.49566650390625
 50
180.0
  0
TEXT
  5
C7
  8
__-1
 62
     0
 10
278.5275964625943
 20
283.8121704512405
 30
0.0
 40
9.0
  1
235
  7
HELVETICA_NEUE
1001
ACADANNOTATIVE
1000
AnnotativeData
1002
{
1070
     1
1070
     0
1002
}
  0
POINT
  5
C8
  8
DEFPOINTS
 62
     0
 10
406.3952435214178
 20
333.1735149890556
 30
0.0
  0
POINT
  5
C9
  8
DEFPOINTS
 62
     0
 10
171.3952435214178
 20
333.1735149890557
 30
0.0
  0
POINT
  5
CA
  8
DEFPOINTS
 62
     0
 10
171.3952435214178
 20
280.6735149890557
 30
0.0
  0
ENDBLK
  5
67
  8
0
  0
BLOCK
  8
0
  2
*D4
 70
     1
 10
0.0
 20
0.0
 30
0.0
  3
*D4
  1

  0
LINE
  5
CB
  8
__-1
 62
     0
 10
311.3952435214178
 20
333.6735149890557
 30
0.0
 11
311.3952435214178
 21
298.6735149890557
 31
0.0
  0
LINE
  5
CC
  8
__-1
 62
     0
 10
266.3952435214178
 20
333.6735149890557
 30
0.0
 11
266.3952435214178
 21
298.6735149890557
 31
0.0
  0
LINE
  5
CD
  8
__-1
 62
     0
 10
303.8995770175115
 20
301.6735149890557
 30
0.0
 11
273.890910025324
 21
301.6735149890557
 31
0.0
  0
INSERT
  5
CE
  8
__-1
 62
     0
  2
VW_EMPTYARROW
 10
311.3952435214178
 20
301.6735149890557
 30
0.0
 41
7.49566650390625
 42
7.49566650390625
 43
7.49566650390625
  0
INSERT
  5
D3
  8
__-1
 62
     0
  2
VW_EMPTYARROW
 10
266.3952435214178
 20
301.6735149890557
 30
0.0
 41
7.49566650390625
 42
7.49566650390625
 43
7.49566650390625
 50
180.0
  0
TEXT
  5
D8
  8
__-1
 62
     0
 10
282.0065880592329
 20
304.8121704512405
 30
0.0
 40
9.0
  1
45
  7
HELVETICA_NEUE
1001
ACADANNOTATIVE
1000
AnnotativeData
1002
{
1070
     1
1070
     0
1002
}
  0
POINT
  5
D9
  8
DEFPOINTS
 62
     0
 10
311.3952435214178
 20
335.1735149890557
 30
0.0
  0
POINT
  5
DA
  8
DEFPOINTS
 62
     0
 10
266.3952435214178
 20
335.1735149890557
 30
0.0
  0
POINT
  5
DB
  8
DEFPOINTS
 62
     0
 10
266.3952435214178
 20
301.6735149890557
 30
0.0
  0
ENDBLK
  5
6A
  8
0
  0
BLOCK
  8
0
  2
*D5
 70
     1
 10
0.0
 20
0.0
 30
0.0
  3
*D5
  1

  0
LINE
  5
DC
  8
__-1
 62
     0
 10
322.9965239164178
 20
344.4928957937157
 30
0.0
 11
322.9965239164178
 21
377.6735149890557
 31
0.0
  0
LINE
  5
DD
  8
__-1
 62
     0
 10
254.7939631264179
 20
344.4928957937157
 30
0.0
 11
254.7939631264179
 21
377.6735149890557
 31
0.0
  0
LINE
  5
DE
  8
__-1
 62
     0
 10
322.9965239164178
 20
374.6735149890557
 30
0.0
 11
381.101434117803
 21
374.6735149890557
 31
0.0
  0
LINE
  5
DF
  8
__-1
 62
     0
 10
315.5008574125116
 20
374.6735149890557
 30
0.0
 11
262.2896296303242
 21
374.6735149890557
 31
0.0
  0
INSERT
  5
E0
  8
__-1
 62
     0
  2
VW_EMPTYARROW
 10
322.9965239164178
 20
374.6735149890557
 30
0.0
 41
7.49566650390625
 42
7.49566650390625
 43
7.49566650390625
  0
INSERT
  5
E5
  8
__-1
 62
     0
  2
VW_EMPTYARROW
 10
254.7939631264179
 20
374.6735149890557
 30
0.0
 41
7.49566650390625
 42
7.49566650390625
 43
7.49566650390625
 50
180.0
  0
TEXT
  5
EA
  8
__-1
 62
     0
 10
333.0131988236854
 20
377.8121704512405
 30
0.0
 40
9.0
  1
68.2026
  7
HELVETICA_NEUE
1001
ACADANNOTATIVE
1000
AnnotativeData
1002
{
1070
     1
1070
     0
1002
}
  0
POINT
  5
EB
  8
DEFPOINTS
 62
     0
 10
322.9965239164178
 20
342.9928957937157
 30
0.0
  0
POINT
  5
EC
  8
DEFPOINTS
 62
     0
 10
254.7939631264179
 20
342.9928957937157
 30
0.0
  0
POINT
  5
ED
  8
DEFPOINTS
 62
     0
 10
254.7939631264179
 20
374.6735149890557
 30
0.0
  0
ENDBLK
  5
6D
  8
0
  0
BLOCK
  8
0
  2
VW_EMPTYARROW
 70
     0
 10
0.0
 20
0.0
 30
0.0
  3
VW_EMPTYARROW
  1

  0
LINE
  5
89
  8
0
  6
BYBLOCK
 62
     0
 10
0.0
 20
0.0
 30
0.0
 11
-1.0
 21
0.0
 31
0.0
  0
POLYLINE
  5
8A
  8
0
  6
CONTINUOUS
 62
     0
 66
     1
 10
0.0
 20
0.0
 30
0.0
 70
   128
  0
VERTEX
  5
8B
  8
0
  6
CONTINUOUS
 62
     0
 10
-1.0
 20
0.2679491924311228
 30
0.0
  0
VERTEX
  5
8C
  8
0
  6
CONTINUOUS
 62
     0
 10
0.0
 20
0.0
 30
0.0
  0
VERTEX
  5
8D
  8
0
  6
CONTINUOUS
 62
     0
 10
-0.9999999999999999
 20
-0.267949192431123
 30
0.0
  0
SEQEND
  5
8E
  8
0
  6
CONTINUOUS
 62
     0
  0
ENDBLK
  5
88
  8
0
  0
BLOCK
  8
0
  2
VW_SLASH
 70
     0
 10
0.0
 20
0.0
 30
0.0
  3
VW_SLASH
  1

  0
LINE
  5
93
  8
0
  6
BYBLOCK
 62
     0
 10
0.7071823204419889
 20
0.0
 30
0.0
 11
-1.0
 21
0.0
 31
0.0
  0
POLYLINE
  5
94
  8
0
  6
CONTINUOUS
 62
     0
 66
     1
 10
0.0
 20
0.0
 30
0.0
 70
   128
  0
VERTEX
  5
95
  8
0
  6
CONTINUOUS
 62
     0
 10
0.5000534143197684
 20
0.5000534143197684
 30
0.0
  0
VERTEX
  5
96
  8
0
  6
CONTINUOUS
 62
     0
 10
-0.5000534143197684
 20
-0.5000534143197684
 30
0.0
  0
SEQEND
  5
97
  8
0
  6
CONTINUOUS
 62
     0
  0
ENDBLK
  5
92
  8
0
  0
ENDSEC
  0
SECTION
  2
ENTITIES
  0
TEXT
  5
EE
  8
TEXT
 62
     0
 10
284.5432363951624
 20
122.25
 30
0.0
 40
7.500000000000001
  1
4.5 kg
  7
HELVETICA_NEUE
 72
     1
 11
299.0442868153305
 21
126.0
 31
0.0
 73
     2
  0
TEXT
  5
EF
  8
TEXT
 62
     0
 10
132.7007947902748
 20
135.0
 30
0.0
 40
9.0
  1
大
  7
HELVETICA_NEUE
 72
     1
 11
135.8520552944765
 21
139.5
 31
0.0
 73
     2
  0
TEXT
  5
F0
  8
TEXT
 62
     0
 10
132.7007947902748
 20
120.0
 30
0.0
 40
9.0
  1
迫
  7
HELVETICA_NEUE
 72
     1
 11
135.8520552944765
 21
124.5
 31
0.0
 73
     2
  0
LINE
  5
F1
  8
__-3
 62
     0
 10
75.0
 20
855.0
 30
0.0
 11
594.0
 21
855.0
 31
0.0
  0
LINE
  5
F2
  8
__-3
 62
     0
 10
75.0
 20
30.0
 30
0.0
 11
75.0
 21
855.0
 31
0.0
  0
LINE
  5
F3
  8
DEFPOINTS
 62
     0
 10
75.0
 20
0.0
 30
0.0
 11
0.0
 21
0.0
 31
0.0
  0
LINE
  5
F4
  8
DEFPOINTS
 62
     0
 10
0.0
 20
0.0
 30
0.0
 11
0.0
 21
30.0
 31
0.0
  0
LINE
  5
F5
  8
DEFPOINTS
 62
     0
 10
0.0
 20
891.0
 30
0.0
 11
75.0
 21
891.0
 31
0.0
  0
LINE
  5
F6
  8
DEFPOINTS
 62
     0
 10
0.0
 20
861.0
 30
0.0
 11
0.0
 21
891.0
 31
0.0
  0
LINE
  5
F7
  8
__-2
 62
     0
 10
206.25
 20
870.0
 30
0.0
 11
206.25
 21
855.0
 31
0.0
  0
LINE
  5
F8
  8
__-2
 62
     0
 10
337.5
 20
885.0
 30
0.0
 11
337.5
 21
855.0
 31
0.0
  0
LINE
  5
F9
  8
__-2
 62
     0
 10
468.75
 20
870.0
 30
0.0
 11
468.75
 21
855.0
 31
0.0
  0
LINE
  5
FA
  8
DEFPOINTS
 62
     0
 10
630.0
 20
0.0
 30
0.0
 11
600.0
 21
0.0
 31
0.0
  0
LINE
  5
FB
  8
DEFPOINTS
 62
     0
 10
630.0
 20
30.0
 30
0.0
 11
630.0
 21
0.0
 31
0.0
  0
LINE
  5
FC
  8
__-2
 62
     0
 10
630.0
 20
891.0
 30
0.0
 11
630.0
 21
861.0
 31
0.0
  0
LINE
  5
FD
  8
__-2
 62
     0
 10
600.0
 20
891.0
 30
0.0
 11
630.0
 21
891.0
 31
0.0
  0
LINE
  5
FE
  8
__-2
 62
     0
 10
75.0
 20
168.5000000000009
 30
0.0
 11
60.0
 21
168.5000000000009
 31
0.0
  0
LINE
  5
FF
  8
__-2
 62
     0
 10
75.0
 20
306.999999999999
 30
0.0
 11
60.0
 21
306.999999999999
 31
0.0
  0
LINE
  5
100
  8
__-2
 62
     0
 10
75.0
 20
445.4999999999999
 30
0.0
 11
39.0
 21
445.4999999999999
 31
0.0
  0
LINE
  5
101
  8
__-2
 62
     0
 10
75.0
 20
584.0000000000009
 30
0.0
 11
60.0
 21
584.0000000000009
 31
0.0
  0
LINE
  5
102
  8
__-2
 62
     0
 10
75.0
 20
722.4999999999991
 30
0.0
 11
60.0
 21
722.4999999999991
 31
0.0
  0
LINE
  5
103
  8
__-3
 62
     0
 10
594.0
 20
30.0
 30
0.0
 11
75.0
 21
30.0
 31
0.0
  0
LINE
  5
104
  8
__-2
 62
     0
 10
206.25
 20
30.0
 30
0.0
 11
206.25
 21
15.0
 31
0.0
  0
LINE
  5
105
  8
__-2
 62
     0
 10
337.5
 20
30.0
 30
0.0
 11
337.5
 21
0.0
 31
0.0
  0
LINE
  5
106
  8
__-2
 62
     0
 10
468.75
 20
30.0
 30
0.0
 11
468.75
 21
15.0
 31
0.0
  0
LINE
  5
107
  8
__-3
 62
     0
 10
594.0
 20
855.0
 30
0.0
 11
594.0
 21
30.0
 31
0.0
  0
LINE
  5
108
  8
__-2
 62
     0
 10
594.0
 20
168.5000000000009
 30
0.0
 11
609.0
 21
168.5000000000009
 31
0.0
  0
LINE
  5
109
  8
__-2
 62
     0
 10
594.0
 20
306.999999999999
 30
0.0
 11
609.0
 21
306.999999999999
 31
0.0
  0
LINE
  5
10A
  8
__-2
 62
     0
 10
594.0
 20
445.4999999999999
 30
0.0
 11
630.0
 21
445.4999999999999
 31
0.0
  0
LINE
  5
10B
  8
__-2
 62
     0
 10
594.0
 20
584.0000000000009
 30
0.0
 11
609.0
 21
584.0000000000009
 31
0.0
  0
LINE
  5
10C
  8
__-2
 62
     0
 10
594.0
 20
722.4999999999991
 30
0.0
 11
609.0
 21
722.4999999999991
 31
0.0
  0
TEXT
  5
10D
  8
TEXT
 62
     0
 10
62.77549137682945
 20
71.62104736069136
 30
0.0
 40
7.500000000000001
  1
FLOBAL A4V
 50
90.0
  7
HELVETICA_NEUE
  0
LINE
  5
10E
  8
__-2
 62
     0
 10
363.0
 20
102.0
 30
0.0
 11
593.9999998369758
 21
102.0
 31
0.0
  0
LINE
  5
10F
  8
__-2
 62
     0
 10
321.0
 20
132.0
 30
0.0
 11
593.9999998369758
 21
132.0
 31
0.0
  0
LINE
  5
110
  8
__-2
 62
     0
 10
321.0
 20
72.0
 30
0.0
 11
593.9999998369758
 21
72.0
 31
0.0
  0
LINE
  5
111
  8
__-2
 62
     0
 10
75.0
 20
186.0
 30
0.0
 11
593.9999998369758
 21
186.0
 31
0.0
  0
TEXT
  5
112
  8
TEXT
 62
     0
 10
171.1250384877543
 20
176.3006593406594
 30
0.0
 40
6.0
  1
処    理 
  7
HELVETICA_NEUE
 72
     1
 11
181.167055294477
 21
179.3006593406594
 31
0.0
 73
     2
  0
TEXT
  5
113
  8
TEXT
 62
     0
 10
162.0199964709476
 20
165.6993406593406
 30
0.0
 40
6.0
  1
Treatment
  7
HELVETICA_NEUE
 72
     1
 11
181.167055294477
 21
168.6993406593406
 31
0.0
 73
     2
  0
TEXT
  5
114
  8
TEXT
 62
     0
 10
174.8645342860736
 20
104.0
 30
0.0
 40
6.0
  1
尺　　
  7
HELVETICA_NEUE
 72
     1
 11
181.167055294477
 21
107.0
 31
0.0
 73
     2
  0
TEXT
  5
115
  8
TEXT
 62
     0
 10
168.6418452104434
 20
94.0
 30
0.0
 40
6.0
  1
度Scale
  7
HELVETICA_NEUE
 72
     1
 11
181.167055294477
 21
97.0
 31
0.0
 73
     2
  0
TEXT
  5
116
  8
TEXT
 62
     0
 10
172.7636939499392
 20
80.0
 30
0.0
 40
6.0
  1
作　　成
  7
HELVETICA_NEUE
 72
     1
 11
181.167055294477
 21
83.0
 31
0.0
 73
     2
  0
TEXT
  5
117
  8
TEXT
 62
     0
 10
172.3729376474182
 20
70.0
 30
0.0
 40
6.0
  1
Date
  7
HELVETICA_NEUE
 72
     1
 11
181.167055294477
 21
73.0
 31
0.0
 73
     2
  0
LINE
  5
118
  8
__-2
 62
     0
 10
321.0
 20
162.0
 30
0.0
 11
161.334110588954
 21
162.0
 31
0.0
  0
TEXT
  5
119
  8
TEXT
 62
     0
 10
172.7636939499392
 20
152.0
 30
0.0
 40
6.0
  1
材　　料
  7
HELVETICA_NEUE
 72
     1
 11
181.167055294477
 21
155.0
 31
0.0
 73
     2
  0
TEXT
  5
11A
  8
TEXT
 62
     0
 10
166.1502485717879
 20
142.0
 30
0.0
 40
6.0
  1
Material
  7
HELVETICA_NEUE
 72
     1
 11
181.167055294477
 21
145.0
 31
0.0
 73
     2
  0
TEXT
  5
11B
  8
TEXT
 62
     0
 10
176.730080504561
 20
128.0
 30
0.0
 40
6.0
  1
個  
  7
HELVETICA_NEUE
 72
     1
 11
181.167055294477
 21
131.0
 31
0.0
 73
     2
  0
TEXT
  5
11C
  8
TEXT
 62
     0
 10
169.1796603364938
 20
118.0
 30
0.0
 40
6.0
  1
　数Q'ty
  7
HELVETICA_NEUE
 72
     1
 11
181.167055294477
 21
121.0
 31
0.0
 73
     2
  0
LINE
  5
11D
  8
__-2
 62
     0
 10
161.334110588954
 20
138.0
 30
0.0
 11
321.0
 21
138.0
 31
0.0
  0
LINE
  5
11E
  8
__-2
 62
     0
 10
321.0
 20
114.0
 30
0.0
 11
75.0
 21
114.0
 31
0.0
  0
LINE
  5
11F
  8
__-2
 62
     0
 10
321.0
 20
90.0
 30
0.0
 11
161.334110588954
 21
90.0
 31
0.0
  0
LINE
  5
120
  8
__-2
 62
     0
 10
321.0
 20
66.0
 30
0.0
 11
75.0
 21
66.0
 31
0.0
  0
LINE
  5
121
  8
__-2
 62
     0
 10
161.334110588954
 20
66.0
 30
0.0
 11
161.334110588954
 21
186.0
 31
0.0
  0
LINE
  5
122
  8
__-2
 62
     0
 10
110.3699999999999
 20
186.0
 30
0.0
 11
110.3699999999999
 21
66.0
 31
0.0
  0
TEXT
  5
123
  8
TEXT
 62
     0
 10
83.11357142857092
 20
109.0
 30
0.0
 40
6.0
  1
設　　計 
  7
HELVETICA_NEUE
 72
     1
 11
92.68499999999949
 21
112.0
 31
0.0
 73
     2
  0
TEXT
  5
124
  8
TEXT
 62
     0
 10
77.43289915966335
 20
99.0
 30
0.0
 40
6.0
  1
Designe
  7
HELVETICA_NEUE
 72
     1
 11
92.68499999999949
 21
102.0
 31
0.0
 73
     2
  0
TEXT
  5
125
  8
TEXT
 62
     0
 10
90.19340336134402
 20
89.0
 30
0.0
 40
6.0
  1
d
  7
HELVETICA_NEUE
 72
     1
 11
92.68499999999949
 21
92.0
 31
0.0
 73
     2
  0
TEXT
  5
126
  8
TEXT
 62
     0
 10
83.11357142857092
 20
80.0
 30
0.0
 40
6.0
  1
製　　図 
  7
HELVETICA_NEUE
 72
     1
 11
92.68499999999949
 21
83.0
 31
0.0
 73
     2
  0
TEXT
  5
127
  8
TEXT
 62
     0
 10
79.38247899159613
 20
70.0
 30
0.0
 40
6.0
  1
 Drawn
  7
HELVETICA_NEUE
 72
     1
 11
92.68499999999949
 21
73.0
 31
0.0
 73
     2
  0
TEXT
  5
128
  8
TEXT
 62
     0
 10
83.11357142857092
 20
152.2004395604396
 30
0.0
 40
6.0
  1
承　　認 
  7
HELVETICA_NEUE
 72
     1
 11
92.68499999999949
 21
155.2004395604396
 31
0.0
 73
     2
  0
TEXT
  5
129
  8
TEXT
 62
     0
 10
74.34466386554571
 20
141.7995604395604
 30
0.0
 40
6.0
  1
Approved
  7
HELVETICA_NEUE
 72
     1
 11
92.68499999999949
 21
144.7995604395604
 31
0.0
 73
     2
  0
TEXT
  5
12A
  8
TEXT
 62
     0
 10
332.4285714285714
 20
176.0
 30
0.0
 40
6.0
  1
型　　式 
  7
HELVETICA_NEUE
 72
     1
 11
342.0
 21
179.0
 31
0.0
 73
     2
  0
TEXT
  5
12B
  8
TEXT
 62
     0
 10
329.0798319327731
 20
166.0
 30
0.0
 40
6.0
  1
 Model
  7
HELVETICA_NEUE
 72
     1
 11
342.0
 21
169.0
 31
0.0
 73
     2
  0
LINE
  5
12C
  8
__-2
 62
     0
 10
321.0
 20
30.0
 30
0.0
 11
321.0
 21
186.0
 31
0.0
  0
LINE
  5
12D
  8
__-2
 62
     0
 10
201.0
 20
66.0
 30
0.0
 11
201.0
 21
186.0
 31
0.0
  0
TEXT
  5
12E
  8
TEXT
 62
     0
 10
254.6974789915966
 20
153.0
 30
0.0
 40
9.0
  1
陶磁
  7
HELVETICA_NEUE
 72
     1
 11
261.0
 21
157.5
 31
0.0
 73
     2
  0
TEXT
  5
12F
  8
TEXT
 62
     0
 10
257.8487394957983
 20
138.0
 30
0.0
 40
9.0
  1
器
  7
HELVETICA_NEUE
 72
     1
 11
261.0
 21
142.5
 31
0.0
 73
     2
  0
CIRCLE
  5
130
  8
__-3
 62
     0
 10
276.6516471365276
 20
102.0
 30
0.0
 40
9.0
  0
TEXT
  5
131
  8
TEXT
 62
     0
 10
263.3804832945269
 20
84.99825
 30
0.0
 40
5.998499999999999
  1
単 
  7
HELVETICA_NEUE
 72
     1
 11
266.6485736306613
 21
87.9975
 31
0.0
 73
     2
  0
TEXT
  5
132
  8
TEXT
 62
     0
 10
259.179853042426
 20
75.00075
 30
0.0
 40
5.998499999999999
  1
位Un
  7
HELVETICA_NEUE
 72
     1
 11
266.6485736306613
 21
78.0
 31
0.0
 73
     2
  0
TEXT
  5
133
  8
TEXT
 62
     0
 10
264.3928351852832
 20
65.00325
 30
0.0
 40
5.998499999999999
  1
it
  7
HELVETICA_NEUE
 72
     1
 11
266.6485736306613
 21
68.0025
 31
0.0
 73
     2
  0
TEXT
  5
134
  8
TEXT
 62
     0
 10
260.1123929583924
 20
128.5000728474725
 30
0.0
 40
5.998499999999999
  1
重 量 
  7
HELVETICA_NEUE
 72
     1
 11
266.6485736306613
 21
131.4993228474725
 31
0.0
 73
     2
  0
TEXT
  5
135
  8
TEXT
 62
     0
 10
253.5006009415857
 20
117.5014271525275
 30
0.0
 40
5.998499999999999
  1
Weight
  7
HELVETICA_NEUE
 72
     1
 11
266.6485736306613
 21
120.5006771525275
 31
0.0
 73
     2
  0
LINE
  5
136
  8
___X_5
 62
     0
 10
311.6380433199347
 20
102.0
 30
0.0
 11
265.6831089125635
 21
102.0
 31
0.0
  0
LINE
  5
137
  8
__-2
 62
     0
 10
256.2085736306626
 20
66.0
 30
0.0
 11
256.2085736306626
 21
138.0
 31
0.0
  0
LINE
  5
138
  8
__-3
 62
     0
 10
310.1191683352281
 20
93.01632102120584
 30
0.0
 11
310.1191683352281
 21
110.8193784496498
 31
0.0
  0
LINE
  5
139
  8
__-3
 62
     0
 10
289.2898442925807
 20
97.5
 30
0.0
 11
289.2898442925807
 21
106.5
 31
0.0
  0
CIRCLE
  5
13A
  8
__-3
 62
     0
 10
276.6516471365276
 20
102.0687233928929
 30
0.0
 40
4.431276607107066
  0
LINE
  5
13B
  8
___X_5
 62
     0
 10
276.6516471365276
 20
91.50758786179813
 30
0.0
 11
276.6516471365276
 21
112.6298589239877
 31
0.0
  0
LINE
  5
13C
  8
__-3
 62
     0
 10
289.2898442925807
 20
97.5
 30
0.0
 11
310.1191683352281
 21
93.01632102120584
 31
0.0
  0
TEXT
  5
13D
  8
TEXT
 62
     0
 10
288.2197163100757
 20
73.28638980647503
 30
0.0
 40
9.0
  1
mm
  7
HELVETICA_NEUE
 72
     1
 11
298.9718171504119
 21
77.78638980647503
 31
0.0
 73
     2
  0
LINE
  5
13E
  8
__-2
 62
     0
 10
277.0885736306609
 20
90.0
 30
0.0
 11
277.0885736306609
 21
66.0
 31
0.0
  0
LINE
  5
13F
  8
__-3
 62
     0
 10
289.2898442925807
 20
106.5
 30
0.0
 11
310.1191683352281
 21
110.8193784496498
 31
0.0
  0
LINE
  5
140
  8
__-2
 62
     0
 10
277.0885736306609
 20
138.0
 30
0.0
 11
277.0885736306609
 21
114.0
 31
0.0
  0
TEXT
  5
141
  8
TEXT
 62
     0
 10
395.8047322795812
 20
43.5
 30
0.0
 40
15.0
  1
A-FS-3342
  7
HELVETICA_NEUE
 72
     1
 11
446.9181776577325
 21
51.0
 31
0.0
 73
     2
  0
LINE
  5
142
  8
__-2
 62
     0
 10
530.9111110904641
 20
30.0
 30
0.0
 11
530.9111110904641
 21
72.0
 31
0.0
  0
TEXT
  5
143
  8
TEXT
 62
     0
 10
132.7007947902748
 20
93.0
 30
0.0
 40
9.0
  1
濱
  7
HELVETICA_NEUE
 72
     1
 11
135.8520552944765
 21
97.5
 31
0.0
 73
     2
  0
TEXT
  5
144
  8
TEXT
 62
     0
 10
132.7007947902748
 20
78.0
 30
0.0
 40
9.0
  1
野
  7
HELVETICA_NEUE
 72
     1
 11
135.8520552944765
 21
82.5
 31
0.0
 73
     2
  0
TEXT
  5
145
  8
TEXT
 62
     0
 10
205.2429422775157
 20
74.25
 30
0.0
 40
7.500000000000001
  1
2024.1.22
  7
HELVETICA_NEUE
 72
     1
 11
228.6042868153309
 21
78.0
 31
0.0
 73
     2
  0
TEXT
  5
146
  8
TEXT
 62
     0
 10
332.4285714285714
 20
122.0
 30
0.0
 40
6.0
  1
品　　名 
  7
HELVETICA_NEUE
 72
     1
 11
342.0
 21
125.0
 31
0.0
 73
     2
  0
TEXT
  5
147
  8
TEXT
 62
     0
 10
329.7016806722689
 20
112.0
 30
0.0
 40
6.0
  1
 Name
  7
HELVETICA_NEUE
 72
     1
 11
342.0
 21
115.0
 31
0.0
 73
     2
  0
TEXT
  5
148
  8
TEXT
 62
     0
 10
332.4285714285714
 20
62.50109890109889
 30
0.0
 40
6.0
  1
図　　番 
  7
HELVETICA_NEUE
 72
     1
 11
342.0
 21
65.50109890109889
 31
0.0
 73
     2
  0
TEXT
  5
149
  8
TEXT
 62
     0
 10
318.7394957983194
 20
51.49890109890111
 30
0.0
 40
6.0
  1
Drawing No.
  7
HELVETICA_NEUE
 72
     1
 11
342.0
 21
54.49890109890111
 31
0.0
 73
     2
  0
TEXT
  5
14A
  8
TEXT
 62
     0
 10
219.8437826136502
 20
97.5
 30
0.0
 40
9.0
  1
1:3
  7
HELVETICA_NEUE
 72
     1
 11
228.6042868153309
 21
102.0
 31
0.0
 73
     2
  0
LINE
  5
14B
  8
___
 62
     0
 10
288.8952435214178
 20
462.1735149890556
 30
0.0
 11
288.8952435214178
 21
324.1735149890557
 31
0.0
  0
LINE
  5
14C
  8
HOJO
 62
     0
 10
166.3952435214178
 20
453.1735149890556
 30
0.0
 11
168.5676452995572
 21
453.1735149890556
 31
0.0
  0
LINE
  5
14D
  8
__-3
 62
     0
 10
169.5261868258381
 20
453.1735149890556
 30
0.0
 11
408.2643002169975
 21
453.1735149890556
 31
0.0
  0
LINE
  5
14E
  8
__-3
 62
     0
 10
174.2697765694279
 20
333.1735149890557
 30
0.0
 11
403.5206414918389
 21
333.1735149890557
 31
0.0
  0
ARC
  5
14F
  8
__-3
 62
     0
 10
174.2697765694279
 20
336.1735149890557
 30
0.0
 40
2.999999999999987
 50
182.447048642325
 51
270.0
  0
LINE
  5
150
  8
__-3
 62
     0
 10
411.2643002169975
 20
450.1735149890561
 30
0.0
 11
406.517908882644
 21
336.0454986306552
 31
0.0
  0
ARC
  5
151
  8
__-3
 62
     0
 10
403.5206414918389
 20
336.1735149890556
 30
0.0
 40
3.0
 50
270.0
 51
357.5543250428091
  0
LINE
  5
152
  8
HOJO
 62
     0
 10
166.3952435214178
 20
453.1735149890556
 30
0.0
 11
166.4764051149032
 21
451.2743337014975
 31
0.0
  0
LINE
  5
153
  8
__-3
 62
     0
 10
166.523453641194
 20
450.1733981862931
 30
0.0
 11
171.2725122487191
 21
336.0454267702219
 31
0.0
  0
LINE
  5
154
  8
HOJO
 62
     0
 10
176.5325759036728
 20
450.1735149890556
 30
0.0
 11
181.2761656472626
 21
336.1735149890556
 31
0.0
  0
ARC
  5
155
  8
__-3
 62
     0
 10
169.5261868258381
 20
450.1735149890556
 30
0.0
 40
3.0
 50
90.0
 51
182.447048642325
  0
LINE
  5
156
  8
HOJO
 62
     0
 10
411.3952435214178
 20
453.1735149890556
 30
0.0
 11
408.2643002169975
 21
453.1735149890556
 31
0.0
  0
LINE
  5
157
  8
HOJO
 62
     0
 10
411.2643002169975
 20
450.1735149890556
 30
0.0
 11
411.3952435214178
 21
453.1735149890556
 31
0.0
  0
ARC
  5
158
  8
__-3
 62
     0
 10
408.2643002169975
 20
450.1735149890556
 30
0.0
 40
2.999999999999987
 50
357.552951357675
 51
90.0
  0
LINE
  5
159
  8
HOJO
 62
     0
 10
401.2579111391638
 20
450.1735149890556
 30
0.0
 11
396.5143213955739
 21
336.1735149890556
 31
0.0
  0
DIMENSION
  5
15A
  8
__-1
 62
     0
  2
*D1
 10
166.3952435214178
 20
484.6735149890556
 30
0.0
 11
288.8952435214178
 21
484.6735149890556
 31
0.0
 70
   160
  3
MYDIM_S_1_3
 13
411.3952435214178
 23
453.1735149890556
 33
0.0
 14
166.3952435214178
 24
453.1735149890556
 34
0.0
  0
DIMENSION
  5
15B
  8
__-1
 62
     0
  2
*D2
 10
134.8952435214178
 20
453.1735149890556
 30
0.0
 11
134.8952435214178
 21
394.6735149890555
 31
0.0
 70
   160
  3
MYDIM_S_1_3
 13
171.3952435214178
 23
333.1735149890556
 33
0.0
 14
166.3952435214178
 24
453.1735149890556
 34
0.0
 50
-90.0
  0
DIMENSION
  5
15C
  8
__-1
 62
     0
  2
*D3
 10
171.3952435214178
 20
280.6735149890557
 30
0.0
 11
288.8952435214178
 21
280.6735149890557
 31
0.0
 70
   160
  3
MYDIM_S_1_3
 13
406.3952435214178
 23
333.1735149890556
 33
0.0
 14
171.3952435214178
 24
333.1735149890557
 34
0.0
  0
LINE
  5
15D
  8
HOJO
 62
     0
 10
171.3952435214178
 20
333.1735149890557
 30
0.0
 11
171.2725122487186
 21
336.0454267702219
 31
0.0
  0
LINE
  5
15E
  8
HOJO
 62
     0
 10
174.2697765694279
 20
333.1735149890557
 30
0.0
 11
171.3952435214178
 21
333.1735149890557
 31
0.0
  0
LINE
  5
15F
  8
HOJO
 62
     0
 10
406.3952435214178
 20
333.1735149890557
 30
0.0
 11
406.517974794117
 21
336.0454267702219
 31
0.0
  0
LINE
  5
160
  8
HOJO
 62
     0
 10
403.5207104734077
 20
333.1735149890557
 30
0.0
 11
406.3952435214178
 21
333.1735149890557
 31
0.0
  0
LINE
  5
161
  8
___
 62
     0
 10
288.8952435214178
 20
786.2515231195023
 30
0.0
 11
288.8952435214178
 21
523.2515231195023
 31
0.0
  0
LINE
  5
162
  8
__-3
 62
     0
 10
381.3952435214178
 20
737.2515231195023
 30
0.0
 11
381.3952435214178
 21
572.2515231195023
 31
0.0
  0
ARC
  5
163
  8
__-3
 62
     0
 10
371.3952435214178
 20
737.2515231195023
 30
0.0
 40
10.0
 50
0.0
 51
90.0
  0
ARC
  5
164
  8
__-3
 62
     0
 10
371.3952435214178
 20
572.2515231195023
 30
0.0
 40
10.0
 50
270.0
 51
0.0
  0
LINE
  5
165
  8
__-3
 62
     0
 10
196.3952435214178
 20
737.2515231195023
 30
0.0
 11
196.3952435214178
 21
572.2515231195023
 31
0.0
  0
ARC
  5
166
  8
__-3
 62
     0
 10
206.3952435214178
 20
572.2515231195023
 30
0.0
 40
10.0
 50
180.0
 51
270.0
  0
ARC
  5
167
  8
__-3
 62
     0
 10
206.3952435214178
 20
737.2515231195023
 30
0.0
 40
10.0
 50
90.0
 51
180.0
  0
LINE
  5
168
  8
__-3
 62
     0
 10
411.3952435214178
 20
757.2515231195023
 30
0.0
 11
411.3952435214178
 21
552.2515231195023
 31
0.0
  0
LINE
  5
169
  8
__-3
 62
     0
 10
405.3952435214178
 20
757.2515231195023
 30
0.0
 11
405.3952435214178
 21
552.2515231195023
 31
0.0
  0
ARC
  5
16A
  8
__-3
 62
     0
 10
391.3952435214178
 20
552.2515231195023
 30
0.0
 40
20.0
 50
270.0
 51
0.0
  0
ARC
  5
16B
  8
__-3
 62
     0
 10
391.3952435214178
 20
552.2515231195023
 30
0.0
 40
14.0
 50
270.0
 51
0.0
  0
LINE
  5
16C
  8
__-3
 62
     0
 10
166.3952435214178
 20
757.2515231195023
 30
0.0
 11
166.3952435214178
 21
552.2515231195023
 31
0.0
  0
LINE
  5
16D
  8
__-3
 62
     0
 10
172.3952435214178
 20
757.2515231195023
 30
0.0
 11
172.3952435214178
 21
552.2515231195023
 31
0.0
  0
LINE
  5
16E
  8
___
 62
     0
 10
157.3952435214178
 20
654.7515231195023
 30
0.0
 11
420.3952435214178
 21
654.7515231195023
 31
0.0
  0
LINE
  5
16F
  8
__-3
 62
     0
 10
206.3952435214178
 20
562.2515231195023
 30
0.0
 11
371.3952435214178
 21
562.2515231195023
 31
0.0
  0
LINE
  5
170
  8
__-3
 62
     0
 10
206.3952435214178
 20
747.2515231195023
 30
0.0
 11
371.3952435214178
 21
747.2515231195023
 31
0.0
  0
LINE
  5
171
  8
__-3
 62
     0
 10
186.3952435214178
 20
532.2515231195023
 30
0.0
 11
391.3952435214178
 21
532.2515231195023
 31
0.0
  0
LINE
  5
172
  8
__-3
 62
     0
 10
186.3952435214178
 20
538.2515231195023
 30
0.0
 11
391.3952435214178
 21
538.2515231195023
 31
0.0
  0
ARC
  5
173
  8
__-3
 62
     0
 10
186.3952435214178
 20
552.2515231195023
 30
0.0
 40
20.0
 50
180.0
 51
270.0
  0
ARC
  5
174
  8
__-3
 62
     0
 10
186.3952435214178
 20
552.2515231195023
 30
0.0
 40
14.0
 50
180.0
 51
270.0
  0
LINE
  5
175
  8
__-3
 62
     0
 10
186.3952435214178
 20
777.2515231195023
 30
0.0
 11
391.3952435214178
 21
777.2515231195023
 31
0.0
  0
LINE
  5
176
  8
__-3
 62
     0
 10
186.3952435214178
 20
771.2515231195023
 30
0.0
 11
391.3952435214178
 21
771.2515231195023
 31
0.0
  0
ARC
  5
177
  8
__-3
 62
     0
 10
391.3952435214178
 20
757.2515231195023
 30
0.0
 40
20.0
 50
0.0
 51
90.0
  0
ARC
  5
178
  8
__-3
 62
     0
 10
391.3952435214178
 20
757.2515231195023
 30
0.0
 40
14.0
 50
0.0
 51
90.0
  0
ARC
  5
179
  8
__-3
 62
     0
 10
186.3952435214178
 20
757.2515231195023
 30
0.0
 40
20.0
 50
90.0
 51
180.0
  0
ARC
  5
17A
  8
__-3
 62
     0
 10
186.3952435214178
 20
757.2515231195023
 30
0.0
 40
14.0
 50
90.0
 51
180.0
  0
CIRCLE
  5
17B
  8
__-3
 62
     0
 10
288.8952435214178
 20
654.7515231195023
 30
0.0
 40
22.5
  0
CIRCLE
  5
17C
  8
__-3
 62
     0
 10
288.8952435214178
 20
654.7515231195023
 30
0.0
 40
34.0
  0
LINE
  5
17D
  8
__-3
 62
     0
 10
178.6170689283658
 20
765.0296977125543
 30
0.0
 11
197.2028553659929
 21
746.4439112749274
 31
0.0
  0
LINE
  5
17E
  8
__-3
 62
     0
 10
399.1734181144693
 20
765.0296977125543
 30
0.0
 11
380.5876316768426
 21
746.4439112749274
 31
0.0
  0
LINE
  5
17F
  8
__-3
 62
     0
 10
178.6170689283658
 20
544.4733485264501
 30
0.0
 11
197.2028553659929
 21
563.059134964077
 31
0.0
  0
LINE
  5
180
  8
__-3
 62
     0
 10
399.1734181144693
 20
544.4733485264501
 30
0.0
 11
380.5876316768426
 21
563.059134964077
 31
0.0
  0
LINE
  5
181
  8
__-2
 62
     0
 10
201.0
 20
162.0
 30
0.0
 11
321.0
 21
186.0
 31
0.0
  0
LINE
  5
182
  8
__-2
 62
     0
 10
201.0
 20
114.0
 30
0.0
 11
256.2085736306626
 21
138.0
 31
0.0
  0
TEXT
  5
183
  8
TEXT
 62
     0
 10
438.2373948764707
 20
79.5
 30
0.0
 40
15.0
  1
シロ/他別表参照
  7
HELVETICA_NEUE
 72
     1
 11
478.4999999184874
 21
87.0
 31
0.0
 73
     2
  0
TEXT
  5
184
  8
TEXT
 62
     0
 10
425.9810923554622
 20
120.0
 30
0.0
 40
9.0
  1
水栓金具取付別タイプ/角型手洗いボ
  7
HELVETICA_NEUE
 72
     1
 11
478.4999999184874
 21
124.5
 31
0.0
 73
     2
  0
TEXT
  5
185
  8
TEXT
 62
     0
 10
472.1974789100841
 20
105.0
 30
0.0
 40
9.0
  1
ウル
  7
HELVETICA_NEUE
 72
     1
 11
478.4999999184874
 21
109.5
 31
0.0
 73
     2
  0
TEXT
  5
186
  8
TEXT
 62
     0
 10
99.07187385719044
 20
244.3430500068457
 30
0.0
 40
9.0
  1
%%u注記 
  7
HELVETICA_NEUE
 11
99.07187385719044
 21
241.6581760572659
 31
0.0
 73
     1
  0
TEXT
  5
187
  8
TEXT
 62
     0
 10
99.07187385719044
 20
229.3430500068457
 30
0.0
 40
9.0
  1
%%u　記載内容について予告なく変更する場合があります。 
  7
HELVETICA_NEUE
 11
99.07187385719044
 21
226.6581760572659
 31
0.0
 73
     1
  0
TEXT
  5
188
  8
TEXT
 62
     0
 10
99.07187385719044
 20
214.3430500068457
 30
0.0
 40
9.0
  1
%%u　変更・訂正等の最新情報は“総合情報サイト”に随時掲載してい
  7
HELVETICA_NEUE
 11
99.07187385719044
 21
211.6581760572659
 31
0.0
 73
     1
  0
TEXT
  5
189
  8
TEXT
 62
     0
 10
99.07187385719044
 20
199.3430500068457
 30
0.0
 40
9.0
  1
%%uます。
  7
HELVETICA_NEUE
 11
99.07187385719044
 21
196.6581760572659
 31
0.0
 73
     1
  0
LINE
  5
18A
  8
__X2
 62
     0
 10
256.0295009722706
 20
342.4640875251857
 30
0.0
 11
265.7405891094104
 21
336.6533951358475
 31
0.0
  0
ARC
  5
18B
  8
__X2
 62
     0
 10
253.4622091477586
 20
338.1735149890557
 30
0.0
 40
4.99999999999998
 50
59.10553448452298
 51
90.0
  0
ARC
  5
18C
  8
__X2
 62
     0
 10
264.3952435214178
 20
335.1735149890557
 30
0.0
 40
2.0
 50
270.0
 51
47.72631099390736
  0
LINE
  5
18D
  8
__X2
 62
     0
 10
321.760986070565
 20
342.4640875251857
 30
0.0
 11
312.0498979334252
 21
336.6533951358475
 31
0.0
  0
ARC
  5
18E
  8
__X2
 62
     0
 10
324.328277895077
 20
338.1735149890557
 30
0.0
 40
5.0
 50
90.0
 51
120.894465515477
  0
ARC
  5
18F
  8
__X2
 62
     0
 10
313.3952435214178
 20
335.1735149890557
 30
0.0
 40
2.0
 50
132.2736890060926
 51
270.0
  0
LINE
  5
190
  8
__X2
 62
     0
 10
255.3245847947774
 20
343.1735149890557
 30
0.0
 11
322.4976578208189
 21
343.1735149890557
 31
0.0
  0
DIMENSION
  5
191
  8
__-1
 62
     0
  2
*D4
 10
266.3952435214178
 20
301.6735149890557
 30
0.0
 11
288.8952435214178
 21
301.6735149890557
 31
0.0
 70
   160
  3
MYDIM_S_1_3
 13
311.3952435214178
 23
335.1735149890557
 33
0.0
 14
266.3952435214178
 24
335.1735149890557
 34
0.0
  0
LINE
  5
192
  8
__X2
 62
     0
 10
265.7405891094104
 20
336.6533951358475
 30
0.0
 11
312.0498979334252
 21
336.6533951358475
 31
0.0
  0
DIMENSION
  5
193
  8
__-1
 62
     0
  2
*D5
 10
254.7939631264179
 20
374.6735149890557
 30
0.0
 11
355.7968122690635
 21
374.6735149890557
 31
0.0
 70
   160
  3
MYDIM_S_1_3
 13
322.9965239164178
 23
342.9928957937157
 33
0.0
 14
254.7939631264179
 24
342.9928957937157
 34
0.0
  0
LINE
  5
194
  8
__X2
 62
     0
 10
218.6764686359811
 20
343.1735149890557
 30
0.0
 11
253.4622091477586
 21
343.1735149890557
 31
0.0
  0
LINE
  5
195
  8
__X2
 62
     0
 10
359.1140184068545
 20
343.1735149890557
 30
0.0
 11
324.328277895077
 21
343.1735149890557
 31
0.0
  0
VIEWPORT
  5
196
 67
     1
  8
0
 10
128.5
 20
97.5
 30
0.0
 40
314.226
 41
222.18
 68
     1
 69
     1
1001
ACAD
1000
MVIEW
1002
{
1070
    16
1010
0.0
1020
0.0
1030
0.0
1010
0.0
1020
0.0
1030
1.0
1040
0.0
1040
222.18
1040
128.5
1040
97.5
1040
50.0
1040
0.0
1040
0.0
1070
     0
1070
   100
1070
     0
1070
     3
1070
     0
1070
     0
1070
     0
1070
     0
1040
0.0
1040
0.0
1040
0.0
1040
10.0
1040
10.0
1040
10.0
1040
10.0
1070
     0
1002
{
1002
}
1002
}
  0
ENDSEC
  0
EOF
