  0
SECTION
  2
HEADER
  9
$ACADVER
  1
AC1009
  9
$DWGCODEPAGE
  3
dos932
  9
$INSBASE
 10
0.0
 20
0.0
 30
0.0
  9
$EXTMIN
 10
10.87414201669131
 20
5.0
 30
0.0
  9
$EXTMAX
 10
306.2120780237903
 20
405.0000000000001
 30
0.0
  9
$LIMMIN
 10
0.0
 20
0.0
  9
$LIMMAX
 10
12.0
 20
9.0
  9
$ORTHOMODE
 70
     0
  9
$REGENMODE
 70
     1
  9
$FILLMODE
 70
     1
  9
$QTEXTMODE
 70
     0
  9
$MIRRTEXT
 70
     1
  9
$DRAGMODE
 70
     2
  9
$LTSCALE
 40
2.0
  9
$OSMODE
 70
    37
  9
$ATTMODE
 70
     1
  9
$TEXTSIZE
 40
0.2
  9
$TRACEWID
 40
1.0
  9
$TEXTSTYLE
  7
STANDARD
  9
$CLAYER
  8
__
  9
$CELTYPE
  6
BYLAYER
  9
$CECOLOR
 62
   256
  9
$DIMSCALE
 40
1.0
  9
$DIMASZ
 40
4.4896484375
  9
$DIMEXO
 40
3.175
  9
$DIMDLI
 40
20.32
  9
$DIMRND
 40
0.0
  9
$DIMDLE
 40
3.175
  9
$DIMEXE
 40
6.35
  9
$DIMTP
 40
0.0
  9
$DIMTM
 40
0.0
  9
$DIMTXT
 40
2.5
  9
$DIMCEN
 40
0.0
  9
$DIMTSZ
 40
0.0
  9
$DIMTOL
 70
     0
  9
$DIMLIM
 70
     0
  9
$DIMTIH
 70
     0
  9
$DIMTOH
 70
     0
  9
$DIMSE1
 70
     0
  9
$DIMSE2
 70
     0
  9
$DIMTAD
 70
     1
  9
$DIMZIN
 70
     8
  9
$DIMBLK
  1
VW_SLASH
  9
$DIMASO
 70
     1
  9
$DIMSHO
 70
     1
  9
$DIMPOST
  1
<>
  9
$DIMAPOST
  1
[]
  9
$DIMALT
 70
     0
  9
$DIMALTD
 70
     3
  9
$DIMALTF
 40
0.0393700787401575
  9
$DIMLFAC
 40
1.0
  9
$DIMTOFL
 70
     1
  9
$DIMTVP
 40
0.0
  9
$DIMTIX
 70
     1
  9
$DIMSOXD
 70
     0
  9
$DIMSAH
 70
     0
  9
$DIMBLK1
  1
VW_SLASH
  9
$DIMBLK2
  1
VW_SLASH
  9
$DIMSTYLE
  2
ARCH
  9
$DIMCLRD
 70
     0
  9
$DIMCLRE
 70
     0
  9
$DIMCLRT
 70
     0
  9
$DIMTFAC
 40
1.0
  9
$DIMGAP
 40
3.175
  9
$LUNITS
 70
     2
  9
$LUPREC
 70
     2
  9
$SKETCHINC
 40
0.1
  9
$FILLETRAD
 40
0.0
  9
$AUNITS
 70
     0
  9
$AUPREC
 70
     2
  9
$MENU
  1
.
  9
$ELEVATION
 40
0.0
  9
$PELEVATION
 40
0.0
  9
$THICKNESS
 40
0.0
  9
$LIMCHECK
 70
     0
  9
$CHAMFERA
 40
0.0
  9
$CHAMFERB
 40
0.0
  9
$SKPOLY
 70
     0
  9
$TDCREATE
 40
2460768.903472917
  9
$TDUPDATE
 40
2460768.903489861
  9
$TDINDWG
 40
0.0000000116
  9
$TDUSRTIMER
 40
0.0000000116
  9
$USRTIMER
 70
     1
  9
$ANGBASE
 50
0.0
  9
$ANGDIR
 70
     0
  9
$PDMODE
 70
     1
  9
$PDSIZE
 40
-2.0
  9
$PLINEWID
 40
0.0
  9
$COORDS
 70
     1
  9
$SPLFRAME
 70
     0
  9
$SPLINETYPE
 70
     6
  9
$SPLINESEGS
 70
     8
  9
$ATTDIA
 70
     0
  9
$ATTREQ
 70
     1
  9
$HANDLING
 70
     1
  9
$HANDSEED
  5
424
  9
$SURFTAB1
 70
     6
  9
$SURFTAB2
 70
     6
  9
$SURFTYPE
 70
     6
  9
$SURFU
 70
     6
  9
$SURFV
 70
     6
  9
$UCSNAME
  2

  9
$UCSORG
 10
0.0
 20
0.0
 30
0.0
  9
$UCSXDIR
 10
1.0
 20
0.0
 30
0.0
  9
$UCSYDIR
 10
0.0
 20
1.0
 30
0.0
  9
$PUCSNAME
  2

  9
$PUCSORG
 10
0.0
 20
0.0
 30
0.0
  9
$PUCSXDIR
 10
1.0
 20
0.0
 30
0.0
  9
$PUCSYDIR
 10
0.0
 20
1.0
 30
0.0
  9
$USERI1
 70
     0
  9
$USERI2
 70
     0
  9
$USERI3
 70
     0
  9
$USERI4
 70
     0
  9
$USERI5
 70
     0
  9
$USERR1
 40
0.0
  9
$USERR2
 40
0.0
  9
$USERR3
 40
0.0
  9
$USERR4
 40
0.0
  9
$USERR5
 40
0.0
  9
$WORLDVIEW
 70
     1
  9
$SHADEDGE
 70
     3
  9
$SHADEDIF
 70
    70
  9
$TILEMODE
 70
     1
  9
$MAXACTVP
 70
    64
  9
$PLIMCHECK
 70
     0
  9
$PEXTMIN
 10
1.000000000000000E+20
 20
1.000000000000000E+20
 30
1.000000000000000E+20
  9
$PEXTMAX
 10
-1.000000000000000E+20
 20
-1.000000000000000E+20
 30
-1.000000000000000E+20
  9
$PLIMMIN
 10
-20.0
 20
-7.5
  9
$PLIMMAX
 10
277.0
 20
202.5
  9
$UNITMODE
 70
     0
  9
$VISRETAIN
 70
     1
  9
$PLINEGEN
 70
     0
  9
$PSLTSCALE
 70
     1
  0
ENDSEC
  0
SECTION
  2
TABLES
  0
TABLE
  2
VPORT
 70
     1
  0
VPORT
  2
*ACTIVE
 70
     0
 10
0.0
 20
0.0
 11
1.0
 21
1.0
 12
158.5431100202408
 22
205.0
 13
0.0
 23
0.0
 14
0.5
 24
0.5
 15
0.5
 25
0.5
 16
0.0
 26
0.0
 36
1.0
 17
0.0
 27
0.0
 37
0.0
 40
400.0000000000001
 41
0.7383448400177473
 42
2000.0
 43
0.0
 44
0.0
 50
0.0
 51
0.0
 71
     0
 72
   100
 73
     1
 74
     3
 75
     0
 76
     0
 77
     0
 78
     0
  0
ENDTAB
  0
TABLE
  2
LTYPE
 70
     2
  0
LTYPE
  2
CONTINUOUS
 70
     0
  3
Solid line
 72
    65
 73
     0
 40
0.0
  0
LTYPE
  2
CENTER
 70
     0
  3

 72
    65
 73
     4
 40
0.9999999999999998
 49
0.6249999999999999
 49
-0.1249999999999999
 49
0.1249999999999999
 49
-0.1249999999999999
  0
ENDTAB
  0
TABLE
  2
LAYER
 70
     8
  0
LAYER
  2
0
 70
     0
 62
     7
  6
CONTINUOUS
  0
LAYER
  2
__
 70
     0
 62
     7
  6
CONTINUOUS
  0
LAYER
  2
___
 70
     0
 62
     7
  6
CENTER
  0
LAYER
  2
___-1
 70
     0
 62
     7
  6
CONTINUOUS
  0
LAYER
  2
___-2
 70
     0
 62
   144
  6
CONTINUOUS
  0
LAYER
  2
___-3
 70
     0
 62
     3
  6
CONTINUOUS
  0
LAYER
  2
DEFPOINTS
 70
     0
 62
     7
  6
CONTINUOUS
  0
ENDTAB
  0
TABLE
  2
STYLE
 70
     2
  0
STYLE
  2
STANDARD
 70
     0
 40
0.0
 41
1.0
 50
0.0
 71
     0
 42
0.2
  3
txt
  4
BIGFONT.SHX
  0
STYLE
  2
HELVETICA_NEUE
 70
     0
 40
0.0
 41
1.0
 50
0.0
 71
     0
 42
0.2
  3
HelveticaNeue.ttc
  4

  0
ENDTAB
  0
TABLE
  2
VIEW
 70
     0
  0
ENDTAB
  0
TABLE
  2
UCS
 70
     0
  0
ENDTAB
  0
TABLE
  2
APPID
 70
     4
  0
APPID
  2
ACAD
 70
     0
  0
APPID
  2
ACCMTRANSPARENCY
 70
     0
  0
APPID
  2
ACAECLAYERSTANDARD
 70
     0
  0
APPID
  2
ACADANNOTATIVE
 70
     0
  0
ENDTAB
  0
TABLE
  2
DIMSTYLE
 70
     4
  0
DIMSTYLE
  2
STANDARD
 70
     0
  3

  4

  5

  6

  7

 40
1.0
 41
0.18
 42
0.0625
 43
0.38
 44
0.18
 45
0.0
 46
0.0
 47
0.0
 48
0.0
140
0.18
141
0.09
142
0.0
143
25.4
144
1.0
145
0.0
146
1.0
147
0.09
 71
     0
 72
     0
 73
     1
 74
     1
 75
     0
 76
     0
 77
     0
 78
     0
170
     0
171
     2
172
     0
173
     0
174
     0
175
     0
176
     0
177
     0
178
     0
  0
DIMSTYLE
  2
STANDARD-1
 70
     0
  3
<>
  4
[]
  5
VW_FILLEDARROW
  6
VW_FILLEDARROW
  7
VW_FILLEDARROW
 40
1.0
 41
0.179833984375
 42
0.0625
 43
0.38
 44
0.18
 45
0.0
 46
0.0
 47
0.0
 48
0.0
140
2.5
141
0.0
142
0.0
143
0.0393700787401575
144
1.0
145
0.0
146
1.0
147
0.09
 71
     0
 72
     0
 73
     0
 74
     0
 75
     0
 76
     0
 77
     1
 78
     8
170
     0
171
     3
172
     1
173
     0
174
     1
175
     0
176
     0
177
     0
178
     0
  0
DIMSTYLE
  2
ARCH
 70
     0
  3
<>
  4
[]
  5
VW_SLASH
  6
VW_SLASH
  7
VW_SLASH
 40
1.0
 41
4.4896484375
 42
3.175
 43
20.32
 44
6.35
 45
0.0
 46
3.175
 47
0.0
 48
0.0
140
2.5
141
0.0
142
0.0
143
0.0393700787401575
144
1.0
145
0.0
146
1.0
147
3.175
 71
     0
 72
     0
 73
     0
 74
     0
 75
     0
 76
     0
 77
     1
 78
     8
170
     0
171
     3
172
     1
173
     0
174
     1
175
     0
176
     0
177
     0
178
     0
  0
DIMSTYLE
  2
JIS
 70
     0
  3
<>
  4
[]
  5
VW_FILLEDARROW-1
  6
VW_FILLEDARROW-1
  7
VW_FILLEDARROW-1
 40
1.0
 41
6.35
 42
0.0
 43
13.99999999999988
 44
3.99999999999924
 45
0.0
 46
0.0
 47
0.0
 48
0.0
140
2.5
141
0.0
142
0.0
143
0.0393700787401575
144
1.0
145
0.0
146
1.0
147
2.00000000000216
 71
     0
 72
     0
 73
     0
 74
     0
 75
     0
 76
     0
 77
     1
 78
     8
170
     0
171
     3
172
     0
173
     0
174
     1
175
     0
176
     0
177
     0
178
     0
  0
ENDTAB
  0
ENDSEC
  0
SECTION
  2
BLOCKS
  0
BLOCK
  8
0
  2
$MODEL_SPACE
 70
     0
 10
0.0
 20
0.0
 30
0.0
  3
$MODEL_SPACE
  1

  0
ENDBLK
  5
21
  8
0
  0
BLOCK
 67
     1
  8
0
  2
$PAPER_SPACE
 70
     0
 10
0.0
 20
0.0
 30
0.0
  3
$PAPER_SPACE
  1

  0
ENDBLK
  5
1D
 67
     1
  8
0
  0
BLOCK
  8
0
  2
A$C27C62923
 70
     0
 10
0.0
 20
0.0
 30
0.0
  3
A$C27C62923
  1

  0
LINE
  5
E6
  8
___-2
 62
     0
 10
24.99999979445465
 20
2.24999953899578
 30
0.0
 11
49.99999979445465
 21
2.24999953899578
 31
0.0
  0
LINE
  5
E7
  8
___-2
 62
     0
 10
49.99999979445465
 20
2.24999953899578
 30
0.0
 11
49.99999979445465
 21
7.74999953899578
 31
0.0
  0
LINE
  5
E8
  8
___-2
 62
     0
 10
49.99999979445465
 20
7.74999953899578
 30
0.0
 11
-0.0000002055453479
 21
7.74999953899578
 31
0.0
  0
LINE
  5
E9
  8
___-2
 62
     0
 10
-0.0000002055453479
 20
7.74999953899578
 30
0.0
 11
-0.0000002055453479
 21
2.24999953899578
 31
0.0
  0
LINE
  5
EA
  8
___-2
 62
     0
 10
-0.0000002055453479
 20
2.24999953899578
 30
0.0
 11
49.99999979445465
 21
2.24999953899578
 31
0.0
  0
LINE
  5
EB
  8
___
 62
     0
 10
24.74999979445465
 20
8.74999953899578
 30
0.0
 11
24.74999979445465
 21
-0.0000004610042197
 31
0.0
  0
ENDBLK
  5
61
  8
0
  0
BLOCK
  8
0
  2
A$C2234271D
 70
     0
 10
0.0
 20
0.0
 30
0.0
  3
A$C2234271D
  1

  0
INSERT
  5
EC
  8
___
 62
     7
  2
A$C27C62923
 10
-0.0000001587518454
 20
-0.0000000491652941
 30
0.0
  0
ENDBLK
  5
64
  8
0
  0
BLOCK
  8
0
  2
A$C1E9E16C8
 70
     0
 10
0.0
 20
0.0
 30
0.0
  3
A$C1E9E16C8
  1

  0
LINE
  5
ED
  8
___-2
 62
     0
 10
-0.0000009642781151
 20
1.749999982471991
 30
0.0
 11
57.99999903572188
 21
1.749999982471991
 31
0.0
  0
LINE
  5
EE
  8
___-2
 62
     0
 10
-0.0000009642781151
 20
1.749999982471991
 30
0.0
 11
-0.0000009642781151
 21
3.749999982471991
 31
0.0
  0
LINE
  5
EF
  8
___-2
 62
     0
 10
-0.0000009642781151
 20
3.749999982471991
 30
0.0
 11
28.99999903572188
 21
3.749999982471991
 31
0.0
  0
LINE
  5
F0
  8
___-2
 62
     0
 10
57.99999903572188
 20
3.749999982471991
 30
0.0
 11
57.99999903572188
 21
1.749999982471991
 31
0.0
  0
LINE
  5
F1
  8
___-2
 62
     0
 10
10.24999903572188
 20
9.24999998247199
 30
0.0
 11
47.74999903572188
 21
9.24999998247199
 31
0.0
  0
LINE
  5
F2
  8
___-2
 62
     0
 10
-0.0000009642781151
 20
3.749999982471991
 30
0.0
 11
10.24999903572188
 21
9.24999998247199
 31
0.0
  0
LINE
  5
F3
  8
___-2
 62
     0
 10
47.74999903572188
 20
9.24999998247199
 30
0.0
 11
57.99999903572188
 21
3.749999982471991
 31
0.0
  0
LINE
  5
F4
  8
___-2
 62
     0
 10
47.74999903572188
 20
9.24999998247199
 30
0.0
 11
47.74999903572188
 21
1.749999982471991
 31
0.0
  0
LINE
  5
F5
  8
___
 62
     0
 10
28.99999903572188
 20
-0.0000000175280093
 30
0.0
 11
28.99999903572188
 21
10.24999998247199
 31
0.0
  0
ENDBLK
  5
67
  8
0
  0
BLOCK
  8
0
  2
A$C2EEB1E4A
 70
     0
 10
0.0
 20
0.0
 30
0.0
  3
A$C2EEB1E4A
  1

  0
LINE
  5
F6
  8
___-2
 62
     0
 10
25.00000046887135
 20
1.999999814858256
 30
0.0
 11
54.00000046887135
 21
1.999999814858256
 31
0.0
  0
LINE
  5
F7
  8
___-2
 62
     0
 10
54.00000046887135
 20
1.999999814858256
 30
0.0
 11
54.00000046887135
 21
1.499999814858256
 31
0.0
  0
LINE
  5
F8
  8
___-2
 62
     0
 10
54.00000046887135
 20
1.499999814858256
 30
0.0
 11
0.0000004688713489
 21
1.499999814858256
 31
0.0
  0
LINE
  5
F9
  8
___-2
 62
     0
 10
0.0000004688713489
 20
1.499999814858256
 30
0.0
 11
0.0000004688713489
 21
1.999999814858256
 31
0.0
  0
LINE
  5
FA
  8
___-2
 62
     0
 10
0.0000004688713489
 20
1.999999814858256
 30
0.0
 11
27.00000046887135
 21
1.999999814858256
 31
0.0
  0
LINE
  5
FB
  8
___
 62
     0
 10
27.00000046887135
 20
2.749999814858256
 30
0.0
 11
27.00000046887135
 21
-0.0000001851417437
 31
0.0
  0
ENDBLK
  5
6A
  8
0
  0
BLOCK
  8
0
  2
A$C3BC527BC
 70
     0
 10
0.0
 20
0.0
 30
0.0
  3
A$C3BC527BC
  1

  0
LINE
  5
FC
  8
___-2
 62
     0
 10
27.24999976377558
 20
11.25000015685828
 30
0.0
 11
54.99999976377558
 21
11.25000015685828
 31
0.0
  0
LINE
  5
FD
  8
___-2
 62
     0
 10
54.99999976377558
 20
11.25000015685828
 30
0.0
 11
54.99999976377558
 21
8.750000156858277
 31
0.0
  0
LINE
  5
FE
  8
___-2
 62
     0
 10
54.99999976377558
 20
8.750000156858277
 30
0.0
 11
-0.0000002362244231
 21
8.750000156858277
 31
0.0
  0
LINE
  5
FF
  8
___-2
 62
     0
 10
-0.0000002362244231
 20
8.750000156858277
 30
0.0
 11
-0.0000002362244231
 21
11.25000015685828
 31
0.0
  0
LINE
  5
100
  8
___-2
 62
     0
 10
-0.0000002362244231
 20
11.25000015685828
 30
0.0
 11
27.24999976377558
 21
11.25000015685828
 31
0.0
  0
LINE
  5
101
  8
___
 62
     0
 10
27.31408604037614
 20
14.50000015685828
 30
0.0
 11
27.31408604037614
 21
0.0000001568582775
 31
0.0
  0
LINE
  5
102
  8
___-2
 62
     0
 10
7.999999763775577
 20
2.763258183974472
 30
0.0
 11
46.49999976377558
 21
2.763258183974472
 31
0.0
  0
LINE
  5
103
  8
___-2
 62
     0
 10
49.24999976377558
 20
8.763256477218988
 30
0.0
 11
49.24999976377558
 21
4.263258183974472
 31
0.0
  0
LINE
  5
104
  8
___-2
 62
     0
 10
47.74999976377558
 20
2.763258183974472
 30
0.0
 11
46.24999976377558
 21
2.763258183974472
 31
0.0
  0
LINE
  5
105
  8
___-2
 62
     0
 10
5.261023407216271
 20
8.763256477218988
 30
0.0
 11
5.261023407216271
 21
4.263258183974472
 31
0.0
  0
LINE
  5
106
  8
___-2
 62
     0
 10
6.761023407216271
 20
2.763258183974472
 30
0.0
 11
8.261023407216271
 21
2.763258183974472
 31
0.0
  0
LINE
  5
107
  8
___-2
 62
     0
 10
13.49999976377558
 20
4.263257084149814
 30
0.0
 11
15.74999976377558
 21
4.263257084149814
 31
0.0
  0
LINE
  5
108
  8
___-2
 62
     0
 10
38.73897612033483
 20
8.763256477218988
 30
0.0
 11
38.73897612033483
 21
4.263257084149814
 31
0.0
  0
LINE
  5
109
  8
___-2
 62
     0
 10
15.74999976377558
 20
8.763256477218988
 30
0.0
 11
15.74999976377558
 21
4.263257084149814
 31
0.0
  0
LINE
  5
10A
  8
___-2
 62
     0
 10
40.98897612033488
 20
8.763256477218988
 30
0.0
 11
40.98897612033488
 21
4.263257084149814
 31
0.0
  0
LINE
  5
10B
  8
___-2
 62
     0
 10
13.49999976377558
 20
4.263257084149814
 30
0.0
 11
13.49999976377558
 21
8.763256477218988
 31
0.0
  0
LINE
  5
10C
  8
___-2
 62
     0
 10
5.511023061462765
 20
4.013257084149814
 30
0.0
 11
5.511023061462765
 21
8.763256477218988
 31
0.0
  0
LINE
  5
10D
  8
___-2
 62
     0
 10
48.99999941802207
 20
4.013257084149814
 30
0.0
 11
48.99999941802207
 21
8.763256477218988
 31
0.0
  0
LINE
  5
10E
  8
___-2
 62
     0
 10
40.98897612033488
 20
4.263257084149814
 30
0.0
 11
38.73897612033483
 21
4.263257084149814
 31
0.0
  0
LINE
  5
10F
  8
___-2
 62
     0
 10
44.49999969462442
 20
3.263257084149814
 30
0.0
 11
46.99999969462442
 21
3.263257084149814
 31
0.0
  0
ARC
  5
110
  8
___-2
 62
     0
 10
47.08928540891009
 20
6.06682851272123
 30
0.0
 40
2.804992815298742
 50
268.175910167624
 51
312.936180271543
  0
LINE
  5
111
  8
___-2
 62
     0
 10
10.01102292316159
 20
3.273600808258493
 30
0.0
 11
7.51102292316159
 21
3.273600808258493
 31
0.0
  0
ARC
  5
112
  8
___-2
 62
     0
 10
7.421737208875868
 20
6.077172236829909
 30
0.0
 40
2.804992815298742
 50
227.0638197284569
 51
271.824089832376
  0
ARC
  5
113
  8
___-2
 62
     0
 10
47.74999976377558
 20
4.263258183974457
 30
0.0
 40
1.5
 50
270.0
 51
0.0
  0
ARC
  5
114
  8
___-2
 62
     0
 10
6.761023407216271
 20
4.263258183974472
 30
0.0
 40
1.5
 50
180.0
 51
270.0
  0
LINE
  5
115
  8
___-2
 62
     0
 10
33.99999976377558
 20
3.263257033197192
 30
0.0
 11
20.24999976377558
 21
3.263257033197192
 31
0.0
  0
ARC
  5
116
  8
___-2
 62
     0
 10
7.888160513343962
 20
17.25635426936938
 30
0.0
 40
14.15320866663493
 50
278.6264402255757
 51
293.3599638626702
  0
ARC
  5
117
  8
___-2
 62
     0
 10
22.77031608658234
 20
25.85347466188117
 30
0.0
 40
22.70291475837856
 50
251.9874484703823
 51
264.2887250914292
  0
ARC
  5
118
  8
___-2
 62
     0
 10
46.70297110337583
 20
17.66158429385038
 30
0.0
 40
14.56588178071554
 50
246.9031691272941
 51
261.3010965612006
  0
ARC
  5
119
  8
___-2
 62
     0
 10
31.80298506230997
 20
25.40380646567829
 30
0.0
 40
22.2492876799276
 50
275.6669290321563
 51
288.1641171943104
  0
LINE
  5
11A
  8
___-2
 62
     0
 10
3.053062396935445
 20
11.26325647721899
 30
0.0
 11
51.8030623969355
 21
11.26325647721899
 31
0.0
  0
LINE
  5
11B
  8
___-2
 62
     0
 10
4.053062396935445
 20
8.763256477218988
 30
0.0
 11
50.8030623969355
 21
8.763256477218988
 31
0.0
  0
ENDBLK
  5
6D
  8
0
  0
BLOCK
  8
0
  2
A$C410F1E1E
 70
     0
 10
0.0
 20
0.0
 30
0.0
  3
A$C410F1E1E
  1

  0
LINE
  5
11C
  8
___-2
 62
     0
 10
17.75000040379064
 20
1.250000170944759
 30
0.0
 11
35.50000040379064
 21
1.250000170944759
 31
0.0
  0
LINE
  5
11D
  8
___-2
 62
     0
 10
35.50000040379064
 20
1.250000170944759
 30
0.0
 11
35.50000040379064
 21
2.750000170944759
 31
0.0
  0
LINE
  5
11E
  8
___-2
 62
     0
 10
35.50000040379064
 20
2.750000170944759
 30
0.0
 11
0.0000004037906365
 21
2.750000170944759
 31
0.0
  0
LINE
  5
11F
  8
___-2
 62
     0
 10
0.0000004037906365
 20
2.750000170944759
 30
0.0
 11
0.0000004037906365
 21
1.250000170944759
 31
0.0
  0
LINE
  5
120
  8
___-2
 62
     0
 10
0.0000004037906365
 20
1.250000170944759
 30
0.0
 11
35.50000040379064
 21
1.250000170944759
 31
0.0
  0
LINE
  5
121
  8
___-2
 62
     0
 10
17.75000040379064
 20
1.250000170944759
 30
0.0
 11
32.25000040379064
 21
1.250000170944759
 31
0.0
  0
LINE
  5
122
  8
___-2
 62
     0
 10
32.25000040379064
 20
1.250000170944759
 30
0.0
 11
32.25000040379064
 21
2.750000170944759
 31
0.0
  0
LINE
  5
123
  8
___
 62
     0
 10
17.75000040379064
 20
0.0000001709447588
 30
0.0
 11
17.75000040379064
 21
4.000000170944759
 31
0.0
  0
ENDBLK
  5
70
  8
0
  0
BLOCK
  8
0
  2
A$C69F63766
 70
     0
 10
0.0
 20
0.0
 30
0.0
  3
A$C69F63766
  1

  0
ARC
  5
124
  8
___-2
 62
     0
 10
2.088164491534002
 20
2.068572525727788
 30
0.0
 40
2.096031595679435
 50
175.034405220991
 51
260.715562081206
  0
ENDBLK
  5
73
  8
0
  0
BLOCK
  8
0
  2
A$C1E984E2F
 70
     0
 10
0.0
 20
0.0
 30
0.0
  3
A$C1E984E2F
  1

  0
LINE
  5
125
  8
___-2
 62
     0
 10
1.749999608146481
 20
-0.0000001613514087
 30
0.0
 11
9.249999608146481
 21
-0.0000001613514087
 31
0.0
  0
ARC
  5
126
  8
___-2
 62
     0
 10
2.088164491534002
 20
2.068572525727788
 30
0.0
 40
2.096031595679435
 50
175.034405220991
 51
260.715562081206
  0
INSERT
  5
127
  8
___-2
 62
     7
  2
A$C69F63766
 10
10.99999960814648
 20
-0.0000001613514087
 30
0.0
 41
-1.0
  0
ENDBLK
  5
76
  8
0
  0
BLOCK
  8
0
  2
A$C56AE516A
 70
     0
 10
0.0
 20
0.0
 30
0.0
  3
A$C56AE516A
  1

  0
LINE
  5
128
  8
___
 62
     0
 10
22.00000179755193
 20
28.50000045007187
 30
0.0
 11
22.00000179755193
 21
0.000000450071866
 31
0.0
  0
LINE
  5
129
  8
___-2
 62
     0
 10
2.250001175195621
 20
9.749999767853069
 30
0.0
 11
42.25000117519561
 21
9.749999767853069
 31
0.0
  0
LINE
  5
12A
  8
___-2
 62
     0
 10
41.50000117519562
 20
22.25000045007187
 30
0.0
 11
2.500001175195621
 21
22.25000045007187
 31
0.0
  0
LINE
  5
12B
  8
___-2
 62
     0
 10
22.00000117519562
 20
22.25000045007187
 30
0.0
 11
8.75000117519562
 21
22.25000045007187
 31
0.0
  0
LINE
  5
12C
  8
___-2
 62
     0
 10
43.75000117519561
 20
19.24999929662363
 30
0.0
 11
43.75000117519561
 21
11.24999976785307
 31
0.0
  0
LINE
  5
12D
  8
___-2
 62
     0
 10
0.0000011751956208
 20
19.24999929662363
 30
0.0
 11
0.0000011751956208
 21
11.24999929662363
 31
0.0
  0
LINE
  5
12E
  8
___-2
 62
     0
 10
2.500001175195621
 20
9.749999767853069
 30
0.0
 11
3.250001175195621
 21
9.749999767853069
 31
0.0
  0
LINE
  5
12F
  8
___-2
 62
     0
 10
41.50000117519562
 20
20.74999976785307
 30
0.0
 11
41.50000117519562
 21
22.24999976785307
 31
0.0
  0
LINE
  5
130
  8
___-2
 62
     0
 10
2.500001175195621
 20
20.74999976785307
 30
0.0
 11
2.500001175195621
 21
22.24999976785307
 31
0.0
  0
LINE
  5
131
  8
___-2
 62
     0
 10
8.250001313497023
 20
11.24999929662363
 30
0.0
 11
8.250001313497023
 21
19.24999929662363
 31
0.0
  0
LINE
  5
132
  8
___-2
 62
     0
 10
14.00000131349702
 20
11.24999929662363
 30
0.0
 11
14.00000131349702
 21
19.24999929662363
 31
0.0
  0
LINE
  5
133
  8
___-2
 62
     0
 10
30.00000131349702
 20
11.24999929662363
 30
0.0
 11
30.00000131349702
 21
19.24999929662363
 31
0.0
  0
LINE
  5
134
  8
___-2
 62
     0
 10
35.75000131349702
 20
11.24999929662363
 30
0.0
 11
35.75000131349702
 21
19.24999929662363
 31
0.0
  0
LINE
  5
135
  8
___-2
 62
     0
 10
24.75000145179843
 20
9.749999296623628
 30
0.0
 11
1.500001175195621
 21
9.749999296623628
 31
0.0
  0
ARC
  5
136
  8
___-2
 62
     0
 10
4.375001451798425
 20
15.45833262995694
 30
0.0
 40
5.720637590727487
 50
266.241444314528
 51
312.6386253418244
  0
LINE
  5
137
  8
___-2
 62
     0
 10
1.500001175195621
 20
20.74999929662363
 30
0.0
 11
42.25000117519561
 21
20.74999929662363
 31
0.0
  0
LINE
  5
138
  8
___-2
 62
     0
 10
35.75000145179843
 20
19.24999929662363
 30
0.0
 11
30.00000145179843
 21
19.24999929662363
 31
0.0
  0
LINE
  5
139
  8
___-2
 62
     0
 10
35.75000145179843
 20
11.24999929662363
 30
0.0
 11
30.00000145179843
 21
11.24999929662363
 31
0.0
  0
LINE
  5
13A
  8
___-2
 62
     0
 10
14.00000145179843
 20
19.24999929662363
 30
0.0
 11
8.250001451798425
 21
19.24999929662363
 31
0.0
  0
LINE
  5
13B
  8
___-2
 62
     0
 10
14.00000145179843
 20
11.24999929662363
 30
0.0
 11
8.250001451798425
 21
11.24999929662363
 31
0.0
  0
ARC
  5
13C
  8
___-2
 62
     0
 10
26.12500163620052
 20
15.45833204590173
 30
0.0
 40
5.720637590727487
 50
266.241444314528
 51
312.6386253418244
  0
ARC
  5
13D
  8
___-2
 62
     0
 10
17.87500126739633
 20
15.04166654734553
 30
0.0
 40
5.720637590727487
 50
86.24144431452797
 51
132.6386253418244
  0
ARC
  5
13E
  8
___-2
 62
     0
 10
17.87500126739633
 20
15.45833204590173
 30
0.0
 40
5.720637590727488
 50
227.3613746581755
 51
273.758555685472
  0
ARC
  5
13F
  8
___-2
 62
     0
 10
39.62500156704925
 20
15.45833271487803
 30
0.0
 40
5.720637590727486
 50
227.3613746581756
 51
273.758555685472
  0
ARC
  5
140
  8
___-2
 62
     0
 10
39.62500149789867
 20
15.04166646242439
 30
0.0
 40
5.720637590727488
 50
86.24144431452794
 51
132.6386253418244
  0
ARC
  5
141
  8
___-2
 62
     0
 10
26.12500140569819
 20
15.04166646242442
 30
0.0
 40
5.720637590727488
 50
47.36137465817554
 51
93.75855568547202
  0
ARC
  5
142
  8
___-2
 62
     0
 10
4.375001221296088
 20
15.0416658783692
 30
0.0
 40
5.720637590727488
 50
47.36137465817554
 51
93.75855568547202
  0
ARC
  5
143
  8
___-2
 62
     0
 10
42.25000117519561
 20
19.2499992966236
 30
0.0
 40
1.5
 50
0.0
 51
90.0
  0
ARC
  5
144
  8
___-2
 62
     0
 10
42.25000117519561
 20
11.24999976785304
 30
0.0
 40
1.5
 50
270.0
 51
0.0000000000000568
  0
ARC
  5
145
  8
___-2
 62
     0
 10
1.500001175195621
 20
19.24999929662363
 30
0.0
 40
1.5
 50
89.99999999999999
 51
180.0
  0
ARC
  5
146
  8
___-2
 62
     0
 10
1.500001175195621
 20
11.24999929662363
 30
0.0
 40
1.5
 50
180.0
 51
270.0
  0
LINE
  5
147
  8
___-2
 62
     0
 10
0.2500014517984255
 20
19.00000045007187
 30
0.0
 11
0.2500014517984255
 21
11.50000045007187
 31
0.0
  0
ARC
  5
148
  8
___-2
 62
     0
 10
2.318574138877622
 20
18.66183556668435
 30
0.0
 40
2.096031595679435
 50
85.03440522099092
 51
170.715562081206
  0
INSERT
  5
149
  8
___-2
 62
     7
  2
A$C69F63766
 10
0.2500014517984255
 20
9.750000450071866
 30
0.0
 41
-1.0
 50
270.0
  0
INSERT
  5
14A
  8
___-2
 62
     7
  2
A$C1E984E2F
 10
43.50000145179843
 20
9.750000450071838
 30
0.0
 50
90.0
  0
ENDBLK
  5
79
  8
0
  0
BLOCK
  8
0
  2
A$C09CE045A
 70
     0
 10
0.0
 20
0.0
 30
0.0
  3
A$C09CE045A
  1

  0
INSERT
  5
14B
  8
___-3
 62
     7
  2
A$C56AE516A
 10
-0.0000008168485692
 20
-0.0000010478961485
 30
0.0
  0
ENDBLK
  5
7C
  8
0
  0
BLOCK
  8
0
  2
*D11
 70
     1
 10
0.0
 20
0.0
 30
0.0
  3
*D11
  1

  0
LINE
  5
14C
  8
___-3
 62
     0
 10
51.78709133644679
 20
256.5228445754358
 30
0.0
 11
33.41959133644698
 21
256.5228445754358
 31
0.0
  0
LINE
  5
14D
  8
___-3
 62
     0
 10
51.78709133644679
 20
156.5228445754358
 30
0.0
 11
33.41959133644699
 21
156.5228445754358
 31
0.0
  0
LINE
  5
14E
  8
___-3
 62
     0
 10
33.59959133644698
 20
256.3430105910608
 30
0.0
 11
33.59959133644699
 21
156.7026785598108
 31
0.0
  0
INSERT
  5
14F
  8
___-3
 62
     0
  2
VW_FILLEDARROW
 10
33.59959133644698
 20
256.5228445754358
 30
0.0
 41
0.179833984375
 42
0.179833984375
 43
0.179833984375
 50
90.00000000000001
  0
INSERT
  5
154
  8
___-3
 62
     0
  2
VW_FILLEDARROW
 10
33.59959133644699
 20
156.5228445754358
 30
0.0
 41
0.179833984375
 42
0.179833984375
 43
0.179833984375
 50
270.0
  0
TEXT
  5
159
  8
___-3
 62
     0
 10
33.47107593028454
 20
203.5238949956038
 30
0.0
 40
2.5
  1
100
 50
90.00000000000001
  7
HELVETICA_NEUE
1001
ACADANNOTATIVE
1000
AnnotativeData
1002
{
1070
     1
1070
     0
1002
}
  0
POINT
  5
15A
  8
DEFPOINTS
 62
     0
 10
51.84959133644679
 20
256.5228445754358
 30
0.0
  0
POINT
  5
15B
  8
DEFPOINTS
 62
     0
 10
51.84959133644679
 20
156.5228445754358
 30
0.0
  0
POINT
  5
15C
  8
DEFPOINTS
 62
     0
 10
33.59959133644699
 20
156.5228445754358
 30
0.0
  0
ENDBLK
  5
7F
  8
0
  0
BLOCK
  8
0
  2
*D12
 70
     1
 10
0.0
 20
0.0
 30
0.0
  3
*D12
  1

  0
LINE
  5
15D
  8
___-3
 62
     0
 10
37.78709133644679
 20
256.5228445754358
 30
0.0
 11
33.41959133644701
 21
256.5228445754358
 31
0.0
  0
LINE
  5
15E
  8
___-3
 62
     0
 10
37.78709133644679
 20
326.7728445754358
 30
0.0
 11
33.41959133644701
 21
326.7728445754358
 31
0.0
  0
LINE
  5
15F
  8
___-3
 62
     0
 10
33.59959133644701
 20
256.7026785598108
 30
0.0
 11
33.59959133644701
 21
326.5930105910608
 31
0.0
  0
INSERT
  5
160
  8
___-3
 62
     0
  2
VW_FILLEDARROW
 10
33.59959133644701
 20
256.5228445754358
 30
0.0
 41
0.179833984375
 42
0.179833984375
 43
0.179833984375
 50
270.0
  0
INSERT
  5
165
  8
___-3
 62
     0
  2
VW_FILLEDARROW
 10
33.59959133644701
 20
326.7728445754358
 30
0.0
 41
0.179833984375
 42
0.179833984375
 43
0.179833984375
 50
90.00000000000001
  0
TEXT
  5
16A
  8
___-3
 62
     0
 10
33.47107593028454
 20
287.2623403737551
 30
0.0
 40
2.5
  1
70.25
 50
90.00000000000001
  7
HELVETICA_NEUE
1001
ACADANNOTATIVE
1000
AnnotativeData
1002
{
1070
     1
1070
     0
1002
}
  0
POINT
  5
16B
  8
DEFPOINTS
 62
     0
 10
37.84959133644679
 20
256.5228445754358
 30
0.0
  0
POINT
  5
16C
  8
DEFPOINTS
 62
     0
 10
37.84959133644679
 20
326.7728445754358
 30
0.0
  0
POINT
  5
16D
  8
DEFPOINTS
 62
     0
 10
33.59959133644701
 20
326.7728445754358
 30
0.0
  0
ENDBLK
  5
82
  8
0
  0
BLOCK
  8
0
  2
*D13
 70
     1
 10
0.0
 20
0.0
 30
0.0
  3
*D13
  1

  0
LINE
  5
16E
  8
___-3
 62
     0
 10
94.84959133644679
 20
328.3353445754358
 30
0.0
 11
94.84959133644679
 21
336.9528445754358
 31
0.0
  0
LINE
  5
16F
  8
___-3
 62
     0
 10
40.84959133644679
 20
328.3353445754358
 30
0.0
 11
40.84959133644679
 21
336.9528445754358
 31
0.0
  0
LINE
  5
170
  8
___-3
 62
     0
 10
94.6697573520718
 20
336.7728445754358
 30
0.0
 11
41.02942532082179
 21
336.7728445754358
 31
0.0
  0
INSERT
  5
171
  8
___-3
 62
     0
  2
VW_FILLEDARROW
 10
94.84959133644679
 20
336.7728445754358
 30
0.0
 41
0.179833984375
 42
0.179833984375
 43
0.179833984375
  0
INSERT
  5
176
  8
___-3
 62
     0
  2
VW_FILLEDARROW
 10
40.84959133644679
 20
336.7728445754358
 30
0.0
 41
0.179833984375
 42
0.179833984375
 43
0.179833984375
 50
180.0
  0
TEXT
  5
17B
  8
___-3
 62
     0
 10
65.91331682664287
 20
336.9013599815982
 30
0.0
 40
2.5
  1
54
  7
HELVETICA_NEUE
1001
ACADANNOTATIVE
1000
AnnotativeData
1002
{
1070
     1
1070
     0
1002
}
  0
POINT
  5
17C
  8
DEFPOINTS
 62
     0
 10
94.84959133644679
 20
328.2728445754358
 30
0.0
  0
POINT
  5
17D
  8
DEFPOINTS
 62
     0
 10
40.84959133644679
 20
328.2728445754358
 30
0.0
  0
POINT
  5
17E
  8
DEFPOINTS
 62
     0
 10
40.84959133644679
 20
336.7728445754358
 30
0.0
  0
ENDBLK
  5
85
  8
0
  0
BLOCK
  8
0
  2
*D14
 70
     1
 10
0.0
 20
0.0
 30
0.0
  3
*D14
  1

  0
LINE
  5
17F
  8
___-3
 62
     0
 10
199.7959618244909
 20
253.7782314404498
 30
0.0
 11
211.6166142805987
 21
267.4384374830243
 31
0.0
  0
LINE
  5
180
  8
___-3
 62
     0
 10
166.842849707115
 20
215.6968900814272
 30
0.0
 11
166.7251743989041
 21
215.5609019063029
 31
0.0
  0
TEXT
  5
181
  8
___-3
 62
     0
 10
209.0089996390775
 20
264.6214206931473
 30
0.0
 40
2.5
  1
50
 50
49.1292218550299
  7
HELVETICA_NEUE
1001
ACADANNOTATIVE
1000
AnnotativeData
1002
{
1070
     1
1070
     0
1002
}
  0
LINE
  5
186
  8
___-3
 62
     0
 10
166.960525015326
 20
215.8328782565515
 30
0.0
 11
199.6782865162799
 21
253.6422432653254
 31
0.0
  0
INSERT
  5
18B
  8
___-3
 62
     0
  2
VW_FILLEDARROW
 10
166.960525015326
 20
215.8328782565515
 30
0.0
 41
0.179833984375
 42
0.179833984375
 43
0.179833984375
 50
49.1292218550299
  0
INSERT
  5
18C
  8
___-3
 62
     0
  2
VW_FILLEDARROW
 10
199.6782865162799
 20
253.6422432653254
 30
0.0
 41
0.179833984375
 42
0.179833984375
 43
0.179833984375
 50
229.1292218550299
  0
POINT
  5
18D
  8
DEFPOINTS
 62
     0
 10
199.6782865162799
 20
253.6422432653254
 30
0.0
  0
POINT
  5
304
  8
DEFPOINTS
 62
     0
 10
166.960525015326
 20
215.8328782565515
 30
0.0
  0
ENDBLK
  5
88
  8
0
  0
BLOCK
  8
0
  2
*D15
 70
     1
 10
0.0
 20
0.0
 30
0.0
  3
*D15
  1

  0
LINE
  5
18E
  8
___-3
 62
     0
 10
169.6829498315144
 20
246.7605983659549
 30
0.0
 11
155.7793198472993
 21
259.0191989108463
 31
0.0
  0
LINE
  5
18F
  8
___-3
 62
     0
 10
196.9558617000911
 20
222.7145231559215
 30
0.0
 11
197.0907528220631
 21
222.5955918852257
 31
0.0
  0
TEXT
  5
190
  8
___-3
 62
     0
 10
155.8556556629843
 20
259.1232289002155
 30
0.0
 40
2.5
  1
36
 50
318.5979089440178
  7
HELVETICA_NEUE
1001
ACADANNOTATIVE
1000
AnnotativeData
1002
{
1070
     1
1070
     0
1002
}
  0
LINE
  5
195
  8
___-3
 62
     0
 10
196.8209705781191
 20
222.8334544266174
 30
0.0
 11
169.8178409534864
 21
246.6416670952591
 31
0.0
  0
INSERT
  5
19A
  8
___-3
 62
     0
  2
VW_FILLEDARROW
 10
196.8209705781191
 20
222.8334544266174
 30
0.0
 41
0.179833984375
 42
0.179833984375
 43
0.179833984375
 50
138.5979089440178
  0
INSERT
  5
19B
  8
___-3
 62
     0
  2
VW_FILLEDARROW
 10
169.8178409534864
 20
246.6416670952591
 30
0.0
 41
0.179833984375
 42
0.179833984375
 43
0.179833984375
 50
318.5979089440178
  0
POINT
  5
19C
  8
DEFPOINTS
 62
     0
 10
169.8178409534864
 20
246.6416670952591
 30
0.0
  0
POINT
  5
306
  8
DEFPOINTS
 62
     0
 10
196.8209705781191
 20
222.8334544266174
 30
0.0
  0
ENDBLK
  5
8B
  8
0
  0
BLOCK
  8
0
  2
*D16
 70
     1
 10
0.0
 20
0.0
 30
0.0
  3
*D16
  1

  0
LINE
  5
19D
  8
___-3
 62
     0
 10
209.8701581049904
 20
196.8090624277235
 30
0.0
 11
222.9876581049916
 21
196.8090624277235
 31
0.0
  0
LINE
  5
19E
  8
___-3
 62
     0
 10
209.8701581049904
 20
202.3090624277235
 30
0.0
 11
222.9876581049916
 21
202.3090624277235
 31
0.0
  0
LINE
  5
19F
  8
___-3
 62
     0
 10
222.8076581049916
 20
196.9888964120985
 30
0.0
 11
222.8076581049916
 21
202.1292284433485
 31
0.0
  0
INSERT
  5
1A0
  8
___-3
 62
     0
  2
VW_FILLEDARROW
 10
222.8076581049916
 20
196.8090624277235
 30
0.0
 41
0.179833984375
 42
0.179833984375
 43
0.179833984375
 50
270.0
  0
INSERT
  5
1A5
  8
___-3
 62
     0
  2
VW_FILLEDARROW
 10
222.8076581049916
 20
202.3090624277235
 30
0.0
 41
0.179833984375
 42
0.179833984375
 43
0.179833984375
 50
90.0
  0
TEXT
  5
1AA
  8
___-3
 62
     0
 10
222.6791426988291
 20
197.1465974417291
 30
0.0
 40
2.5
  1
5.5
 50
90.0
  7
HELVETICA_NEUE
1001
ACADANNOTATIVE
1000
AnnotativeData
1002
{
1070
     1
1070
     0
1002
}
  0
POINT
  5
1AB
  8
DEFPOINTS
 62
     0
 10
209.8076581049904
 20
196.8090624277235
 30
0.0
  0
POINT
  5
1AC
  8
DEFPOINTS
 62
     0
 10
209.8076581049904
 20
202.3090624277235
 30
0.0
  0
POINT
  5
1AD
  8
DEFPOINTS
 62
     0
 10
222.8076581049916
 20
202.3090624277235
 30
0.0
  0
ENDBLK
  5
8E
  8
0
  0
BLOCK
  8
0
  2
*D17
 70
     1
 10
0.0
 20
0.0
 30
0.0
  3
*D17
  1

  0
LINE
  5
1AE
  8
___-3
 62
     0
 10
210.7178157587223
 20
15.48605298355835
 30
0.0
 11
218.8353157587223
 21
15.48605298355835
 31
0.0
  0
LINE
  5
1AF
  8
___-3
 62
     0
 10
210.7178157587223
 20
15.98605298355835
 30
0.0
 11
218.8353157587223
 21
15.98605298355835
 31
0.0
  0
LINE
  5
1B0
  8
___-3
 62
     0
 10
218.6553157587223
 20
15.98605298355835
 30
0.0
 11
218.6553157587223
 21
70.01328441970944
 31
0.0
  0
LINE
  5
1B1
  8
___-3
 62
     0
 10
218.6553157587223
 20
15.48605298355835
 30
0.0
 11
218.6553157587223
 21
15.98605298355835
 31
0.0
  0
LINE
  5
1B2
  8
___-3
 62
     0
 10
218.6553157587223
 20
15.30621899918335
 30
0.0
 11
218.6553157587223
 21
15.12638501480835
 31
0.0
  0
LINE
  5
1B7
  8
___-3
 62
     0
 10
218.6553157587223
 20
16.16588696793335
 30
0.0
 11
218.6553157587223
 21
16.34572095230835
 31
0.0
  0
INSERT
  5
1BC
  8
___-3
 62
     0
  2
VW_FILLEDARROW
 10
218.6553157587223
 20
15.48605298355835
 30
0.0
 41
0.179833984375
 42
0.179833984375
 43
0.179833984375
 50
90.0
  0
INSERT
  5
1BD
  8
___-3
 62
     0
  2
VW_FILLEDARROW
 10
218.6553157587223
 20
15.98605298355835
 30
0.0
 41
0.179833984375
 42
0.179833984375
 43
0.179833984375
 50
270.0
  0
TEXT
  5
1BE
  8
___-3
 62
     0
 10
218.5268003525598
 20
65.2209034673285
 30
0.0
 40
2.5
  1
0.5
 50
90.0
  7
HELVETICA_NEUE
1001
ACADANNOTATIVE
1000
AnnotativeData
1002
{
1070
     1
1070
     0
1002
}
  0
POINT
  5
1BF
  8
DEFPOINTS
 62
     0
 10
210.6553157587223
 20
15.48605298355835
 30
0.0
  0
POINT
  5
309
  8
DEFPOINTS
 62
     0
 10
210.6553157587223
 20
15.98605298355835
 30
0.0
  0
POINT
  5
30A
  8
DEFPOINTS
 62
     0
 10
218.6553157587223
 20
15.98605298355835
 30
0.0
  0
ENDBLK
  5
91
  8
0
  0
BLOCK
  8
0
  2
*D18
 70
     1
 10
0.0
 20
0.0
 30
0.0
  3
*D18
  1

  0
LINE
  5
1C0
  8
___-3
 62
     0
 10
270.6428461385626
 20
276.0764200001524
 30
0.0
 11
270.6428461385626
 21
257.9411943487952
 31
0.0
  0
LINE
  5
1C1
  8
___-3
 62
     0
 10
238.6428461385626
 20
276.0764200001524
 30
0.0
 11
238.6428461385626
 21
257.9411943487952
 31
0.0
  0
LINE
  5
1C2
  8
___-3
 62
     0
 10
264.2928461385626
 20
261.9411943487945
 30
0.0
 11
244.9928461385626
 21
261.9411943487945
 31
0.0
  0
INSERT
  5
1C3
  8
___-3
 62
     0
  2
VW_FILLEDARROW-1
 10
270.6428461385626
 20
261.9411943487945
 30
0.0
 41
6.35
 42
6.35
 43
6.35
  0
INSERT
  5
1C8
  8
___-3
 62
     0
  2
VW_FILLEDARROW-1
 10
238.6428461385626
 20
261.9411943487945
 30
0.0
 41
6.35
 42
6.35
 43
6.35
 50
180.0
  0
TEXT
  5
1C9
  8
___-3
 62
     0
 10
252.7538405363217
 20
263.9797097549591
 30
0.0
 40
2.5
  1
32
  7
HELVETICA_NEUE
1001
ACADANNOTATIVE
1000
AnnotativeData
1002
{
1070
     1
1070
     0
1002
}
  0
POINT
  5
1CE
  8
DEFPOINTS
 62
     0
 10
270.6428461385626
 20
276.0764200001524
 30
0.0
  0
POINT
  5
1CF
  8
DEFPOINTS
 62
     0
 10
238.6428461385626
 20
276.0764200001524
 30
0.0
  0
POINT
  5
1D0
  8
DEFPOINTS
 62
     0
 10
238.6428461385626
 20
261.9411943487945
 30
0.0
  0
ENDBLK
  5
94
  8
0
  0
BLOCK
  8
0
  2
*D19
 70
     1
 10
0.0
 20
0.0
 30
0.0
  3
*D19
  1

  0
LINE
  5
1D2
  8
___-3
 62
     0
 10
272.3928461385626
 20
377.3264200001524
 30
0.0
 11
272.3928461385626
 21
388.8771582489059
 31
0.0
  0
LINE
  5
1D3
  8
___-3
 62
     0
 10
236.8928461385626
 20
377.3264200001524
 30
0.0
 11
236.8928461385626
 21
388.8771582489059
 31
0.0
  0
LINE
  5
1D4
  8
___-3
 62
     0
 10
266.0428461385626
 20
384.8771582489067
 30
0.0
 11
243.2428461385626
 21
384.8771582489067
 31
0.0
  0
INSERT
  5
1D5
  8
___-3
 62
     0
  2
VW_FILLEDARROW-1
 10
272.3928461385626
 20
384.8771582489067
 30
0.0
 41
6.35
 42
6.35
 43
6.35
  0
INSERT
  5
1DA
  8
___-3
 62
     0
  2
VW_FILLEDARROW-1
 10
236.8928461385626
 20
384.8771582489067
 30
0.0
 41
6.35
 42
6.35
 43
6.35
 50
180.0
  0
TEXT
  5
1DB
  8
___-3
 62
     0
 10
251.2674959985066
 20
386.9156736550713
 30
0.0
 40
2.5
  1
35.5
  7
HELVETICA_NEUE
1001
ACADANNOTATIVE
1000
AnnotativeData
1002
{
1070
     1
1070
     0
1002
}
  0
POINT
  5
1E0
  8
DEFPOINTS
 62
     0
 10
272.3928461385626
 20
377.3264200001524
 30
0.0
  0
POINT
  5
1E1
  8
DEFPOINTS
 62
     0
 10
236.8928461385626
 20
377.3264200001524
 30
0.0
  0
POINT
  5
1E2
  8
DEFPOINTS
 62
     0
 10
236.8928461385626
 20
384.8771582489067
 30
0.0
  0
ENDBLK
  5
97
  8
0
  0
BLOCK
  8
0
  2
*D20
 70
     1
 10
0.0
 20
0.0
 30
0.0
  3
*D20
  1

  0
LINE
  5
1E4
  8
___-3
 62
     0
 10
101.0241778949733
 20
96.23007376255305
 30
0.0
 11
101.0241778949733
 21
117.8475737625531
 31
0.0
  0
LINE
  5
1E5
  8
___-3
 62
     0
 10
46.02417789497326
 20
96.23007376255305
 30
0.0
 11
46.02417789497326
 21
117.8475737625531
 31
0.0
  0
LINE
  5
1E6
  8
___-3
 62
     0
 10
100.8443439105983
 20
117.667573762553
 30
0.0
 11
46.20401187934826
 21
117.667573762553
 31
0.0
  0
INSERT
  5
1E7
  8
___-3
 62
     0
  2
VW_FILLEDARROW
 10
101.0241778949733
 20
117.667573762553
 30
0.0
 41
0.179833984375
 42
0.179833984375
 43
0.179833984375
  0
INSERT
  5
1EC
  8
___-3
 62
     0
  2
VW_FILLEDARROW
 10
46.02417789497326
 20
117.667573762553
 30
0.0
 41
0.179833984375
 42
0.179833984375
 43
0.179833984375
 50
180.0
  0
TEXT
  5
1F1
  8
___-3
 62
     0
 10
71.59840758685002
 20
117.7960891687155
 30
0.0
 40
2.5
  1
55
  7
HELVETICA_NEUE
1001
ACADANNOTATIVE
1000
AnnotativeData
1002
{
1070
     1
1070
     0
1002
}
  0
POINT
  5
1F2
  8
DEFPOINTS
 62
     0
 10
101.0241778949733
 20
96.16757376255305
 30
0.0
  0
POINT
  5
1F3
  8
DEFPOINTS
 62
     0
 10
46.02417789497326
 20
96.16757376255305
 30
0.0
  0
POINT
  5
1F4
  8
DEFPOINTS
 62
     0
 10
46.02417789497326
 20
117.667573762553
 30
0.0
  0
ENDBLK
  5
9A
  8
0
  0
BLOCK
  8
0
  2
*D21
 70
     1
 10
0.0
 20
0.0
 30
0.0
  3
*D21
  1

  0
LINE
  5
1F5
  8
___-3
 62
     0
 10
54.27417789497326
 20
96.23007376255305
 30
0.0
 11
54.27417789497326
 21
108.3475737625531
 31
0.0
  0
LINE
  5
1F6
  8
___-3
 62
     0
 10
92.27417789497326
 20
96.23007376255305
 30
0.0
 11
92.27417789497326
 21
108.3475737625531
 31
0.0
  0
LINE
  5
1F7
  8
___-3
 62
     0
 10
54.45401187934826
 20
108.167573762553
 30
0.0
 11
92.09434391059827
 21
108.167573762553
 31
0.0
  0
INSERT
  5
1F8
  8
___-3
 62
     0
  2
VW_FILLEDARROW
 10
54.27417789497326
 20
108.167573762553
 30
0.0
 41
0.179833984375
 42
0.179833984375
 43
0.179833984375
 50
180.0
  0
INSERT
  5
1FD
  8
___-3
 62
     0
  2
VW_FILLEDARROW
 10
92.27417789497326
 20
108.167573762553
 30
0.0
 41
0.179833984375
 42
0.179833984375
 43
0.179833984375
  0
TEXT
  5
202
  8
___-3
 62
     0
 10
71.3466568865699
 20
108.2960891687155
 30
0.0
 40
2.5
  1
38
  7
HELVETICA_NEUE
1001
ACADANNOTATIVE
1000
AnnotativeData
1002
{
1070
     1
1070
     0
1002
}
  0
POINT
  5
203
  8
DEFPOINTS
 62
     0
 10
54.27417789497326
 20
96.16757376255305
 30
0.0
  0
POINT
  5
204
  8
DEFPOINTS
 62
     0
 10
92.27417789497326
 20
96.16757376255305
 30
0.0
  0
POINT
  5
205
  8
DEFPOINTS
 62
     0
 10
92.27417789497326
 20
108.167573762553
 30
0.0
  0
ENDBLK
  5
9D
  8
0
  0
BLOCK
  8
0
  2
*D22
 70
     1
 10
0.0
 20
0.0
 30
0.0
  3
*D22
  1

  0
LINE
  5
206
  8
___-3
 62
     0
 10
208.1590918681406
 20
157.7687079682554
 30
0.0
 11
225.6909896244091
 21
168.2534703519061
 31
0.0
  0
LINE
  5
207
  8
___-3
 62
     0
 10
158.0728143093009
 20
127.815149820322
 30
0.0
 11
157.9184745885756
 21
127.7228486147902
 31
0.0
  0
TEXT
  5
208
  8
___-3
 62
     0
 10
222.3264027706459
 20
166.3910594065953
 30
0.0
 40
2.5
  1
58
 50
30.88107869694348
  7
HELVETICA_NEUE
1001
ACADANNOTATIVE
1000
AnnotativeData
1002
{
1070
     1
1070
     0
1002
}
  0
LINE
  5
20D
  8
___-3
 62
     0
 10
158.2271540300262
 20
127.9074510258538
 30
0.0
 11
208.0047521474153
 21
157.6764067627236
 31
0.0
  0
INSERT
  5
212
  8
___-3
 62
     0
  2
VW_FILLEDARROW
 10
158.2271540300262
 20
127.9074510258538
 30
0.0
 41
0.179833984375
 42
0.179833984375
 43
0.179833984375
 50
30.88107869694348
  0
INSERT
  5
213
  8
___-3
 62
     0
  2
VW_FILLEDARROW
 10
208.0047521474153
 20
157.6764067627236
 30
0.0
 41
0.179833984375
 42
0.179833984375
 43
0.179833984375
 50
210.8810786969435
  0
POINT
  5
214
  8
DEFPOINTS
 62
     0
 10
208.0047521474153
 20
157.6764067627236
 30
0.0
  0
POINT
  5
36A
  8
DEFPOINTS
 62
     0
 10
158.2271540300262
 20
127.9074510258538
 30
0.0
  0
ENDBLK
  5
A0
  8
0
  0
BLOCK
  8
0
  2
*D23
 70
     1
 10
0.0
 20
0.0
 30
0.0
  3
*D23
  1

  0
LINE
  5
215
  8
___-3
 62
     0
 10
192.1805444255664
 20
159.4103463451741
 30
0.0
 11
202.7960783665369
 21
178.8721585702868
 31
0.0
  0
LINE
  5
216
  8
___-3
 62
     0
 10
174.0513617518724
 20
126.1735114434016
 30
0.0
 11
173.9652478652856
 21
126.0156359846592
 31
0.0
  0
TEXT
  5
217
  8
___-3
 62
     0
 10
199.456194296377
 20
173.0174200122822
 30
0.0
 40
2.5
  1
37.5
 50
61.38954033403487
  7
HELVETICA_NEUE
1001
ACADANNOTATIVE
1000
AnnotativeData
1002
{
1070
     1
1070
     0
1002
}
  0
LINE
  5
21C
  8
___-3
 62
     0
 10
174.1374756384591
 20
126.331386902144
 30
0.0
 11
192.0944305389797
 21
159.2524708864318
 31
0.0
  0
INSERT
  5
221
  8
___-3
 62
     0
  2
VW_FILLEDARROW
 10
174.1374756384591
 20
126.331386902144
 30
0.0
 41
0.179833984375
 42
0.179833984375
 43
0.179833984375
 50
61.38954033403487
  0
INSERT
  5
222
  8
___-3
 62
     0
  2
VW_FILLEDARROW
 10
192.0944305389797
 20
159.2524708864318
 30
0.0
 41
0.179833984375
 42
0.179833984375
 43
0.179833984375
 50
241.3895403340349
  0
POINT
  5
223
  8
DEFPOINTS
 62
     0
 10
192.0944305389797
 20
159.2524708864318
 30
0.0
  0
POINT
  5
36C
  8
DEFPOINTS
 62
     0
 10
174.1374756384591
 20
126.331386902144
 30
0.0
  0
ENDBLK
  5
A3
  8
0
  0
BLOCK
  8
0
  2
*D24
 70
     1
 10
0.0
 20
0.0
 30
0.0
  3
*D24
  1

  0
LINE
  5
224
  8
___-3
 62
     0
 10
206.5835010939999
 20
65.37598467676332
 30
0.0
 11
226.7148618243979
 21
74.667381936947
 31
0.0
  0
LINE
  5
225
  8
___-3
 62
     0
 10
157.2271304234448
 20
42.59612129035332
 30
0.0
 11
157.0638484696794
 21
42.52076038861544
 31
0.0
  0
TEXT
  5
226
  8
___-3
 62
     0
 10
223.1744423560339
 20
73.17488530457204
 30
0.0
 40
2.5
  1
54
 50
24.77514056883188
  7
HELVETICA_NEUE
1001
ACADANNOTATIVE
1000
AnnotativeData
1002
{
1070
     1
1070
     0
1002
}
  0
LINE
  5
22B
  8
___-3
 62
     0
 10
157.3904123772102
 20
42.67148219209119
 30
0.0
 11
206.4202191402345
 21
65.30062377502546
 31
0.0
  0
INSERT
  5
230
  8
___-3
 62
     0
  2
VW_FILLEDARROW
 10
157.3904123772102
 20
42.67148219209119
 30
0.0
 41
0.179833984375
 42
0.179833984375
 43
0.179833984375
 50
24.77514056883188
  0
INSERT
  5
231
  8
___-3
 62
     0
  2
VW_FILLEDARROW
 10
206.4202191402345
 20
65.30062377502546
 30
0.0
 41
0.179833984375
 42
0.179833984375
 43
0.179833984375
 50
204.7751405688319
  0
POINT
  5
232
  8
DEFPOINTS
 62
     0
 10
206.4202191402345
 20
65.30062377502546
 30
0.0
  0
POINT
  5
36E
  8
DEFPOINTS
 62
     0
 10
157.3904123772102
 20
42.67148219209119
 30
0.0
  0
ENDBLK
  5
A6
  8
0
  0
BLOCK
  8
0
  2
*D25
 70
     1
 10
0.0
 20
0.0
 30
0.0
  3
*D25
  1

  0
LINE
  5
233
  8
___-3
 62
     0
 10
192.5348385786291
 20
80.87133172047501
 30
0.0
 11
201.4449828137778
 21
94.7545797147764
 31
0.0
  0
LINE
  5
234
  8
___-3
 62
     0
 10
171.2757929388156
 20
47.74677223518404
 30
0.0
 11
171.1786605421589
 21
47.59542640783519
 31
0.0
  0
TEXT
  5
235
  8
___-3
 62
     0
 10
199.2722111997128
 20
91.60703584115542
 30
0.0
 40
2.5
  1
39
 50
57.30801581742804
  7
HELVETICA_NEUE
1001
ACADANNOTATIVE
1000
AnnotativeData
1002
{
1070
     1
1070
     0
1002
}
  0
LINE
  5
23A
  8
___-3
 62
     0
 10
171.3729253354724
 20
47.89811806253289
 30
0.0
 11
192.4377061819724
 21
80.71998589312616
 31
0.0
  0
INSERT
  5
23F
  8
___-3
 62
     0
  2
VW_FILLEDARROW
 10
171.3729253354724
 20
47.89811806253289
 30
0.0
 41
0.179833984375
 42
0.179833984375
 43
0.179833984375
 50
57.30801581742804
  0
INSERT
  5
240
  8
___-3
 62
     0
  2
VW_FILLEDARROW
 10
192.4377061819724
 20
80.71998589312616
 30
0.0
 41
0.179833984375
 42
0.179833984375
 43
0.179833984375
 50
237.3080158174281
  0
POINT
  5
241
  8
DEFPOINTS
 62
     0
 10
192.4377061819724
 20
80.71998589312616
 30
0.0
  0
POINT
  5
370
  8
DEFPOINTS
 62
     0
 10
171.3729253354724
 20
47.89811806253289
 30
0.0
  0
ENDBLK
  5
A9
  8
0
  0
BLOCK
  8
0
  2
*D26
 70
     1
 10
0.0
 20
0.0
 30
0.0
  3
*D26
  1

  0
LINE
  5
242
  8
___-3
 62
     0
 10
202.0694061663849
 20
306.4652955382118
 30
0.0
 11
202.0694061663849
 21
296.0196705382118
 31
0.0
  0
LINE
  5
243
  8
___-3
 62
     0
 10
164.0694061663849
 20
306.4652955382118
 30
0.0
 11
164.0694061663849
 21
296.0196705382118
 31
0.0
  0
LINE
  5
244
  8
___-3
 62
     0
 10
201.8895721820099
 20
296.1996705382118
 30
0.0
 11
164.2492401507598
 21
296.1996705382118
 31
0.0
  0
INSERT
  5
245
  8
___-3
 62
     0
  2
VW_FILLEDARROW
 10
202.0694061663849
 20
296.1996705382118
 30
0.0
 41
0.179833984375
 42
0.179833984375
 43
0.179833984375
  0
INSERT
  5
24A
  8
___-3
 62
     0
  2
VW_FILLEDARROW
 10
164.0694061663849
 20
296.1996705382118
 30
0.0
 41
0.179833984375
 42
0.179833984375
 43
0.179833984375
 50
180.0
  0
TEXT
  5
24F
  8
___-3
 62
     0
 10
181.1418851579815
 20
296.3281859443742
 30
0.0
 40
2.5
  1
38
  7
HELVETICA_NEUE
1001
ACADANNOTATIVE
1000
AnnotativeData
1002
{
1070
     1
1070
     0
1002
}
  0
POINT
  5
250
  8
DEFPOINTS
 62
     0
 10
202.0694061663849
 20
306.5277955382118
 30
0.0
  0
POINT
  5
251
  8
DEFPOINTS
 62
     0
 10
164.0694061663849
 20
306.5277955382118
 30
0.0
  0
POINT
  5
252
  8
DEFPOINTS
 62
     0
 10
164.0694061663849
 20
296.1996705382118
 30
0.0
  0
ENDBLK
  5
AC
  8
0
  0
BLOCK
  8
0
  2
*D27
 70
     1
 10
0.0
 20
0.0
 30
0.0
  3
*D27
  1

  0
LINE
  5
253
  8
___-3
 62
     0
 10
209.8194061663849
 20
377.0902955382118
 30
0.0
 11
209.8194061663849
 21
385.2235940137186
 31
0.0
  0
LINE
  5
254
  8
___-3
 62
     0
 10
155.8194061663849
 20
377.0902955382118
 30
0.0
 11
155.8194061663849
 21
385.2235940137186
 31
0.0
  0
LINE
  5
255
  8
___-3
 62
     0
 10
209.6395721820099
 20
385.0435940137186
 30
0.0
 11
155.9992401507598
 21
385.0435940137186
 31
0.0
  0
INSERT
  5
256
  8
___-3
 62
     0
  2
VW_FILLEDARROW
 10
209.8194061663849
 20
385.0435940137186
 30
0.0
 41
0.179833984375
 42
0.179833984375
 43
0.179833984375
  0
INSERT
  5
25B
  8
___-3
 62
     0
  2
VW_FILLEDARROW
 10
155.8194061663849
 20
385.0435940137186
 30
0.0
 41
0.179833984375
 42
0.179833984375
 43
0.179833984375
 50
180.0
  0
TEXT
  5
260
  8
___-3
 62
     0
 10
180.9479994090519
 20
385.172109419881
 30
0.0
 40
2.5
  1
54
  7
HELVETICA_NEUE
1001
ACADANNOTATIVE
1000
AnnotativeData
1002
{
1070
     1
1070
     0
1002
}
  0
POINT
  5
261
  8
DEFPOINTS
 62
     0
 10
209.8194061663849
 20
377.0277955382118
 30
0.0
  0
POINT
  5
262
  8
DEFPOINTS
 62
     0
 10
155.8194061663849
 20
377.0277955382118
 30
0.0
  0
POINT
  5
263
  8
DEFPOINTS
 62
     0
 10
155.8194061663849
 20
385.0435940137186
 30
0.0
  0
ENDBLK
  5
AF
  8
0
  0
BLOCK
  8
0
  2
*D28
 70
     1
 10
0.0
 20
0.0
 30
0.0
  3
*D28
  1

  0
LINE
  5
264
  8
___-3
 62
     0
 10
237.5659222789541
 20
183.4062734290899
 30
0.0
 11
237.5659222789541
 21
200.7737734290899
 31
0.0
  0
LINE
  5
265
  8
___-3
 62
     0
 10
275.5659222789541
 20
183.4062734290899
 30
0.0
 11
275.5659222789541
 21
200.7737734290899
 31
0.0
  0
LINE
  5
266
  8
___-3
 62
     0
 10
237.7457562633291
 20
200.5937734290899
 30
0.0
 11
275.3860882945791
 21
200.5937734290899
 31
0.0
  0
INSERT
  5
267
  8
___-3
 62
     0
  2
VW_FILLEDARROW
 10
237.5659222789541
 20
200.5937734290899
 30
0.0
 41
0.179833984375
 42
0.179833984375
 43
0.179833984375
 50
180.0
  0
INSERT
  5
26C
  8
___-3
 62
     0
  2
VW_FILLEDARROW
 10
275.5659222789541
 20
200.5937734290899
 30
0.0
 41
0.179833984375
 42
0.179833984375
 43
0.179833984375
  0
TEXT
  5
271
  8
___-3
 62
     0
 10
254.6384012705507
 20
200.7222888352524
 30
0.0
 40
2.5
  1
38
  7
HELVETICA_NEUE
1001
ACADANNOTATIVE
1000
AnnotativeData
1002
{
1070
     1
1070
     0
1002
}
  0
POINT
  5
272
  8
DEFPOINTS
 62
     0
 10
237.5659222789541
 20
183.3437734290899
 30
0.0
  0
POINT
  5
273
  8
DEFPOINTS
 62
     0
 10
275.5659222789541
 20
183.3437734290899
 30
0.0
  0
POINT
  5
274
  8
DEFPOINTS
 62
     0
 10
275.5659222789541
 20
200.5937734290899
 30
0.0
  0
ENDBLK
  5
B2
  8
0
  0
BLOCK
  8
0
  2
*D29
 70
     1
 10
0.0
 20
0.0
 30
0.0
  3
*D29
  1

  0
LINE
  5
275
  8
___-3
 62
     0
 10
238.1965553671612
 20
276.0764200001524
 30
0.0
 11
229.0551509201941
 21
276.0764200001524
 31
0.0
  0
LINE
  5
276
  8
___-3
 62
     0
 10
236.4490498300115
 20
376.0764200001524
 30
0.0
 11
229.0551509201941
 21
376.0764200001524
 31
0.0
  0
LINE
  5
277
  8
___-3
 62
     0
 10
229.2351509201941
 20
276.2562539845275
 30
0.0
 11
229.2351509201941
 21
375.8965860157774
 31
0.0
  0
INSERT
  5
278
  8
___-3
 62
     0
  2
VW_FILLEDARROW
 10
229.2351509201941
 20
276.0764200001524
 30
0.0
 41
0.179833984375
 42
0.179833984375
 43
0.179833984375
 50
270.0
  0
INSERT
  5
27D
  8
___-3
 62
     0
  2
VW_FILLEDARROW
 10
229.2351509201941
 20
376.0764200001524
 30
0.0
 41
0.179833984375
 42
0.179833984375
 43
0.179833984375
 50
90.0
  0
TEXT
  5
282
  8
___-3
 62
     0
 10
229.1066355140317
 20
323.0774704203205
 30
0.0
 40
2.5
  1
100
 50
90.0
  7
HELVETICA_NEUE
1001
ACADANNOTATIVE
1000
AnnotativeData
1002
{
1070
     1
1070
     0
1002
}
  0
POINT
  5
283
  8
DEFPOINTS
 62
     0
 10
238.2590553671612
 20
276.0764200001524
 30
0.0
  0
POINT
  5
284
  8
DEFPOINTS
 62
     0
 10
236.5115498300115
 20
376.0764200001524
 30
0.0
  0
POINT
  5
285
  8
DEFPOINTS
 62
     0
 10
229.2351509201941
 20
376.0764200001524
 30
0.0
  0
ENDBLK
  5
B5
  8
0
  0
BLOCK
  8
0
  2
*D30
 70
     1
 10
0.0
 20
0.0
 30
0.0
  3
*D30
  1

  0
LINE
  5
286
  8
___-3
 62
     0
 10
82.87433455981854
 20
64.89010151451727
 30
0.0
 11
90.93772211604335
 21
73.75164016108654
 31
0.0
  0
LINE
  5
287
  8
___-3
 62
     0
 10
63.11490016754406
 20
43.17478766155521
 30
0.0
 11
62.99386958165523
 21
43.04177691305873
 31
0.0
  0
TEXT
  5
288
  8
___-3
 62
     0
 10
88.27008118576433
 20
71.01089924112425
 30
0.0
 40
2.5
  1
29
 50
47.69997240973984
  7
HELVETICA_NEUE
1001
ACADANNOTATIVE
1000
AnnotativeData
1002
{
1070
     1
1070
     0
1002
}
  0
LINE
  5
28D
  8
___-3
 62
     0
 10
63.23593075343288
 20
43.3077984100517
 30
0.0
 11
82.75330397392972
 21
64.75709076602078
 31
0.0
  0
INSERT
  5
292
  8
___-3
 62
     0
  2
VW_FILLEDARROW
 10
63.23593075343288
 20
43.3077984100517
 30
0.0
 41
0.179833984375
 42
0.179833984375
 43
0.179833984375
 50
47.69997240973984
  0
INSERT
  5
293
  8
___-3
 62
     0
  2
VW_FILLEDARROW
 10
82.75330397392972
 20
64.75709076602078
 30
0.0
 41
0.179833984375
 42
0.179833984375
 43
0.179833984375
 50
227.6999724097398
  0
POINT
  5
294
  8
DEFPOINTS
 62
     0
 10
82.75330397392972
 20
64.75709076602078
 30
0.0
  0
POINT
  5
412
  8
DEFPOINTS
 62
     0
 10
63.23593075343288
 20
43.3077984100517
 30
0.0
  0
ENDBLK
  5
B8
  8
0
  0
BLOCK
  8
0
  2
*D31
 70
     1
 10
0.0
 20
0.0
 30
0.0
  3
*D31
  1

  0
LINE
  5
295
  8
___-3
 62
     0
 10
89.60284560375707
 20
60.09406849921798
 30
0.0
 11
101.3175451475796
 21
64.3696662234711
 31
0.0
  0
LINE
  5
296
  8
___-3
 62
     0
 10
56.3863891236055
 20
47.97082067685451
 30
0.0
 11
56.21745519241237
 21
47.90916365107621
 31
0.0
  0
TEXT
  5
297
  8
___-3
 62
     0
 10
97.68596714749211
 20
63.18103076459479
 30
0.0
 40
2.5
  1
35
 50
20.05092715234732
  7
HELVETICA_NEUE
1001
ACADANNOTATIVE
1000
AnnotativeData
1002
{
1070
     1
1070
     0
1002
}
  0
LINE
  5
29C
  8
___-3
 62
     0
 10
56.55532305479862
 20
48.0324777026328
 30
0.0
 11
89.43391167256395
 21
60.03241147343968
 31
0.0
  0
INSERT
  5
2A1
  8
___-3
 62
     0
  2
VW_FILLEDARROW
 10
56.55532305479862
 20
48.0324777026328
 30
0.0
 41
0.179833984375
 42
0.179833984375
 43
0.179833984375
 50
20.05092715234732
  0
INSERT
  5
2A2
  8
___-3
 62
     0
  2
VW_FILLEDARROW
 10
89.43391167256395
 20
60.03241147343968
 30
0.0
 41
0.179833984375
 42
0.179833984375
 43
0.179833984375
 50
200.0509271523473
  0
POINT
  5
2A3
  8
DEFPOINTS
 62
     0
 10
89.43391167256395
 20
60.03241147343968
 30
0.0
  0
POINT
  5
414
  8
DEFPOINTS
 62
     0
 10
56.55532305479862
 20
48.0324777026328
 30
0.0
  0
ENDBLK
  5
BB
  8
0
  0
BLOCK
  8
0
  2
*D32
 70
     1
 10
0.0
 20
0.0
 30
0.0
  3
*D32
  1

  0
LINE
  5
2A4
  8
___-3
 62
     0
 10
90.57284292135986
 20
24.54534042622333
 30
0.0
 11
107.2864435639174
 21
24.54534042622333
 31
0.0
  0
LINE
  5
2A5
  8
___-3
 62
     0
 10
90.57284292135986
 20
26.04534042622333
 30
0.0
 11
107.2864435639174
 21
26.04534042622333
 31
0.0
  0
LINE
  5
2A6
  8
___-3
 62
     0
 10
107.1064435639174
 20
24.54534042622333
 30
0.0
 11
107.1064435639174
 21
26.04534042622333
 31
0.0
  0
LINE
  5
2A7
  8
___-3
 62
     0
 10
107.1064435639174
 20
24.36550644184833
 30
0.0
 11
107.1064435639174
 21
24.18567245747333
 31
0.0
  0
LINE
  5
2AC
  8
___-3
 62
     0
 10
107.1064435639174
 20
26.22517441059833
 30
0.0
 11
107.1064435639174
 21
26.40500839497334
 31
0.0
  0
INSERT
  5
2B1
  8
___-3
 62
     0
  2
VW_FILLEDARROW
 10
107.1064435639174
 20
24.54534042622333
 30
0.0
 41
0.179833984375
 42
0.179833984375
 43
0.179833984375
 50
90.0
  0
INSERT
  5
2B2
  8
___-3
 62
     0
  2
VW_FILLEDARROW
 10
107.1064435639174
 20
26.04534042622333
 30
0.0
 41
0.179833984375
 42
0.179833984375
 43
0.179833984375
 50
270.0
  0
TEXT
  5
2B3
  8
___-3
 62
     0
 10
106.9779281577549
 20
22.79183902566311
 30
0.0
 40
2.5
  1
1.5
 50
90.0
  7
HELVETICA_NEUE
1001
ACADANNOTATIVE
1000
AnnotativeData
1002
{
1070
     1
1070
     0
1002
}
  0
POINT
  5
2B4
  8
DEFPOINTS
 62
     0
 10
90.51034292135986
 20
24.54534042622333
 30
0.0
  0
POINT
  5
416
  8
DEFPOINTS
 62
     0
 10
90.51034292135986
 20
26.04534042622333
 30
0.0
  0
POINT
  5
417
  8
DEFPOINTS
 62
     0
 10
107.1064435639174
 20
26.04534042622333
 30
0.0
  0
ENDBLK
  5
BE
  8
0
  0
BLOCK
  8
0
  2
VW_FILLEDARROW
 70
     0
 10
0.0
 20
0.0
 30
0.0
  3
VW_FILLEDARROW
  1

  0
POLYLINE
  5
CF
  8
0
  6
CONTINUOUS
 62
     0
 66
     1
 10
0.0
 20
0.0
 30
0.0
 70
   129
  0
VERTEX
  5
D0
  8
0
  6
CONTINUOUS
 62
     0
 10
-1.0
 20
0.1227845609029044
 30
0.0
  0
VERTEX
  5
D1
  8
0
  6
CONTINUOUS
 62
     0
 10
0.0
 20
0.0
 30
0.0
  0
VERTEX
  5
D2
  8
0
  6
CONTINUOUS
 62
     0
 10
-1.0
 20
-0.1227845609029047
 30
0.0
  0
SEQEND
  5
D3
  8
0
  6
CONTINUOUS
 62
     0
  0
ENDBLK
  5
CE
  8
0
  0
BLOCK
  8
0
  2
VW_SLASH
 70
     0
 10
0.0
 20
0.0
 30
0.0
  3
VW_SLASH
  1

  0
LINE
  5
D8
  8
0
  6
BYBLOCK
 62
     0
 10
0.7071823204419889
 20
0.0
 30
0.0
 11
-1.0
 21
0.0
 31
0.0
  0
POLYLINE
  5
D9
  8
0
  6
CONTINUOUS
 62
     0
 66
     1
 10
0.0
 20
0.0
 30
0.0
 70
   128
  0
VERTEX
  5
DA
  8
0
  6
CONTINUOUS
 62
     0
 10
0.5000534143197685
 20
0.5000534143197684
 30
0.0
  0
VERTEX
  5
DB
  8
0
  6
CONTINUOUS
 62
     0
 10
-0.5000534143197684
 20
-0.5000534143197685
 30
0.0
  0
SEQEND
  5
DC
  8
0
  6
CONTINUOUS
 62
     0
  0
ENDBLK
  5
D7
  8
0
  0
BLOCK
  8
0
  2
VW_FILLEDARROW-1
 70
     0
 10
0.0
 20
0.0
 30
0.0
  3
VW_FILLEDARROW-1
  1

  0
POLYLINE
  5
E1
  8
0
  6
CONTINUOUS
 62
     0
 66
     1
 10
0.0
 20
0.0
 30
0.0
 70
   129
  0
VERTEX
  5
E2
  8
0
  6
CONTINUOUS
 62
     0
 10
-0.9999999999999999
 20
0.2679491924311227
 30
0.0
  0
VERTEX
  5
E3
  8
0
  6
CONTINUOUS
 62
     0
 10
0.0
 20
0.0
 30
0.0
  0
VERTEX
  5
E4
  8
0
  6
CONTINUOUS
 62
     0
 10
-0.9999999999999998
 20
-0.267949192431123
 30
0.0
  0
SEQEND
  5
E5
  8
0
  6
CONTINUOUS
 62
     0
  0
ENDBLK
  5
E0
  8
0
  0
ENDSEC
  0
SECTION
  2
ENTITIES
  0
LINE
  5
2B5
  8
___-1
 62
     0
 10
14.99999947677088
 20
10.0000000847532
 30
0.0
 11
14.99999947692089
 21
10.00000008485318
 31
0.0
  0
LINE
  5
2B6
  8
___-1
 62
     0
 10
14.99999947677088
 20
30.01521263054815
 30
0.0
 11
14.99999947677088
 21
5.000000084753196
 31
0.0
  0
TEXT
  5
2B7
  8
___
 62
     0
 10
10.87414201669131
 20
58.10242092584815
 30
0.0
 40
3.075688514550393
  1
組
  7
HELVETICA_NEUE
 11
10.87414201669131
 21
61.17810944039854
 31
0.0
 73
     3
  0
TEXT
  5
2B8
  8
___
 62
     0
 10
10.87414201669131
 20
52.9762734015975
 30
0.0
 40
3.075688514550393
  1
立
  7
HELVETICA_NEUE
 11
10.87414201669131
 21
56.05196191614789
 31
0.0
 73
     3
  0
TEXT
  5
2B9
  8
___
 62
     0
 10
10.87414201669131
 20
47.85012587734684
 30
0.0
 40
3.075688514550393
  1
図
  7
HELVETICA_NEUE
 11
10.87414201669131
 21
50.92581439189723
 31
0.0
 73
     3
  0
TEXT
  5
2BA
  8
___
 62
     0
 10
10.87414201669131
 20
42.72397835309619
 30
0.0
 40
3.075688514550393
  1
Ａ
  7
HELVETICA_NEUE
 11
10.87414201669131
 21
45.79966686764658
 31
0.0
 73
     3
  0
TEXT
  5
2BB
  8
___
 62
     0
 10
10.87414201669131
 20
37.59783082884553
 30
0.0
 40
3.075688514550393
  1
３
  7
HELVETICA_NEUE
 11
10.87414201669131
 21
40.67351934339592
 31
0.0
 73
     3
  0
LINE
  5
2BC
  8
___-1
 62
     0
 10
15.75
 20
405.0
 30
0.0
 11
14.99999943311036
 21
5.000000003564423
 31
0.0
  0
LINE
  5
2BD
  8
___-1
 62
     0
 10
15.0
 20
5.0
 30
0.0
 11
195.0
 21
5.0
 31
0.0
  0
LINE
  5
2BE
  8
___-2
 62
     0
 10
50.59959133644679
 20
255.5228456634842
 30
0.0
 11
85.09959133644679
 21
255.5228456634842
 31
0.0
  0
LINE
  5
2BF
  8
___-2
 62
     0
 10
85.09959133644679
 20
256.2728456634842
 30
0.0
 11
50.59959133644679
 21
256.2728456634842
 31
0.0
  0
LINE
  5
2C0
  8
___-2
 62
     0
 10
83.34959133644679
 20
156.5228454459858
 30
0.0
 11
52.34959133644679
 21
156.5228454459858
 31
0.0
  0
LINE
  5
2C1
  8
___-2
 62
     0
 10
52.34959133644679
 20
156.5228454459858
 30
0.0
 11
52.34959133644679
 21
255.5228456634842
 31
0.0
  0
LINE
  5
2C2
  8
___-2
 62
     0
 10
50.59959133644679
 20
256.2728456634842
 30
0.0
 11
50.59959133644679
 21
255.5228456634842
 31
0.0
  0
LINE
  5
2C3
  8
___-2
 62
     0
 10
83.34959133644679
 20
156.5228454459858
 30
0.0
 11
83.34959133644679
 21
255.5228456634842
 31
0.0
  0
LINE
  5
2C4
  8
___-2
 62
     0
 10
85.09959133644679
 20
255.5228456634842
 30
0.0
 11
85.09959133644679
 21
256.2728456634842
 31
0.0
  0
LINE
  5
2C5
  8
___-2
 62
     0
 10
67.84959216106063
 20
326.7728443323414
 30
0.0
 11
93.84959216106063
 21
326.7728443323414
 31
0.0
  0
LINE
  5
2C6
  8
___-2
 62
     0
 10
91.84959216106063
 20
323.7728443323414
 30
0.0
 11
43.84959216106063
 21
323.7728443323414
 31
0.0
  0
LINE
  5
2C7
  8
___-2
 62
     0
 10
41.84959216106063
 20
326.7728443323414
 30
0.0
 11
67.84959216106063
 21
326.7728443323414
 31
0.0
  0
LINE
  5
2C8
  8
___-2
 62
     0
 10
40.84959216106063
 20
325.7728443323414
 30
0.0
 11
40.84959216106063
 21
325.2728443323414
 31
0.0
  0
LINE
  5
2C9
  8
___-2
 62
     0
 10
43.84959216106063
 20
323.7728443323414
 30
0.0
 11
40.84959216106063
 21
325.2728443323414
 31
0.0
  0
LINE
  5
2CA
  8
___-2
 62
     0
 10
94.84959216106063
 20
325.7728443323414
 30
0.0
 11
94.84959216106063
 21
325.2728443323414
 31
0.0
  0
LINE
  5
2CB
  8
___-2
 62
     0
 10
94.84959216106063
 20
325.2728443323414
 30
0.0
 11
91.84959216106063
 21
323.7728443323414
 31
0.0
  0
ARC
  5
2CC
  8
___-2
 62
     0
 10
41.84959216106063
 20
325.7728443323414
 30
0.0
 40
1.0
 50
90.0
 51
180.0
  0
ARC
  5
2CD
  8
___-2
 62
     0
 10
93.84959216106063
 20
325.7728443323414
 30
0.0
 40
1.0
 50
0.0
 51
90.0
  0
LINE
  5
2CE
  8
___-2
 62
     0
 10
86.84959216106063
 20
256.7728443323414
 30
0.0
 11
86.84959216106063
 21
291.7728443323414
 31
0.0
  0
LINE
  5
2CF
  8
___-2
 62
     0
 10
84.84959216106063
 20
313.7728443323414
 30
0.0
 11
86.84959216106063
 21
323.7728443323414
 31
0.0
  0
LINE
  5
2D0
  8
___-2
 62
     0
 10
48.84959216106063
 20
256.7728443323414
 30
0.0
 11
48.84959216106063
 21
291.7728443323414
 31
0.0
  0
LINE
  5
2D1
  8
___-2
 62
     0
 10
50.84959216106063
 20
313.7728443323414
 30
0.0
 11
48.84959216106063
 21
323.7728443323414
 31
0.0
  0
LINE
  5
2D2
  8
___-2
 62
     0
 10
49.84959216106063
 20
256.7728443323414
 30
0.0
 11
49.84959216106063
 21
291.7728443323414
 31
0.0
  0
LINE
  5
2D3
  8
___-2
 62
     0
 10
85.84959216106063
 20
256.7728443323414
 30
0.0
 11
85.84959216106063
 21
291.7728443323414
 31
0.0
  0
LINE
  5
2D4
  8
___
 62
     0
 10
67.84959216106063
 20
329.0228445754358
 30
0.0
 11
67.84959216106063
 21
149.7728454459858
 31
0.0
  0
LINE
  5
2D5
  8
___-2
 62
     0
 10
86.84959216106063
 20
291.7728443323414
 30
0.0
 11
48.84959216106063
 21
291.7728443323414
 31
0.0
  0
LINE
  5
2D6
  8
___-2
 62
     0
 10
48.84959216106063
 20
256.7728443323414
 30
0.0
 11
86.84959216106063
 21
256.7728443323414
 31
0.0
  0
LINE
  5
2D7
  8
___-2
 62
     0
 10
50.84959216106063
 20
311.7728443902164
 30
0.0
 11
50.84959216106063
 21
313.7728443323414
 31
0.0
  0
LINE
  5
2D8
  8
___-2
 62
     0
 10
84.84959216106063
 20
311.7728443902164
 30
0.0
 11
84.84959216106063
 21
313.7728443323414
 31
0.0
  0
LINE
  5
2D9
  8
___-2
 62
     0
 10
57.59959216106063
 20
291.7728443323414
 30
0.0
 11
78.09959216106063
 21
291.7728443323414
 31
0.0
  0
LINE
  5
2DA
  8
___-2
 62
     0
 10
55.89959163083995
 20
292.7728443902164
 30
0.0
 11
55.89959163083995
 21
310.7728443902164
 31
0.0
  0
LINE
  5
2DB
  8
___-2
 62
     0
 10
79.89959163083995
 20
292.7728443902164
 30
0.0
 11
79.89959163083995
 21
310.7728443902164
 31
0.0
  0
LINE
  5
2DC
  8
___-2
 62
     0
 10
54.89959163083995
 20
291.7728443902164
 30
0.0
 11
51.14959163083995
 21
291.7728443902164
 31
0.0
  0
LINE
  5
2DD
  8
___-2
 62
     0
 10
80.89959163083995
 20
291.7728443902164
 30
0.0
 11
84.89959163083995
 21
291.7728443902164
 31
0.0
  0
LINE
  5
2DE
  8
___-2
 62
     0
 10
50.89959163083995
 20
311.7728443902164
 30
0.0
 11
54.89959163083995
 21
311.7728443902164
 31
0.0
  0
LINE
  5
2DF
  8
___-2
 62
     0
 10
80.89959163083995
 20
311.7728443902164
 30
0.0
 11
84.89959163083995
 21
311.7728443902164
 31
0.0
  0
ARC
  5
2E0
  8
___-2
 62
     0
 10
54.89959163083995
 20
310.7728443902164
 30
0.0
 40
1.0
 50
0.0
 51
90.0
  0
ARC
  5
2E1
  8
___-2
 62
     0
 10
80.89959163083995
 20
310.7728443902164
 30
0.0
 40
1.0
 50
90.0
 51
180.0
  0
ARC
  5
2E2
  8
___-2
 62
     0
 10
54.89959163083995
 20
292.7728443902164
 30
0.0
 40
1.0
 50
270.0
 51
0.0
  0
ARC
  5
2E3
  8
___-2
 62
     0
 10
80.89959163083995
 20
292.7728443902164
 30
0.0
 40
1.0
 50
180.0
 51
270.0
  0
INSERT
  5
2E4
  8
___-3
 62
     7
  2
A$C2234271D
 10
43.09959256164257
 20
311.7728445754358
 30
0.0
  0
INSERT
  5
2E5
  8
___
 62
     7
  2
A$C1E9E16C8
 10
38.84959256164257
 20
277.5228445754358
 30
0.0
  0
INSERT
  5
2E6
  8
___
 62
     7
  2
A$C2EEB1E4A
 10
40.84959256164257
 20
275.7728445754358
 30
0.0
  0
INSERT
  5
2E7
  8
___
 62
     7
  2
A$C3BC527BC
 10
40.59959256164257
 20
264.7728445754358
 30
0.0
  0
INSERT
  5
2E8
  8
___
 62
     7
  2
A$C410F1E1E
 10
50.09959256164257
 20
254.0228445754358
 30
0.0
  0
INSERT
  5
2E9
  8
___
 62
     7
  2
A$C09CE045A
 10
89.84959256164257
 20
274.7728445754358
 30
0.0
 50
180.0
  0
DIMENSION
  5
2EA
  8
___-3
 62
     0
  2
*D11
 10
33.59959133644699
 20
156.5228445754358
 30
0.0
 11
32.24033363336576
 21
206.5228445754358
 31
0.0
 70
    32
  3
STANDARD-1
 13
51.84959133644679
 23
256.5228445754358
 33
0.0
 14
51.84959133644679
 24
156.5228445754358
 34
0.0
 50
-90.0
  0
DIMENSION
  5
2EB
  8
___-3
 62
     0
  2
*D12
 10
33.59959133644701
 20
326.7728445754358
 30
0.0
 11
32.24033363336578
 21
291.6478445754358
 31
0.0
 70
    32
  3
STANDARD-1
 13
37.84959133644679
 23
256.5228445754358
 33
0.0
 14
37.84959133644679
 24
326.7728445754358
 34
0.0
 50
-90.0
  0
DIMENSION
  5
2EC
  8
___-3
 62
     0
  2
*D13
 10
40.84959133644679
 20
336.7728445754358
 30
0.0
 11
67.84959133644679
 21
338.132102278517
 31
0.0
 70
    32
  3
STANDARD-1
 13
94.84959133644679
 23
328.2728445754358
 33
0.0
 14
40.84959133644679
 24
328.2728445754358
 34
0.0
  0
LINE
  5
2ED
  8
___-1
 62
     0
 10
15.0
 20
5.0
 30
0.0
 11
292.25
 21
5.0
 31
0.0
  0
LINE
  5
2EE
  8
___-1
 62
     0
 10
292.25
 20
5.0
 30
0.0
 11
292.25
 21
405.0
 31
0.0
  0
LINE
  5
2EF
  8
___-1
 62
     0
 10
292.25
 20
405.0
 30
0.0
 11
15.75
 21
405.0000000000001
 31
0.0
  0
TEXT
  5
2F0
  8
___-1
 62
     0
 10
243.3803706119234
 20
163.346310951989
 30
0.0
 40
3.5
  1
32ナットＷ38-16
  7
HELVETICA_NEUE
 11
243.3803706119234
 21
166.846310951989
 31
0.0
 73
     3
  0
LINE
  5
2F1
  8
___
 62
     0
 10
150.9053157587223
 20
54.12198610877238
 30
0.0
 11
213.1553157587223
 21
54.12198610877238
 31
0.0
  0
LINE
  5
2F2
  8
___
 62
     0
 10
183.0694057658029
 20
178.7919288942886
 30
0.0
 11
183.0694057658029
 21
101.220427411907
 31
0.0
  0
LINE
  5
2F3
  8
___
 62
     0
 10
142.2165655648773
 20
142.970427411907
 30
0.0
 11
217.7165655648773
 21
142.970427411907
 31
0.0
  0
TEXT
  5
2F4
  8
___-1
 62
     0
 10
227.7887042766831
 20
127.9624485877204
 30
0.0
 40
3.5
  1
三角パッキン（NBR）
  7
HELVETICA_NEUE
 11
227.7887042766831
 21
131.4624485877204
 31
0.0
 73
     3
  0
LINE
  5
2F5
  8
___
 62
     0
 10
183.1722459533844
 20
264.2375615907475
 30
0.0
 11
183.1722459533844
 21
206.5553263497251
 31
0.0
  0
LINE
  5
2F6
  8
___
 62
     0
 10
155.3194057658029
 20
234.7375609453418
 30
0.0
 11
213.0694057658029
 21
234.7375609453418
 31
0.0
  0
TEXT
  5
2F7
  8
___-1
 62
     0
 10
225.9763295824887
 20
223.5358711011573
 30
0.0
 40
3.5
  1
スポンジ　Ｐ
  7
HELVETICA_NEUE
 11
225.9763295824887
 21
227.0358711011573
 31
0.0
 73
     3
  0
TEXT
  5
2F8
  8
___-1
 62
     0
 10
225.9763295824887
 20
217.702537767824
 30
0.0
 40
3.5
  1
Ｋ
  7
HELVETICA_NEUE
 11
225.9763295824887
 21
221.202537767824
 31
0.0
 73
     3
  0
CIRCLE
  5
2F9
  8
___-2
 62
     0
 10
183.3194057658029
 20
234.7375607609384
 30
0.0
 40
25.0
  0
CIRCLE
  5
2FA
  8
___-2
 62
     0
 10
183.3194057658029
 20
234.7375607609384
 30
0.0
 40
18.0
  0
TEXT
  5
2FB
  8
___-1
 62
     0
 10
103.9052325913638
 20
101.0595510598961
 30
0.0
 40
3.5
  1
ロックナット３
  7
HELVETICA_NEUE
 11
103.9052325913638
 21
104.5595510598961
 31
0.0
 73
     3
  0
TEXT
  5
2FC
  8
___-1
 62
     0
 10
103.9052325913638
 20
95.22621772656274
 30
0.0
 40
3.5
  1
２
  7
HELVETICA_NEUE
 11
103.9052325913638
 21
98.72621772656274
 31
0.0
 73
     3
  0
TEXT
  5
2FD
  8
___-1
 62
     0
 10
168.7353497571357
 20
287.663780918975
 30
0.0
 40
3.5
  1
アフレ付金具３
  7
HELVETICA_NEUE
 11
168.7353497571357
 21
291.163780918975
 31
0.0
 73
     3
  0
TEXT
  5
2FE
  8
___-1
 62
     0
 10
168.7353497571357
 20
281.8304475856417
 30
0.0
 40
3.5
  1
２
  7
HELVETICA_NEUE
 11
168.7353497571357
 21
285.3304475856417
 31
0.0
 73
     3
  0
LINE
  5
2FF
  8
___
 62
     0
 10
72.9946173636813
 20
74.28244458803624
 30
0.0
 11
72.9946173636813
 21
31.88937299646443
 31
0.0
  0
LINE
  5
300
  8
___
 62
     0
 10
51.7446173636813
 20
54.03244458803624
 30
0.0
 11
93.7446173636813
 21
54.03244458803624
 31
0.0
  0
TEXT
  5
301
  8
___-1
 62
     0
 10
98.46751490294523
 20
43.77708980192415
 30
0.0
 40
3.5
  1
３２　ノンアス
  7
HELVETICA_NEUE
 11
98.46751490294523
 21
47.27708980192415
 31
0.0
 73
     3
  0
TEXT
  5
302
  8
___-1
 62
     0
 10
98.46751490294523
 20
37.94375646859083
 30
0.0
 40
3.5
  1
ＰＫ
  7
HELVETICA_NEUE
 11
98.46751490294523
 21
41.44375646859083
 31
0.0
 73
     3
  0
DIMENSION
  5
303
  8
___-3
 62
     0
  2
*D14
 10
166.960525015326
 20
215.8328782565515
 30
0.0
 11
210.3720471294528
 21
266.0001883016359
 31
0.0
 70
   163
  3
STANDARD-1
 15
199.6782865162799
 25
253.6422432653254
 35
0.0
 40
0.0
  0
DIMENSION
  5
305
  8
___-3
 62
     0
  2
*D15
 10
196.8209705781191
 20
222.8334544266174
 30
0.0
 11
157.2204112375066
 21
257.7486124725357
 31
0.0
 70
   163
  3
STANDARD-1
 15
169.8178409534864
 25
246.6416670952591
 35
0.0
 40
0.0
  0
DIMENSION
  5
307
  8
___-3
 62
     0
  2
*D16
 10
222.8076581049916
 20
202.3090624277235
 30
0.0
 11
221.4484004019103
 21
199.5590624277235
 31
0.0
 70
    32
  3
STANDARD-1
 13
209.8076581049904
 23
196.8090624277235
 33
0.0
 14
209.8076581049904
 24
202.3090624277235
 34
0.0
 50
-90.0
  0
DIMENSION
  5
308
  8
___-3
 62
     0
  2
*D17
 10
218.6553157587223
 20
15.98605298355835
 30
0.0
 11
218.6553157587223
 21
67.64562335528367
 31
0.0
 70
   160
  3
STANDARD-1
 13
210.6553157587223
 23
15.48605298355835
 33
0.0
 14
210.6553157587223
 24
15.98605298355835
 34
0.0
 50
-90.0
  0
TEXT
  5
30B
  8
___-1
 62
     0
 10
230.233407223533
 20
53.14624828860224
 30
0.0
 40
3.5
  1
３２ 
  7
HELVETICA_NEUE
 11
230.233407223533
 21
56.64624828860224
 31
0.0
 73
     3
  0
TEXT
  5
30C
  8
___-1
 62
     0
 10
230.233407223533
 20
47.31291495526892
 30
0.0
 40
3.5
  1
スベリＰＫ（大）
  7
HELVETICA_NEUE
 11
230.233407223533
 21
50.81291495526892
 31
0.0
 73
     3
  0
DIMENSION
  5
30D
  8
___-3
 62
     0
  2
*D18
 10
238.6428461385626
 20
261.9411943487945
 30
0.0
 11
254.6428461385626
 21
261.9411943487945
 31
0.0
 70
   160
  3
JIS
 13
270.6428461385626
 23
276.0764200001524
 33
0.0
 14
238.6428461385626
 24
276.0764200001524
 34
0.0
  0
DIMENSION
  5
30E
  8
___-3
 62
     0
  2
*D19
 10
236.8928461385626
 20
384.8771582489067
 30
0.0
 11
254.6428461385626
 21
384.8771582489067
 31
0.0
 70
   160
  3
JIS
 13
272.3928461385626
 23
377.3264200001524
 33
0.0
 14
236.8928461385626
 24
377.3264200001524
 34
0.0
  0
TEXT
  5
30F
  8
___-1
 62
     0
 10
229.5803317739151
 20
254.2294999568207
 30
0.0
 40
3.5
  1
32×100  テ－ルピ－ス
  7
HELVETICA_NEUE
 11
229.5803317739151
 21
257.7294999568207
 31
0.0
 73
     3
  0
LINE
  5
310
  8
___-2
 62
     0
 10
236.8928461385626
 20
375.3264200001524
 30
0.0
 11
272.3928461385626
 21
375.3264200001524
 31
0.0
  0
LINE
  5
311
  8
___-2
 62
     0
 10
272.3928461385626
 20
376.0764200001524
 30
0.0
 11
236.8928461385626
 21
376.0764200001524
 31
0.0
  0
LINE
  5
312
  8
___-2
 62
     0
 10
270.6428461385626
 20
276.0764200001524
 30
0.0
 11
238.6428461385626
 21
276.0764200001524
 31
0.0
  0
LINE
  5
313
  8
___-2
 62
     0
 10
238.6428461385626
 20
276.0764200001524
 30
0.0
 11
238.6428461385626
 21
375.3264200001524
 31
0.0
  0
LINE
  5
314
  8
___
 62
     0
 10
254.6428450779381
 20
380.2004200001525
 30
0.0
 11
254.6428450779381
 21
272.8264200001524
 31
0.0
  0
LINE
  5
315
  8
___-2
 62
     0
 10
236.8928461385626
 20
376.0764200001524
 30
0.0
 11
236.8928461385626
 21
375.3264200001524
 31
0.0
  0
LINE
  5
316
  8
___-2
 62
     0
 10
270.6428461385626
 20
276.0764200001524
 30
0.0
 11
270.6428461385626
 21
375.3264200001524
 31
0.0
  0
LINE
  5
317
  8
___-2
 62
     0
 10
272.3928461385626
 20
375.3264200001524
 30
0.0
 11
272.3928461385626
 21
376.0764200001524
 31
0.0
  0
LINE
  5
318
  8
___-2
 62
     0
 10
183.0694057658029
 20
376.7777952951174
 30
0.0
 11
209.069405765803
 21
376.7777952951174
 31
0.0
  0
LINE
  5
319
  8
___-2
 62
     0
 10
207.069405765803
 20
373.7777952951174
 30
0.0
 11
159.0694057658029
 21
373.7777952951174
 31
0.0
  0
LINE
  5
31A
  8
___-2
 62
     0
 10
157.0694057658029
 20
376.7777952951174
 30
0.0
 11
183.0694057658029
 21
376.7777952951174
 31
0.0
  0
LINE
  5
31B
  8
___-2
 62
     0
 10
156.0694057658029
 20
375.7777952951174
 30
0.0
 11
156.0694057658029
 21
375.2777952951174
 31
0.0
  0
LINE
  5
31C
  8
___-2
 62
     0
 10
159.0694057658029
 20
373.7777952951174
 30
0.0
 11
156.0694057658029
 21
375.2777952951174
 31
0.0
  0
LINE
  5
31D
  8
___-2
 62
     0
 10
210.069405765803
 20
375.7777952951174
 30
0.0
 11
210.069405765803
 21
375.2777952951174
 31
0.0
  0
LINE
  5
31E
  8
___-2
 62
     0
 10
210.069405765803
 20
375.2777952951174
 30
0.0
 11
207.069405765803
 21
373.7777952951174
 31
0.0
  0
ARC
  5
31F
  8
___-2
 62
     0
 10
157.0694057658029
 20
375.7777952951174
 30
0.0
 40
1.0
 50
90.0
 51
180.0
  0
ARC
  5
320
  8
___-2
 62
     0
 10
209.069405765803
 20
375.7777952951174
 30
0.0
 40
1.0
 50
0.0
 51
90.0
  0
LINE
  5
321
  8
___-2
 62
     0
 10
202.0694057658029
 20
306.7777952951174
 30
0.0
 11
202.0694057658029
 21
341.7777952951174
 31
0.0
  0
LINE
  5
322
  8
___-2
 62
     0
 10
200.0694057658029
 20
363.7777952951174
 30
0.0
 11
202.0694057658029
 21
373.7777952951174
 31
0.0
  0
LINE
  5
323
  8
___-2
 62
     0
 10
164.0694057658029
 20
306.7777952951174
 30
0.0
 11
164.0694057658029
 21
341.7777952951174
 31
0.0
  0
LINE
  5
324
  8
___-2
 62
     0
 10
166.0694057658029
 20
363.7777952951174
 30
0.0
 11
164.0694057658029
 21
373.7777952951174
 31
0.0
  0
LINE
  5
325
  8
___-2
 62
     0
 10
165.0694057658029
 20
306.7777952951174
 30
0.0
 11
165.0694057658029
 21
341.7777952951174
 31
0.0
  0
LINE
  5
326
  8
___-2
 62
     0
 10
201.0694057658029
 20
306.7777952951174
 30
0.0
 11
201.0694057658029
 21
341.7777952951174
 31
0.0
  0
LINE
  5
327
  8
___
 62
     0
 10
183.0694057658029
 20
379.0277955382118
 30
0.0
 11
183.0694057658029
 21
302.2777955382118
 31
0.0
  0
LINE
  5
328
  8
___-2
 62
     0
 10
202.0694057658029
 20
341.7777952951174
 30
0.0
 11
164.0694057658029
 21
341.7777952951174
 31
0.0
  0
LINE
  5
329
  8
___-2
 62
     0
 10
164.0694057658029
 20
306.7777952951174
 30
0.0
 11
202.0694057658029
 21
306.7777952951174
 31
0.0
  0
LINE
  5
32A
  8
___-2
 62
     0
 10
166.0694057658029
 20
361.7777953529924
 30
0.0
 11
166.0694057658029
 21
363.7777952951174
 31
0.0
  0
LINE
  5
32B
  8
___-2
 62
     0
 10
200.0694057658029
 20
361.7777953529924
 30
0.0
 11
200.0694057658029
 21
363.7777952951174
 31
0.0
  0
LINE
  5
32C
  8
___-2
 62
     0
 10
172.8194057658029
 20
341.7777952951174
 30
0.0
 11
193.3194057658029
 21
341.7777952951174
 31
0.0
  0
LINE
  5
32D
  8
___-2
 62
     0
 10
171.1194052355822
 20
342.7777953529924
 30
0.0
 11
171.1194052355822
 21
360.7777953529924
 31
0.0
  0
LINE
  5
32E
  8
___-2
 62
     0
 10
195.1194052355822
 20
342.7777953529924
 30
0.0
 11
195.1194052355822
 21
360.7777953529924
 31
0.0
  0
LINE
  5
32F
  8
___-2
 62
     0
 10
170.1194052355822
 20
341.7777953529924
 30
0.0
 11
166.3694052355822
 21
341.7777953529924
 31
0.0
  0
LINE
  5
330
  8
___-2
 62
     0
 10
196.1194052355822
 20
341.7777953529924
 30
0.0
 11
200.1194052355822
 21
341.7777953529924
 31
0.0
  0
LINE
  5
331
  8
___-2
 62
     0
 10
166.1194052355822
 20
361.7777953529924
 30
0.0
 11
170.1194052355822
 21
361.7777953529924
 31
0.0
  0
LINE
  5
332
  8
___-2
 62
     0
 10
196.1194052355822
 20
361.7777953529924
 30
0.0
 11
200.1194052355822
 21
361.7777953529924
 31
0.0
  0
ARC
  5
333
  8
___-2
 62
     0
 10
170.1194052355822
 20
360.7777953529924
 30
0.0
 40
1.0
 50
0.0
 51
90.0
  0
ARC
  5
334
  8
___-2
 62
     0
 10
196.1194052355822
 20
360.7777953529924
 30
0.0
 40
1.0
 50
90.0
 51
180.0
  0
ARC
  5
335
  8
___-2
 62
     0
 10
170.1194052355822
 20
342.7777953529924
 30
0.0
 40
1.0
 50
270.0
 51
0.0
  0
ARC
  5
336
  8
___-2
 62
     0
 10
196.1194052355822
 20
342.7777953529924
 30
0.0
 40
1.0
 50
180.0
 51
270.0
  0
CIRCLE
  5
337
  8
___-2
 62
     0
 10
183.1159530887205
 20
142.7919288942886
 30
0.0
 40
29.0
  0
CIRCLE
  5
338
  8
___-2
 62
     0
 10
183.1159530887205
 20
142.7919288942886
 30
0.0
 40
18.75
  0
LINE
  5
339
  8
___-2
 62
     0
 10
154.1159530887205
 20
103.7919288942886
 30
0.0
 11
212.1159530887205
 21
103.7919288942886
 31
0.0
  0
LINE
  5
33A
  8
___-2
 62
     0
 10
154.1159530887205
 20
103.7919288942886
 30
0.0
 11
154.1159530887205
 21
105.7919288942886
 31
0.0
  0
LINE
  5
33B
  8
___-2
 62
     0
 10
154.1159530887205
 20
105.7919288942886
 30
0.0
 11
183.1159530887205
 21
105.7919288942886
 31
0.0
  0
LINE
  5
33C
  8
___-2
 62
     0
 10
212.1159530887205
 20
105.7919288942886
 30
0.0
 11
212.1159530887205
 21
103.7919288942886
 31
0.0
  0
LINE
  5
33D
  8
___-2
 62
     0
 10
164.3659530887205
 20
111.2919288942886
 30
0.0
 11
201.8659530887205
 21
111.2919288942886
 31
0.0
  0
LINE
  5
33E
  8
___-2
 62
     0
 10
154.1159530887205
 20
105.7919288942886
 30
0.0
 11
164.3659530887205
 21
111.2919288942886
 31
0.0
  0
LINE
  5
33F
  8
___-2
 62
     0
 10
201.8659530887205
 20
111.2919288942886
 30
0.0
 11
212.1159530887205
 21
105.7919288942886
 31
0.0
  0
LINE
  5
340
  8
___-2
 62
     0
 10
201.8659530887205
 20
111.2919288942886
 30
0.0
 11
201.8659530887205
 21
103.7919288942886
 31
0.0
  0
LINE
  5
341
  8
___-2
 62
     0
 10
73.27417789497326
 20
96.16757376255305
 30
0.0
 11
101.0241778949733
 21
96.16757376255305
 31
0.0
  0
LINE
  5
342
  8
___-2
 62
     0
 10
101.0241778949733
 20
96.16757376255305
 30
0.0
 11
101.0241778949733
 21
93.66757376255305
 31
0.0
  0
LINE
  5
343
  8
___-2
 62
     0
 10
101.0241778949733
 20
93.66757376255305
 30
0.0
 11
46.02417789497326
 21
93.66757376255305
 31
0.0
  0
LINE
  5
344
  8
___-2
 62
     0
 10
46.02417789497326
 20
93.66757376255305
 30
0.0
 11
46.02417789497326
 21
96.16757376255305
 31
0.0
  0
LINE
  5
345
  8
___-2
 62
     0
 10
46.02417789497326
 20
96.16757376255305
 30
0.0
 11
73.27417789497326
 21
96.16757376255305
 31
0.0
  0
LINE
  5
346
  8
___
 62
     0
 10
73.33826417157388
 20
99.41757376255305
 30
0.0
 11
73.33826417157388
 21
84.91757376255305
 31
0.0
  0
LINE
  5
347
  8
___-2
 62
     0
 10
54.02417789497326
 20
87.68083178966924
 30
0.0
 11
92.52417789497326
 21
87.68083178966924
 31
0.0
  0
LINE
  5
348
  8
___-2
 62
     0
 10
95.27417789497326
 20
93.68083008291376
 30
0.0
 11
95.27417789497326
 21
89.18083178966924
 31
0.0
  0
LINE
  5
349
  8
___-2
 62
     0
 10
93.77417789497326
 20
87.68083178966924
 30
0.0
 11
92.27417789497326
 21
87.68083178966924
 31
0.0
  0
LINE
  5
34A
  8
___-2
 62
     0
 10
51.28520153841396
 20
93.68083008291376
 30
0.0
 11
51.28520153841396
 21
89.18083178966924
 31
0.0
  0
LINE
  5
34B
  8
___-2
 62
     0
 10
52.78520153841396
 20
87.68083178966924
 30
0.0
 11
54.28520153841396
 21
87.68083178966924
 31
0.0
  0
LINE
  5
34C
  8
___-2
 62
     0
 10
59.52417789497326
 20
89.18083068984458
 30
0.0
 11
61.77417789497326
 21
89.18083068984458
 31
0.0
  0
LINE
  5
34D
  8
___-2
 62
     0
 10
84.76315425153257
 20
93.68083008291376
 30
0.0
 11
84.76315425153257
 21
89.18083068984458
 31
0.0
  0
LINE
  5
34E
  8
___-2
 62
     0
 10
61.77417789497326
 20
93.68083008291376
 30
0.0
 11
61.77417789497326
 21
89.18083068984458
 31
0.0
  0
LINE
  5
34F
  8
___-2
 62
     0
 10
87.01315425153257
 20
93.68083008291376
 30
0.0
 11
87.01315425153257
 21
89.18083068984458
 31
0.0
  0
LINE
  5
350
  8
___-2
 62
     0
 10
59.52417789497326
 20
89.18083068984458
 30
0.0
 11
59.52417789497326
 21
93.68083008291376
 31
0.0
  0
LINE
  5
351
  8
___-2
 62
     0
 10
51.53520119266045
 20
88.93083068984458
 30
0.0
 11
51.53520119266045
 21
93.68083008291376
 31
0.0
  0
LINE
  5
352
  8
___-2
 62
     0
 10
95.02417754921976
 20
88.93083068984458
 30
0.0
 11
95.02417754921976
 21
93.68083008291376
 31
0.0
  0
LINE
  5
353
  8
___-2
 62
     0
 10
87.01315425153257
 20
89.18083068984458
 30
0.0
 11
84.76315425153257
 21
89.18083068984458
 31
0.0
  0
LINE
  5
354
  8
___-2
 62
     0
 10
90.52417782582211
 20
88.18083068984458
 30
0.0
 11
93.02417782582211
 21
88.18083068984458
 31
0.0
  0
ARC
  5
355
  8
___-2
 62
     0
 10
93.11346354010777
 20
90.984402118416
 30
0.0
 40
2.804992815298744
 50
268.1759101676228
 51
312.936180271543
  0
LINE
  5
356
  8
___-2
 62
     0
 10
56.03520105435928
 20
88.19117441395326
 30
0.0
 11
53.53520105435928
 21
88.19117441395326
 31
0.0
  0
ARC
  5
357
  8
___-2
 62
     0
 10
53.4459153400735
 20
90.99474584252468
 30
0.0
 40
2.804992815298746
 50
227.0638197284569
 51
271.8240898323772
  0
ARC
  5
358
  8
___-2
 62
     0
 10
93.77417789497326
 20
89.18083178966924
 30
0.0
 40
1.5
 50
270.0
 51
0.0
  0
ARC
  5
359
  8
___-2
 62
     0
 10
52.78520153841396
 20
89.18083178966924
 30
0.0
 40
1.5
 50
180.0
 51
270.0
  0
LINE
  5
35A
  8
___-2
 62
     0
 10
80.02417789497326
 20
88.18083063889196
 30
0.0
 11
66.27417789497326
 21
88.18083063889196
 31
0.0
  0
ARC
  5
35B
  8
___-2
 62
     0
 10
53.91233864454171
 20
102.1739278750642
 30
0.0
 40
14.15320866663493
 50
278.6264402255756
 51
293.3599638626692
  0
ARC
  5
35C
  8
___-2
 62
     0
 10
68.79449421778008
 20
110.7710482675759
 30
0.0
 40
22.70291475837856
 50
251.9874484703834
 51
264.2887250914293
  0
ARC
  5
35D
  8
___-2
 62
     0
 10
92.72714923457352
 20
102.5791578995452
 30
0.0
 40
14.56588178071554
 50
246.9031691272941
 51
261.3010965612
  0
ARC
  5
35E
  8
___-2
 62
     0
 10
77.82716319350766
 20
110.3213800713731
 30
0.0
 40
22.2492876799276
 50
275.6669290321552
 51
288.1641171943102
  0
LINE
  5
35F
  8
___-2
 62
     0
 10
49.07724052813319
 20
96.18083008291376
 30
0.0
 11
97.82724052813319
 21
96.18083008291376
 31
0.0
  0
LINE
  5
360
  8
___-2
 62
     0
 10
50.07724052813319
 20
93.68083008291376
 30
0.0
 11
96.82724052813319
 21
93.68083008291376
 31
0.0
  0
DIMENSION
  5
361
  8
___-3
 62
     0
  2
*D20
 10
46.02417789497326
 20
117.667573762553
 30
0.0
 11
73.52417789497326
 21
119.0268314656343
 31
0.0
 70
    32
  3
STANDARD-1
 13
101.0241778949733
 23
96.16757376255305
 33
0.0
 14
46.02417789497326
 24
96.16757376255305
 34
0.0
  0
DIMENSION
  5
362
  8
___-3
 62
     0
  2
*D21
 10
92.27417789497326
 20
108.167573762553
 30
0.0
 11
73.27417789497326
 21
109.5268314656343
 31
0.0
 70
    32
  3
STANDARD-1
 13
54.27417789497326
 23
96.16757376255305
 33
0.0
 14
92.27417789497326
 24
96.16757376255305
 34
0.0
  0
CIRCLE
  5
363
  8
___-2
 62
     0
 10
181.9053157587223
 20
53.98605298355835
 30
0.0
 40
19.5
  0
LINE
  5
364
  8
___-2
 62
     0
 10
179.9053157587223
 20
15.98605298355835
 30
0.0
 11
208.9053157587223
 21
15.98605298355835
 31
0.0
  0
LINE
  5
365
  8
___-2
 62
     0
 10
208.9053157587223
 20
15.98605298355835
 30
0.0
 11
208.9053157587223
 21
15.48605298355835
 31
0.0
  0
LINE
  5
366
  8
___-2
 62
     0
 10
208.9053157587223
 20
15.48605298355835
 30
0.0
 11
154.9053157587223
 21
15.48605298355835
 31
0.0
  0
LINE
  5
367
  8
___-2
 62
     0
 10
154.9053157587223
 20
15.48605298355835
 30
0.0
 11
154.9053157587223
 21
15.98605298355835
 31
0.0
  0
LINE
  5
368
  8
___-2
 62
     0
 10
154.9053157587223
 20
15.98605298355835
 30
0.0
 11
181.9053157587223
 21
15.98605298355835
 31
0.0
  0
DIMENSION
  5
369
  8
___-3
 62
     0
  2
*D22
 10
158.2271540300262
 20
127.9074510258538
 30
0.0
 11
224.0556443135164
 21
167.2754697248036
 31
0.0
 70
   163
  3
STANDARD-1
 15
208.0047521474153
 25
157.6764067627236
 35
0.0
 40
0.0
  0
DIMENSION
  5
36B
  8
___-3
 62
     0
  2
*D23
 10
174.1374756384591
 20
126.331386902144
 30
0.0
 11
201.1853110088571
 21
175.9190850812072
 31
0.0
 70
   163
  3
STANDARD-1
 15
192.0944305389797
 25
159.2524708864318
 35
0.0
 40
0.0
  0
DIMENSION
  5
36D
  8
___-3
 62
     0
  2
*D24
 10
157.3904123772102
 20
42.67148219209119
 30
0.0
 11
224.9863564000616
 21
73.86961020263796
 31
0.0
 70
   163
  3
STANDARD-1
 15
206.4202191402345
 25
65.30062377502546
 35
0.0
 40
0.0
  0
DIMENSION
  5
36F
  8
___-3
 62
     0
  2
*D25
 10
171.3729253354724
 20
47.89811806253289
 30
0.0
 11
200.4157920865828
 21
93.15095695379813
 31
0.0
 70
   163
  3
STANDARD-1
 15
192.4377061819724
 25
80.71998589312616
 35
0.0
 40
0.0
  0
DIMENSION
  5
371
  8
___-3
 62
     0
  2
*D26
 10
164.0694061663849
 20
296.1996705382118
 30
0.0
 11
183.0694061663849
 21
296.1996705382118
 31
0.0
 70
   160
  3
STANDARD-1
 13
202.0694061663849
 23
306.5277955382118
 33
0.0
 14
164.0694061663849
 24
306.5277955382118
 34
0.0
  0
LINE
  5
372
  8
___-2
 62
     0
 10
72.76034292135986
 20
24.54534042622333
 30
0.0
 11
90.51034292135986
 21
24.54534042622333
 31
0.0
  0
LINE
  5
373
  8
___-2
 62
     0
 10
90.51034292135986
 20
24.54534042622333
 30
0.0
 11
90.51034292135986
 21
26.04534042622333
 31
0.0
  0
LINE
  5
374
  8
___-2
 62
     0
 10
90.51034292135986
 20
26.04534042622333
 30
0.0
 11
55.01034292135986
 21
26.04534042622333
 31
0.0
  0
LINE
  5
375
  8
___-2
 62
     0
 10
55.01034292135986
 20
26.04534042622333
 30
0.0
 11
55.01034292135986
 21
24.54534042622333
 31
0.0
  0
LINE
  5
376
  8
___-2
 62
     0
 10
55.01034292135986
 20
24.54534042622333
 30
0.0
 11
90.51034292135986
 21
24.54534042622333
 31
0.0
  0
LINE
  5
377
  8
___-2
 62
     0
 10
72.76034292135986
 20
24.54534042622333
 30
0.0
 11
87.26034292135986
 21
24.54534042622333
 31
0.0
  0
LINE
  5
378
  8
___-2
 62
     0
 10
87.26034292135986
 20
24.54534042622333
 30
0.0
 11
87.26034292135986
 21
26.04534042622333
 31
0.0
  0
LINE
  5
379
  8
___
 62
     0
 10
181.9053157587223
 20
16.73605298355835
 30
0.0
 11
181.9053157587223
 21
13.98605298355835
 31
0.0
  0
LINE
  5
37A
  8
___
 62
     0
 10
183.1159530887205
 20
102.0419288942886
 30
0.0
 11
183.1159530887205
 21
112.2919288942886
 31
0.0
  0
LINE
  5
37B
  8
___
 62
     0
 10
72.76034292135986
 20
23.29534042622333
 30
0.0
 11
72.76034292135986
 21
27.29534042622333
 31
0.0
  0
DIMENSION
  5
37C
  8
___-3
 62
     0
  2
*D27
 10
155.8194061663849
 20
385.0435940137186
 30
0.0
 11
182.8842739188558
 21
385.0435940137186
 31
0.0
 70
   160
  3
STANDARD-1
 13
209.8194061663849
 23
377.0277955382118
 33
0.0
 14
155.8194061663849
 24
377.0277955382118
 34
0.0
  0
DIMENSION
  5
37D
  8
___-3
 62
     0
  2
*D28
 10
275.5659222789541
 20
200.5937734290899
 30
0.0
 11
256.5659222789541
 21
201.9530311321712
 31
0.0
 70
    32
  3
STANDARD-1
 13
237.5659222789541
 23
183.3437734290899
 33
0.0
 14
275.5659222789541
 24
183.3437734290899
 34
0.0
  0
DIMENSION
  5
37E
  8
___-3
 62
     0
  2
*D29
 10
229.2351509201941
 20
376.0764200001524
 30
0.0
 11
227.8758932171129
 21
326.0764200001524
 31
0.0
 70
    32
  3
STANDARD-1
 13
238.2590553671612
 23
276.0764200001524
 33
0.0
 14
236.5115498300115
 24
376.0764200001524
 34
0.0
 50
-90.0
  0
LINE
  5
37F
  8
___
 62
     0
 10
256.5659204814021
 20
168.5937734290899
 30
0.0
 11
256.5659204814021
 21
186.3437734290899
 31
0.0
  0
LINE
  5
380
  8
___-2
 62
     0
 10
276.3159211037585
 20
183.3437736612369
 30
0.0
 11
236.3159211037585
 21
183.3437736612369
 31
0.0
  0
LINE
  5
381
  8
___-2
 62
     0
 10
237.0659211037585
 20
170.8437729790181
 30
0.0
 11
276.0659211037585
 21
170.8437729790181
 31
0.0
  0
LINE
  5
382
  8
___-2
 62
     0
 10
256.5659211037585
 20
170.8437729790181
 30
0.0
 11
269.8159211037585
 21
170.8437729790181
 31
0.0
  0
LINE
  5
383
  8
___-2
 62
     0
 10
234.8159211037585
 20
173.8437741324663
 30
0.0
 11
234.8159211037585
 21
181.8437736612369
 31
0.0
  0
LINE
  5
384
  8
___-2
 62
     0
 10
278.5659211037585
 20
173.8437741324663
 30
0.0
 11
278.5659211037585
 21
181.8437741324663
 31
0.0
  0
LINE
  5
385
  8
___-2
 62
     0
 10
276.0659211037585
 20
183.3437736612369
 30
0.0
 11
275.3159211037585
 21
183.3437736612369
 31
0.0
  0
LINE
  5
386
  8
___-2
 62
     0
 10
237.0659211037585
 20
172.3437736612369
 30
0.0
 11
237.0659211037585
 21
170.8437736612369
 31
0.0
  0
LINE
  5
387
  8
___-2
 62
     0
 10
276.0659211037585
 20
172.3437736612369
 30
0.0
 11
276.0659211037585
 21
170.8437736612369
 31
0.0
  0
LINE
  5
388
  8
___-2
 62
     0
 10
270.3159209654571
 20
181.8437741324663
 30
0.0
 11
270.3159209654571
 21
173.8437741324663
 31
0.0
  0
LINE
  5
389
  8
___-2
 62
     0
 10
264.5659209654571
 20
181.8437741324663
 30
0.0
 11
264.5659209654571
 21
173.8437741324663
 31
0.0
  0
LINE
  5
38A
  8
___-2
 62
     0
 10
248.5659209654571
 20
181.8437741324663
 30
0.0
 11
248.5659209654571
 21
173.8437741324663
 31
0.0
  0
LINE
  5
38B
  8
___-2
 62
     0
 10
242.8159209654571
 20
181.8437741324663
 30
0.0
 11
242.8159209654571
 21
173.8437741324663
 31
0.0
  0
LINE
  5
38C
  8
___-2
 62
     0
 10
253.8159208271557
 20
183.3437741324663
 30
0.0
 11
277.0659211037585
 21
183.3437741324663
 31
0.0
  0
ARC
  5
38D
  8
___-2
 62
     0
 10
274.1909208271557
 20
177.635440799133
 30
0.0
 40
5.720637590727497
 50
86.24144431452858
 51
132.6386253418235
  0
LINE
  5
38E
  8
___-2
 62
     0
 10
277.0659211037585
 20
172.3437741324663
 30
0.0
 11
236.3159211037585
 21
172.3437741324663
 31
0.0
  0
LINE
  5
38F
  8
___-2
 62
     0
 10
242.8159208271557
 20
173.8437741324663
 30
0.0
 11
248.5659208271557
 21
173.8437741324663
 31
0.0
  0
LINE
  5
390
  8
___-2
 62
     0
 10
242.8159208271557
 20
181.8437741324663
 30
0.0
 11
248.5659208271557
 21
181.8437741324663
 31
0.0
  0
LINE
  5
391
  8
___-2
 62
     0
 10
264.5659208271557
 20
173.8437741324663
 30
0.0
 11
270.3159208271557
 21
173.8437741324663
 31
0.0
  0
LINE
  5
392
  8
___-2
 62
     0
 10
264.5659208271557
 20
181.8437741324663
 30
0.0
 11
270.3159208271557
 21
181.8437741324663
 31
0.0
  0
ARC
  5
393
  8
___-2
 62
     0
 10
252.4409206427536
 20
177.6354413831882
 30
0.0
 40
5.720637590727497
 50
86.24144431452858
 51
132.6386253418233
  0
ARC
  5
394
  8
___-2
 62
     0
 10
260.6909210115577
 20
178.0521068817444
 30
0.0
 40
5.720637590727497
 50
266.2414443145286
 51
312.6386253418232
  0
ARC
  5
395
  8
___-2
 62
     0
 10
260.6909210115577
 20
177.6354413831882
 30
0.0
 40
5.720637590727502
 50
47.36137465817649
 51
93.75855568547142
  0
ARC
  5
396
  8
___-2
 62
     0
 10
238.9409207119048
 20
177.6354407142119
 30
0.0
 40
5.720637590727483
 50
47.3613746581767
 51
93.75855568547142
  0
ARC
  5
397
  8
___-2
 62
     0
 10
238.9409207810554
 20
178.0521069666656
 30
0.0
 40
5.720637590727497
 50
266.2414443145286
 51
312.6386253418233
  0
ARC
  5
398
  8
___-2
 62
     0
 10
252.4409208732559
 20
178.0521069666655
 30
0.0
 40
5.720637590727483
 50
227.3613746581767
 51
273.7585556854714
  0
ARC
  5
399
  8
___-2
 62
     0
 10
274.190921057658
 20
178.0521075507207
 30
0.0
 40
5.720637590727502
 50
227.3613746581765
 51
273.7585556854714
  0
ARC
  5
39A
  8
___-2
 62
     0
 10
236.3159211037585
 20
173.8437741324664
 30
0.0
 40
1.5
 50
180.0
 51
270.0
  0
ARC
  5
39B
  8
___-2
 62
     0
 10
236.3159211037585
 20
181.8437736612369
 30
0.0
 40
1.5
 50
90.0
 51
180.0
  0
ARC
  5
39C
  8
___-2
 62
     0
 10
277.0659211037585
 20
173.8437741324663
 30
0.0
 40
1.5
 50
270.0
 51
0.0
  0
ARC
  5
39D
  8
___-2
 62
     0
 10
277.0659211037585
 20
181.8437741324663
 30
0.0
 40
1.5
 50
0.0
 51
90.0
  0
LINE
  5
39E
  8
___-2
 62
     0
 10
278.3159208271557
 20
174.0937729790181
 30
0.0
 11
278.3159208271557
 21
181.5937729790181
 31
0.0
  0
ARC
  5
39F
  8
___-2
 62
     0
 10
276.2473481400765
 20
174.4319378624056
 30
0.0
 40
2.096031595679439
 50
265.0344052209898
 51
350.7155620812068
  0
INSERT
  5
3A0
  8
___-2
 62
     7
  2
A$C69F63766
 10
278.3159208271557
 20
183.3437729790181
 30
0.0
 41
-1.0
 50
90.0
  0
INSERT
  5
3A1
  8
___-2
 62
     7
  2
A$C1E984E2F
 10
235.0659208271557
 20
183.3437729790181
 30
0.0
 50
270.0
  0
TEXT
  5
3A2
  8
___-1
 62
     0
 10
242.5010705509405
 20
191.8364161363677
 30
0.0
 40
3.5
  1
排水金具
  7
HELVETICA_NEUE
 11
242.5010705509405
 21
195.3364161363677
 31
0.0
 73
     3
  0
TEXT
  5
3A3
  8
___-1
 62
     0
 10
242.5010705509405
 20
186.0030828030344
 30
0.0
 40
3.5
  1
用
  7
HELVETICA_NEUE
 11
242.5010705509405
 21
189.5030828030344
 31
0.0
 73
     3
  0
LINE
  5
3A4
  8
___-2
 62
     0
 10
183.3076583649263
 20
196.5553267752717
 30
0.0
 11
208.3076583649263
 21
196.5553267752717
 31
0.0
  0
LINE
  5
3A5
  8
___-2
 62
     0
 10
208.3076583649263
 20
196.5553267752717
 30
0.0
 11
208.3076583649263
 21
202.0553267752717
 31
0.0
  0
LINE
  5
3A6
  8
___-2
 62
     0
 10
208.3076583649263
 20
202.0553267752717
 30
0.0
 11
158.3076583649263
 21
202.0553267752717
 31
0.0
  0
LINE
  5
3A7
  8
___-2
 62
     0
 10
158.3076583649263
 20
202.0553267752717
 30
0.0
 11
158.3076583649263
 21
196.5553267752717
 31
0.0
  0
LINE
  5
3A8
  8
___-2
 62
     0
 10
158.3076583649263
 20
196.5553267752717
 30
0.0
 11
208.3076583649263
 21
196.5553267752717
 31
0.0
  0
LINE
  5
3A9
  8
___
 62
     0
 10
183.0576583649263
 20
203.0553267752717
 30
0.0
 11
183.0576583649263
 21
194.3053267752717
 31
0.0
  0
CIRCLE
  5
3AA
  8
___-2
 62
     0
 10
181.90291911964
 20
53.98798096876146
 30
0.0
 40
27.25228329995593
  0
LINE
  5
3AB
  8
___
 62
     0
 10
181.8710015697652
 20
23.94499569834568
 30
0.0
 11
181.8710015697652
 21
85.04367948620677
 31
0.0
  0
LINE
  5
3AC
  8
___-3
 62
     0
 10
95.05377162775949
 20
325.2779280838056
 30
0.0
 11
111.9257459930656
 21
350.6119676156122
 31
0.0
  0
POLYLINE
  5
3AD
  8
___-3
  6
CONTINUOUS
 62
     7
 66
     1
 10
0.0
 20
0.0
 30
0.0
 70
   129
  0
VERTEX
  5
3AE
  8
___-3
  6
CONTINUOUS
 62
     7
 10
97.69755392540011
 20
328.3192517145815
 30
0.0
  0
VERTEX
  5
3AF
  8
___-3
  6
CONTINUOUS
 62
     7
 10
95.05377162775949
 20
325.2779280838056
 30
0.0
  0
VERTEX
  5
3B0
  8
___-3
  6
CONTINUOUS
 62
     7
 10
96.88325951447494
 20
328.8685002299678
 30
0.0
  0
SEQEND
  5
3B1
  8
___-3
  6
CONTINUOUS
 62
     7
  0
POLYLINE
  5
3B2
  8
___-3
 62
     0
 66
     1
 10
0.0
 20
0.0
 30
0.0
 70
   128
  0
VERTEX
  5
3B3
  8
___-3
 62
     0
 10
111.9257459930656
 20
350.6119676156122
 30
0.0
  0
VERTEX
  5
3B4
  8
___-3
 62
     0
 10
112.2857459930656
 20
350.6119676156122
 30
0.0
  0
SEQEND
  5
3B5
  8
___-3
 62
     0
  0
LINE
  5
3B6
  8
___-3
 62
     0
 10
91.36892108448455
 20
315.7593805804499
 30
0.0
 11
106.7262103689701
 21
320.6788125977632
 31
0.0
  0
POLYLINE
  5
3B7
  8
___-3
  6
CONTINUOUS
 62
     7
 66
     1
 10
0.0
 20
0.0
 30
0.0
 70
   129
  0
VERTEX
  5
3B8
  8
___-3
  6
CONTINUOUS
 62
     7
 10
95.33749279669644
 20
316.4591468481893
 30
0.0
  0
VERTEX
  5
3B9
  8
___-3
  6
CONTINUOUS
 62
     7
 10
91.36892108448455
 20
315.7593805804499
 30
0.0
  0
VERTEX
  5
3BA
  8
___-3
  6
CONTINUOUS
 62
     7
 10
95.05032047429535
 20
317.398445190871
 30
0.0
  0
SEQEND
  5
3BB
  8
___-3
  6
CONTINUOUS
 62
     7
  0
POLYLINE
  5
3BC
  8
___-3
 62
     0
 66
     1
 10
0.0
 20
0.0
 30
0.0
 70
   128
  0
VERTEX
  5
3BD
  8
___-3
 62
     0
 10
106.7262103689701
 20
320.6788125977632
 30
0.0
  0
VERTEX
  5
3BE
  8
___-3
 62
     0
 10
107.0862103689701
 20
320.6788125977632
 30
0.0
  0
SEQEND
  5
3BF
  8
___-3
 62
     0
  0
LINE
  5
3C0
  8
___-3
 62
     0
 10
91.4553687079765
 20
281.0896542536275
 30
0.0
 11
109.5772725460466
 21
296.0700244890413
 31
0.0
  0
POLYLINE
  5
3C1
  8
___-3
  6
CONTINUOUS
 62
     7
 66
     1
 10
0.0
 20
0.0
 30
0.0
 70
   129
  0
VERTEX
  5
3C2
  8
___-3
  6
CONTINUOUS
 62
     7
 10
94.87282726748462
 20
283.2251193688843
 30
0.0
  0
VERTEX
  5
3C3
  8
___-3
  6
CONTINUOUS
 62
     7
 10
91.4553687079765
 20
281.0896542536275
 30
0.0
  0
VERTEX
  5
3C4
  8
___-3
  6
CONTINUOUS
 62
     7
 10
94.25469837432266
 20
283.9884449814222
 30
0.0
  0
SEQEND
  5
3C5
  8
___-3
  6
CONTINUOUS
 62
     7
  0
POLYLINE
  5
3C6
  8
___-3
 62
     0
 66
     1
 10
0.0
 20
0.0
 30
0.0
 70
   128
  0
VERTEX
  5
3C7
  8
___-3
 62
     0
 10
109.5772725460466
 20
296.0700244890413
 30
0.0
  0
VERTEX
  5
3C8
  8
___-3
 62
     0
 10
109.9372725460466
 20
296.0700244890413
 30
0.0
  0
SEQEND
  5
3C9
  8
___-3
 62
     0
  0
TEXT
  5
3CA
  8
___-1
 62
     0
 10
111.9348229078928
 20
351.2550676117198
 30
0.0
 40
6.0
  1
①
  7
HELVETICA_NEUE
 11
111.9348229078928
 21
357.2550676117198
 31
0.0
 73
     3
  0
TEXT
  5
3CB
  8
___-1
 62
     0
 10
157.0068110091643
 20
286.8796155831341
 30
0.0
 40
6.0
  1
①
  7
HELVETICA_NEUE
 11
157.0068110091643
 21
292.8796155831341
 31
0.0
 73
     3
  0
TEXT
  5
3CC
  8
___-1
 62
     0
 10
111.515059759934
 20
320.5217772148064
 30
0.0
 40
6.0
  1
②
  7
HELVETICA_NEUE
 11
111.515059759934
 21
326.5217772148064
 31
0.0
 73
     3
  0
TEXT
  5
3CD
  8
___-1
 62
     0
 10
111.4411812405083
 20
247.9285916474589
 30
0.0
 40
6.0
  1
⑥
  7
HELVETICA_NEUE
 11
111.4411812405083
 21
253.9285916474589
 31
0.0
 73
     3
  0
TEXT
  5
3CE
  8
___-1
 62
     0
 10
111.3397897545647
 20
228.3418268012346
 30
0.0
 40
6.0
  1
⑦
  7
HELVETICA_NEUE
 11
111.3397897545647
 21
234.3418268012346
 31
0.0
 73
     3
  0
TEXT
  5
3CF
  8
___-1
 62
     0
 10
111.7537978574273
 20
265.767034433585
 30
0.0
 40
6.0
  1
⑤
  7
HELVETICA_NEUE
 11
111.7537978574273
 21
271.767034433585
 31
0.0
 73
     3
  0
TEXT
  5
3D0
  8
___-1
 62
     0
 10
112.2170961030292
 20
296.3541560607957
 30
0.0
 40
6.0
  1
③
  7
HELVETICA_NEUE
 11
112.2170961030292
 21
302.3541560607957
 31
0.0
 73
     3
  0
TEXT
  5
3D1
  8
___-1
 62
     0
 10
214.949610157139
 20
222.7073497873795
 30
0.0
 40
6.0
  1
②
  7
HELVETICA_NEUE
 11
214.949610157139
 21
228.7073497873795
 31
0.0
 73
     3
  0
TEXT
  5
3D2
  8
___-1
 62
     0
 10
216.5274146043034
 20
128.340963647047
 30
0.0
 40
6.0
  1
③
  7
HELVETICA_NEUE
 11
216.5274146043034
 21
134.340963647047
 31
0.0
 73
     3
  0
LINE
  5
3D3
  8
___-3
 62
     0
 10
95.40573221468503
 20
277.472513725196
 30
0.0
 11
110.4452161313898
 21
281.9936350830935
 31
0.0
  0
POLYLINE
  5
3D4
  8
___-3
  6
CONTINUOUS
 62
     7
 66
     1
 10
0.0
 20
0.0
 30
0.0
 70
   129
  0
VERTEX
  5
3D5
  8
___-3
  6
CONTINUOUS
 62
     7
 10
99.3859120995186
 20
278.1029122886463
 30
0.0
  0
VERTEX
  5
3D6
  8
___-3
  6
CONTINUOUS
 62
     7
 10
95.40573221468503
 20
277.472513725196
 30
0.0
  0
VERTEX
  5
3D7
  8
___-3
  6
CONTINUOUS
 62
     7
 10
99.11517653129553
 20
279.047079419729
 30
0.0
  0
SEQEND
  5
3D8
  8
___-3
  6
CONTINUOUS
 62
     7
  0
POLYLINE
  5
3D9
  8
___-3
 62
     0
 66
     1
 10
0.0
 20
0.0
 30
0.0
 70
   128
  0
VERTEX
  5
3DA
  8
___-3
 62
     0
 10
110.4452161313898
 20
281.9936350830935
 30
0.0
  0
VERTEX
  5
3DB
  8
___-3
 62
     0
 10
110.8052161313898
 20
281.9936350830935
 30
0.0
  0
SEQEND
  5
3DC
  8
___-3
 62
     0
  0
TEXT
  5
3DD
  8
___-1
 62
     0
 10
112.3404230824181
 20
281.2998332746527
 30
0.0
 40
6.0
  1
④
  7
HELVETICA_NEUE
 11
112.3404230824181
 21
287.2998332746527
 31
0.0
 73
     3
  0
LINE
  5
3DE
  8
___-3
 62
     0
 10
89.91585991405236
 20
271.4407485622864
 30
0.0
 11
111.6420023624501
 21
267.9683254608231
 31
0.0
  0
POLYLINE
  5
3DF
  8
___-3
  6
CONTINUOUS
 62
     7
 66
     1
 10
0.0
 20
0.0
 30
0.0
 70
   129
  0
VERTEX
  5
3E0
  8
___-3
  6
CONTINUOUS
 62
     7
 10
93.7895458825729
 20
270.3299869849345
 30
0.0
  0
VERTEX
  5
3E1
  8
___-3
  6
CONTINUOUS
 62
     7
 10
89.91585991405236
 20
271.4407485622864
 30
0.0
  0
VERTEX
  5
3E2
  8
___-3
  6
CONTINUOUS
 62
     7
 10
93.94319840059538
 20
271.3001108033326
 30
0.0
  0
SEQEND
  5
3E3
  8
___-3
  6
CONTINUOUS
 62
     7
  0
POLYLINE
  5
3E4
  8
___-3
 62
     0
 66
     1
 10
0.0
 20
0.0
 30
0.0
 70
   128
  0
VERTEX
  5
3E5
  8
___-3
 62
     0
 10
111.6420023624501
 20
267.9683254608231
 30
0.0
  0
VERTEX
  5
3E6
  8
___-3
 62
     0
 10
112.0020023624501
 20
267.9683254608231
 30
0.0
  0
SEQEND
  5
3E7
  8
___-3
 62
     0
  0
TEXT
  5
3E8
  8
___-1
 62
     0
 10
220.3959131259899
 20
52.12927532547508
 30
0.0
 40
6.0
  1
④
  7
HELVETICA_NEUE
 11
220.3959131259899
 21
58.12927532547508
 31
0.0
 73
     3
  0
TEXT
  5
3E9
  8
___-1
 62
     0
 10
106.8679416306489
 20
108.0019218742229
 30
0.0
 40
6.0
  1
⑤
  7
HELVETICA_NEUE
 11
106.8679416306489
 21
114.0019218742229
 31
0.0
 73
     3
  0
LINE
  5
3EA
  8
___-3
 62
     0
 10
90.46921498800702
 20
259.2250549461589
 30
0.0
 11
110.3101223311724
 21
250.3200157444012
 31
0.0
  0
POLYLINE
  5
3EB
  8
___-3
  6
CONTINUOUS
 62
     7
 66
     1
 10
0.0
 20
0.0
 30
0.0
 70
   129
  0
VERTEX
  5
3EC
  8
___-3
  6
CONTINUOUS
 62
     7
 10
93.9234220571478
 20
257.1495579483457
 30
0.0
  0
VERTEX
  5
3ED
  8
___-3
  6
CONTINUOUS
 62
     7
 10
90.46921498800702
 20
259.2250549461589
 30
0.0
  0
VERTEX
  5
3EE
  8
___-3
  6
CONTINUOUS
 62
     7
 10
94.32292551288907
 20
258.0468574012423
 30
0.0
  0
SEQEND
  5
3EF
  8
___-3
  6
CONTINUOUS
 62
     7
  0
POLYLINE
  5
3F0
  8
___-3
 62
     0
 66
     1
 10
0.0
 20
0.0
 30
0.0
 70
   128
  0
VERTEX
  5
3F1
  8
___-3
 62
     0
 10
110.3101223311724
 20
250.3200157444012
 30
0.0
  0
VERTEX
  5
3F2
  8
___-3
 62
     0
 10
110.6701223311724
 20
250.3200157444012
 30
0.0
  0
SEQEND
  5
3F3
  8
___-3
 62
     0
  0
LINE
  5
3F4
  8
___-3
 62
     0
 10
73.9225660587017
 20
255.7849450628482
 30
0.0
 11
110.0885943965815
 21
230.3798722900677
 31
0.0
  0
POLYLINE
  5
3F5
  8
___-3
  6
CONTINUOUS
 62
     7
 66
     1
 10
0.0
 20
0.0
 30
0.0
 70
   129
  0
VERTEX
  5
3F6
  8
___-3
  6
CONTINUOUS
 62
     7
 10
76.91728611796758
 20
253.0884870099453
 30
0.0
  0
VERTEX
  5
3F7
  8
___-3
  6
CONTINUOUS
 62
     7
 10
73.9225660587017
 20
255.7849450628482
 30
0.0
  0
VERTEX
  5
3F8
  8
___-3
  6
CONTINUOUS
 62
     7
 10
77.48066237716364
 20
253.893071691562
 30
0.0
  0
SEQEND
  5
3F9
  8
___-3
  6
CONTINUOUS
 62
     7
  0
POLYLINE
  5
3FA
  8
___-3
 62
     0
 66
     1
 10
0.0
 20
0.0
 30
0.0
 70
   128
  0
VERTEX
  5
3FB
  8
___-3
 62
     0
 10
110.0885943965815
 20
230.3798722900677
 30
0.0
  0
VERTEX
  5
3FC
  8
___-3
 62
     0
 10
110.4485943965815
 20
230.3798722900677
 30
0.0
  0
SEQEND
  5
3FD
  8
___-3
 62
     0
  0
TEXT
  5
3FE
  8
___-1
 62
     0
 10
110.9683090815965
 20
199.4726001340127
 30
0.0
 40
6.0
  1
⑧
  7
HELVETICA_NEUE
 11
110.9683090815965
 21
205.4726001340127
 31
0.0
 73
     3
  0
LINE
  5
3FF
  8
___-3
 62
     0
 10
83.35606054741902
 20
205.6145161736777
 30
0.0
 11
110.1932906368802
 21
200.7542768378206
 31
0.0
  0
POLYLINE
  5
400
  8
___-3
  6
CONTINUOUS
 62
     7
 66
     1
 10
0.0
 20
0.0
 30
0.0
 70
   129
  0
VERTEX
  5
401
  8
___-3
  6
CONTINUOUS
 62
     7
 10
87.20977107230107
 20
204.4363186287611
 30
0.0
  0
VERTEX
  5
402
  8
___-3
  6
CONTINUOUS
 62
     7
 10
83.35606054741902
 20
205.6145161736777
 30
0.0
  0
VERTEX
  5
403
  8
___-3
  6
CONTINUOUS
 62
     7
 10
87.38033118347398
 20
205.4036130864081
 30
0.0
  0
SEQEND
  5
404
  8
___-3
  6
CONTINUOUS
 62
     7
  0
POLYLINE
  5
405
  8
___-3
 62
     0
 66
     1
 10
0.0
 20
0.0
 30
0.0
 70
   128
  0
VERTEX
  5
406
  8
___-3
 62
     0
 10
110.1932906368802
 20
200.7542768378206
 30
0.0
  0
VERTEX
  5
407
  8
___-3
 62
     0
 10
110.5532906368802
 20
200.7542768378206
 30
0.0
  0
SEQEND
  5
408
  8
___-3
 62
     0
  0
TEXT
  5
409
  8
___-1
 62
     0
 10
101.5381815307368
 20
51.72068387799868
 30
0.0
 40
6.0
  1
⑦
  7
HELVETICA_NEUE
 11
101.5381815307368
 21
57.72068387799868
 31
0.0
 73
     3
  0
TEXT
  5
40A
  8
___-1
 62
     0
 10
218.9637562175221
 20
253.8690444874312
 30
0.0
 40
6.0
  1
⑧
  7
HELVETICA_NEUE
 11
218.9637562175221
 21
259.8690444874312
 31
0.0
 73
     3
  0
TEXT
  5
40B
  8
___-1
 62
     0
 10
231.1674967657191
 20
161.5117528504321
 30
0.0
 40
6.0
  1
⑥
  7
HELVETICA_NEUE
 11
231.1674967657191
 21
167.5117528504321
 31
0.0
 73
     3
  0
TEXT
  5
40C
  8
___-1
 62
     0
 10
28.32079027711697
 20
388.3069391863427
 30
0.0
 40
6.5
  1
３２ 
  7
HELVETICA_NEUE
 11
28.32079027711697
 21
394.8069391863427
 31
0.0
 73
     3
  0
TEXT
  5
40D
  8
___-1
 62
     0
 10
28.32079027711697
 20
377.4736058530093
 30
0.0
 40
6.5
  1
排水金具･テ－ル管付
  7
HELVETICA_NEUE
 11
28.32079027711697
 21
383.9736058530093
 31
0.0
 73
     3
  0
TEXT
  5
40E
  8
___-1
 62
     0
 10
272.0047998031489
 20
397.6166401303234
 30
0.0
 40
3.5
  1
S＝1/1
  7
HELVETICA_NEUE
 11
272.0047998031489
 21
401.1166401303234
 31
0.0
 73
     3
  0
CIRCLE
  5
40F
  8
___-2
 62
     0
 10
72.9946173636813
 20
54.03244458803624
 30
0.0
 40
17.5
  0
CIRCLE
  5
410
  8
___-2
 62
     0
 10
72.9946173636813
 20
54.03244458803624
 30
0.0
 40
14.5
  0
DIMENSION
  5
411
  8
___-3
 62
     0
  2
*D30
 10
63.23593075343288
 20
43.3077984100517
 30
0.0
 11
89.64942089790144
 21
72.33581697841271
 31
0.0
 70
   163
  3
STANDARD-1
 15
82.75330397392972
 25
64.75709076602078
 35
0.0
 40
0.0
  0
DIMENSION
  5
413
  8
___-3
 62
     0
  2
*D31
 10
56.55532305479862
 20
48.0324777026328
 30
0.0
 11
99.52920779805646
 21
63.71696394346682
 31
0.0
 70
   163
  3
STANDARD-1
 15
89.43391167256395
 25
60.03241147343968
 35
0.0
 40
0.0
  0
DIMENSION
  5
415
  8
___-3
 62
     0
  2
*D32
 10
107.1064435639174
 20
26.04534042622333
 30
0.0
 11
105.7471858608361
 21
25.29534042622333
 31
0.0
 70
    32
  3
STANDARD-1
 13
90.51034292135986
 23
24.54534042622333
 33
0.0
 14
90.51034292135986
 24
26.04534042622333
 34
0.0
 50
-90.0
  0
VIEWPORT
  5
418
 67
     1
  8
0
 10
128.5
 20
97.5
 30
0.0
 40
314.226
 41
222.18
 68
     1
 69
     1
1001
ACAD
1000
MVIEW
1002
{
1070
    16
1010
0.0
1020
0.0
1030
0.0
1010
0.0
1020
0.0
1030
1.0
1040
0.0
1040
222.18
1040
128.5
1040
97.5
1040
50.0
1040
0.0
1040
0.0
1070
     0
1070
   100
1070
     0
1070
     3
1070
     0
1070
     0
1070
     0
1070
     0
1040
0.0
1040
0.0
1040
0.0
1040
10.0
1040
10.0
1040
10.0
1040
10.0
1070
     0
1002
{
1002
}
1002
}
  0
ENDSEC
  0
EOF
