  0
SECTION
  2
HEADER
  9
$ACADVER
  1
AC1009
  9
$DWGCODEPAGE
  3
dos932
  9
$INSBASE
 10
0.0
 20
0.0
 30
0.0
  9
$EXTMIN
 10
3.874142016691337
 20
4.75
 30
0.0
  9
$EXTMAX
 10
399.75
 20
281.75
 30
0.0
  9
$LIMMIN
 10
0.0
 20
0.0
  9
$LIMMAX
 10
12.0
 20
9.0
  9
$ORTHOMODE
 70
     0
  9
$REGENMODE
 70
     1
  9
$FILLMODE
 70
     1
  9
$QTEXTMODE
 70
     0
  9
$MIRRTEXT
 70
     1
  9
$DRAGMODE
 70
     2
  9
$LTSCALE
 40
2.0
  9
$OSMODE
 70
    37
  9
$ATTMODE
 70
     1
  9
$TEXTSIZE
 40
0.2
  9
$TRACEWID
 40
1.0
  9
$TEXTSTYLE
  7
STANDARD
  9
$CLAYER
  8
__
  9
$CELTYPE
  6
BYLAYER
  9
$CECOLOR
 62
   256
  9
$DIMSCALE
 40
1.0
  9
$DIMASZ
 40
4.4896484375
  9
$DIMEXO
 40
3.175
  9
$DIMDLI
 40
20.32
  9
$DIMRND
 40
0.0
  9
$DIMDLE
 40
3.175
  9
$DIMEXE
 40
6.35
  9
$DIMTP
 40
0.0
  9
$DIMTM
 40
0.0
  9
$DIMTXT
 40
3.5
  9
$DIMCEN
 40
0.0
  9
$DIMTSZ
 40
0.0
  9
$DIMTOL
 70
     0
  9
$DIMLIM
 70
     0
  9
$DIMTIH
 70
     0
  9
$DIMTOH
 70
     0
  9
$DIMSE1
 70
     0
  9
$DIMSE2
 70
     0
  9
$DIMTAD
 70
     1
  9
$DIMZIN
 70
     8
  9
$DIMBLK
  1
VW_SLASH
  9
$DIMASO
 70
     1
  9
$DIMSHO
 70
     1
  9
$DIMPOST
  1
<>
  9
$DIMAPOST
  1
[]
  9
$DIMALT
 70
     0
  9
$DIMALTD
 70
     3
  9
$DIMALTF
 40
0.0393700787401575
  9
$DIMLFAC
 40
1.0
  9
$DIMTOFL
 70
     1
  9
$DIMTVP
 40
0.0
  9
$DIMTIX
 70
     1
  9
$DIMSOXD
 70
     0
  9
$DIMSAH
 70
     0
  9
$DIMBLK1
  1
VW_SLASH
  9
$DIMBLK2
  1
VW_SLASH
  9
$DIMSTYLE
  2
ARCH
  9
$DIMCLRD
 70
     0
  9
$DIMCLRE
 70
     0
  9
$DIMCLRT
 70
     0
  9
$DIMTFAC
 40
1.0
  9
$DIMGAP
 40
3.175
  9
$LUNITS
 70
     2
  9
$LUPREC
 70
     2
  9
$SKETCHINC
 40
0.1
  9
$FILLETRAD
 40
0.0
  9
$AUNITS
 70
     0
  9
$AUPREC
 70
     2
  9
$MENU
  1
.
  9
$ELEVATION
 40
0.0
  9
$PELEVATION
 40
0.0
  9
$THICKNESS
 40
0.0
  9
$LIMCHECK
 70
     0
  9
$CHAMFERA
 40
0.0
  9
$CHAMFERB
 40
0.0
  9
$SKPOLY
 70
     0
  9
$TDCREATE
 40
2460768.871227917
  9
$TDUPDATE
 40
2460768.871246956
  9
$TDINDWG
 40
0.0000000116
  9
$TDUSRTIMER
 40
0.0000000116
  9
$USRTIMER
 70
     1
  9
$ANGBASE
 50
0.0
  9
$ANGDIR
 70
     0
  9
$PDMODE
 70
     1
  9
$PDSIZE
 40
-2.0
  9
$PLINEWID
 40
0.0
  9
$COORDS
 70
     1
  9
$SPLFRAME
 70
     0
  9
$SPLINETYPE
 70
     6
  9
$SPLINESEGS
 70
     8
  9
$ATTDIA
 70
     0
  9
$ATTREQ
 70
     1
  9
$HANDLING
 70
     1
  9
$HANDSEED
  5
4AD
  9
$SURFTAB1
 70
     6
  9
$SURFTAB2
 70
     6
  9
$SURFTYPE
 70
     6
  9
$SURFU
 70
     6
  9
$SURFV
 70
     6
  9
$UCSNAME
  2

  9
$UCSORG
 10
0.0
 20
0.0
 30
0.0
  9
$UCSXDIR
 10
1.0
 20
0.0
 30
0.0
  9
$UCSYDIR
 10
0.0
 20
1.0
 30
0.0
  9
$PUCSNAME
  2

  9
$PUCSORG
 10
0.0
 20
0.0
 30
0.0
  9
$PUCSXDIR
 10
1.0
 20
0.0
 30
0.0
  9
$PUCSYDIR
 10
0.0
 20
1.0
 30
0.0
  9
$USERI1
 70
     0
  9
$USERI2
 70
     0
  9
$USERI3
 70
     0
  9
$USERI4
 70
     0
  9
$USERI5
 70
     0
  9
$USERR1
 40
0.0
  9
$USERR2
 40
0.0
  9
$USERR3
 40
0.0
  9
$USERR4
 40
0.0
  9
$USERR5
 40
0.0
  9
$WORLDVIEW
 70
     1
  9
$SHADEDGE
 70
     3
  9
$SHADEDIF
 70
    70
  9
$TILEMODE
 70
     1
  9
$MAXACTVP
 70
    64
  9
$PLIMCHECK
 70
     0
  9
$PEXTMIN
 10
1.000000000000000E+20
 20
1.000000000000000E+20
 30
1.000000000000000E+20
  9
$PEXTMAX
 10
-1.000000000000000E+20
 20
-1.000000000000000E+20
 30
-1.000000000000000E+20
  9
$PLIMMIN
 10
-20.0
 20
-7.5
  9
$PLIMMAX
 10
277.0
 20
202.5
  9
$UNITMODE
 70
     0
  9
$VISRETAIN
 70
     1
  9
$PLINEGEN
 70
     0
  9
$PSLTSCALE
 70
     1
  0
ENDSEC
  0
SECTION
  2
TABLES
  0
TABLE
  2
VPORT
 70
     1
  0
VPORT
  2
*ACTIVE
 70
     0
 10
0.0
 20
0.0
 11
1.0
 21
1.0
 12
201.8120710083457
 22
143.25
 13
0.0
 23
0.0
 14
0.5
 24
0.5
 15
0.5
 25
0.5
 16
0.0
 26
0.0
 36
1.0
 17
0.0
 27
0.0
 37
0.0
 40
277.0
 41
1.429154721961403
 42
2000.0
 43
0.0
 44
0.0
 50
0.0
 51
0.0
 71
     0
 72
   100
 73
     1
 74
     3
 75
     0
 76
     0
 77
     0
 78
     0
  0
ENDTAB
  0
TABLE
  2
LTYPE
 70
     4
  0
LTYPE
  2
CONTINUOUS
 70
     0
  3
Solid line
 72
    65
 73
     0
 40
0.0
  0
LTYPE
  2
HIDDEN
 70
     0
  3

 72
    65
 73
     2
 40
4.6875
 49
3.125
 49
-1.5625
  0
LTYPE
  2
CENTER
 70
     0
  3

 72
    65
 73
     4
 40
25.0
 49
15.625
 49
-3.125
 49
3.125
 49
-3.125
  0
LTYPE
  2
ACANSTGL
 70
     0
  3

 72
    65
 73
     2
 40
1.47637795275
 49
0.9842519685
 49
-0.4921259842499999
  0
ENDTAB
  0
TABLE
  2
LAYER
 70
    13
  0
LAYER
  2
0
 70
     0
 62
     7
  6
CONTINUOUS
  0
LAYER
  2
__
 70
     0
 62
     7
  6
CONTINUOUS
  0
LAYER
  2
DEFPOINTS
 70
     0
 62
     7
  6
CONTINUOUS
  0
LAYER
  2
___
 70
     0
 62
   144
  6
CONTINUOUS
  0
LAYER
  2
____
 70
     0
 62
     7
  6
CONTINUOUS
  0
LAYER
  2
___-1
 70
     0
 62
     3
  6
CONTINUOUS
  0
LAYER
  2
___-2
 70
     0
 62
     7
  6
CENTER
  0
LAYER
  2
___-3
 70
     0
 62
     1
  6
CONTINUOUS
  0
LAYER
  2
___-4
 70
     0
 62
     7
  6
CONTINUOUS
  0
LAYER
  2
1
 70
     0
 62
     7
  6
CONTINUOUS
  0
ENDTAB
  0
TABLE
  2
STYLE
 70
     2
  0
STYLE
  2
STANDARD
 70
     0
 40
0.0
 41
1.0
 50
0.0
 71
     0
 42
0.2
  3
txt
  4
BIGFONT.SHX
  0
STYLE
  2
HELVETICA_NEUE
 70
     0
 40
0.0
 41
1.0
 50
0.0
 71
     0
 42
0.2
  3
HelveticaNeue.ttc
  4

  0
ENDTAB
  0
TABLE
  2
VIEW
 70
     0
  0
ENDTAB
  0
TABLE
  2
UCS
 70
     0
  0
ENDTAB
  0
TABLE
  2
APPID
 70
     4
  0
APPID
  2
ACAD
 70
     0
  0
APPID
  2
ACCMTRANSPARENCY
 70
     0
  0
APPID
  2
ACAECLAYERSTANDARD
 70
     0
  0
APPID
  2
ACADANNOTATIVE
 70
     0
  0
ENDTAB
  0
TABLE
  2
DIMSTYLE
 70
     3
  0
DIMSTYLE
  2
STANDARD
 70
     0
  3

  4

  5

  6

  7

 40
1.0
 41
0.18
 42
0.0625
 43
0.38
 44
0.18
 45
0.0
 46
0.0
 47
0.0
 48
0.0
140
0.18
141
0.09
142
0.0
143
25.4
144
1.0
145
0.0
146
1.0
147
0.09
 71
     0
 72
     0
 73
     1
 74
     1
 75
     0
 76
     0
 77
     0
 78
     0
170
     0
171
     2
172
     0
173
     0
174
     0
175
     0
176
     0
177
     0
178
     0
  0
DIMSTYLE
  2
ARCH
 70
     0
  3
<>
  4
[]
  5
VW_SLASH
  6
VW_SLASH
  7
VW_SLASH
 40
1.0
 41
4.4896484375
 42
3.175
 43
20.32
 44
6.35
 45
0.0
 46
3.175
 47
0.0
 48
0.0
140
3.5
141
0.0
142
0.0
143
0.0393700787401575
144
1.0
145
0.0
146
1.0
147
3.175
 71
     0
 72
     0
 73
     0
 74
     0
 75
     0
 76
     0
 77
     1
 78
     8
170
     0
171
     3
172
     1
173
     0
174
     1
175
     0
176
     0
177
     0
178
     0
  0
DIMSTYLE
  2
JIS
 70
     0
  3
<>
  4
[]
  5
VW_FILLEDARROW
  6
VW_FILLEDARROW
  7
VW_FILLEDARROW
 40
1.0
 41
6.35
 42
0.0
 43
13.99999999999988
 44
3.99999999999924
 45
0.0
 46
0.0
 47
0.0
 48
0.0
140
3.5
141
0.0
142
0.0
143
0.0393700787401575
144
1.0
145
0.0
146
1.0
147
2.00000000000216
 71
     0
 72
     0
 73
     0
 74
     0
 75
     0
 76
     0
 77
     1
 78
     8
170
     0
171
     3
172
     0
173
     0
174
     1
175
     0
176
     0
177
     0
178
     0
  0
ENDTAB
  0
ENDSEC
  0
SECTION
  2
BLOCKS
  0
BLOCK
  8
0
  2
$MODEL_SPACE
 70
     0
 10
0.0
 20
0.0
 30
0.0
  3
$MODEL_SPACE
  1

  0
ENDBLK
  5
21
  8
0
  0
BLOCK
 67
     1
  8
0
  2
$PAPER_SPACE
 70
     0
 10
0.0
 20
0.0
 30
0.0
  3
$PAPER_SPACE
  1

  0
ENDBLK
  5
1D
 67
     1
  8
0
  0
BLOCK
  8
0
  2
*D1
 70
     1
 10
0.0
 20
0.0
 30
0.0
  3
*D1
  1

  0
LINE
  5
B7
  8
___-1
 62
     0
 10
51.92810159105295
 20
97.72032352071201
 30
0.0
 11
25.42810159105425
 21
97.72032352071201
 31
0.0
  0
LINE
  5
B8
  8
___-1
 62
     0
 10
93.47066196785738
 20
178.3036565536117
 30
0.0
 11
25.42810159105425
 21
178.3036565536117
 31
0.0
  0
LINE
  5
B9
  8
___-1
 62
     0
 10
29.42810159105349
 20
104.070323520712
 30
0.0
 11
29.42810159105349
 21
171.9536565536117
 31
0.0
  0
INSERT
  5
BA
  8
___-1
 62
     0
  2
VW_FILLEDARROW
 10
29.42810159105349
 20
97.72032352071201
 30
0.0
 41
6.35
 42
6.35
 43
6.35
 50
270.0
  0
INSERT
  5
BF
  8
___-1
 62
     0
  2
VW_FILLEDARROW
 10
29.42810159105349
 20
178.3036565536117
 30
0.0
 41
6.35
 42
6.35
 43
6.35
 50
90.0
  0
TEXT
  5
C4
  8
___-1
 62
     0
 10
27.37418002242387
 20
129.1688527822599
 30
0.0
 40
3.5
  1
80.5833
 50
90.0
  7
HELVETICA_NEUE
1001
ACADANNOTATIVE
1000
AnnotativeData
1002
{
1070
     1
1070
     0
1002
}
  0
POINT
  5
C5
  8
DEFPOINTS
 62
     0
 10
51.92810159105295
 20
97.72032352071201
 30
0.0
  0
POINT
  5
C6
  8
DEFPOINTS
 62
     0
 10
93.47066196785738
 20
178.3036565536117
 30
0.0
  0
POINT
  5
C7
  8
DEFPOINTS
 62
     0
 10
29.42810159105349
 20
178.3036565536117
 30
0.0
  0
ENDBLK
  5
61
  8
0
  0
BLOCK
  8
0
  2
*D2
 70
     1
 10
0.0
 20
0.0
 30
0.0
  3
*D2
  1

  0
LINE
  5
C8
  8
___-1
 62
     0
 10
47.05310128500435
 20
70.97032352071193
 30
0.0
 11
25.42810159105414
 21
70.97032352071193
 31
0.0
  0
LINE
  5
C9
  8
___-1
 62
     0
 10
51.92810159105295
 20
97.72032352071201
 30
0.0
 11
25.42810159105414
 21
97.72032352071201
 31
0.0
  0
LINE
  5
CA
  8
___-1
 62
     0
 10
29.42810159105338
 20
77.32032352071192
 30
0.0
 11
29.42810159105338
 21
91.37032352071202
 31
0.0
  0
INSERT
  5
CB
  8
___-1
 62
     0
  2
VW_FILLEDARROW
 10
29.42810159105338
 20
70.97032352071193
 30
0.0
 41
6.35
 42
6.35
 43
6.35
 50
270.0
  0
INSERT
  5
D0
  8
___-1
 62
     0
  2
VW_FILLEDARROW
 10
29.42810159105338
 20
97.72032352071201
 30
0.0
 41
6.35
 42
6.35
 43
6.35
 50
90.0
  0
TEXT
  5
D5
  8
___-1
 62
     0
 10
27.37418002242376
 20
78.26934312855511
 30
0.0
 40
3.5
  1
26.75
 50
90.0
  7
HELVETICA_NEUE
1001
ACADANNOTATIVE
1000
AnnotativeData
1002
{
1070
     1
1070
     0
1002
}
  0
POINT
  5
D6
  8
DEFPOINTS
 62
     0
 10
47.05310128500435
 20
70.97032352071193
 30
0.0
  0
POINT
  5
D7
  8
DEFPOINTS
 62
     0
 10
51.92810159105295
 20
97.72032352071201
 30
0.0
  0
POINT
  5
D8
  8
DEFPOINTS
 62
     0
 10
29.42810159105338
 20
97.72032352071201
 30
0.0
  0
ENDBLK
  5
64
  8
0
  0
BLOCK
  8
0
  2
*D3
 70
     1
 10
0.0
 20
0.0
 30
0.0
  3
*D3
  1

  0
LINE
  5
D9
  8
___-1
 62
     0
 10
56.0179030360149
 20
178.3116081151558
 30
0.0
 11
51.95897802859448
 21
178.3116081151558
 31
0.0
  0
LINE
  5
DA
  8
___-1
 62
     0
 10
93.13068745540545
 20
188.337526824973
 30
0.0
 11
51.95897802859448
 21
188.337526824973
 31
0.0
  0
LINE
  5
DB
  8
___-1
 62
     0
 10
55.95897802859372
 20
188.337526824973
 30
0.0
 11
55.95897802859372
 21
222.1012523151734
 31
0.0
  0
LINE
  5
DC
  8
___-1
 62
     0
 10
55.95897802859372
 20
171.9616081151559
 30
0.0
 11
55.95897802859372
 21
165.6116081151559
 31
0.0
  0
LINE
  5
DD
  8
___-1
 62
     0
 10
55.95897802859372
 20
194.687526824973
 30
0.0
 11
55.95897802859372
 21
201.037526824973
 31
0.0
  0
INSERT
  5
E2
  8
___-1
 62
     0
  2
VW_FILLEDARROW
 10
55.95897802859372
 20
178.3116081151558
 30
0.0
 41
6.35
 42
6.35
 43
6.35
 50
90.0
  0
INSERT
  5
E7
  8
___-1
 62
     0
  2
VW_FILLEDARROW
 10
55.95897802859372
 20
188.337526824973
 30
0.0
 41
6.35
 42
6.35
 43
6.35
 50
270.0
  0
TEXT
  5
E8
  8
___-1
 62
     0
 10
53.9050564599641
 20
202.6110562367398
 30
0.0
 40
3.5
  1
10.0259
 50
90.0
  7
HELVETICA_NEUE
1001
ACADANNOTATIVE
1000
AnnotativeData
1002
{
1070
     1
1070
     0
1002
}
  0
POINT
  5
E9
  8
DEFPOINTS
 62
     0
 10
56.0179030360149
 20
178.3116081151558
 30
0.0
  0
POINT
  5
EA
  8
DEFPOINTS
 62
     0
 10
93.13068745540545
 20
188.337526824973
 30
0.0
  0
POINT
  5
2E8
  8
DEFPOINTS
 62
     0
 10
55.95897802859372
 20
188.337526824973
 30
0.0
  0
ENDBLK
  5
67
  8
0
  0
BLOCK
  8
0
  2
*D4
 70
     1
 10
0.0
 20
0.0
 30
0.0
  3
*D4
  1

  0
LINE
  5
EB
  8
___-1
 62
     0
 10
151.0816376797757
 20
88.47032352071199
 30
0.0
 11
151.0816376797757
 21
39.44141263623882
 31
0.0
  0
LINE
  5
EC
  8
___-1
 62
     0
 10
47.05310128500435
 20
70.97032352071199
 30
0.0
 11
47.05310128500435
 21
39.44141263623882
 31
0.0
  0
LINE
  5
ED
  8
___-1
 62
     0
 10
144.7316376797757
 20
43.44141263623806
 30
0.0
 11
53.40310128500435
 21
43.44141263623806
 31
0.0
  0
INSERT
  5
EE
  8
___-1
 62
     0
  2
VW_FILLEDARROW
 10
151.0816376797757
 20
43.44141263623806
 30
0.0
 41
6.35
 42
6.35
 43
6.35
  0
INSERT
  5
F3
  8
___-1
 62
     0
  2
VW_FILLEDARROW
 10
47.05310128500435
 20
43.44141263623806
 30
0.0
 41
6.35
 42
6.35
 43
6.35
 50
180.0
  0
TEXT
  5
F8
  8
___-1
 62
     0
 10
91.22716474283465
 20
45.49533420486766
 30
0.0
 40
3.5
  1
104.0285
  7
HELVETICA_NEUE
1001
ACADANNOTATIVE
1000
AnnotativeData
1002
{
1070
     1
1070
     0
1002
}
  0
POINT
  5
F9
  8
DEFPOINTS
 62
     0
 10
151.0816376797757
 20
88.47032352071199
 30
0.0
  0
POINT
  5
FA
  8
DEFPOINTS
 62
     0
 10
47.05310128500435
 20
70.97032352071199
 30
0.0
  0
POINT
  5
FB
  8
DEFPOINTS
 62
     0
 10
47.05310128500435
 20
43.44141263623806
 30
0.0
  0
ENDBLK
  5
6A
  8
0
  0
BLOCK
  8
0
  2
*D5
 70
     1
 10
0.0
 20
0.0
 30
0.0
  3
*D5
  1

  0
LINE
  5
FC
  8
___-1
 62
     0
 10
132.5816376797757
 20
83.72032352071199
 30
0.0
 11
121.4240279761961
 21
83.72032352071199
 31
0.0
  0
LINE
  5
FD
  8
___-1
 62
     0
 10
132.5816376797757
 20
111.720323520712
 30
0.0
 11
121.4240279761961
 21
111.720323520712
 31
0.0
  0
LINE
  5
FE
  8
___-1
 62
     0
 10
125.4240279761953
 20
90.07032352071198
 30
0.0
 11
125.4240279761953
 21
105.370323520712
 31
0.0
  0
INSERT
  5
FF
  8
___-1
 62
     0
  2
VW_FILLEDARROW
 10
125.4240279761953
 20
83.72032352071199
 30
0.0
 41
6.35
 42
6.35
 43
6.35
 50
270.0
  0
INSERT
  5
104
  8
___-1
 62
     0
  2
VW_FILLEDARROW
 10
125.4240279761953
 20
111.720323520712
 30
0.0
 41
6.35
 42
6.35
 43
6.35
 50
90.0
  0
TEXT
  5
109
  8
___-1
 62
     0
 10
123.3701064075657
 20
95.03404901090806
 30
0.0
 40
3.5
  1
28
 50
90.0
  7
HELVETICA_NEUE
1001
ACADANNOTATIVE
1000
AnnotativeData
1002
{
1070
     1
1070
     0
1002
}
  0
POINT
  5
10A
  8
DEFPOINTS
 62
     0
 10
132.5816376797757
 20
83.72032352071199
 30
0.0
  0
POINT
  5
10B
  8
DEFPOINTS
 62
     0
 10
132.5816376797757
 20
111.720323520712
 30
0.0
  0
POINT
  5
10C
  8
DEFPOINTS
 62
     0
 10
125.4240279761953
 20
111.720323520712
 30
0.0
  0
ENDBLK
  5
6D
  8
0
  0
BLOCK
  8
0
  2
*D6
 70
     1
 10
0.0
 20
0.0
 30
0.0
  3
*D6
  1

  0
LINE
  5
10D
  8
___-1
 62
     0
 10
150.5816376797757
 20
87.47032352071199
 30
0.0
 11
166.0116881333021
 21
87.47032352071199
 31
0.0
  0
LINE
  5
10E
  8
___-1
 62
     0
 10
150.5816376797757
 20
107.970323520712
 30
0.0
 11
166.0116881333021
 21
107.970323520712
 31
0.0
  0
LINE
  5
10F
  8
___-1
 62
     0
 10
162.0116881333029
 20
93.82032352071198
 30
0.0
 11
162.0116881333029
 21
101.620323520712
 31
0.0
  0
INSERT
  5
110
  8
___-1
 62
     0
  2
VW_FILLEDARROW
 10
162.0116881333029
 20
87.47032352071199
 30
0.0
 41
6.35
 42
6.35
 43
6.35
 50
270.0
  0
INSERT
  5
115
  8
___-1
 62
     0
  2
VW_FILLEDARROW
 10
162.0116881333029
 20
107.970323520712
 30
0.0
 41
6.35
 42
6.35
 43
6.35
 50
90.0
  0
TEXT
  5
116
  8
___-1
 62
     0
 10
159.9577665646732
 20
93.00708822659429
 30
0.0
 40
3.5
  1
20.5
 50
90.0
  7
HELVETICA_NEUE
1001
ACADANNOTATIVE
1000
AnnotativeData
1002
{
1070
     1
1070
     0
1002
}
  0
POINT
  5
11B
  8
DEFPOINTS
 62
     0
 10
150.5816376797757
 20
87.47032352071199
 30
0.0
  0
POINT
  5
11C
  8
DEFPOINTS
 62
     0
 10
150.5816376797757
 20
107.970323520712
 30
0.0
  0
POINT
  5
11D
  8
DEFPOINTS
 62
     0
 10
162.0116881333029
 20
107.970323520712
 30
0.0
  0
ENDBLK
  5
70
  8
0
  0
BLOCK
  8
0
  2
*D7
 70
     1
 10
0.0
 20
0.0
 30
0.0
  3
*D7
  1

  0
LINE
  5
11F
  8
___-1
 62
     0
 10
129.5408860104435
 20
185.4562125565342
 30
0.0
 11
129.5408860104435
 21
203.4562125565334
 31
0.0
  0
LINE
  5
120
  8
___-1
 62
     0
 10
74.5408860104435
 20
185.4562125565342
 30
0.0
 11
74.5408860104435
 21
203.4562125565334
 31
0.0
  0
LINE
  5
121
  8
___-1
 62
     0
 10
123.1908860104435
 20
199.4562125565341
 30
0.0
 11
80.8908860104435
 21
199.4562125565341
 31
0.0
  0
INSERT
  5
122
  8
___-1
 62
     0
  2
VW_FILLEDARROW
 10
129.5408860104435
 20
199.4562125565341
 30
0.0
 41
6.35
 42
6.35
 43
6.35
  0
INSERT
  5
127
  8
___-1
 62
     0
  2
VW_FILLEDARROW
 10
74.5408860104435
 20
199.4562125565341
 30
0.0
 41
6.35
 42
6.35
 43
6.35
 50
180.0
  0
TEXT
  5
12C
  8
___-1
 62
     0
 10
99.34480757907095
 20
201.5101341251637
 30
0.0
 40
3.5
  1
55
  7
HELVETICA_NEUE
1001
ACADANNOTATIVE
1000
AnnotativeData
1002
{
1070
     1
1070
     0
1002
}
  0
POINT
  5
12D
  8
DEFPOINTS
 62
     0
 10
129.5408860104435
 20
185.4562125565342
 30
0.0
  0
POINT
  5
12E
  8
DEFPOINTS
 62
     0
 10
74.5408860104435
 20
185.4562125565342
 30
0.0
  0
POINT
  5
12F
  8
DEFPOINTS
 62
     0
 10
74.5408860104435
 20
199.4562125565341
 30
0.0
  0
ENDBLK
  5
73
  8
0
  0
BLOCK
  8
0
  2
*D8
 70
     1
 10
0.0
 20
0.0
 30
0.0
  3
*D8
  1

  0
LINE
  5
130
  8
___-1
 62
     0
 10
151.0816376797757
 20
84.22032352071199
 30
0.0
 11
151.0816376797757
 21
70.38631426424999
 31
0.0
  0
LINE
  5
131
  8
___-1
 62
     0
 10
135.0816376797757
 20
84.22032352071199
 30
0.0
 11
135.0816376797757
 21
70.38631426424999
 31
0.0
  0
LINE
  5
132
  8
___-1
 62
     0
 10
157.4316376797757
 20
74.38631426424922
 30
0.0
 11
163.7816376797757
 21
74.38631426424922
 31
0.0
  0
LINE
  5
133
  8
___-1
 62
     0
 10
128.7316376797757
 20
74.38631426424922
 30
0.0
 11
122.3816376797757
 21
74.38631426424922
 31
0.0
  0
INSERT
  5
138
  8
___-1
 62
     0
  2
VW_FILLEDARROW
 10
151.0816376797757
 20
74.38631426424922
 30
0.0
 41
6.35
 42
6.35
 43
6.35
 50
180.0
  0
INSERT
  5
139
  8
___-1
 62
     0
  2
VW_FILLEDARROW
 10
135.0816376797757
 20
74.38631426424922
 30
0.0
 41
6.35
 42
6.35
 43
6.35
  0
TEXT
  5
13E
  8
___-1
 62
     0
 10
140.2335984640894
 20
76.44023583287884
 30
0.0
 40
3.5
  1
16
  7
HELVETICA_NEUE
1001
ACADANNOTATIVE
1000
AnnotativeData
1002
{
1070
     1
1070
     0
1002
}
  0
POINT
  5
13F
  8
DEFPOINTS
 62
     0
 10
151.0816376797757
 20
84.22032352071199
 30
0.0
  0
POINT
  5
140
  8
DEFPOINTS
 62
     0
 10
135.0816376797757
 20
84.22032352071199
 30
0.0
  0
POINT
  5
141
  8
DEFPOINTS
 62
     0
 10
135.0816376797757
 20
74.38631426424922
 30
0.0
  0
ENDBLK
  5
76
  8
0
  0
BLOCK
  8
0
  2
*D9
 70
     1
 10
0.0
 20
0.0
 30
0.0
  3
*D9
  1

  0
LINE
  5
142
  8
___-1
 62
     0
 10
294.3697093878127
 20
211.1696673682329
 30
0.0
 11
276.2591211124862
 21
211.1696673682329
 31
0.0
  0
LINE
  5
143
  8
___-1
 62
     0
 10
294.3697093878127
 20
190.1696673682329
 30
0.0
 11
276.2591211124862
 21
190.1696673682329
 31
0.0
  0
LINE
  5
144
  8
___-1
 62
     0
 10
280.2591211124854
 20
204.8196673682329
 30
0.0
 11
280.2591211124854
 21
196.5196673682329
 31
0.0
  0
INSERT
  5
145
  8
___-1
 62
     0
  2
VW_FILLEDARROW
 10
280.2591211124854
 20
211.1696673682329
 30
0.0
 41
6.35
 42
6.35
 43
6.35
 50
90.0
  0
INSERT
  5
14A
  8
___-1
 62
     0
  2
VW_FILLEDARROW
 10
280.2591211124854
 20
190.1696673682329
 30
0.0
 41
6.35
 42
6.35
 43
6.35
 50
270.0
  0
TEXT
  5
14B
  8
___-1
 62
     0
 10
278.2591211124833
 20
198.168881923629
 30
0.0
 40
3.5
  1
21
 50
90.0
  7
HELVETICA_NEUE
1001
ACADANNOTATIVE
1000
AnnotativeData
1002
{
1070
     1
1070
     0
1002
}
  0
POINT
  5
150
  8
DEFPOINTS
 62
     0
 10
294.3697093878127
 20
211.1696673682329
 30
0.0
  0
POINT
  5
151
  8
DEFPOINTS
 62
     0
 10
294.3697093878127
 20
190.1696673682329
 30
0.0
  0
POINT
  5
152
  8
DEFPOINTS
 62
     0
 10
280.2591211124854
 20
190.1696673682329
 30
0.0
  0
ENDBLK
  5
79
  8
0
  0
BLOCK
  8
0
  2
*D10
 70
     1
 10
0.0
 20
0.0
 30
0.0
  3
*D10
  1

  0
LINE
  5
154
  8
___-1
 62
     0
 10
294.3697093878127
 20
213.1696673682329
 30
0.0
 11
294.3697093878127
 21
225.4196673682322
 31
0.0
  0
LINE
  5
155
  8
___-1
 62
     0
 10
308.3697093878127
 20
211.1696673682329
 30
0.0
 11
308.3697093878127
 21
225.4196673682322
 31
0.0
  0
LINE
  5
156
  8
___-1
 62
     0
 10
288.0197093878127
 20
221.4196673682329
 30
0.0
 11
281.6697093878126
 21
221.4196673682329
 31
0.0
  0
LINE
  5
157
  8
___-1
 62
     0
 10
314.7197093878127
 20
221.4196673682329
 30
0.0
 11
321.0697093878127
 21
221.4196673682329
 31
0.0
  0
INSERT
  5
15C
  8
___-1
 62
     0
  2
VW_FILLEDARROW
 10
294.3697093878127
 20
221.4196673682329
 30
0.0
 41
6.35
 42
6.35
 43
6.35
  0
INSERT
  5
15D
  8
___-1
 62
     0
  2
VW_FILLEDARROW
 10
308.3697093878127
 20
221.4196673682329
 30
0.0
 41
6.35
 42
6.35
 43
6.35
 50
180.0
  0
TEXT
  5
162
  8
___-1
 62
     0
 10
298.781474093695
 20
223.4196673682351
 30
0.0
 40
3.5
  1
14
  7
HELVETICA_NEUE
1001
ACADANNOTATIVE
1000
AnnotativeData
1002
{
1070
     1
1070
     0
1002
}
  0
POINT
  5
163
  8
DEFPOINTS
 62
     0
 10
294.3697093878127
 20
213.1696673682329
 30
0.0
  0
POINT
  5
164
  8
DEFPOINTS
 62
     0
 10
308.3697093878127
 20
211.1696673682329
 30
0.0
  0
POINT
  5
165
  8
DEFPOINTS
 62
     0
 10
308.3697093878127
 20
221.4196673682329
 30
0.0
  0
ENDBLK
  5
7C
  8
0
  0
BLOCK
  8
0
  2
*D11
 70
     1
 10
0.0
 20
0.0
 30
0.0
  3
*D11
  1

  0
LINE
  5
166
  8
___-1
 62
     0
 10
324.8697107848523
 20
211.169638517037
 30
0.0
 11
341.4943662966629
 21
211.169638517037
 31
0.0
  0
LINE
  5
167
  8
___-1
 62
     0
 10
324.8697107848523
 20
190.169638517037
 30
0.0
 11
341.4943662966629
 21
190.169638517037
 31
0.0
  0
LINE
  5
168
  8
___-1
 62
     0
 10
337.4943662966636
 20
204.819638517037
 30
0.0
 11
337.4943662966636
 21
196.519638517037
 31
0.0
  0
INSERT
  5
169
  8
___-1
 62
     0
  2
VW_FILLEDARROW
 10
337.4943662966636
 20
211.169638517037
 30
0.0
 41
6.35
 42
6.35
 43
6.35
 50
90.0
  0
INSERT
  5
16E
  8
___-1
 62
     0
  2
VW_FILLEDARROW
 10
337.4943662966636
 20
190.169638517037
 30
0.0
 41
6.35
 42
6.35
 43
6.35
 50
270.0
  0
TEXT
  5
16F
  8
___-1
 62
     0
 10
335.4943662966615
 20
198.375520869978
 30
0.0
 40
3.5
  1
21
 50
90.0
  7
HELVETICA_NEUE
1001
ACADANNOTATIVE
1000
AnnotativeData
1002
{
1070
     1
1070
     0
1002
}
  0
POINT
  5
174
  8
DEFPOINTS
 62
     0
 10
324.8697107848523
 20
211.169638517037
 30
0.0
  0
POINT
  5
175
  8
DEFPOINTS
 62
     0
 10
324.8697107848523
 20
190.169638517037
 30
0.0
  0
POINT
  5
176
  8
DEFPOINTS
 62
     0
 10
337.4943662966636
 20
190.169638517037
 30
0.0
  0
ENDBLK
  5
7F
  8
0
  0
BLOCK
  8
0
  2
*D12
 70
     1
 10
0.0
 20
0.0
 30
0.0
  3
*D12
  1

  0
LINE
  5
178
  8
___-1
 62
     0
 10
354.8697093878127
 20
196.4196673682329
 30
0.0
 11
354.8697093878127
 21
166.6696673682337
 31
0.0
  0
LINE
  5
179
  8
___-1
 62
     0
 10
367.3697093878127
 20
196.4196673682329
 30
0.0
 11
367.3697093878127
 21
166.6696673682337
 31
0.0
  0
LINE
  5
17A
  8
___-1
 62
     0
 10
348.5197093878127
 20
170.6696673682329
 30
0.0
 11
342.1697093878126
 21
170.6696673682329
 31
0.0
  0
LINE
  5
17B
  8
___-1
 62
     0
 10
373.7197093878127
 20
170.6696673682329
 30
0.0
 11
380.0697093878127
 21
170.6696673682329
 31
0.0
  0
INSERT
  5
180
  8
___-1
 62
     0
  2
VW_FILLEDARROW
 10
354.8697093878127
 20
170.6696673682329
 30
0.0
 41
6.35
 42
6.35
 43
6.35
  0
INSERT
  5
181
  8
___-1
 62
     0
  2
VW_FILLEDARROW
 10
367.3697093878127
 20
170.6696673682329
 30
0.0
 41
6.35
 42
6.35
 43
6.35
 50
180.0
  0
TEXT
  5
186
  8
___-1
 62
     0
 10
356.2520623289892
 20
172.7235889368625
 30
0.0
 40
3.5
  1
12.5
  7
HELVETICA_NEUE
1001
ACADANNOTATIVE
1000
AnnotativeData
1002
{
1070
     1
1070
     0
1002
}
  0
POINT
  5
187
  8
DEFPOINTS
 62
     0
 10
354.8697093878127
 20
196.4196673682329
 30
0.0
  0
POINT
  5
188
  8
DEFPOINTS
 62
     0
 10
367.3697093878127
 20
196.4196673682329
 30
0.0
  0
POINT
  5
189
  8
DEFPOINTS
 62
     0
 10
367.3697093878127
 20
170.6696673682329
 30
0.0
  0
ENDBLK
  5
82
  8
0
  0
BLOCK
  8
0
  2
*D13
 70
     1
 10
0.0
 20
0.0
 30
0.0
  3
*D13
  1

  0
LINE
  5
18A
  8
___-1
 62
     0
 10
294.3697093878127
 20
213.1696673682329
 30
0.0
 11
294.3697093878127
 21
233.9196673682322
 31
0.0
  0
LINE
  5
18B
  8
___-1
 62
     0
 10
325.8697093878127
 20
210.6696673682329
 30
0.0
 11
325.8697093878127
 21
233.9196673682322
 31
0.0
  0
LINE
  5
18C
  8
___-1
 62
     0
 10
300.7197093878127
 20
229.9196673682329
 30
0.0
 11
319.5197093878127
 21
229.9196673682329
 31
0.0
  0
INSERT
  5
18D
  8
___-1
 62
     0
  2
VW_FILLEDARROW
 10
294.3697093878127
 20
229.9196673682329
 30
0.0
 41
6.35
 42
6.35
 43
6.35
 50
180.0
  0
INSERT
  5
192
  8
___-1
 62
     0
  2
VW_FILLEDARROW
 10
325.8697093878127
 20
229.9196673682329
 30
0.0
 41
6.35
 42
6.35
 43
6.35
  0
TEXT
  5
197
  8
___-1
 62
     0
 10
305.3942191917343
 20
231.9735889368625
 30
0.0
 40
3.5
  1
31.5
  7
HELVETICA_NEUE
1001
ACADANNOTATIVE
1000
AnnotativeData
1002
{
1070
     1
1070
     0
1002
}
  0
POINT
  5
198
  8
DEFPOINTS
 62
     0
 10
294.3697093878127
 20
213.1696673682329
 30
0.0
  0
POINT
  5
199
  8
DEFPOINTS
 62
     0
 10
325.8697093878127
 20
210.6696673682329
 30
0.0
  0
POINT
  5
19A
  8
DEFPOINTS
 62
     0
 10
325.8697093878127
 20
229.9196673682329
 30
0.0
  0
ENDBLK
  5
85
  8
0
  0
BLOCK
  8
0
  2
*D14
 70
     1
 10
0.0
 20
0.0
 30
0.0
  3
*D14
  1

  0
LINE
  5
19B
  8
___-1
 62
     0
 10
295.4193659516117
 20
187.1696385170369
 30
0.0
 11
261.7953816312958
 21
187.1696385170369
 31
0.0
  0
LINE
  5
19C
  8
___-1
 62
     0
 10
295.419365951611
 20
214.1696385170369
 30
0.0
 11
261.7953816312958
 21
214.1696385170369
 31
0.0
  0
LINE
  5
19D
  8
___-1
 62
     0
 10
265.7953816312951
 20
193.5196385170369
 30
0.0
 11
265.7953816312951
 21
207.8196385170369
 31
0.0
  0
INSERT
  5
19E
  8
___-1
 62
     0
  2
VW_FILLEDARROW
 10
265.7953816312951
 20
187.1696385170369
 30
0.0
 41
6.35
 42
6.35
 43
6.35
 50
270.0
  0
INSERT
  5
1A3
  8
___-1
 62
     0
  2
VW_FILLEDARROW
 10
265.7953816312951
 20
214.1696385170369
 30
0.0
 41
6.35
 42
6.35
 43
6.35
 50
90.0
  0
TEXT
  5
1A4
  8
___-1
 62
     0
 10
263.7953816312929
 20
198.0005208699781
 30
0.0
 40
3.5
  1
27
 50
90.0
  7
HELVETICA_NEUE
1001
ACADANNOTATIVE
1000
AnnotativeData
1002
{
1070
     1
1070
     0
1002
}
  0
POINT
  5
1A9
  8
DEFPOINTS
 62
     0
 10
295.4193659516117
 20
187.1696385170369
 30
0.0
  0
POINT
  5
1AA
  8
DEFPOINTS
 62
     0
 10
295.419365951611
 20
214.1696385170369
 30
0.0
  0
POINT
  5
1AB
  8
DEFPOINTS
 62
     0
 10
265.7953816312951
 20
214.1696385170369
 30
0.0
  0
ENDBLK
  5
88
  8
0
  0
BLOCK
  8
0
  2
*D15
 70
     1
 10
0.0
 20
0.0
 30
0.0
  3
*D15
  1

  0
LINE
  5
1AD
  8
___-1
 62
     0
 10
325.8697107848523
 20
187.9280821727098
 30
0.0
 11
325.8697107848523
 21
169.8851434542797
 31
0.0
  0
LINE
  5
1AE
  8
___-1
 62
     0
 10
294.3697107848523
 20
187.9280821727098
 30
0.0
 11
294.3697107848523
 21
169.8851434542797
 31
0.0
  0
LINE
  5
1AF
  8
___-1
 62
     0
 10
319.5197107848522
 20
173.8851434542789
 30
0.0
 11
300.7197107848523
 21
173.8851434542789
 31
0.0
  0
INSERT
  5
1B0
  8
___-1
 62
     0
  2
VW_FILLEDARROW
 10
325.8697107848523
 20
173.8851434542789
 30
0.0
 41
6.35
 42
6.35
 43
6.35
  0
INSERT
  5
1B5
  8
___-1
 62
     0
  2
VW_FILLEDARROW
 10
294.3697107848523
 20
173.8851434542789
 30
0.0
 41
6.35
 42
6.35
 43
6.35
 50
180.0
  0
TEXT
  5
1BA
  8
___-1
 62
     0
 10
305.3942205887739
 20
175.9390650229086
 30
0.0
 40
3.5
  1
31.5
  7
HELVETICA_NEUE
1001
ACADANNOTATIVE
1000
AnnotativeData
1002
{
1070
     1
1070
     0
1002
}
  0
POINT
  5
1BB
  8
DEFPOINTS
 62
     0
 10
325.8697107848523
 20
187.9280821727098
 30
0.0
  0
POINT
  5
1BC
  8
DEFPOINTS
 62
     0
 10
294.3697107848523
 20
187.9280821727098
 30
0.0
  0
POINT
  5
1BD
  8
DEFPOINTS
 62
     0
 10
294.3697107848523
 20
173.8851434542789
 30
0.0
  0
ENDBLK
  5
8B
  8
0
  0
BLOCK
  8
0
  2
*D16
 70
     1
 10
0.0
 20
0.0
 30
0.0
  3
*D16
  1

  0
LINE
  5
1BE
  8
___-1
 62
     0
 10
312.3697107848523
 20
187.9280821727098
 30
0.0
 11
312.3697107848523
 21
177.0862439808344
 31
0.0
  0
LINE
  5
1BF
  8
___-1
 62
     0
 10
294.3697107848523
 20
187.9280821727098
 30
0.0
 11
294.3697107848523
 21
177.0862439808344
 31
0.0
  0
LINE
  5
1C0
  8
___-1
 62
     0
 10
306.0197107848522
 20
181.0862439808336
 30
0.0
 11
300.7197107848523
 21
181.0862439808336
 31
0.0
  0
INSERT
  5
1C1
  8
___-1
 62
     0
  2
VW_FILLEDARROW
 10
312.3697107848523
 20
181.0862439808336
 30
0.0
 41
6.35
 42
6.35
 43
6.35
  0
INSERT
  5
1C6
  8
___-1
 62
     0
  2
VW_FILLEDARROW
 10
294.3697107848523
 20
181.0862439808336
 30
0.0
 41
6.35
 42
6.35
 43
6.35
 50
180.0
  0
TEXT
  5
1C7
  8
___-1
 62
     0
 10
300.5290245103424
 20
183.1401655494632
 30
0.0
 40
3.5
  1
18
  7
HELVETICA_NEUE
1001
ACADANNOTATIVE
1000
AnnotativeData
1002
{
1070
     1
1070
     0
1002
}
  0
POINT
  5
1CC
  8
DEFPOINTS
 62
     0
 10
312.3697107848523
 20
187.9280821727098
 30
0.0
  0
POINT
  5
1CD
  8
DEFPOINTS
 62
     0
 10
294.3697107848523
 20
187.9280821727098
 30
0.0
  0
POINT
  5
1CE
  8
DEFPOINTS
 62
     0
 10
294.3697107848523
 20
181.0862439808336
 30
0.0
  0
ENDBLK
  5
8E
  8
0
  0
BLOCK
  8
0
  2
*D17
 70
     1
 10
0.0
 20
0.0
 30
0.0
  3
*D17
  1

  0
LINE
  5
1D0
  8
___-1
 62
     0
 10
341.7777157130795
 20
54.63751728957322
 30
0.0
 11
341.7777157130795
 21
68.79125097367265
 31
0.0
  0
LINE
  5
1D1
  8
___-1
 62
     0
 10
323.7777157130795
 20
55.62868932324363
 30
0.0
 11
323.7777157130795
 21
68.79125097367265
 31
0.0
  0
LINE
  5
1D2
  8
___-1
 62
     0
 10
335.4277157130795
 20
64.79125097367341
 30
0.0
 11
330.1277157130795
 21
64.79125097367341
 31
0.0
  0
INSERT
  5
1D3
  8
___-1
 62
     0
  2
VW_FILLEDARROW
 10
341.7777157130795
 20
64.79125097367341
 30
0.0
 41
6.35
 42
6.35
 43
6.35
  0
INSERT
  5
1D8
  8
___-1
 62
     0
  2
VW_FILLEDARROW
 10
323.7777157130795
 20
64.79125097367341
 30
0.0
 41
6.35
 42
6.35
 43
6.35
 50
180.0
  0
TEXT
  5
1D9
  8
___-1
 62
     0
 10
329.9370294385697
 20
66.84517254230303
 30
0.0
 40
3.5
  1
18
  7
HELVETICA_NEUE
1001
ACADANNOTATIVE
1000
AnnotativeData
1002
{
1070
     1
1070
     0
1002
}
  0
POINT
  5
1DE
  8
DEFPOINTS
 62
     0
 10
341.7777157130795
 20
54.63751728957322
 30
0.0
  0
POINT
  5
1DF
  8
DEFPOINTS
 62
     0
 10
323.7777157130795
 20
55.62868932324363
 30
0.0
  0
POINT
  5
1E0
  8
DEFPOINTS
 62
     0
 10
323.7777157130795
 20
64.79125097367341
 30
0.0
  0
ENDBLK
  5
91
  8
0
  0
BLOCK
  8
0
  2
VW_SLASH
 70
     0
 10
0.0
 20
0.0
 30
0.0
  3
VW_SLASH
  1

  0
LINE
  5
A9
  8
0
  6
BYBLOCK
 62
     0
 10
0.7071823204419889
 20
0.0
 30
0.0
 11
-1.0
 21
0.0
 31
0.0
  0
POLYLINE
  5
AA
  8
0
  6
CONTINUOUS
 62
     0
 66
     1
 10
0.0
 20
0.0
 30
0.0
 70
   128
  0
VERTEX
  5
AB
  8
0
  6
CONTINUOUS
 62
     0
 10
0.5000534143197685
 20
0.5000534143197684
 30
0.0
  0
VERTEX
  5
AC
  8
0
  6
CONTINUOUS
 62
     0
 10
-0.5000534143197684
 20
-0.5000534143197685
 30
0.0
  0
SEQEND
  5
AD
  8
0
  6
CONTINUOUS
 62
     0
  0
ENDBLK
  5
A8
  8
0
  0
BLOCK
  8
0
  2
VW_FILLEDARROW
 70
     0
 10
0.0
 20
0.0
 30
0.0
  3
VW_FILLEDARROW
  1

  0
POLYLINE
  5
B2
  8
0
  6
CONTINUOUS
 62
     0
 66
     1
 10
0.0
 20
0.0
 30
0.0
 70
   129
  0
VERTEX
  5
B3
  8
0
  6
CONTINUOUS
 62
     0
 10
-0.9999999999999999
 20
0.2679491924311227
 30
0.0
  0
VERTEX
  5
B4
  8
0
  6
CONTINUOUS
 62
     0
 10
0.0
 20
0.0
 30
0.0
  0
VERTEX
  5
B5
  8
0
  6
CONTINUOUS
 62
     0
 10
-0.9999999999999998
 20
-0.267949192431123
 30
0.0
  0
SEQEND
  5
B6
  8
0
  6
CONTINUOUS
 62
     0
  0
ENDBLK
  5
B1
  8
0
  0
ENDSEC
  0
SECTION
  2
ENTITIES
  0
LINE
  5
1E2
  8
___
 62
     0
 10
253.0424329225907
 20
154.6184186303007
 30
0.0
 11
253.0424329225907
 21
148.2850852194265
 31
0.0
  0
LINE
  5
1E3
  8
____
 62
     0
 10
399.75
 20
281.75
 30
0.0
 11
9.75
 21
281.75
 31
0.0
  0
LINE
  5
1E4
  8
____
 62
     0
 10
9.75
 20
281.75
 30
0.0
 11
9.75
 21
4.75
 31
0.0
  0
LINE
  5
1E5
  8
____
 62
     0
 10
9.75
 20
4.75
 30
0.0
 11
399.75
 21
4.75
 31
0.0
  0
LINE
  5
1E6
  8
____
 62
     0
 10
399.75
 20
4.75
 30
0.0
 11
399.75
 21
281.7317195176797
 31
0.0
  0
TEXT
  5
1E7
  8
____
 62
     0
 10
3.874142016691337
 20
57.85242138754677
 30
0.0
 40
3.075688514550393
  1
部
  7
HELVETICA_NEUE
 11
3.874142016691337
 21
60.92810990209716
 31
0.0
 73
     3
  0
TEXT
  5
1E8
  8
____
 62
     0
 10
3.874142016691337
 20
52.72627386329613
 30
0.0
 40
3.075688514550393
  1
品
  7
HELVETICA_NEUE
 11
3.874142016691337
 21
55.80196237784652
 31
0.0
 73
     3
  0
TEXT
  5
1E9
  8
____
 62
     0
 10
3.874142016691337
 20
47.60012633904547
 30
0.0
 40
3.075688514550393
  1
図
  7
HELVETICA_NEUE
 11
3.874142016691337
 21
50.67581485359587
 31
0.0
 73
     3
  0
TEXT
  5
1EA
  8
____
 62
     0
 10
3.874142016691337
 20
42.47397881479482
 30
0.0
 40
3.075688514550393
  1
Ａ
  7
HELVETICA_NEUE
 11
3.874142016691337
 21
45.54966732934521
 31
0.0
 73
     3
  0
TEXT
  5
1EB
  8
____
 62
     0
 10
3.874142016691337
 20
37.34783129054416
 30
0.0
 40
3.075688514550393
  1
３
  7
HELVETICA_NEUE
 11
3.874142016691337
 21
40.42351980509456
 31
0.0
 73
     3
  0
LINE
  5
1EC
  8
1
 62
     0
 10
399.7499994331104
 20
4.750000003564423
 30
0.0
 11
399.7499994331104
 21
249.7500000035644
 31
0.0
  0
LINE
  5
1ED
  8
___-2
 62
     0
 10
26.17810159105301
 20
97.72032352071199
 30
0.0
 11
153.5995075059041
 21
97.72032352071199
 31
0.0
  0
LINE
  5
1EE
  8
___
 62
     0
 10
134.5816376797757
 20
83.72032352071199
 30
0.0
 11
132.5816376797757
 21
83.72032352071199
 31
0.0
  0
LINE
  5
1EF
  8
___
 62
     0
 10
132.5816376797757
 20
111.720323520712
 30
0.0
 11
134.5816376797757
 21
111.720323520712
 31
0.0
  0
LINE
  5
1F0
  8
___
 62
     0
 10
135.0816376797757
 20
107.970323520712
 30
0.0
 11
150.5816376797757
 21
107.970323520712
 31
0.0
  0
LINE
  5
1F1
  8
___
 62
     0
 10
151.0816376797757
 20
107.470323520712
 30
0.0
 11
151.0816376797757
 21
87.97032352071199
 31
0.0
  0
LINE
  5
1F2
  8
___
 62
     0
 10
150.5816376797757
 20
87.47032352071199
 30
0.0
 11
135.0816376797757
 21
87.47032352071199
 31
0.0
  0
LINE
  5
1F3
  8
___
 62
     0
 10
91.42810159105295
 20
128.220323520712
 30
0.0
 11
85.80310128500435
 21
128.220323520712
 31
0.0
  0
LINE
  5
1F4
  8
___
 62
     0
 10
118.3031012850043
 20
128.220323520712
 30
0.0
 11
118.3031012850043
 21
125.5720965530211
 31
0.0
  0
ARC
  5
1F5
  8
___
 62
     0
 10
160.0271522795038
 20
107.2087347081407
 30
0.0
 40
45.34722117769109
 50
157.6773123964272
 51
176.6256933494984
  0
ARC
  5
1F6
  8
___
 62
     0
 10
72.79603752903506
 20
117.9006433300518
 30
0.0
 40
14.80419148586183
 50
8.023331115589963
 51
25.96501670352337
  0
LINE
  5
1F7
  8
___
 62
     0
 10
47.05310128500435
 20
70.97032352071199
 30
0.0
 11
65.05310128500435
 21
70.97032352071199
 31
0.0
  0
ARC
  5
1F8
  8
___
 62
     0
 10
86.5126211896295
 20
81.62987908017288
 30
0.0
 40
34.97473462750719
 50
92.88098853787734
 51
142.3983887419863
  0
ARC
  5
1F9
  8
___
 62
     0
 10
94.26220068040311
 20
71.79295889896395
 30
0.0
 40
47.21626620869336
 50
138.6764936790281
 51
180.9982983393984
  0
ARC
  5
1FA
  8
___
 62
     0
 10
94.53701176868685
 20
72.96468300436152
 30
0.0
 40
29.55128503398504
 50
125.6749775898443
 51
183.8697234752977
  0
ARC
  5
1FB
  8
___
 62
     0
 10
89.88643461833772
 20
74.85921240960084
 30
0.0
 40
25.44094165603307
 50
118.4110365620633
 51
119.6440085499074
  0
ARC
  5
1FC
  8
___
 62
     0
 10
84.48468149909615
 20
119.548229071689
 30
0.0
 40
2.999999999999999
 50
275.1646681334691
 51
8.023331115590395
  0
ARC
  5
1FD
  8
___
 62
     0
 10
102.7575130497103
 20
104.5070882265943
 30
0.0
 40
17.55090630946837
 50
214.053272540455
 51
267.6997960170638
  0
ARC
  5
1FE
  8
___
 62
     0
 10
101.8945646996385
 20
137.3087381548583
 30
0.0
 40
50.33866428232019
 50
270.1804476218347
 51
285.1531609017943
  0
LINE
  5
1FF
  8
___
 62
     0
 10
114.8031012850043
 20
88.72032352071199
 30
0.0
 11
130.0816376797757
 21
88.72032352071199
 31
0.0
  0
ARC
  5
200
  8
___
 62
     0
 10
81.5881454683124
 20
90.1995136788629
 30
0.0
 40
7.999999999999998
 50
34.05327254045498
 51
118.4110365620633
  0
LINE
  5
201
  8
___
 62
     0
 10
117.7544118171602
 20
106.720323520712
 30
0.0
 11
130.0816376797757
 21
106.720323520712
 31
0.0
  0
ARC
  5
202
  8
___
 62
     0
 10
117.7544118171602
 20
109.7203235207119
 30
0.0
 40
3.0
 50
176.9907652224728
 51
270.0
  0
LINE
  5
203
  8
___
 62
     0
 10
132.0816376797757
 20
111.220323520712
 30
0.0
 11
132.0816376797757
 21
108.720323520712
 31
0.0
  0
LINE
  5
204
  8
___
 62
     0
 10
132.0816376797757
 20
84.22032352071199
 30
0.0
 11
132.0816376797757
 21
86.72032352071199
 31
0.0
  0
ARC
  5
205
  8
___
 62
     0
 10
130.0816376797757
 20
86.72032352071199
 30
0.0
 40
2.0
 50
0.0
 51
90.0
  0
ARC
  5
206
  8
___
 62
     0
 10
130.0816376797757
 20
108.720323520712
 30
0.0
 40
2.0
 50
270.0
 51
0.0
  0
ARC
  5
207
  8
___
 62
     0
 10
132.5816376797757
 20
111.220323520712
 30
0.0
 40
0.5
 50
90.0
 51
180.0
  0
ARC
  5
208
  8
___
 62
     0
 10
134.5816376797757
 20
111.220323520712
 30
0.0
 40
0.5
 50
0.0
 51
90.0
  0
ARC
  5
209
  8
___
 62
     0
 10
134.5816376797757
 20
84.22032352071199
 30
0.0
 40
0.5
 50
270.0
 51
0.0
  0
ARC
  5
20A
  8
___
 62
     0
 10
132.5816376797757
 20
84.22032352071199
 30
0.0
 40
0.5
 50
180.0
 51
270.0
  0
LINE
  5
20B
  8
___
 62
     0
 10
85.80310128500435
 20
128.220323520712
 30
0.0
 11
85.80310128500435
 21
125.6957151307195
 31
0.0
  0
ARC
  5
20C
  8
___
 62
     0
 10
88.80310128500435
 20
125.6957151307195
 30
0.0
 40
3.0
 50
180.0
 51
205.9650167035234
  0
ARC
  5
20D
  8
___
 62
     0
 10
115.3031012850043
 20
125.5720965530211
 30
0.0
 40
3.000000000000004
 50
337.6773123964273
 51
0.0
  0
LINE
  5
20E
  8
___
 62
     0
 10
85.80310128500435
 20
128.220323520712
 30
0.0
 11
85.80310128500435
 21
126.220323520712
 31
0.0
  0
LINE
  5
20F
  8
___
 62
     0
 10
135.0816376797757
 20
87.47032352071199
 30
0.0
 11
135.0816376797757
 21
88.47032352071199
 31
0.0
  0
LINE
  5
210
  8
___
 62
     0
 10
135.0816376797757
 20
88.47032352071199
 30
0.0
 11
151.0816376797757
 21
88.47032352071199
 31
0.0
  0
LINE
  5
211
  8
___
 62
     0
 10
151.0816376797757
 20
106.970323520712
 30
0.0
 11
135.0816376797757
 21
106.970323520712
 31
0.0
  0
LINE
  5
212
  8
___
 62
     0
 10
150.5816376797757
 20
107.970323520712
 30
0.0
 11
151.0816376797757
 21
107.470323520712
 31
0.0
  0
LINE
  5
213
  8
___
 62
     0
 10
151.0816376797757
 20
87.97032352071199
 30
0.0
 11
150.5816376797757
 21
87.47032352071199
 31
0.0
  0
LINE
  5
214
  8
___
 62
     0
 10
135.0816376797757
 20
111.220323520712
 30
0.0
 11
135.0816376797757
 21
106.970323520712
 31
0.0
  0
LINE
  5
215
  8
___
 62
     0
 10
135.0816376797757
 20
84.22032352071199
 30
0.0
 11
135.0816376797757
 21
88.47032352071199
 31
0.0
  0
LINE
  5
216
  8
___
 62
     0
 10
151.0816376797757
 20
97.72032352071199
 30
0.0
 11
151.0816376797757
 21
103.720323520712
 31
0.0
  0
LINE
  5
217
  8
___
 62
     0
 10
151.0816376797757
 20
103.720323520712
 30
0.0
 11
117.8031012850043
 21
103.720323520712
 31
0.0
  0
LINE
  5
218
  8
___
 62
     0
 10
151.0816376797757
 20
97.72032352071199
 30
0.0
 11
151.0816376797757
 21
91.72032352071199
 31
0.0
  0
LINE
  5
219
  8
___
 62
     0
 10
151.0816376797757
 20
91.72032352071199
 30
0.0
 11
102.0531012850043
 21
91.72032352071199
 31
0.0
  0
LINE
  5
21A
  8
___
 62
     0
 10
111.8031012850043
 20
128.220323520712
 30
0.0
 11
111.8031012850043
 21
118.220323520712
 31
0.0
  0
LINE
  5
21B
  8
___
 62
     0
 10
92.30310128500435
 20
128.220323520712
 30
0.0
 11
92.30310128500435
 21
118.220323520712
 31
0.0
  0
LINE
  5
21C
  8
___
 62
     0
 10
92.05310128500435
 20
128.220323520712
 30
0.0
 11
91.30310128500435
 21
128.220323520712
 31
0.0
  0
LINE
  5
21D
  8
___
 62
     0
 10
91.55310128500435
 20
128.220323520712
 30
0.0
 11
91.55310128500435
 21
116.9546377997304
 31
0.0
  0
LINE
  5
21E
  8
___
 62
     0
 10
108.178101591053
 20
118.220323520712
 30
0.0
 11
111.928101591053
 21
118.220323520712
 31
0.0
  0
LINE
  5
21F
  8
___
 62
     0
 10
112.5531012850043
 20
104.220323520712
 30
0.0
 11
112.5531012850043
 21
128.220323520712
 31
0.0
  0
ARC
  5
220
  8
___
 62
     0
 10
92.74976766736233
 20
74.32945243383932
 30
0.0
 40
30.13447542276057
 50
125.9625627877533
 51
186.400136061808
  0
ARC
  5
221
  8
___
 62
     0
 10
89.32919678451265
 20
78.75748512692383
 30
0.0
 40
36.11255572452686
 50
93.29312806515213
 51
141.5359883438925
  0
ARC
  5
222
  8
___
 62
     0
 10
96.19253088959886
 20
70.55058146414791
 30
0.0
 40
46.64131842778968
 50
138.8855000356128
 51
179.4843676429139
  0
ARC
  5
223
  8
___
 62
     0
 10
116.572347914482
 20
1.662583632279336
 30
0.0
 40
105.5653954330207
 50
103.7096838086105
 51
113.1602138372337
  0
ARC
  5
224
  8
___
 62
     0
 10
103.4067968784467
 20
106.3520114173364
 30
0.0
 40
14.69417512022808
 50
231.3407509044492
 51
264.7141520922972
  0
LINE
  5
225
  8
___
 62
     0
 10
106.428101591053
 20
100.220323520712
 30
0.0
 11
114.8031012850043
 21
100.220323520712
 31
0.0
  0
LINE
  5
226
  8
___
 62
     0
 10
93.92810159105295
 20
104.220323520712
 30
0.0
 11
91.30310128500435
 21
104.220323520712
 31
0.0
  0
LINE
  5
227
  8
___
 62
     0
 10
106.428101591053
 20
103.220323520712
 30
0.0
 11
111.3031012850043
 21
103.220323520712
 31
0.0
  0
LINE
  5
228
  8
___
 62
     0
 10
110.428101591053
 20
104.220323520712
 30
0.0
 11
112.5531012850043
 21
104.220323520712
 31
0.0
  0
LINE
  5
229
  8
___
 62
     0
 10
111.3031012850043
 20
104.220323520712
 30
0.0
 11
111.3031012850043
 21
103.220323520712
 31
0.0
  0
LINE
  5
22A
  8
___
 62
     0
 10
97.92810159105295
 20
103.220323520712
 30
0.0
 11
92.80310128500435
 21
103.220323520712
 31
0.0
  0
LINE
  5
22B
  8
___
 62
     0
 10
92.80310128500435
 20
103.220323520712
 30
0.0
 11
92.80310128500435
 21
104.220323520712
 31
0.0
  0
LINE
  5
22C
  8
___
 62
     0
 10
96.05310128500435
 20
103.220323520712
 30
0.0
 11
96.05310128500435
 21
100.220323520712
 31
0.0
  0
LINE
  5
22D
  8
___
 62
     0
 10
108.0531012850043
 20
103.220323520712
 30
0.0
 11
108.0531012850043
 21
100.220323520712
 31
0.0
  0
LINE
  5
22E
  8
___
 62
     0
 10
115.8031012850043
 20
101.720323520712
 30
0.0
 11
115.8031012850043
 21
101.220323520712
 31
0.0
  0
ARC
  5
22F
  8
___
 62
     0
 10
117.8031012850043
 20
101.720323520712
 30
0.0
 40
2.0
 50
90.0
 51
180.0
  0
ARC
  5
230
  8
___
 62
     0
 10
83.51143461833772
 20
165.2619901873786
 30
0.0
 40
50.68369368500638
 50
274.2903275911011
 51
277.1288089519362
  0
ARC
  5
231
  8
___
 62
     0
 10
89.55310128500435
 20
116.9546377997304
 30
0.0
 40
2.000000000000005
 50
277.1288089519362
 51
0.0
  0
LINE
  5
232
  8
___-1
 62
     0
 10
91.55310128500435
 20
128.220323520712
 30
0.0
 11
91.55310128500435
 21
126.720323520712
 31
0.0
  0
ARC
  5
233
  8
___
 62
     0
 10
114.8031012850043
 20
101.220323520712
 30
0.0
 40
1.0
 50
270.0
 51
0.0
  0
ARC
  5
234
  8
___
 62
     0
 10
96.10159271283908
 20
97.22032352071199
 30
0.0
 40
3.0
 50
90.0
 51
231.3407509044496
  0
LINE
  5
235
  8
___
 62
     0
 10
118.178101591053
 20
128.2203232202784
 30
0.0
 11
111.678101591053
 21
128.2203232202784
 31
0.0
  0
LINE
  5
236
  8
___
 62
     0
 10
85.78561335212896
 20
129.220323186505
 30
0.0
 11
85.78561335212896
 21
133.220323186505
 31
0.0
  0
LINE
  5
237
  8
___
 62
     0
 10
85.78561335212896
 20
133.220323186505
 30
0.0
 11
91.03561326719284
 21
133.220323186505
 31
0.0
  0
LINE
  5
238
  8
___
 62
     0
 10
118.285613352129
 20
133.220323186505
 30
0.0
 11
118.285613352129
 21
129.220323186505
 31
0.0
  0
LINE
  5
239
  8
___
 62
     0
 10
92.28561326719284
 20
129.220323186505
 30
0.0
 11
85.78561335212896
 21
129.220323186505
 31
0.0
  0
LINE
  5
23A
  8
___
 62
     0
 10
113.035613352129
 20
133.220323186505
 30
0.0
 11
113.035613352129
 21
141.220323186505
 31
0.0
  0
LINE
  5
23B
  8
___
 62
     0
 10
91.53561326719284
 20
141.220323186505
 30
0.0
 11
91.03561335212896
 21
141.220323186505
 31
0.0
  0
LINE
  5
23C
  8
___
 62
     0
 10
91.03561335212896
 20
141.220323186505
 30
0.0
 11
91.03561335212896
 21
133.220323186505
 31
0.0
  0
LINE
  5
23D
  8
___
 62
     0
 10
112.535613352129
 20
141.220323186505
 30
0.0
 11
112.535613352129
 21
154.220323186505
 31
0.0
  0
LINE
  5
23E
  8
___
 62
     0
 10
94.92810159105295
 20
154.220323186505
 30
0.0
 11
91.53561335212896
 21
154.220323186505
 31
0.0
  0
LINE
  5
23F
  8
___
 62
     0
 10
91.53561335212896
 20
154.220323186505
 30
0.0
 11
91.53561335212896
 21
141.220323186505
 31
0.0
  0
LINE
  5
240
  8
___
 62
     0
 10
91.53561335212896
 20
128.2203232202784
 30
0.0
 11
91.53561335212896
 21
118.720323186505
 31
0.0
  0
LINE
  5
241
  8
___
 62
     0
 10
92.03561335212896
 20
118.220323186505
 30
0.0
 11
95.92810159105295
 21
118.220323186505
 31
0.0
  0
LINE
  5
242
  8
___
 62
     0
 10
112.535613352129
 20
118.720323186505
 30
0.0
 11
112.535613352129
 21
128.2203232202784
 31
0.0
  0
LINE
  5
243
  8
___-2
 62
     0
 10
101.9476684418111
 20
178.3036565536117
 30
0.0
 11
102.0819706056752
 21
84.25870387501948
 31
0.0
  0
LINE
  5
244
  8
___
 62
     0
 10
91.53561335212896
 20
118.720323186505
 30
0.0
 11
92.03561335212896
 21
118.220323186505
 31
0.0
  0
LINE
  5
245
  8
___
 62
     0
 10
112.035613352129
 20
118.220323186505
 30
0.0
 11
112.535613352129
 21
118.720323186505
 31
0.0
  0
LINE
  5
246
  8
___
 62
     0
 10
92.03561335212896
 20
118.220323186505
 30
0.0
 11
92.28561335212896
 21
118.220323186505
 31
0.0
  0
LINE
  5
247
  8
___
 62
     0
 10
92.28561335212896
 20
118.220323186505
 30
0.0
 11
92.28561335212896
 21
129.220323186505
 31
0.0
  0
LINE
  5
248
  8
___
 62
     0
 10
112.035613352129
 20
118.220323186505
 30
0.0
 11
111.785613352129
 21
118.220323186505
 31
0.0
  0
LINE
  5
249
  8
___
 62
     0
 10
111.785613352129
 20
118.220323186505
 30
0.0
 11
111.785613352129
 21
129.220323186505
 31
0.0
  0
LINE
  5
24A
  8
___
 62
     0
 10
113.0356132671928
 20
141.2203228644087
 30
0.0
 11
112.5356132671928
 21
141.2203228644087
 31
0.0
  0
LINE
  5
24B
  8
___
 62
     0
 10
110.0356132671928
 20
154.2203228644087
 30
0.0
 11
110.0356132671928
 21
139.220323186505
 31
0.0
  0
LINE
  5
24C
  8
___
 62
     0
 10
97.42810159105295
 20
139.2203228644087
 30
0.0
 11
94.03561326719284
 21
139.2203228644087
 31
0.0
  0
LINE
  5
24D
  8
___
 62
     0
 10
94.03561326719284
 20
139.220323186505
 30
0.0
 11
94.03561326719284
 21
154.2203228644087
 31
0.0
  0
LINE
  5
24E
  8
___
 62
     0
 10
94.03561326719284
 20
139.2203228644087
 30
0.0
 11
94.78561326719284
 21
139.2203228644087
 31
0.0
  0
LINE
  5
24F
  8
___
 62
     0
 10
94.78561326719284
 20
139.220323186505
 30
0.0
 11
94.78561326719284
 21
154.2203228644087
 31
0.0
  0
LINE
  5
250
  8
___
 62
     0
 10
110.0356132671928
 20
139.2203228644087
 30
0.0
 11
109.2856132671928
 21
139.2203228644087
 31
0.0
  0
LINE
  5
251
  8
___
 62
     0
 10
109.2856132671928
 20
139.220323186505
 30
0.0
 11
109.2856132671928
 21
154.2203228644087
 31
0.0
  0
LINE
  5
252
  8
___
 62
     0
 10
118.2856132671928
 20
133.2203228644087
 30
0.0
 11
113.0356132671928
 21
133.2203228644087
 31
0.0
  0
LINE
  5
253
  8
___
 62
     0
 10
111.7856132671928
 20
129.2203228644087
 30
0.0
 11
118.2856132671928
 21
129.2203228644087
 31
0.0
  0
LINE
  5
254
  8
___
 62
     0
 10
106.7856132671928
 20
139.2203228644087
 30
0.0
 11
106.7856132671928
 21
136.220323186505
 31
0.0
  0
LINE
  5
255
  8
___
 62
     0
 10
97.28561326719284
 20
139.2203228644087
 30
0.0
 11
97.28561326719284
 21
137.7203228644087
 31
0.0
  0
LINE
  5
256
  8
___
 62
     0
 10
108.2856132671928
 20
118.2203228644087
 30
0.0
 11
108.2856132671928
 21
130.2203228644087
 31
0.0
  0
LINE
  5
257
  8
___
 62
     0
 10
95.78561326719284
 20
130.2203228644087
 30
0.0
 11
95.78561326719284
 21
118.2203228644087
 31
0.0
  0
LINE
  5
258
  8
___
 62
     0
 10
97.28561326719284
 20
139.2203228644087
 30
0.0
 11
97.28561326719284
 21
136.2203228644087
 31
0.0
  0
LINE
  5
259
  8
___
 62
     0
 10
95.78561326719284
 20
118.2203228644087
 30
0.0
 11
95.78561326719284
 21
129.970323186505
 31
0.0
  0
LINE
  5
25A
  8
___
 62
     0
 10
97.28561326719284
 20
136.220323186505
 30
0.0
 11
97.28561326719284
 21
139.2203228644087
 31
0.0
  0
LINE
  5
25B
  8
___
 62
     0
 10
108.2856132671928
 20
118.2203228644087
 30
0.0
 11
108.2856132671928
 21
130.220323186505
 31
0.0
  0
LINE
  5
25C
  8
___
 62
     0
 10
108.2856132671928
 20
136.220323186505
 30
0.0
 11
106.428101591053
 21
136.220323186505
 31
0.0
  0
LINE
  5
25D
  8
___
 62
     0
 10
95.78561326719284
 20
118.2203228644087
 30
0.0
 11
96.78561326719284
 21
118.2203228644087
 31
0.0
  0
LINE
  5
25E
  8
___
 62
     0
 10
96.78561326719284
 20
118.2203228644087
 30
0.0
 11
96.78561326719284
 21
130.220323186505
 31
0.0
  0
LINE
  5
25F
  8
___
 62
     0
 10
108.2856132671928
 20
118.2203228644087
 30
0.0
 11
107.2856132671928
 21
118.2203228644087
 31
0.0
  0
LINE
  5
260
  8
___
 62
     0
 10
107.2856132671928
 20
118.2203228644087
 30
0.0
 11
107.2856132671928
 21
130.220323186505
 31
0.0
  0
LINE
  5
261
  8
___
 62
     0
 10
97.42810159105295
 20
136.220323186505
 30
0.0
 11
94.53561326719284
 21
136.220323186505
 31
0.0
  0
LINE
  5
262
  8
___
 62
     0
 10
94.53561326719284
 20
136.220323186505
 30
0.0
 11
94.53561326719284
 21
130.220323186505
 31
0.0
  0
LINE
  5
263
  8
___
 62
     0
 10
94.53561326719284
 20
130.220323186505
 30
0.0
 11
95.78561326719284
 21
130.220323186505
 31
0.0
  0
LINE
  5
264
  8
___
 62
     0
 10
108.2856132671928
 20
136.220323186505
 30
0.0
 11
109.5356132671928
 21
136.220323186505
 31
0.0
  0
LINE
  5
265
  8
___
 62
     0
 10
109.5356132671928
 20
136.220323186505
 30
0.0
 11
109.5356132671928
 21
130.220323186505
 31
0.0
  0
LINE
  5
266
  8
___
 62
     0
 10
109.5356132671928
 20
130.220323186505
 30
0.0
 11
108.0356132671928
 21
130.220323186505
 31
0.0
  0
LINE
  5
267
  8
___-3
 62
     0
 10
120.285613352129
 20
129.220323186505
 30
0.0
 11
120.2856133533318
 21
129.2203231877972
 31
0.0
  0
LINE
  5
268
  8
___
 62
     0
 10
112.428101591053
 20
154.2203232202784
 30
0.0
 11
109.428101591053
 21
154.2203232202784
 31
0.0
  0
LINE
  5
269
  8
___
 62
     0
 10
106.678101591053
 20
159.9703232202784
 30
0.0
 11
110.5531009040914
 21
159.9703232202784
 31
0.0
  0
LINE
  5
26A
  8
___
 62
     0
 10
111.5531009040914
 20
159.4703232202784
 30
0.0
 11
111.5531009040914
 21
156.9703232202784
 31
0.0
  0
LINE
  5
26B
  8
___
 62
     0
 10
97.42810159105295
 20
156.9703232202784
 30
0.0
 11
92.55310090409137
 21
156.9703232202784
 31
0.0
  0
LINE
  5
26C
  8
___
 62
     0
 10
92.55310090409137
 20
156.9703232202784
 30
0.0
 11
92.55310090409137
 21
159.4703232202784
 31
0.0
  0
LINE
  5
26D
  8
___
 62
     0
 10
93.55310090409137
 20
159.9703232202784
 30
0.0
 11
97.42810159105295
 21
159.9703232202784
 31
0.0
  0
LINE
  5
26E
  8
___
 62
     0
 10
93.55310090409137
 20
159.9703232202784
 30
0.0
 11
92.55310090409137
 21
159.4703232202784
 31
0.0
  0
LINE
  5
26F
  8
___
 62
     0
 10
110.5531009040914
 20
159.9703232202784
 30
0.0
 11
111.5531009040914
 21
159.4703232202784
 31
0.0
  0
LINE
  5
270
  8
___
 62
     0
 10
106.678101591053
 20
156.9703232202784
 30
0.0
 11
110.0531009040914
 21
156.9703232202784
 31
0.0
  0
LINE
  5
271
  8
___
 62
     0
 10
110.0531009040914
 20
156.9703232202784
 30
0.0
 11
110.0531009040914
 21
148.9703232202784
 31
0.0
  0
LINE
  5
272
  8
___
 62
     0
 10
97.56596728921238
 20
148.9703232202784
 30
0.0
 11
94.05310090409137
 21
148.9703232202784
 31
0.0
  0
LINE
  5
273
  8
___
 62
     0
 10
94.05310090409137
 20
148.9703232202784
 30
0.0
 11
94.05310090409137
 21
156.9703232202784
 31
0.0
  0
LINE
  5
274
  8
___
 62
     0
 10
94.05310090409137
 20
148.9703232202784
 30
0.0
 11
94.80310090409137
 21
148.9703232202784
 31
0.0
  0
LINE
  5
275
  8
___
 62
     0
 10
94.80310090409137
 20
148.9703232202784
 30
0.0
 11
94.80310090409137
 21
156.9703232202784
 31
0.0
  0
LINE
  5
276
  8
___
 62
     0
 10
110.0531009040914
 20
148.9703232202784
 30
0.0
 11
106.5265281969395
 21
148.9703232202784
 31
0.0
  0
LINE
  5
277
  8
___
 62
     0
 10
109.3031009040914
 20
148.9703232202784
 30
0.0
 11
109.3031009040914
 21
156.9703232202784
 31
0.0
  0
LINE
  5
278
  8
___
 62
     0
 10
111.5555599444912
 20
156.9703226524603
 30
0.0
 11
109.928101591053
 21
156.9703226524603
 31
0.0
  0
LINE
  5
279
  8
___
 62
     0
 10
97.42810159105295
 20
159.9703226524603
 30
0.0
 11
97.42810159105295
 21
148.9703226524603
 31
0.0
  0
LINE
  5
27A
  8
___
 62
     0
 10
106.678101591053
 20
159.9703226524603
 30
0.0
 11
106.678101591053
 21
148.9703226524603
 31
0.0
  0
LINE
  5
27B
  8
___
 62
     0
 10
110.4706619678574
 20
172.3036565536117
 30
0.0
 11
110.4706619678574
 21
178.3036565536117
 31
0.0
  0
LINE
  5
27C
  8
___
 62
     0
 10
110.4706619678574
 20
178.3036565536117
 30
0.0
 11
93.47066196785738
 21
178.3036565536117
 31
0.0
  0
LINE
  5
27D
  8
___
 62
     0
 10
93.47066196785738
 20
178.3036565536117
 30
0.0
 11
93.47066196785738
 21
166.3036565536117
 31
0.0
  0
LINE
  5
27E
  8
___
 62
     0
 10
93.47066196785738
 20
166.3036565536117
 30
0.0
 11
97.42810159105295
 21
166.3036565536117
 31
0.0
  0
LINE
  5
27F
  8
___
 62
     0
 10
110.4706619678574
 20
166.3036565536117
 30
0.0
 11
110.4706619678574
 21
178.3036565536117
 31
0.0
  0
LINE
  5
280
  8
___
 62
     0
 10
112.9706619678574
 20
167.8036565536117
 30
0.0
 11
112.9706619678574
 21
176.8036565536117
 31
0.0
  0
ARC
  5
281
  8
___
 62
     0
 10
113.5956619678574
 20
180.6786565536117
 30
0.0
 40
3.925079617026896
 50
217.2348339815747
 51
279.1623470457223
  0
ARC
  5
282
  8
___
 62
     0
 10
113.4706619678574
 20
164.1369898869451
 30
0.0
 40
3.700600551862418
 50
82.23483398157379
 51
144.1623470457207
  0
LINE
  5
283
  8
___
 62
     0
 10
114.2206619678574
 20
176.8036565536117
 30
0.0
 11
123.4706619678574
 21
178.3036565536117
 31
0.0
  0
LINE
  5
284
  8
___
 62
     0
 10
113.9706619678574
 20
167.8036565536117
 30
0.0
 11
123.4706619678574
 21
166.3036565536117
 31
0.0
  0
LINE
  5
285
  8
___
 62
     0
 10
90.97066196785738
 20
167.8036565536117
 30
0.0
 11
90.97066196785738
 21
176.8036565536117
 31
0.0
  0
ARC
  5
286
  8
___
 62
     0
 10
90.72066196785738
 20
180.0536565536117
 30
0.0
 40
3.25960120260133
 50
265.6012946450032
 51
327.5288077091515
  0
ARC
  5
287
  8
___
 62
     0
 10
90.72066196785738
 20
164.5536565536117
 30
0.0
 40
3.259601202601325
 50
32.47119229084849
 51
94.3987053549968
  0
LINE
  5
288
  8
___
 62
     0
 10
90.47066196785738
 20
176.8036565536117
 30
0.0
 11
80.47066196785738
 21
178.3036565536117
 31
0.0
  0
LINE
  5
289
  8
___
 62
     0
 10
90.47066196785738
 20
167.8036565536117
 30
0.0
 11
80.47066196785738
 21
166.3036565536117
 31
0.0
  0
ARC
  5
28A
  8
___
 62
     0
 10
123.4706619678574
 20
172.3036565536117
 30
0.0
 40
6.0
 50
270.0
 51
90.0
  0
ARC
  5
28B
  8
___
 62
     0
 10
80.47066196785738
 20
172.3036565536117
 30
0.0
 40
6.0
 50
90.0
 51
270.0
  0
LINE
  5
28C
  8
___
 62
     0
 10
97.47066165252534
 20
167.553656875993
 30
0.0
 11
97.47066165252534
 21
176.303656875993
 31
0.0
  0
LINE
  5
28D
  8
___
 62
     0
 10
97.47066165252534
 20
176.303656875993
 30
0.0
 11
106.4706616525253
 21
176.303656875993
 31
0.0
  0
LINE
  5
28E
  8
___
 62
     0
 10
106.4706616525253
 20
176.303656875993
 30
0.0
 11
106.4706616525253
 21
167.553656875993
 31
0.0
  0
LINE
  5
28F
  8
___
 62
     0
 10
96.22066165252534
 20
166.303656875993
 30
0.0
 11
94.97066165252534
 21
166.303656875993
 31
0.0
  0
LINE
  5
290
  8
___
 62
     0
 10
106.678101591053
 20
166.303656875993
 30
0.0
 11
110.428101591053
 21
166.303656875993
 31
0.0
  0
LINE
  5
291
  8
___
 62
     0
 10
96.22066165252534
 20
166.303656875993
 30
0.0
 11
97.47066165252534
 21
167.553656875993
 31
0.0
  0
LINE
  5
292
  8
___
 62
     0
 10
107.7206616525253
 20
166.303656875993
 30
0.0
 11
106.4706616525253
 21
167.553656875993
 31
0.0
  0
LINE
  5
293
  8
___
 62
     0
 10
95.67810159105295
 20
130.2203232202784
 30
0.0
 11
96.77577083982658
 21
130.2203232202784
 31
0.0
  0
LINE
  5
294
  8
___
 62
     0
 10
108.178101591053
 20
130.2203232202784
 30
0.0
 11
107.2785279470412
 21
130.2203232202784
 31
0.0
  0
LINE
  5
295
  8
___
 62
     0
 10
97.92810159105295
 20
100.2203232202784
 30
0.0
 11
96.17810159105295
 21
100.2203232202784
 31
0.0
  0
LINE
  5
296
  8
___
 62
     0
 10
106.678101591053
 20
139.2203232202784
 30
0.0
 11
109.928101591053
 21
139.2203232202784
 31
0.0
  0
LINE
  5
297
  8
___
 62
     0
 10
91.92810159105295
 20
129.2203232202784
 30
0.0
 11
91.92810159105295
 21
128.2203232202784
 31
0.0
  0
LINE
  5
298
  8
___
 62
     0
 10
91.92810159105295
 20
128.2203232202784
 30
0.0
 11
85.92810159105295
 21
128.2203232202784
 31
0.0
  0
LINE
  5
299
  8
___
 62
     0
 10
85.92810159105295
 20
128.2203232202784
 30
0.0
 11
85.92810159105295
 21
129.2203232202784
 31
0.0
  0
LINE
  5
29A
  8
___
 62
     0
 10
112.178101591053
 20
128.2203232202784
 30
0.0
 11
112.178101591053
 21
129.2203232202784
 31
0.0
  0
LINE
  5
29B
  8
___
 62
     0
 10
112.178101591053
 20
129.2203232202784
 30
0.0
 11
118.178101591053
 21
129.2203232202784
 31
0.0
  0
LINE
  5
29C
  8
___
 62
     0
 10
118.178101591053
 20
129.2203232202784
 30
0.0
 11
118.178101591053
 21
128.2203232202784
 31
0.0
  0
LINE
  5
29D
  8
___
 62
     0
 10
49.92810159105295
 20
70.97032322027837
 30
0.0
 11
49.92810159105295
 21
76.47032322027837
 31
0.0
  0
LINE
  5
29E
  8
___
 62
     0
 10
49.92810159105295
 20
76.47032322027837
 30
0.0
 11
62.67810159105295
 21
76.47032322027837
 31
0.0
  0
LINE
  5
29F
  8
___
 62
     0
 10
62.67810159105295
 20
76.47032322027837
 30
0.0
 11
62.67810159105295
 21
70.97032322027837
 31
0.0
  0
LINE
  5
2A0
  8
___
 62
     0
 10
62.67810159105295
 20
70.97032322027837
 30
0.0
 11
61.92810159105295
 21
70.97032322027837
 31
0.0
  0
LINE
  5
2A1
  8
___
 62
     0
 10
61.92810159105295
 20
70.97032322027837
 30
0.0
 11
60.92810159105295
 21
76.47032322027837
 31
0.0
  0
LINE
  5
2A2
  8
___
 62
     0
 10
60.92810159105295
 20
76.47032322027837
 30
0.0
 11
59.92810159105295
 21
76.47032322027837
 31
0.0
  0
LINE
  5
2A3
  8
___
 62
     0
 10
59.92810159105295
 20
76.47032322027837
 30
0.0
 11
59.92810159105295
 21
70.97032322027837
 31
0.0
  0
LINE
  5
2A4
  8
___
 62
     0
 10
59.92810159105295
 20
70.97032322027837
 30
0.0
 11
58.92810159105295
 21
70.97032322027837
 31
0.0
  0
LINE
  5
2A5
  8
___
 62
     0
 10
58.92810159105295
 20
70.97032322027837
 30
0.0
 11
57.67810159105295
 21
76.47032322027837
 31
0.0
  0
LINE
  5
2A6
  8
___
 62
     0
 10
57.67810159105295
 20
76.47032322027837
 30
0.0
 11
55.92810159105295
 21
76.47032322027837
 31
0.0
  0
LINE
  5
2A7
  8
___
 62
     0
 10
55.92810159105295
 20
76.47032322027837
 30
0.0
 11
55.92810159105295
 21
70.97032322027837
 31
0.0
  0
LINE
  5
2A8
  8
___
 62
     0
 10
55.92810159105295
 20
70.97032322027837
 30
0.0
 11
53.67810159105295
 21
70.97032322027837
 31
0.0
  0
LINE
  5
2A9
  8
___
 62
     0
 10
53.67810159105295
 20
70.97032322027837
 30
0.0
 11
53.17810159105295
 21
70.97032322027837
 31
0.0
  0
LINE
  5
2AA
  8
___
 62
     0
 10
53.17810159105295
 20
70.97032322027837
 30
0.0
 11
54.17810159105295
 21
76.47032322027837
 31
0.0
  0
LINE
  5
2AB
  8
___
 62
     0
 10
54.17810159105295
 20
76.47032322027837
 30
0.0
 11
52.42810159105295
 21
76.47032322027837
 31
0.0
  0
LINE
  5
2AC
  8
___
 62
     0
 10
52.42810159105295
 20
76.47032322027837
 30
0.0
 11
52.42810159105295
 21
70.97032322027837
 31
0.0
  0
LINE
  5
2AD
  8
___
 62
     0
 10
52.42810159105295
 20
70.97032322027837
 30
0.0
 11
50.92810159105295
 21
70.97032322027837
 31
0.0
  0
LINE
  5
2AE
  8
___
 62
     0
 10
50.92810159105295
 20
70.97032322027837
 30
0.0
 11
51.67810159105295
 21
76.47032322027837
 31
0.0
  0
CIRCLE
  5
2AF
  8
___
 62
     0
 10
101.928101591053
 20
172.3036568001218
 30
0.0
 40
1.5
  0
LINE
  5
2B0
  8
___-3
 62
     0
 10
104.5526365273597
 20
98.61976667663342
 30
0.0
 11
104.5526365273597
 21
98.11976667663342
 31
0.0
  0
LINE
  5
2B1
  8
___-3
 62
     0
 10
99.55263652735971
 20
98.11976667663342
 30
0.0
 11
99.55263652735971
 21
98.61976667663342
 31
0.0
  0
LINE
  5
2B2
  8
___-3
 62
     0
 10
97.80263652735971
 20
103.6197666766334
 30
0.0
 11
106.3026365273597
 21
103.6197666766334
 31
0.0
  0
LINE
  5
2B3
  8
___-3
 62
     0
 10
102.0526365273597
 20
103.6197666766334
 30
0.0
 11
97.80263652735971
 21
103.6197666766334
 31
0.0
  0
LINE
  5
2B4
  8
___-3
 62
     0
 10
97.80263652735971
 20
103.6197666766334
 30
0.0
 11
97.80263652735971
 21
98.61976667663342
 31
0.0
  0
LINE
  5
2B5
  8
___-3
 62
     0
 10
97.80263652735971
 20
98.61976667663342
 30
0.0
 11
106.3026365273597
 21
98.61976667663342
 31
0.0
  0
LINE
  5
2B6
  8
___-3
 62
     0
 10
106.3026365273597
 20
98.61976667663342
 30
0.0
 11
106.3026365273597
 21
103.6197666766334
 31
0.0
  0
LINE
  5
2B7
  8
___-3
 62
     0
 10
99.30263652735971
 20
103.6197666766334
 30
0.0
 11
99.30263652735971
 21
98.61976667663342
 31
0.0
  0
LINE
  5
2B8
  8
___-3
 62
     0
 10
104.8026365273597
 20
98.61976667663342
 30
0.0
 11
104.8026365273597
 21
103.6197666766334
 31
0.0
  0
LINE
  5
2B9
  8
___-3
 62
     0
 10
108.2993538750776
 20
116.7640231207149
 30
0.0
 11
108.2993538750776
 21
130.7640230895414
 31
0.0
  0
LINE
  5
2BA
  8
___-3
 62
     0
 10
107.0493541722417
 20
131.2640230895414
 30
0.0
 11
96.2993538750776
 21
131.2640230895414
 31
0.0
  0
LINE
  5
2BB
  8
___-3
 62
     0
 10
95.7993538750776
 20
130.7640230895414
 30
0.0
 11
95.7993538750776
 21
116.7640231207149
 31
0.0
  0
LINE
  5
2BC
  8
___-3
 62
     0
 10
106.5493538750776
 20
131.2640230895414
 30
0.0
 11
106.5493538750776
 21
169.7640231207149
 31
0.0
  0
LINE
  5
2BD
  8
___-3
 62
     0
 10
97.5493538750776
 20
131.2640230895414
 30
0.0
 11
97.5493538750776
 21
169.7640231207149
 31
0.0
  0
LINE
  5
2BE
  8
___-3
 62
     0
 10
96.2993538750776
 20
116.2640231207149
 30
0.0
 11
95.7993538750776
 21
116.7640231207149
 31
0.0
  0
LINE
  5
2BF
  8
___-3
 62
     0
 10
107.7993538750776
 20
116.2640231207149
 30
0.0
 11
108.2993538750776
 21
116.7640231207149
 31
0.0
  0
LINE
  5
2C0
  8
___-3
 62
     0
 10
96.29935361620676
 20
111.2640232359665
 30
0.0
 11
96.79935361620676
 21
111.2640232359665
 31
0.0
  0
LINE
  5
2C1
  8
___-3
 62
     0
 10
96.79935361620676
 20
116.2640231207149
 30
0.0
 11
96.79935361620676
 21
131.2640232359665
 31
0.0
  0
LINE
  5
2C2
  8
___-3
 62
     0
 10
97.04935378830294
 20
111.2640232359665
 30
0.0
 11
96.04935417224169
 21
111.2640232359665
 31
0.0
  0
LINE
  5
2C3
  8
___-3
 62
     0
 10
107.2993536162068
 20
116.2640231207149
 30
0.0
 11
107.2993536162068
 21
131.2640232359665
 31
0.0
  0
LINE
  5
2C4
  8
___-3
 62
     0
 10
95.7993538750776
 20
130.7640230895414
 30
0.0
 11
96.2993538750776
 21
131.2640230895414
 31
0.0
  0
LINE
  5
2C5
  8
___-3
 62
     0
 10
107.7993538750776
 20
131.2640230895414
 30
0.0
 11
108.2993538750776
 21
130.7640230895414
 31
0.0
  0
LINE
  5
2C6
  8
___-3
 62
     0
 10
97.5493538750776
 20
169.7640232359665
 30
0.0
 11
98.54935378830294
 21
169.7640232359665
 31
0.0
  0
LINE
  5
2C7
  8
___-3
 62
     0
 10
105.5493537883029
 20
169.7640231207149
 30
0.0
 11
105.5493537883029
 21
176.2640231207149
 31
0.0
  0
LINE
  5
2C8
  8
___-3
 62
     0
 10
105.5493537883029
 20
176.2640231207149
 30
0.0
 11
98.54935378830294
 21
176.2640231207149
 31
0.0
  0
LINE
  5
2C9
  8
___-3
 62
     0
 10
98.54935378830294
 20
176.2640231207149
 30
0.0
 11
98.54935378830294
 21
169.7640231207149
 31
0.0
  0
LINE
  5
2CA
  8
___-3
 62
     0
 10
93.04935378830294
 20
107.2640229230315
 30
0.0
 11
93.04935378830294
 21
110.7640231207149
 31
0.0
  0
LINE
  5
2CB
  8
___-3
 62
     0
 10
93.54935378830294
 20
111.2640231207149
 30
0.0
 11
108.2993541722417
 21
111.2640229230315
 31
0.0
  0
LINE
  5
2CC
  8
___-3
 62
     0
 10
93.04935378830294
 20
110.7640231207149
 30
0.0
 11
93.54935378830294
 21
111.2640231207149
 31
0.0
  0
LINE
  5
2CD
  8
___-3
 62
     0
 10
111.0493537883029
 20
110.7640229230315
 30
0.0
 11
111.0493537883029
 21
107.2640229230315
 31
0.0
  0
LINE
  5
2CE
  8
___-3
 62
     0
 10
110.5493537883029
 20
111.2640229230315
 30
0.0
 11
111.0493537883029
 21
110.7640229230315
 31
0.0
  0
LINE
  5
2CF
  8
___-3
 62
     0
 10
111.0493537883029
 20
107.2640229230315
 30
0.0
 11
104.5493537883029
 21
107.2640229230315
 31
0.0
  0
LINE
  5
2D0
  8
___-3
 62
     0
 10
103.552636440585
 20
97.1772797939528
 30
0.0
 11
100.552636440585
 21
97.1772797939528
 31
0.0
  0
LINE
  5
2D1
  8
___-3
 62
     0
 10
105.0493541722417
 20
107.2640229230315
 30
0.0
 11
93.54935378830294
 21
107.2640229230315
 31
0.0
  0
LINE
  5
2D2
  8
___-3
 62
     0
 10
97.54935378830294
 20
111.7640229230315
 30
0.0
 11
97.54935378830294
 21
116.2640231207149
 31
0.0
  0
ARC
  5
2D3
  8
___-3
 62
     0
 10
97.04935378830294
 20
111.7640232359665
 30
0.0
 40
0.5
 50
270.0
 51
0.0
  0
LINE
  5
2D4
  8
___-3
 62
     0
 10
106.7993541722417
 20
116.2640231207149
 30
0.0
 11
96.29935378830294
 21
116.2640231207149
 31
0.0
  0
LINE
  5
2D5
  8
___-3
 62
     0
 10
106.5493537883029
 20
111.5140229230315
 30
0.0
 11
106.5493537883029
 21
116.2640231207149
 31
0.0
  0
LINE
  5
2D6
  8
___-3
 62
     0
 10
106.5493537883029
 20
116.2640231207149
 30
0.0
 11
107.7993537883029
 21
116.2640231207149
 31
0.0
  0
LINE
  5
2D7
  8
___-3
 62
     0
 10
93.04935378830294
 20
107.2640229230315
 30
0.0
 11
93.54935378830294
 21
107.2640229230315
 31
0.0
  0
LINE
  5
2D8
  8
___-3
 62
     0
 10
99.55263644058505
 20
98.6772797939528
 30
0.0
 11
99.55263644058505
 21
97.6772797939528
 31
0.0
  0
LINE
  5
2D9
  8
___-3
 62
     0
 10
100.052636440585
 20
97.1772797939528
 30
0.0
 11
104.052636440585
 21
97.1772797939528
 31
0.0
  0
LINE
  5
2DA
  8
___-3
 62
     0
 10
99.55263644058505
 20
97.6772797939528
 30
0.0
 11
100.052636440585
 21
97.1772797939528
 31
0.0
  0
LINE
  5
2DB
  8
___-3
 62
     0
 10
104.552636440585
 20
97.6772797939528
 30
0.0
 11
104.552636440585
 21
98.6772797939528
 31
0.0
  0
LINE
  5
2DC
  8
___-3
 62
     0
 10
104.052636440585
 20
97.1772797939528
 30
0.0
 11
104.552636440585
 21
97.6772797939528
 31
0.0
  0
LINE
  5
2DD
  8
___-3
 62
     0
 10
100.302636440585
 20
98.61781226991727
 30
0.0
 11
100.302636440585
 21
97.1772797939528
 31
0.0
  0
LINE
  5
2DE
  8
___-3
 62
     0
 10
103.802636440585
 20
98.6772797939528
 30
0.0
 11
103.802636440585
 21
97.1772797939528
 31
0.0
  0
LINE
  5
2DF
  8
___-3
 62
     0
 10
106.5493537883029
 20
131.2640231207149
 30
0.0
 11
107.7993537883029
 21
131.2640231207149
 31
0.0
  0
LINE
  5
2E0
  8
___-3
 62
     0
 10
98.04935417224169
 20
169.7640231207149
 30
0.0
 11
106.5493537883029
 21
169.7640231207149
 31
0.0
  0
LINE
  5
2E1
  8
___-3
 62
     0
 10
110.5493537883029
 20
111.2640229230315
 30
0.0
 11
107.0493537883029
 21
111.2640229230315
 31
0.0
  0
ARC
  5
2E2
  8
___-3
 62
     0
 10
107.0493537883029
 20
111.7640229230315
 30
0.0
 40
0.5
 50
180.0
 51
270.0
  0
LINE
  5
2E3
  8
___-3
 62
     0
 10
93.04935417224169
 20
110.7640229230315
 30
0.0
 11
111.0493541722417
 21
110.7640229230315
 31
0.0
  0
DIMENSION
  5
2E4
  8
___-1
 62
     0
  2
*D1
 10
29.42810159105349
 20
178.3036565536117
 30
0.0
 11
25.6511408067376
 21
138.0119900371619
 31
0.0
 70
    32
  3
JIS
 13
51.92810159105295
 23
97.72032352071201
 33
0.0
 14
93.47066196785738
 24
178.3036565536117
 34
0.0
 50
-90.0
  0
DIMENSION
  5
2E5
  8
___-1
 62
     0
  2
*D2
 10
29.42810159105338
 20
97.72032352071201
 30
0.0
 11
25.65114080673749
 21
84.34532352071197
 31
0.0
 70
    32
  3
JIS
 13
47.05310128500435
 23
70.97032352071193
 33
0.0
 14
51.92810159105295
 24
97.72032352071201
 34
0.0
 50
-90.0
  0
LINE
  5
2E6
  8
___-2
 62
     0
 10
72.12312605231023
 20
172.303656800122
 30
0.0
 11
132.428101591053
 21
172.3036568001218
 31
0.0
  0
DIMENSION
  5
2E7
  8
___-1
 62
     0
  2
*D3
 10
55.95897802859372
 20
188.337526824973
 30
0.0
 11
55.95897802859372
 21
211.5693895700732
 31
0.0
 70
   160
  3
JIS
 13
56.0179030360149
 23
178.3116081151558
 33
0.0
 14
93.13068745540545
 24
188.337526824973
 34
0.0
 50
-90.0
  0
TEXT
  5
2E9
  8
___-4
 62
     0
 10
34.10626738043959
 20
258.1942891735275
 30
0.0
 40
6.5
  1
クラシック水
  7
HELVETICA_NEUE
 11
34.10626738043959
 21
264.6942891735275
 31
0.0
 73
     3
  0
TEXT
  5
2EA
  8
___-4
 62
     0
 10
34.10626738043959
 20
247.3609558401942
 30
0.0
 40
6.5
  1
栓
  7
HELVETICA_NEUE
 11
34.10626738043959
 21
253.8609558401942
 31
0.0
 73
     3
  0
DIMENSION
  5
2EB
  8
___-1
 62
     0
  2
*D4
 10
47.05310128500435
 20
43.44141263623806
 30
0.0
 11
101.545792193815
 21
43.44141263623806
 31
0.0
 70
   160
  3
JIS
 13
151.0816376797757
 23
88.47032352071199
 33
0.0
 14
47.05310128500435
 24
70.97032352071199
 34
0.0
  0
DIMENSION
  5
2EC
  8
___-1
 62
     0
  2
*D5
 10
125.4240279761953
 20
111.720323520712
 30
0.0
 11
121.6470671918794
 21
97.72032352071199
 31
0.0
 70
    32
  3
JIS
 13
132.5816376797757
 23
83.72032352071199
 33
0.0
 14
132.5816376797757
 24
111.720323520712
 34
0.0
 50
-90.0
  0
DIMENSION
  5
2ED
  8
___-1
 62
     0
  2
*D6
 10
162.0116881333029
 20
107.970323520712
 30
0.0
 11
162.0116881333029
 21
97.72032352071194
 31
0.0
 70
   160
  3
JIS
 13
150.5816376797757
 23
87.47032352071199
 33
0.0
 14
150.5816376797757
 24
107.970323520712
 34
0.0
 50
-90.0
  0
LINE
  5
2EE
  8
___
 62
     0
 10
110.439200577177
 20
182.3728788846941
 30
0.0
 11
110.439200577177
 21
188.3728788846941
 31
0.0
  0
LINE
  5
2EF
  8
___
 62
     0
 10
110.439200577177
 20
188.3728788846941
 30
0.0
 11
93.43920057717696
 21
188.3728788846941
 31
0.0
  0
LINE
  5
2F0
  8
___
 62
     0
 10
110.439200577177
 20
182.3728788846941
 30
0.0
 11
110.439200577177
 21
188.3728788846941
 31
0.0
  0
LINE
  5
2F1
  8
___
 62
     0
 10
112.939200577177
 20
182.3728788846941
 30
0.0
 11
112.939200577177
 21
186.8728788846941
 31
0.0
  0
ARC
  5
2F2
  8
___
 62
     0
 10
113.564200577177
 20
190.7478788846941
 30
0.0
 40
3.925079617026896
 50
217.2348339815757
 51
279.1623470457223
  0
LINE
  5
2F3
  8
___
 62
     0
 10
114.189200577177
 20
186.8728788846941
 30
0.0
 11
123.439200577177
 21
188.3728788846941
 31
0.0
  0
LINE
  5
2F4
  8
___
 62
     0
 10
90.93920057717696
 20
182.3728788846941
 30
0.0
 11
90.93920057717696
 21
186.8728788846941
 31
0.0
  0
ARC
  5
2F5
  8
___
 62
     0
 10
90.68920057717696
 20
190.1228788846941
 30
0.0
 40
3.259601202601316
 50
265.6012946450065
 51
327.5288077091499
  0
LINE
  5
2F6
  8
___
 62
     0
 10
90.43920057717696
 20
186.8728788846941
 30
0.0
 11
80.43920057717696
 21
188.3728788846941
 31
0.0
  0
ARC
  5
2F7
  8
___
 62
     0
 10
123.439200577177
 20
182.3728788846941
 30
0.0
 40
6.0
 50
0.0
 51
90.0
  0
ARC
  5
2F8
  8
___
 62
     0
 10
80.43920057717696
 20
182.3728788846941
 30
0.0
 40
6.0
 50
90.0
 51
180.4135203586789
  0
LINE
  5
2F9
  8
___-2
 62
     0
 10
101.939200577177
 20
175.3728788846941
 30
0.0
 11
101.939200577177
 21
190.8728788846941
 31
0.0
  0
CIRCLE
  5
2FA
  8
___
 62
     0
 10
102.0408860104435
 20
182.3728792232008
 30
0.0
 40
1.5
  0
DIMENSION
  5
2FB
  8
___-1
 62
     0
  2
*D7
 10
74.5408860104435
 20
199.4562125565341
 30
0.0
 11
102.0408860104435
 21
203.23317334085
 31
0.0
 70
    32
  3
JIS
 13
129.5408860104435
 23
185.4562125565342
 33
0.0
 14
74.5408860104435
 24
185.4562125565342
 34
0.0
  0
LINE
  5
2FC
  8
___
 62
     0
 10
93.43920057717696
 20
182.3728788846941
 30
0.0
 11
93.43920057717696
 21
188.3728788846941
 31
0.0
  0
LINE
  5
2FD
  8
___-4
 62
     0
 10
55.92810159105295
 20
76.47032322027837
 30
0.0
 11
63.64529174596487
 21
116.0951108558143
 31
0.0
  0
POLYLINE
  5
2FE
  8
___-4
  6
CONTINUOUS
 62
     7
 66
     1
 10
0.0
 20
0.0
 30
0.0
 70
   129
  0
VERTEX
  5
2FF
  8
___-4
  6
CONTINUOUS
 62
     7
 10
57.24007396761453
 20
80.28056766749873
 30
0.0
  0
VERTEX
  5
300
  8
___-4
  6
CONTINUOUS
 62
     7
 10
55.92810159105295
 20
76.47032322027837
 30
0.0
  0
VERTEX
  5
301
  8
___-4
  6
CONTINUOUS
 62
     7
 10
56.27932122165316
 20
80.4847819677953
 30
0.0
  0
SEQEND
  5
302
  8
___-4
  6
CONTINUOUS
 62
     7
  0
POLYLINE
  5
303
  8
___-4
 62
     0
 66
     1
 10
0.0
 20
0.0
 30
0.0
 70
   128
  0
VERTEX
  5
304
  8
___-4
 62
     0
 10
63.64529174596487
 20
116.0951108558143
 30
0.0
  0
VERTEX
  5
305
  8
___-4
 62
     0
 10
63.28529174596488
 20
116.0951108558143
 30
0.0
  0
SEQEND
  5
306
  8
___-4
 62
     0
  0
DIMENSION
  5
307
  8
___-1
 62
     0
  2
*D8
 10
135.0816376797757
 20
74.38631426424922
 30
0.0
 11
143.0816376797757
 21
78.16327504856511
 31
0.0
 70
    32
  3
JIS
 13
151.0816376797757
 23
84.22032352071199
 33
0.0
 14
135.0816376797757
 24
84.22032352071199
 34
0.0
  0
LINE
  5
308
  8
___-4
 62
     0
 10
118.0782794589552
 20
124.432629088445
 30
0.0
 11
126.0989780285937
 21
129.0099562973055
 31
0.0
  0
POLYLINE
  5
309
  8
___-4
  6
CONTINUOUS
 62
     7
 66
     1
 10
0.0
 20
0.0
 30
0.0
 70
   129
  0
VERTEX
  5
30A
  8
___-4
  6
CONTINUOUS
 62
     7
 10
121.8146387696924
 20
125.9422162391262
 30
0.0
  0
VERTEX
  5
30B
  8
___-4
  6
CONTINUOUS
 62
     7
 10
118.0782794589552
 20
124.432629088445
 30
0.0
  0
VERTEX
  5
30C
  8
___-4
  6
CONTINUOUS
 62
     7
 10
121.3384507449293
 20
126.8012821762871
 30
0.0
  0
SEQEND
  5
30D
  8
___-4
  6
CONTINUOUS
 62
     7
  0
POLYLINE
  5
30E
  8
___-4
 62
     0
 66
     1
 10
0.0
 20
0.0
 30
0.0
 70
   128
  0
VERTEX
  5
30F
  8
___-4
 62
     0
 10
126.0989780285937
 20
129.0099562973055
 30
0.0
  0
VERTEX
  5
310
  8
___-4
 62
     0
 10
126.4589780285937
 20
129.0099562973055
 30
0.0
  0
SEQEND
  5
311
  8
___-4
 62
     0
  0
LINE
  5
312
  8
___-4
 62
     0
 10
117.4589780285937
 20
128.7599562973055
 30
0.0
 11
129.8489780285937
 21
139.7599562973055
 31
0.0
  0
POLYLINE
  5
313
  8
___-4
  6
CONTINUOUS
 62
     7
 66
     1
 10
0.0
 20
0.0
 30
0.0
 70
   129
  0
VERTEX
  5
314
  8
___-4
  6
CONTINUOUS
 62
     7
 10
120.7998281069358
 20
131.0133881286409
 30
0.0
  0
VERTEX
  5
315
  8
___-4
  6
CONTINUOUS
 62
     7
 10
117.4589780285937
 20
128.7599562973055
 30
0.0
  0
VERTEX
  5
316
  8
___-4
  6
CONTINUOUS
 62
     7
 10
120.1554360814966
 20
131.7546763565714
 30
0.0
  0
SEQEND
  5
317
  8
___-4
  6
CONTINUOUS
 62
     7
  0
POLYLINE
  5
318
  8
___-4
 62
     0
 66
     1
 10
0.0
 20
0.0
 30
0.0
 70
   128
  0
VERTEX
  5
319
  8
___-4
 62
     0
 10
129.8489780285937
 20
139.7599562973055
 30
0.0
  0
VERTEX
  5
31A
  8
___-4
 62
     0
 10
130.2089780285937
 20
139.7599562973055
 30
0.0
  0
SEQEND
  5
31B
  8
___-4
 62
     0
  0
LINE
  5
31C
  8
___-4
 62
     0
 10
104.2089780285937
 20
128.7599562973055
 30
0.0
 11
129.3489780285937
 21
151.2599562973055
 31
0.0
  0
POLYLINE
  5
31D
  8
___-4
  6
CONTINUOUS
 62
     7
 66
     1
 10
0.0
 20
0.0
 30
0.0
 70
   129
  0
VERTEX
  5
31E
  8
___-4
  6
CONTINUOUS
 62
     7
 10
107.5498281069358
 20
131.0133881286409
 30
0.0
  0
VERTEX
  5
31F
  8
___-4
  6
CONTINUOUS
 62
     7
 10
104.2089780285937
 20
128.7599562973055
 30
0.0
  0
VERTEX
  5
320
  8
___-4
  6
CONTINUOUS
 62
     7
 10
106.9054360814966
 20
131.7546763565714
 30
0.0
  0
SEQEND
  5
321
  8
___-4
  6
CONTINUOUS
 62
     7
  0
POLYLINE
  5
322
  8
___-4
 62
     0
 66
     1
 10
0.0
 20
0.0
 30
0.0
 70
   128
  0
VERTEX
  5
323
  8
___-4
 62
     0
 10
129.3489780285937
 20
151.2599562973055
 30
0.0
  0
VERTEX
  5
324
  8
___-4
 62
     0
 10
129.7089780285937
 20
151.2599562973055
 30
0.0
  0
SEQEND
  5
325
  8
___-4
 62
     0
  0
LINE
  5
326
  8
___-4
 62
     0
 10
94.80310090409137
 20
158.5099562973055
 30
0.0
 11
82.81897802859373
 21
141.9599562973055
 31
0.0
  0
POLYLINE
  5
327
  8
___-4
  6
CONTINUOUS
 62
     7
 66
     1
 10
0.0
 20
0.0
 30
0.0
 70
   129
  0
VERTEX
  5
328
  8
___-4
  6
CONTINUOUS
 62
     7
 10
92.1066428511885
 20
155.5152362380396
 30
0.0
  0
VERTEX
  5
329
  8
___-4
  6
CONTINUOUS
 62
     7
 10
94.80310090409137
 20
158.5099562973055
 30
0.0
  0
VERTEX
  5
32A
  8
___-4
  6
CONTINUOUS
 62
     7
 10
92.91122753280517
 20
154.9518599788436
 30
0.0
  0
SEQEND
  5
32B
  8
___-4
  6
CONTINUOUS
 62
     7
  0
POLYLINE
  5
32C
  8
___-4
 62
     0
 66
     1
 10
0.0
 20
0.0
 30
0.0
 70
   128
  0
VERTEX
  5
32D
  8
___-4
 62
     0
 10
82.81897802859373
 20
141.9599562973055
 30
0.0
  0
VERTEX
  5
32E
  8
___-4
 62
     0
 10
82.45897802859373
 20
141.9599562973055
 30
0.0
  0
SEQEND
  5
32F
  8
___-4
 62
     0
  0
LINE
  5
330
  8
___-4
 62
     0
 10
96.82810112651873
 20
142.5099562973055
 30
0.0
 11
82.7645918793786
 21
128.8031454753635
 31
0.0
  0
POLYLINE
  5
331
  8
___-4
  6
CONTINUOUS
 62
     7
 66
     1
 10
0.0
 20
0.0
 30
0.0
 70
   129
  0
VERTEX
  5
332
  8
___-4
  6
CONTINUOUS
 62
     7
 10
93.65258064943367
 20
140.0289677918812
 30
0.0
  0
VERTEX
  5
333
  8
___-4
  6
CONTINUOUS
 62
     7
 10
96.82810112651873
 20
142.5099562973055
 30
0.0
  0
VERTEX
  5
334
  8
___-4
  6
CONTINUOUS
 62
     7
 10
94.34711262109442
 20
139.3344358202204
 30
0.0
  0
SEQEND
  5
335
  8
___-4
  6
CONTINUOUS
 62
     7
  0
POLYLINE
  5
336
  8
___-4
 62
     0
 66
     1
 10
0.0
 20
0.0
 30
0.0
 70
   128
  0
VERTEX
  5
337
  8
___-4
 62
     0
 10
82.7645918793786
 20
128.8031454753635
 30
0.0
  0
VERTEX
  5
338
  8
___-4
 62
     0
 10
82.4045918793786
 20
128.8031454753635
 30
0.0
  0
SEQEND
  5
339
  8
___-4
 62
     0
  0
LINE
  5
33A
  8
___-4
 62
     0
 10
112.5356139148929
 20
154.2203235012142
 30
0.0
 11
125.3298370845563
 21
163.8588891101166
 31
0.0
  0
POLYLINE
  5
33B
  8
___-4
  6
CONTINUOUS
 62
     7
 66
     1
 10
0.0
 20
0.0
 30
0.0
 70
   129
  0
VERTEX
  5
33C
  8
___-4
  6
CONTINUOUS
 62
     7
 10
116.0601505750479
 20
156.1740060741153
 30
0.0
  0
VERTEX
  5
33D
  8
___-4
  6
CONTINUOUS
 62
     7
 10
112.5356139148929
 20
154.2203235012142
 30
0.0
  0
VERTEX
  5
33E
  8
___-4
  6
CONTINUOUS
 62
     7
 10
115.4828181819082
 20
156.9686359421353
 30
0.0
  0
SEQEND
  5
33F
  8
___-4
  6
CONTINUOUS
 62
     7
  0
POLYLINE
  5
340
  8
___-4
 62
     0
 66
     1
 10
0.0
 20
0.0
 30
0.0
 70
   128
  0
VERTEX
  5
341
  8
___-4
 62
     0
 10
125.3298370845563
 20
163.8588891101166
 30
0.0
  0
VERTEX
  5
342
  8
___-4
 62
     0
 10
125.6898370845563
 20
163.8588891101166
 30
0.0
  0
SEQEND
  5
343
  8
___-4
 62
     0
  0
LINE
  5
344
  8
___-4
 62
     0
 10
90.47066196785738
 20
167.8036565536117
 30
0.0
 11
83.05231148708015
 21
156.2599564441622
 31
0.0
  0
POLYLINE
  5
345
  8
___-4
  6
CONTINUOUS
 62
     7
 66
     1
 10
0.0
 20
0.0
 30
0.0
 70
   129
  0
VERTEX
  5
346
  8
___-4
  6
CONTINUOUS
 62
     7
 10
87.93463085498338
 20
164.6719189434392
 30
0.0
  0
VERTEX
  5
347
  8
___-4
  6
CONTINUOUS
 62
     7
 10
90.47066196785738
 20
167.8036565536117
 30
0.0
  0
VERTEX
  5
348
  8
___-4
  6
CONTINUOUS
 62
     7
 10
88.76759771650649
 20
164.1514234805173
 30
0.0
  0
SEQEND
  5
349
  8
___-4
  6
CONTINUOUS
 62
     7
  0
POLYLINE
  5
34A
  8
___-4
 62
     0
 66
     1
 10
0.0
 20
0.0
 30
0.0
 70
   128
  0
VERTEX
  5
34B
  8
___-4
 62
     0
 10
83.05231148708015
 20
156.2599564441622
 30
0.0
  0
VERTEX
  5
34C
  8
___-4
 62
     0
 10
82.69231148708015
 20
156.2599564441622
 30
0.0
  0
SEQEND
  5
34D
  8
___-4
 62
     0
  0
LINE
  5
34E
  8
___-4
 62
     0
 10
101.928101591053
 20
172.3036568001218
 30
0.0
 11
132.8489780285937
 21
181.3036571869796
 31
0.0
  0
POLYLINE
  5
34F
  8
___-4
  6
CONTINUOUS
 62
     7
 66
     1
 10
0.0
 20
0.0
 30
0.0
 70
   129
  0
VERTEX
  5
350
  8
___-4
  6
CONTINUOUS
 62
     7
 10
105.9082814758865
 20
172.9340553635722
 30
0.0
  0
VERTEX
  5
351
  8
___-4
  6
CONTINUOUS
 62
     7
 10
101.928101591053
 20
172.3036568001218
 30
0.0
  0
VERTEX
  5
352
  8
___-4
  6
CONTINUOUS
 62
     7
 10
105.6375459076635
 20
173.8782224946548
 30
0.0
  0
SEQEND
  5
353
  8
___-4
  6
CONTINUOUS
 62
     7
  0
POLYLINE
  5
354
  8
___-4
 62
     0
 66
     1
 10
0.0
 20
0.0
 30
0.0
 70
   128
  0
VERTEX
  5
355
  8
___-4
 62
     0
 10
132.8489780285937
 20
181.3036571869796
 30
0.0
  0
VERTEX
  5
356
  8
___-4
 62
     0
 10
133.2089780285937
 20
181.3036571869796
 30
0.0
  0
SEQEND
  5
357
  8
___-4
 62
     0
  0
LINE
  5
358
  8
___-3
 62
     0
 10
110.005718919047
 20
103.2848329552816
 30
0.0
 11
110.3024330532244
 21
106.2593272890242
 31
0.0
  0
LINE
  5
359
  8
___-3
 62
     0
 10
93.80243305322438
 20
106.2593272890242
 30
0.0
 11
94.09914718740174
 21
103.2848329552816
 31
0.0
  0
ARC
  5
35A
  8
___-3
 62
     0
 10
97.8377294435411
 20
107.9881818170952
 30
0.0
 40
1.647779901097108
 50
227.4207670820406
 51
268.7725976735409
  0
LINE
  5
35B
  8
___-3
 62
     0
 10
108.423753396784
 20
107.2593272890242
 30
0.0
 11
109.3024330532244
 21
107.2593272890242
 31
0.0
  0
LINE
  5
35C
  8
___-3
 62
     0
 10
95.68111270966472
 20
107.2593272890242
 30
0.0
 11
94.80243305322438
 21
107.2593272890242
 31
0.0
  0
ARC
  5
35D
  8
___-3
 62
     0
 10
109.3024330532244
 20
106.2593272890242
 30
0.0
 40
1.0
 50
0.0
 51
90.0
  0
ARC
  5
35E
  8
___-3
 62
     0
 10
95.31750775250305
 20
105.1153299675721
 30
0.0
 40
2.17461101792161
 50
49.7413536236172
 51
80.37467203732655
  0
ARC
  5
35F
  8
___-3
 62
     0
 10
94.80243305322438
 20
106.2593272890242
 30
0.0
 40
1.0
 50
90.0
 51
180.0
  0
LINE
  5
360
  8
___-2
 62
     0
 10
102.0526365273597
 20
101.4953776818149
 30
0.0
 11
102.0526365273597
 21
108.1043466545752
 31
0.0
  0
ARC
  5
361
  8
___-3
 62
     0
 10
102.0524330532244
 20
9.02353378010676
 30
0.0
 40
94.59623289674553
 50
85.17709873465226
 51
94.82290126534775
  0
LINE
  5
362
  8
___-1
 62
     0
 10
102.0819706056752
 20
84.25870387501948
 30
0.0
 11
102.081970606696
 21
84.25870387586207
 31
0.0
  0
LINE
  5
363
  8
___-1
 62
     0
 10
102.0819706056752
 20
84.25870387501948
 30
0.0
 11
102.081970606696
 21
84.25870387586207
 31
0.0
  0
LINE
  5
364
  8
___-1
 62
     0
 10
102.0819706056752
 20
84.25870387501948
 30
0.0
 11
102.081970606696
 21
84.25870387586207
 31
0.0
  0
LINE
  5
365
  8
___-4
 62
     0
 10
109.0145524838458
 20
104.8011735299351
 30
0.0
 11
118.0433446634325
 21
63.26053583390592
 31
0.0
  0
POLYLINE
  5
366
  8
___-4
  6
CONTINUOUS
 62
     7
 66
     1
 10
0.0
 20
0.0
 30
0.0
 70
   129
  0
VERTEX
  5
367
  8
___-4
  6
CONTINUOUS
 62
     7
 10
109.4357805876825
 20
100.7934558316719
 30
0.0
  0
VERTEX
  5
368
  8
___-4
  6
CONTINUOUS
 62
     7
 10
109.0145524838458
 20
104.8011735299351
 30
0.0
  0
VERTEX
  5
369
  8
___-4
  6
CONTINUOUS
 62
     7
 10
110.3928229753781
 20
101.0144064765497
 30
0.0
  0
SEQEND
  5
36A
  8
___-4
  6
CONTINUOUS
 62
     7
  0
POLYLINE
  5
36B
  8
___-4
 62
     0
 66
     1
 10
0.0
 20
0.0
 30
0.0
 70
   128
  0
VERTEX
  5
36C
  8
___-4
 62
     0
 10
118.0433446634325
 20
63.26053583390592
 30
0.0
  0
VERTEX
  5
36D
  8
___-4
 62
     0
 10
118.4033446634325
 20
63.26053583390592
 30
0.0
  0
SEQEND
  5
36E
  8
___-4
 62
     0
  0
LINE
  5
36F
  8
___-4
 62
     0
 10
98.25751926603016
 20
98.52028012760911
 30
0.0
 11
85.82987356408637
 21
58.43985872631829
 31
0.0
  0
POLYLINE
  5
370
  8
___-4
  6
CONTINUOUS
 62
     7
 66
     1
 10
0.0
 20
0.0
 30
0.0
 70
   129
  0
VERTEX
  5
371
  8
___-4
  6
CONTINUOUS
 62
     7
 10
96.61845465560906
 20
94.83888073779832
 30
0.0
  0
VERTEX
  5
372
  8
___-4
  6
CONTINUOUS
 62
     7
 10
98.25751926603016
 20
98.52028012760911
 30
0.0
  0
VERTEX
  5
373
  8
___-4
  6
CONTINUOUS
 62
     7
 10
97.55775299829081
 20
94.55170841539723
 30
0.0
  0
SEQEND
  5
374
  8
___-4
  6
CONTINUOUS
 62
     7
  0
POLYLINE
  5
375
  8
___-4
 62
     0
 66
     1
 10
0.0
 20
0.0
 30
0.0
 70
   128
  0
VERTEX
  5
376
  8
___-4
 62
     0
 10
85.82987356408637
 20
58.43985872631829
 30
0.0
  0
VERTEX
  5
377
  8
___-4
 62
     0
 10
85.46987356408637
 20
58.43985872631829
 30
0.0
  0
SEQEND
  5
378
  8
___-4
 62
     0
  0
LINE
  5
379
  8
___-3
 62
     0
 10
97.80243305322438
 20
106.3407799938322
 30
0.0
 11
99.65973592293187
 21
107.2599562973055
 31
0.0
  0
ARC
  5
37A
  8
___-3
 62
     0
 10
106.2675436111784
 20
107.9881818170952
 30
0.0
 40
1.647779901097118
 50
271.2274023264557
 51
312.5792329179591
  0
ARC
  5
37B
  8
___-3
 62
     0
 10
108.7877653022165
 20
105.1153299675721
 30
0.0
 40
2.174611017921606
 50
99.62532796267044
 51
130.2586463763828
  0
LINE
  5
37C
  8
___-3
 62
     0
 10
106.3028400014952
 20
106.3407799938322
 30
0.0
 11
104.4455371317877
 21
107.2599562973055
 31
0.0
  0
LINE
  5
37D
  8
___-2
 62
     0
 10
102.0526365273597
 20
103.9571735278038
 30
0.0
 11
102.0526365273597
 21
96.31880391993587
 31
0.0
  0
TEXT
  5
37E
  8
___-3
 62
     0
 10
27.11028011213557
 20
140.8263682644557
 30
0.0
 40
3.5
  1
±1
 50
90.0
  7
HELVETICA_NEUE
 11
23.61028011213557
 21
140.8263682644557
 31
0.0
 73
     3
  0
TEXT
  5
37F
  8
___-3
 62
     0
 10
52.5339777348579
 20
200.0099563759339
 30
0.0
 40
3.5
  1
±1
 50
90.0
  7
HELVETICA_NEUE
 11
49.0339777348579
 21
200.0099563759339
 31
0.0
 73
     3
  0
TEXT
  5
380
  8
___-4
 62
     0
 10
56.90302535362184
 20
189.3377394355985
 30
0.0
 40
3.5
  1
全
  7
HELVETICA_NEUE
 11
56.90302535362184
 21
192.8377394355985
 31
0.0
 73
     3
  0
TEXT
  5
381
  8
___-4
 62
     0
 10
56.90302535362184
 20
183.5044061022651
 30
0.0
 40
3.5
  1
開
  7
HELVETICA_NEUE
 11
56.90302535362184
 21
187.0044061022651
 31
0.0
 73
     3
  0
TEXT
  5
382
  8
___-4
 62
     0
 10
57.27349120620693
 20
179.2560445430084
 30
0.0
 40
3.5
  1
全
  7
HELVETICA_NEUE
 11
57.27349120620693
 21
182.7560445430084
 31
0.0
 73
     3
  0
TEXT
  5
383
  8
___-4
 62
     0
 10
57.27349120620693
 20
173.4227112096751
 30
0.0
 40
3.5
  1
閉
  7
HELVETICA_NEUE
 11
57.27349120620693
 21
176.9227112096751
 31
0.0
 73
     3
  0
TEXT
  5
384
  8
___-4
 62
     0
 10
44.51806382913173
 20
248.0458439459832
 30
0.0
 40
4.0
  1
認証　ＪＩ
  7
HELVETICA_NEUE
 11
44.51806382913173
 21
252.0458439459832
 31
0.0
 73
     3
  0
TEXT
  5
385
  8
___-4
 62
     0
 10
44.51806382913173
 20
241.3791772793165
 30
0.0
 40
4.0
  1
Ｓ
  7
HELVETICA_NEUE
 11
44.51806382913173
 21
245.3791772793165
 31
0.0
 73
     3
  0
TEXT
  5
386
  8
___-4
 62
     0
 10
139.3601451196301
 20
268.0571502362412
 30
0.0
 40
2.8
  1
※　ブラス色は　光沢（鏡面）では
  7
HELVETICA_NEUE
 11
139.3601451196301
 21
270.8571502362412
 31
0.0
 73
     3
  0
TEXT
  5
387
  8
___-4
 62
     0
 10
139.3601451196301
 20
263.3904835695745
 30
0.0
 40
2.8
  1
なく 
  7
HELVETICA_NEUE
 11
139.3601451196301
 21
266.1904835695746
 31
0.0
 73
     3
  0
TEXT
  5
388
  8
___-4
 62
     0
 10
139.3601451196301
 20
258.7238169029079
 30
0.0
 40
2.8
  1
　　つや消し仕上の磨きである 
  7
HELVETICA_NEUE
 11
139.3601451196301
 21
261.5238169029079
 31
0.0
 73
     3
  0
TEXT
  5
389
  8
___-4
 62
     0
 10
139.3601451196301
 20
254.0571502362412
 30
0.0
 40
2.8
  1
　
  7
HELVETICA_NEUE
 11
139.3601451196301
 21
256.8571502362412
 31
0.0
 73
     3
  0
LINE
  5
38A
  8
___
 62
     0
 10
246.9211806385661
 20
116.5350855198601
 30
0.0
 11
241.2961803325175
 21
116.5350855198601
 31
0.0
  0
LINE
  5
38B
  8
___
 62
     0
 10
267.2961803325175
 20
116.5350855198601
 30
0.0
 11
267.2961803325175
 21
106.5350855198601
 31
0.0
  0
LINE
  5
38C
  8
___
 62
     0
 10
247.7961803325175
 20
116.5350855198601
 30
0.0
 11
247.7961803325175
 21
106.5350855198601
 31
0.0
  0
LINE
  5
38D
  8
___
 62
     0
 10
247.5461803325175
 20
116.5350855198601
 30
0.0
 11
246.7961803325175
 21
116.5350855198601
 31
0.0
  0
LINE
  5
38E
  8
___
 62
     0
 10
263.6711806385661
 20
106.5350855198601
 30
0.0
 11
267.4211806385661
 21
106.5350855198601
 31
0.0
  0
LINE
  5
38F
  8
___
 62
     0
 10
273.6711806385661
 20
116.5350852194265
 30
0.0
 11
247.1711803325175
 21
116.5350855198601
 31
0.0
  0
LINE
  5
390
  8
___
 62
     0
 10
241.2786923996421
 20
117.5350851856531
 30
0.0
 11
241.2786923996421
 21
121.5350851856531
 31
0.0
  0
LINE
  5
391
  8
___
 62
     0
 10
241.2786923996421
 20
121.5350851856531
 30
0.0
 11
268.5286923147059
 21
121.5350848635568
 31
0.0
  0
LINE
  5
392
  8
___
 62
     0
 10
273.7786923996421
 20
121.5350851856531
 30
0.0
 11
273.7786923996421
 21
117.5350851856531
 31
0.0
  0
LINE
  5
393
  8
___
 62
     0
 10
267.2786923996421
 20
117.5350848635568
 30
0.0
 11
241.2786923996421
 21
117.5350851856531
 31
0.0
  0
LINE
  5
394
  8
___
 62
     0
 10
268.5286923996421
 20
121.5350851856531
 30
0.0
 11
268.5286923996421
 21
129.5350851856531
 31
0.0
  0
LINE
  5
395
  8
___
 62
     0
 10
247.0286923147059
 20
129.5350851856531
 30
0.0
 11
246.5286923996421
 21
129.5350851856531
 31
0.0
  0
LINE
  5
396
  8
___
 62
     0
 10
246.5286923996421
 20
129.5350851856531
 30
0.0
 11
246.5286923996421
 21
121.5350851856531
 31
0.0
  0
LINE
  5
397
  8
___
 62
     0
 10
268.0286923996421
 20
129.5350851856531
 30
0.0
 11
268.0286923996421
 21
142.5350851856531
 31
0.0
  0
LINE
  5
398
  8
___
 62
     0
 10
268.0286923996421
 20
142.5350851856531
 30
0.0
 11
247.0286923996421
 21
142.5350851856531
 31
0.0
  0
LINE
  5
399
  8
___
 62
     0
 10
247.0286923996421
 20
142.5350851856531
 30
0.0
 11
247.0286923996421
 21
129.5350851856531
 31
0.0
  0
LINE
  5
39A
  8
___
 62
     0
 10
247.0286923996421
 20
116.5350852194265
 30
0.0
 11
247.0286923996421
 21
107.0350851856531
 31
0.0
  0
LINE
  5
39B
  8
___
 62
     0
 10
247.5286923996421
 20
106.5350851856531
 30
0.0
 11
263.7924329225907
 21
106.5350848635568
 31
0.0
  0
LINE
  5
39C
  8
___
 62
     0
 10
268.0286923996421
 20
107.0350851856531
 30
0.0
 11
268.0286923996421
 21
116.5350852194265
 31
0.0
  0
LINE
  5
39D
  8
___
 62
     0
 10
247.0286923996421
 20
107.0350851856531
 30
0.0
 11
247.5286923996421
 21
106.5350851856531
 31
0.0
  0
LINE
  5
39E
  8
___
 62
     0
 10
267.5286923996421
 20
106.5350851856531
 30
0.0
 11
268.0286923996421
 21
107.0350851856531
 31
0.0
  0
LINE
  5
39F
  8
___
 62
     0
 10
247.5286923996421
 20
106.5350851856531
 30
0.0
 11
247.7786923996421
 21
106.5350851856531
 31
0.0
  0
LINE
  5
3A0
  8
___
 62
     0
 10
247.7786923996421
 20
106.5350851856531
 30
0.0
 11
247.7961803325175
 21
116.5350855127744
 31
0.0
  0
LINE
  5
3A1
  8
___
 62
     0
 10
267.5286923996421
 20
106.5350851856531
 30
0.0
 11
267.2786923996421
 21
106.5350851856531
 31
0.0
  0
LINE
  5
3A2
  8
___
 62
     0
 10
267.2786923996421
 20
106.5350851856531
 30
0.0
 11
267.2786923996421
 21
116.5350852194265
 31
0.0
  0
LINE
  5
3A3
  8
___
 62
     0
 10
268.5286923147059
 20
129.5350848635568
 30
0.0
 11
268.0286923147059
 21
129.5350848635568
 31
0.0
  0
LINE
  5
3A4
  8
___
 62
     0
 10
273.7786923147059
 20
121.5350848635568
 30
0.0
 11
268.5286923147059
 21
121.5350848635568
 31
0.0
  0
LINE
  5
3A5
  8
___
 62
     0
 10
267.2786923147059
 20
117.5350848635568
 30
0.0
 11
273.7786923147059
 21
117.5350848635568
 31
0.0
  0
LINE
  5
3A6
  8
___
 62
     0
 10
251.2786923147059
 20
106.5350848635568
 30
0.0
 11
252.2786923147059
 21
106.5350848635568
 31
0.0
  0
LINE
  5
3A7
  8
___
 62
     0
 10
263.7786923147059
 20
106.5350848635568
 30
0.0
 11
262.7786923147059
 21
106.5350848635568
 31
0.0
  0
LINE
  5
3A8
  8
___
 62
     0
 10
267.9211806385661
 20
142.5350852194265
 30
0.0
 11
264.9211806385661
 21
142.5350852194265
 31
0.0
  0
LINE
  5
3A9
  8
___
 62
     0
 10
262.1711806385661
 20
148.2850852194265
 30
0.0
 11
266.0461799516045
 21
148.2850852194265
 31
0.0
  0
LINE
  5
3AA
  8
___
 62
     0
 10
267.0461799516045
 20
147.7850852194265
 30
0.0
 11
267.0461799516045
 21
145.2850852194265
 31
0.0
  0
LINE
  5
3AB
  8
___
 62
     0
 10
267.0461799516045
 20
145.2850852194265
 30
0.0
 11
248.0461799516045
 21
145.2850852194265
 31
0.0
  0
LINE
  5
3AC
  8
___
 62
     0
 10
248.0461799516045
 20
145.2850852194265
 30
0.0
 11
248.0461799516045
 21
147.7850852194265
 31
0.0
  0
LINE
  5
3AD
  8
___
 62
     0
 10
249.0461799516045
 20
148.2850852194265
 30
0.0
 11
262.1711806385661
 21
148.2850852194265
 31
0.0
  0
LINE
  5
3AE
  8
___
 62
     0
 10
249.0461799516045
 20
148.2850852194265
 30
0.0
 11
248.0461799516045
 21
147.7850852194265
 31
0.0
  0
LINE
  5
3AF
  8
___
 62
     0
 10
266.0461799516045
 20
148.2850852194265
 30
0.0
 11
267.0461799516045
 21
147.7850852194265
 31
0.0
  0
LINE
  5
3B0
  8
___
 62
     0
 10
262.1711806385661
 20
145.2850852194265
 30
0.0
 11
265.5461799516045
 21
145.2850852194265
 31
0.0
  0
LINE
  5
3B1
  8
___
 62
     0
 10
265.5461799516045
 20
145.2850852194265
 30
0.0
 11
265.5461799516045
 21
142.5350852194265
 31
0.0
  0
LINE
  5
3B2
  8
___
 62
     0
 10
250.4211806385661
 20
142.5350851856531
 30
0.0
 11
250.2961799516045
 21
145.2850852194265
 31
0.0
  0
LINE
  5
3B3
  8
___
 62
     0
 10
267.0486389920043
 20
145.2850846516084
 30
0.0
 11
265.4211806385661
 21
145.2850846516084
 31
0.0
  0
LINE
  5
3B4
  8
___
 62
     0
 10
265.9637410153705
 20
160.6184185527598
 30
0.0
 11
265.9637410153705
 21
166.6184185527598
 31
0.0
  0
LINE
  5
3B5
  8
___
 62
     0
 10
265.9637410153705
 20
166.6184185527598
 30
0.0
 11
248.9637410153705
 21
166.6184185527598
 31
0.0
  0
LINE
  5
3B6
  8
___
 62
     0
 10
248.9637410153705
 20
166.6184185527598
 30
0.0
 11
248.9637410153705
 21
154.6184185527598
 31
0.0
  0
LINE
  5
3B7
  8
___
 62
     0
 10
248.9637410153705
 20
154.6184185527598
 30
0.0
 11
265.9211806385661
 21
154.6184188751411
 31
0.0
  0
LINE
  5
3B8
  8
___
 62
     0
 10
265.9637410153705
 20
154.6184185527598
 30
0.0
 11
265.9637410153705
 21
166.6184185527598
 31
0.0
  0
LINE
  5
3B9
  8
___
 62
     0
 10
268.4637410153705
 20
156.1184185527598
 30
0.0
 11
268.4637410153705
 21
165.1184185527598
 31
0.0
  0
ARC
  5
3BA
  8
___
 62
     0
 10
269.0887410153705
 20
168.9934185527598
 30
0.0
 40
3.925079617026896
 50
217.2348339815747
 51
279.1623470457225
  0
ARC
  5
3BB
  8
___
 62
     0
 10
268.9637410153705
 20
152.4517518860932
 30
0.0
 40
3.700600551862415
 50
82.23483398157732
 51
144.1623470457206
  0
LINE
  5
3BC
  8
___
 62
     0
 10
269.7137410153705
 20
165.1184185527598
 30
0.0
 11
278.9637410153705
 21
166.6184185527598
 31
0.0
  0
LINE
  5
3BD
  8
___
 62
     0
 10
269.4637410153705
 20
156.1184185527598
 30
0.0
 11
278.9637410153705
 21
154.6184185527598
 31
0.0
  0
LINE
  5
3BE
  8
___
 62
     0
 10
246.4637410153705
 20
156.1184185527598
 30
0.0
 11
246.4637410153705
 21
165.1184185527598
 31
0.0
  0
ARC
  5
3BF
  8
___
 62
     0
 10
246.2137410153705
 20
168.3684185527598
 30
0.0
 40
3.259601202601316
 50
265.6012946450065
 51
327.5288077091515
  0
ARC
  5
3C0
  8
___
 62
     0
 10
246.2137410153705
 20
152.8684185527598
 30
0.0
 40
3.259601202601325
 50
32.47119229084849
 51
94.39870535499655
  0
LINE
  5
3C1
  8
___
 62
     0
 10
245.9637410153705
 20
165.1184185527598
 30
0.0
 11
235.9637410153705
 21
166.6184185527598
 31
0.0
  0
LINE
  5
3C2
  8
___
 62
     0
 10
245.9637410153705
 20
156.1184185527598
 30
0.0
 11
235.9637410153705
 21
154.6184185527598
 31
0.0
  0
ARC
  5
3C3
  8
___
 62
     0
 10
278.9637410153705
 20
160.6184185527598
 30
0.0
 40
6.0
 50
270.0
 51
90.0
  0
ARC
  5
3C4
  8
___
 62
     0
 10
235.9637410153705
 20
160.6184185527598
 30
0.0
 40
6.0
 50
90.0
 51
270.0
  0
LINE
  5
3C5
  8
___
 62
     0
 10
251.7137407000384
 20
154.6184188751411
 30
0.0
 11
250.4637407000384
 21
154.6184188751411
 31
0.0
  0
LINE
  5
3C6
  8
___
 62
     0
 10
262.1711806385661
 20
154.6184188751411
 30
0.0
 11
265.9211806385661
 21
154.6184188751411
 31
0.0
  0
LINE
  5
3C7
  8
___
 62
     0
 10
246.9211806385661
 20
116.5350852194265
 30
0.0
 11
241.4211806385661
 21
116.5350852194265
 31
0.0
  0
LINE
  5
3C8
  8
___
 62
     0
 10
241.4211806385661
 20
116.5350852194265
 30
0.0
 11
241.4211806385661
 21
117.5350852194265
 31
0.0
  0
LINE
  5
3C9
  8
___
 62
     0
 10
267.6711806385661
 20
117.5350852194265
 30
0.0
 11
273.6711806385661
 21
117.5350852194265
 31
0.0
  0
LINE
  5
3CA
  8
___
 62
     0
 10
273.6711806385661
 20
117.5350852194265
 30
0.0
 11
273.6711806385661
 21
116.5350852194265
 31
0.0
  0
CIRCLE
  5
3CB
  8
___
 62
     0
 10
257.4211806385661
 20
160.61841879927
 30
0.0
 40
1.5
  0
LINE
  5
3CC
  8
___
 62
     0
 10
260.0457155748727
 20
86.93452867578154
 30
0.0
 11
260.0457155748727
 21
86.43452867578154
 31
0.0
  0
LINE
  5
3CD
  8
___
 62
     0
 10
255.0457155748727
 20
86.43452867578154
 30
0.0
 11
255.0457155748727
 21
86.93452867578154
 31
0.0
  0
LINE
  5
3CE
  8
___
 62
     0
 10
253.2957155748727
 20
91.93452867578154
 30
0.0
 11
261.7957155748727
 21
91.93452867578154
 31
0.0
  0
LINE
  5
3CF
  8
___
 62
     0
 10
257.5457155748727
 20
91.93452867578154
 30
0.0
 11
253.2957155748727
 21
91.93452867578154
 31
0.0
  0
LINE
  5
3D0
  8
___
 62
     0
 10
253.2957155748727
 20
91.93452867578154
 30
0.0
 11
253.2957155748727
 21
86.93452867578154
 31
0.0
  0
LINE
  5
3D1
  8
___
 62
     0
 10
253.2957155748727
 20
86.93452867578154
 30
0.0
 11
261.7957155748727
 21
86.93452867578154
 31
0.0
  0
LINE
  5
3D2
  8
___
 62
     0
 10
261.7957155748727
 20
86.93452867578154
 30
0.0
 11
261.7957155748727
 21
91.93452867578154
 31
0.0
  0
LINE
  5
3D3
  8
___
 62
     0
 10
254.7957155748727
 20
91.93452867578154
 30
0.0
 11
254.7957155748727
 21
86.93452867578154
 31
0.0
  0
LINE
  5
3D4
  8
___
 62
     0
 10
260.2957155748727
 20
86.93452867578154
 30
0.0
 11
260.2957155748727
 21
91.93452867578154
 31
0.0
  0
LINE
  5
3D5
  8
___
 62
     0
 10
263.7924329225907
 20
105.078785119863
 30
0.0
 11
263.7924329225907
 21
106.5350848635568
 31
0.0
  0
LINE
  5
3D6
  8
___
 62
     0
 10
251.2786923147059
 20
106.5350851856531
 30
0.0
 11
251.2924329225907
 21
105.078785119863
 31
0.0
  0
LINE
  5
3D7
  8
___
 62
     0
 10
253.0424329225907
 20
148.2850852194265
 30
0.0
 11
253.0424329225907
 21
154.6184185527598
 31
0.0
  0
LINE
  5
3D8
  8
___
 62
     0
 10
251.7924329225907
 20
104.578785119863
 30
0.0
 11
251.2924329225907
 21
105.078785119863
 31
0.0
  0
LINE
  5
3D9
  8
___
 62
     0
 10
263.2924329225907
 20
104.578785119863
 30
0.0
 11
263.7924329225907
 21
105.078785119863
 31
0.0
  0
LINE
  5
3DA
  8
___
 62
     0
 10
251.7924326637199
 20
99.57878523511462
 30
0.0
 11
252.2924326637199
 21
99.57878523511462
 31
0.0
  0
LINE
  5
3DB
  8
___
 62
     0
 10
252.2924326637199
 20
104.578785119863
 30
0.0
 11
252.2924326637199
 21
106.5350848635568
 31
0.0
  0
LINE
  5
3DC
  8
___
 62
     0
 10
252.542432835816
 20
99.57878523511462
 30
0.0
 11
251.5424332197547
 21
99.57878523511462
 31
0.0
  0
LINE
  5
3DD
  8
___
 62
     0
 10
262.7924326637199
 20
104.578785119863
 30
0.0
 11
262.7924326637199
 21
106.5350848635568
 31
0.0
  0
LINE
  5
3DE
  8
___
 62
     0
 10
248.542432835816
 20
95.57878492217966
 30
0.0
 11
248.542432835816
 21
99.078785119863
 31
0.0
  0
LINE
  5
3DF
  8
___
 62
     0
 10
249.042432835816
 20
99.578785119863
 30
0.0
 11
263.7924332197547
 21
99.57878492217966
 31
0.0
  0
LINE
  5
3E0
  8
___
 62
     0
 10
248.542432835816
 20
99.078785119863
 30
0.0
 11
249.042432835816
 21
99.578785119863
 31
0.0
  0
LINE
  5
3E1
  8
___
 62
     0
 10
266.542432835816
 20
99.07878492217966
 30
0.0
 11
266.542432835816
 21
95.57878492217966
 31
0.0
  0
LINE
  5
3E2
  8
___
 62
     0
 10
266.042432835816
 20
99.57878492217966
 30
0.0
 11
266.542432835816
 21
99.07878492217966
 31
0.0
  0
LINE
  5
3E3
  8
___
 62
     0
 10
266.542432835816
 20
95.57878492217966
 30
0.0
 11
260.042432835816
 21
95.57878492217966
 31
0.0
  0
LINE
  5
3E4
  8
___
 62
     0
 10
259.045715488098
 20
85.49204179310092
 30
0.0
 11
256.045715488098
 21
85.49204179310092
 31
0.0
  0
LINE
  5
3E5
  8
___
 62
     0
 10
260.5424332197547
 20
95.57878492217966
 30
0.0
 11
249.042432835816
 21
95.57878492217966
 31
0.0
  0
LINE
  5
3E6
  8
___
 62
     0
 10
253.042432835816
 20
100.0787849221797
 30
0.0
 11
253.042432835816
 21
104.578785119863
 31
0.0
  0
ARC
  5
3E7
  8
___
 62
     0
 10
252.542432835816
 20
100.0787852351146
 30
0.0
 40
0.5
 50
270.0
 51
0.0
  0
LINE
  5
3E8
  8
___
 62
     0
 10
262.2924332197547
 20
104.578785119863
 30
0.0
 11
251.792432835816
 21
104.578785119863
 31
0.0
  0
LINE
  5
3E9
  8
___
 62
     0
 10
262.042432835816
 20
99.82878492217966
 30
0.0
 11
262.042432835816
 21
104.578785119863
 31
0.0
  0
LINE
  5
3EA
  8
___
 62
     0
 10
262.042432835816
 20
104.578785119863
 30
0.0
 11
263.292432835816
 21
104.578785119863
 31
0.0
  0
LINE
  5
3EB
  8
___
 62
     0
 10
248.542432835816
 20
95.57878492217966
 30
0.0
 11
249.042432835816
 21
95.57878492217966
 31
0.0
  0
LINE
  5
3EC
  8
___
 62
     0
 10
255.045715488098
 20
86.99204179310092
 30
0.0
 11
255.045715488098
 21
85.99204179310092
 31
0.0
  0
LINE
  5
3ED
  8
___
 62
     0
 10
255.545715488098
 20
85.49204179310092
 30
0.0
 11
259.545715488098
 21
85.49204179310092
 31
0.0
  0
LINE
  5
3EE
  8
___
 62
     0
 10
255.045715488098
 20
85.99204179310092
 30
0.0
 11
255.545715488098
 21
85.49204179310092
 31
0.0
  0
LINE
  5
3EF
  8
___
 62
     0
 10
260.045715488098
 20
85.99204179310092
 30
0.0
 11
260.045715488098
 21
86.99204179310092
 31
0.0
  0
LINE
  5
3F0
  8
___
 62
     0
 10
259.545715488098
 20
85.49204179310092
 30
0.0
 11
260.045715488098
 21
85.99204179310092
 31
0.0
  0
LINE
  5
3F1
  8
___
 62
     0
 10
255.795715488098
 20
86.93257426906538
 30
0.0
 11
255.795715488098
 21
85.49204179310092
 31
0.0
  0
LINE
  5
3F2
  8
___
 62
     0
 10
259.295715488098
 20
86.99204179310092
 30
0.0
 11
259.295715488098
 21
85.49204179310092
 31
0.0
  0
LINE
  5
3F3
  8
___
 62
     0
 10
266.042432835816
 20
99.57878492217966
 30
0.0
 11
262.542432835816
 21
99.57878492217966
 31
0.0
  0
ARC
  5
3F4
  8
___
 62
     0
 10
262.542432835816
 20
100.0787849221797
 30
0.0
 40
0.5
 50
180.0
 51
270.0
  0
LINE
  5
3F5
  8
___
 62
     0
 10
248.5424332197547
 20
99.07878492217966
 30
0.0
 11
266.5424332197547
 21
99.07878492217966
 31
0.0
  0
LINE
  5
3F6
  8
___
 62
     0
 10
265.49879796656
 20
91.59959495442976
 30
0.0
 11
265.7955121007374
 21
94.5740892881723
 31
0.0
  0
LINE
  5
3F7
  8
___
 62
     0
 10
249.2955121007374
 20
94.5740892881723
 30
0.0
 11
249.5922262349147
 21
91.59959495442976
 31
0.0
  0
ARC
  5
3F8
  8
___
 62
     0
 10
253.3308084910541
 20
96.30294381624327
 30
0.0
 40
1.647779901097113
 50
227.4207670820367
 51
268.7725976735414
  0
LINE
  5
3F9
  8
___
 62
     0
 10
263.916832444297
 20
95.5740892881723
 30
0.0
 11
264.7955121007374
 21
95.5740892881723
 31
0.0
  0
LINE
  5
3FA
  8
___
 62
     0
 10
251.1741917571777
 20
95.5740892881723
 30
0.0
 11
250.2955121007374
 21
95.5740892881723
 31
0.0
  0
ARC
  5
3FB
  8
___
 62
     0
 10
264.7955121007374
 20
94.5740892881723
 30
0.0
 40
1.0
 50
0.0
 51
90.0
  0
ARC
  5
3FC
  8
___
 62
     0
 10
250.810586800016
 20
93.43009196672023
 30
0.0
 40
2.17461101792162
 50
49.74135362361692
 51
80.37467203732618
  0
ARC
  5
3FD
  8
___
 62
     0
 10
250.2955121007374
 20
94.5740892881723
 30
0.0
 40
1.0
 50
90.0
 51
180.0
  0
ARC
  5
3FE
  8
___
 62
     0
 10
257.5455121007374
 20
-2.661704220745122
 30
0.0
 40
94.59623289674553
 50
85.17709873465225
 51
94.82290126534777
  0
LINE
  5
3FF
  8
___
 62
     0
 10
253.2955121007374
 20
94.65554199298029
 30
0.0
 11
255.1528149704449
 21
95.57471829645365
 31
0.0
  0
ARC
  5
400
  8
___
 62
     0
 10
261.7606226586914
 20
96.30294381624327
 30
0.0
 40
1.647779901097118
 50
271.2274023264566
 51
312.5792329179583
  0
ARC
  5
401
  8
___
 62
     0
 10
264.2808443497295
 20
93.43009196672023
 30
0.0
 40
2.174611017921608
 50
99.62532796267081
 51
130.2586463763825
  0
LINE
  5
402
  8
___
 62
     0
 10
261.7959190490081
 20
94.65554199298029
 30
0.0
 11
259.9386161793007
 21
95.57471829645365
 31
0.0
  0
LINE
  5
403
  8
___
 62
     0
 10
262.1711806383041
 20
154.6184188038491
 30
0.0
 11
262.1711806383041
 21
148.2850852194265
 31
0.0
  0
LINE
  5
404
  8
___
 62
     0
 10
249.5286923147059
 20
142.5350848635568
 30
0.0
 11
249.5286923147059
 21
145.2850852194265
 31
0.0
  0
LINE
  5
405
  8
___
 62
     0
 10
264.7961799516045
 20
145.2850852194265
 30
0.0
 11
264.7786923147059
 21
142.5350848635568
 31
0.0
  0
LINE
  5
406
  8
___
 62
     0
 10
248.4936926791897
 20
129.5371772991944
 30
0.0
 11
266.4936743249298
 21
129.5628824159039
 31
0.0
  0
LINE
  5
407
  8
___
 62
     0
 10
289.9378353622737
 20
28.12774701440327
 30
0.0
 11
287.9378353622737
 21
28.12774701440327
 31
0.0
  0
LINE
  5
408
  8
___
 62
     0
 10
287.9378353622737
 20
56.12774701440327
 30
0.0
 11
289.9378353622737
 21
56.12774701440327
 31
0.0
  0
LINE
  5
409
  8
___
 62
     0
 10
290.4378353622737
 20
52.37774701440327
 30
0.0
 11
305.9378353622737
 21
52.37774701440327
 31
0.0
  0
LINE
  5
40A
  8
___
 62
     0
 10
306.4378353622737
 20
51.87774701440327
 30
0.0
 11
306.4378353622737
 21
32.37774701440327
 31
0.0
  0
LINE
  5
40B
  8
___
 62
     0
 10
305.9378353622737
 20
31.87774701440327
 30
0.0
 11
290.4378353622737
 21
31.87774701440327
 31
0.0
  0
ARC
  5
40C
  8
___
 62
     0
 10
450.9927453610021
 20
36.21764521978703
 30
0.0
 40
181.7781297783544
 50
171.2227953036026
 51
174.2957445432473
  0
ARC
  5
40D
  8
___
 62
     0
 10
210.634279842015
 20
63.35050061231814
 30
0.0
 40
32.19351913015833
 50
1.822539218128608
 51
16.7485020435665
  0
LINE
  5
40E
  8
___
 62
     0
 10
202.4092989675024
 20
15.37774701440327
 30
0.0
 11
220.4092989675024
 21
15.37774701440327
 31
0.0
  0
ARC
  5
40F
  8
___
 62
     0
 10
241.8688188721276
 20
26.03730257386417
 30
0.0
 40
34.97473462750719
 50
92.88098853787734
 51
142.3983887419861
  0
ARC
  5
410
  8
___
 62
     0
 10
249.6183983629012
 20
16.20038239265523
 30
0.0
 40
47.21626620869336
 50
138.6764936790282
 51
180.9982983393984
  0
ARC
  5
411
  8
___
 62
     0
 10
249.8932094511849
 20
17.3721064980528
 30
0.0
 40
29.55128503398503
 50
125.6749775898443
 51
183.8697234752977
  0
ARC
  5
412
  8
___
 62
     0
 10
245.2426323008358
 20
19.26663590329213
 30
0.0
 40
25.44094165603307
 50
118.4110365620633
 51
119.6440085499073
  0
ARC
  5
413
  8
___
 62
     0
 10
239.8408791815942
 20
63.95565256538026
 30
0.0
 40
2.999999999999999
 50
275.1646681334691
 51
8.023331115590395
  0
ARC
  5
414
  8
___
 62
     0
 10
258.1137107322083
 20
48.91451172028559
 30
0.0
 40
17.55090630946837
 50
214.0532725404546
 51
267.6997960170638
  0
ARC
  5
415
  8
___
 62
     0
 10
257.2507623821366
 20
81.71616164854959
 30
0.0
 40
50.33866428232019
 50
270.1804476218348
 51
285.1531609017943
  0
LINE
  5
416
  8
___
 62
     0
 10
270.1592989675024
 20
33.12774701440327
 30
0.0
 11
285.4378353622737
 21
33.12774701440327
 31
0.0
  0
ARC
  5
417
  8
___
 62
     0
 10
236.9443431508105
 20
34.60693717255418
 30
0.0
 40
8.000000000000009
 50
34.05327254045456
 51
118.4110365620633
  0
LINE
  5
418
  8
___
 62
     0
 10
273.1106094996583
 20
51.12774701440327
 30
0.0
 11
285.4378353622737
 21
51.12774701440327
 31
0.0
  0
ARC
  5
419
  8
___
 62
     0
 10
273.1106094996583
 20
54.12774701440321
 30
0.0
 40
3.0
 50
176.9907652224728
 51
270.0
  0
LINE
  5
41A
  8
___
 62
     0
 10
287.4378353622737
 20
55.62774701440327
 30
0.0
 11
287.4378353622737
 21
31.12774701440327
 31
0.0
  0
LINE
  5
41B
  8
___
 62
     0
 10
287.4378353622737
 20
28.62774701440327
 30
0.0
 11
287.4378353622737
 21
31.12774701440327
 31
0.0
  0
ARC
  5
41C
  8
___
 62
     0
 10
285.4378353622737
 20
31.12774701440327
 30
0.0
 40
2.0
 50
0.0
 51
90.0
  0
ARC
  5
41D
  8
___
 62
     0
 10
285.4378353622737
 20
53.12774701440327
 30
0.0
 40
2.0
 50
270.0
 51
0.0
  0
ARC
  5
41E
  8
___
 62
     0
 10
287.9378353622737
 20
55.62774701440327
 30
0.0
 40
0.5
 50
90.0
 51
180.0
  0
ARC
  5
41F
  8
___
 62
     0
 10
289.9378353622737
 20
55.62774701440327
 30
0.0
 40
0.5
 50
0.0
 51
90.0
  0
ARC
  5
420
  8
___
 62
     0
 10
289.9378353622737
 20
28.62774701440327
 30
0.0
 40
0.5
 50
270.0
 51
0.0
  0
ARC
  5
421
  8
___
 62
     0
 10
287.9378353622737
 20
28.62774701440327
 30
0.0
 40
0.5
 50
180.0
 51
270.0
  0
LINE
  5
422
  8
___
 62
     0
 10
290.4378353622737
 20
31.87774701440327
 30
0.0
 11
290.4378353622737
 21
32.87774701440327
 31
0.0
  0
LINE
  5
423
  8
___
 62
     0
 10
290.4378353622737
 20
32.87774701440327
 30
0.0
 11
306.4378353622737
 21
32.87774701440327
 31
0.0
  0
LINE
  5
424
  8
___
 62
     0
 10
306.4378353622737
 20
51.37774701440327
 30
0.0
 11
290.4378353622737
 21
51.37774701440327
 31
0.0
  0
LINE
  5
425
  8
___
 62
     0
 10
305.9378353622737
 20
52.37774701440327
 30
0.0
 11
306.4378353622737
 21
51.87774701440327
 31
0.0
  0
LINE
  5
426
  8
___
 62
     0
 10
306.4378353622737
 20
32.37774701440327
 30
0.0
 11
305.9378353622737
 21
31.87774701440327
 31
0.0
  0
LINE
  5
427
  8
___
 62
     0
 10
290.4378353622737
 20
55.62774701440327
 30
0.0
 11
290.4378353622737
 21
32.87774701440327
 31
0.0
  0
LINE
  5
428
  8
___
 62
     0
 10
290.4378353622737
 20
28.62774701440327
 30
0.0
 11
290.4378353622737
 21
32.87774701440327
 31
0.0
  0
LINE
  5
429
  8
___
 62
     0
 10
306.4378353622737
 20
42.12774701440327
 30
0.0
 11
306.4378353622737
 21
48.12774701440327
 31
0.0
  0
LINE
  5
42A
  8
___
 62
     0
 10
306.4378353622737
 20
42.12774701440327
 30
0.0
 11
306.4378353622737
 21
36.12774701440327
 31
0.0
  0
LINE
  5
42B
  8
___
 62
     0
 10
273.6592989675024
 20
72.62774701440327
 30
0.0
 11
241.284299273551
 21
72.62774671396966
 31
0.0
  0
LINE
  5
42C
  8
___
 62
     0
 10
243.4092989675024
 20
69.77589650867066
 30
0.0
 11
271.4092989675024
 21
69.77589650867066
 31
0.0
  0
ARC
  5
42D
  8
___
 62
     0
 10
-540.6356587931864
 20
285.4425267744558
 30
0.0
 40
841.6450610077869
 50
344.7423827308697
 51
345.3534356043436
  0
TEXT
  5
42E
  8
___-4
 62
     0
 10
184.3088547278121
 20
137.48253928544
 30
0.0
 40
3.5
  1
クラシック水栓 
  7
HELVETICA_NEUE
 11
184.3088547278121
 21
140.98253928544
 31
0.0
 73
     3
  0
TEXT
  5
42F
  8
___-4
 62
     0
 10
184.3088547278121
 20
131.6492059521067
 30
0.0
 40
3.5
  1
上部一式 
  7
HELVETICA_NEUE
 11
184.3088547278121
 21
135.1492059521067
 31
0.0
 73
     3
  0
TEXT
  5
430
  8
___-4
 62
     0
 10
184.3088547278121
 20
125.8158726187733
 30
0.0
 40
3.5
  1
　
  7
HELVETICA_NEUE
 11
184.3088547278121
 21
129.3158726187733
 31
0.0
 73
     3
  0
TEXT
  5
431
  8
___-4
 62
     0
 10
238.2623280181243
 20
21.56988955810618
 30
0.0
 40
3.5
  1
クラシック水栓 
  7
HELVETICA_NEUE
 11
238.2623280181243
 21
25.06988955810618
 31
0.0
 73
     3
  0
TEXT
  5
432
  8
___-4
 62
     0
 10
238.2623280181243
 20
15.73655622477284
 30
0.0
 40
3.5
  1
本体　
  7
HELVETICA_NEUE
 11
238.2623280181243
 21
19.23655622477284
 31
0.0
 73
     3
  0
TEXT
  5
433
  8
___-4
 62
     0
 10
181.7388452165306
 20
127.6258615874113
 30
0.0
 40
2.8
  1
＜注意＞ 
  7
HELVETICA_NEUE
 11
181.7388452165306
 21
130.4258615874113
 31
0.0
 73
     3
  0
TEXT
  5
434
  8
___-4
 62
     0
 10
181.7388452165306
 20
122.9591949207447
 30
0.0
 40
2.8
  1
上部一式は　カシメ固定されて
  7
HELVETICA_NEUE
 11
181.7388452165306
 21
125.7591949207446
 31
0.0
 73
     3
  0
TEXT
  5
435
  8
___-4
 62
     0
 10
181.7388452165306
 20
118.292528254078
 30
0.0
 40
2.8
  1
おり　部品分解はできません
  7
HELVETICA_NEUE
 11
181.7388452165306
 21
121.092528254078
 31
0.0
 73
     3
  0
TEXT
  5
436
  8
___-4
 62
     0
 10
181.3760478124642
 20
108.8817650527895
 30
0.0
 40
2.8
  1
尚、コマパッキンは　Uナッ
  7
HELVETICA_NEUE
 11
181.3760478124642
 21
111.6817650527895
 31
0.0
 73
     3
  0
TEXT
  5
437
  8
___-4
 62
     0
 10
181.3760478124642
 20
104.2150983861228
 30
0.0
 40
2.8
  1
トを 
  7
HELVETICA_NEUE
 11
181.3760478124642
 21
107.0150983861228
 31
0.0
 73
     3
  0
TEXT
  5
438
  8
___-4
 62
     0
 10
181.3760478124642
 20
99.54843171945616
 30
0.0
 40
2.8
  1
ほどき取替えが可能です 
  7
HELVETICA_NEUE
 11
181.3760478124642
 21
102.3484317194562
 31
0.0
 73
     3
  0
TEXT
  5
439
  8
___-4
 62
     0
 10
181.3760478124642
 20
94.8817650527895
 30
0.0
 40
2.8
  1
　
  7
HELVETICA_NEUE
 11
181.3760478124642
 21
97.6817650527895
 31
0.0
 73
     3
  0
LINE
  5
43A
  8
___-2
 62
     0
 10
290.9404935929654
 20
200.6696385170369
 30
0.0
 11
329.1197093878127
 21
200.6696385170369
 31
0.0
  0
LINE
  5
43B
  8
___-2
 62
     0
 10
340.1197093878127
 20
200.6696385170369
 30
0.0
 11
380.1197093878127
 21
200.6696385170369
 31
0.0
  0
ARC
  5
43C
  8
___
 62
     0
 10
295.4541107500892
 20
213.0857571533292
 30
0.0
 40
1.084438108706214
 50
91.83603936799439
 51
179.3791382146567
  0
ARC
  5
43D
  8
___
 62
     0
 10
295.4581633998614
 20
188.2633038427882
 30
0.0
 40
1.094353273281249
 50
184.4663737694642
 51
267.9683014478968
  0
LINE
  5
43E
  8
___
 62
     0
 10
294.3697107848523
 20
190.1696385170369
 30
0.0
 11
308.3697093878127
 21
190.1696385170369
 31
0.0
  0
LINE
  5
43F
  8
___
 62
     0
 10
308.3697093878127
 20
190.1696673682329
 30
0.0
 11
308.3697093878127
 21
211.1696673682329
 31
0.0
  0
LINE
  5
440
  8
___
 62
     0
 10
308.8697093878127
 20
208.1696383630918
 30
0.0
 11
308.3697093878127
 21
208.6696383630918
 31
0.0
  0
LINE
  5
441
  8
___
 62
     0
 10
308.3697093878127
 20
211.1696385170369
 30
0.0
 11
294.3697107848523
 21
211.1696385170369
 31
0.0
  0
LINE
  5
442
  8
___
 62
     0
 10
308.3697093878127
 20
191.1696387463394
 30
0.0
 11
295.3697107848523
 21
191.1696383182071
 31
0.0
  0
LINE
  5
443
  8
___
 62
     0
 10
294.3697107848523
 20
190.1696382877344
 30
0.0
 11
295.3697107848523
 21
191.1696383182071
 31
0.0
  0
LINE
  5
444
  8
___
 62
     0
 10
308.3697093878127
 20
210.1696387463394
 30
0.0
 11
295.3697107848523
 21
210.1696383182071
 31
0.0
  0
LINE
  5
445
  8
___
 62
     0
 10
324.8697107848523
 20
190.169638517037
 30
0.0
 11
314.4193659516111
 21
190.169638517037
 31
0.0
  0
LINE
  5
446
  8
___
 62
     0
 10
314.4193659516111
 20
211.169638517037
 30
0.0
 11
324.8697107848523
 21
211.169638517037
 31
0.0
  0
LINE
  5
447
  8
___
 62
     0
 10
312.4193659516111
 20
188.1696385170369
 30
0.0
 11
312.4193659516111
 21
191.4196673682329
 31
0.0
  0
LINE
  5
448
  8
___
 62
     0
 10
325.8697107848523
 20
191.169638517037
 30
0.0
 11
325.8697107848523
 21
210.169638517037
 31
0.0
  0
LINE
  5
449
  8
___
 62
     0
 10
324.8697107848523
 20
211.169638517037
 30
0.0
 11
325.8697107848523
 21
210.169638517037
 31
0.0
  0
LINE
  5
44A
  8
___
 62
     0
 10
324.8697107848523
 20
190.169638517037
 30
0.0
 11
325.8697107848523
 21
191.169638517037
 31
0.0
  0
LINE
  5
44B
  8
___
 62
     0
 10
325.6197093878127
 20
190.919638517037
 30
0.0
 11
314.3697107848523
 21
190.919638517037
 31
0.0
  0
LINE
  5
44C
  8
___
 62
     0
 10
312.4193659516111
 20
190.919638517037
 30
0.0
 11
312.4193659516111
 21
190.169638517037
 31
0.0
  0
LINE
  5
44D
  8
___
 62
     0
 10
325.6197093878127
 20
210.419638517037
 30
0.0
 11
314.3697107848523
 21
210.419638517037
 31
0.0
  0
LINE
  5
44E
  8
___
 62
     0
 10
314.4193659516111
 20
191.4196673682329
 30
0.0
 11
314.4193659516111
 21
190.169638517037
 31
0.0
  0
LINE
  5
44F
  8
___
 62
     0
 10
314.4193659516111
 20
211.169638517037
 30
0.0
 11
314.4193659516111
 21
209.9196673682329
 31
0.0
  0
LINE
  5
450
  8
___
 62
     0
 10
312.4193659516111
 20
209.9196673682329
 30
0.0
 11
312.4193659516111
 21
213.1696385170369
 31
0.0
  0
LINE
  5
451
  8
___
 62
     0
 10
325.8697107848523
 20
193.9196385170369
 30
0.0
 11
318.9193662952221
 21
193.9196385170369
 31
0.0
  0
LINE
  5
452
  8
___
 62
     0
 10
325.8697107848523
 20
207.4196385170369
 30
0.0
 11
318.9193662952221
 21
207.4196385170369
 31
0.0
  0
LINE
  5
453
  8
___
 62
     0
 10
312.3697107848523
 20
191.4196673682329
 30
0.0
 11
314.3697107848523
 21
191.4196673682329
 31
0.0
  0
LINE
  5
454
  8
___
 62
     0
 10
312.3697107848523
 20
209.9196673682329
 30
0.0
 11
314.3697107848523
 21
209.9196673682329
 31
0.0
  0
LINE
  5
455
  8
___
 62
     0
 10
311.4193659516111
 20
187.1696385170369
 30
0.0
 11
295.3697107848523
 21
187.1696385170369
 31
0.0
  0
ARC
  5
456
  8
___
 62
     0
 10
311.4193659516111
 20
188.1696385170369
 30
0.0
 40
1.0
 50
270.0
 51
0.0
  0
LINE
  5
457
  8
___
 62
     0
 10
295.3697107848523
 20
214.1696385170369
 30
0.0
 11
311.4193659516111
 21
214.1696385170369
 31
0.0
  0
ARC
  5
458
  8
___
 62
     0
 10
311.4193659516111
 20
213.1696385170369
 30
0.0
 40
1.0
 50
0.0
 51
90.0
  0
LINE
  5
459
  8
___
 62
     0
 10
325.8697107848523
 20
197.1696385170369
 30
0.0
 11
318.9193662952221
 21
197.1696385170369
 31
0.0
  0
LINE
  5
45A
  8
___
 62
     0
 10
325.8697107848523
 20
204.1696385170369
 30
0.0
 11
318.9193662952221
 21
204.1696385170369
 31
0.0
  0
LINE
  5
45B
  8
___
 62
     0
 10
294.3697107848523
 20
190.1696382877344
 30
0.0
 11
294.3697107848523
 21
188.1696385170369
 31
0.0
  0
LINE
  5
45C
  8
___
 62
     0
 10
294.3697107848523
 20
213.1696385170369
 30
0.0
 11
294.3697107848523
 21
190.1696385170369
 31
0.0
  0
LINE
  5
45D
  8
___
 62
     0
 10
295.3697107848523
 20
210.1696383182071
 30
0.0
 11
294.3697107848523
 21
211.1696382877344
 31
0.0
  0
LINE
  5
45E
  8
___
 62
     0
 10
295.3697107848523
 20
210.1696385170369
 30
0.0
 11
295.3697107848523
 21
191.1696385170369
 31
0.0
  0
LINE
  5
45F
  8
___
 62
     0
 10
308.8697093878127
 20
193.1696383630918
 30
0.0
 11
318.9193662952221
 21
193.1696383630918
 31
0.0
  0
LINE
  5
460
  8
___
 62
     0
 10
308.3697093878127
 20
192.6696383630918
 30
0.0
 11
308.8697093878127
 21
193.1696383630918
 31
0.0
  0
LINE
  5
461
  8
___
 62
     0
 10
318.9193662952221
 20
193.1696383630918
 30
0.0
 11
318.9193662952221
 21
208.1696383630918
 31
0.0
  0
LINE
  5
462
  8
___
 62
     0
 10
318.9193662952221
 20
208.1696383630918
 30
0.0
 11
308.8697093878127
 21
208.1696383630918
 31
0.0
  0
DIMENSION
  5
463
  8
___-1
 62
     0
  2
*D9
 10
280.2591211124854
 20
190.1696673682329
 30
0.0
 11
280.2591211124854
 21
200.4629995706879
 31
0.0
 70
   160
  3
JIS
 13
294.3697093878127
 23
211.1696673682329
 33
0.0
 14
294.3697093878127
 24
190.1696673682329
 34
0.0
 50
-90.00000000000001
  0
DIMENSION
  5
464
  8
___-1
 62
     0
  2
*D10
 10
308.3697093878127
 20
221.4196673682329
 30
0.0
 11
301.6197093878127
 21
221.4196673682329
 31
0.0
 70
   160
  3
JIS
 13
294.3697093878127
 23
213.1696673682329
 33
0.0
 14
308.3697093878127
 24
211.1696673682329
 34
0.0
  0
ARC
  5
465
  8
___
 62
     0
 10
324.8621156783164
 20
54.80363585518387
 30
0.0
 40
1.084438108706214
 50
91.83603936799439
 51
179.3791382146567
  0
ARC
  5
466
  8
___
 62
     0
 10
324.8661683280886
 20
29.98118254464293
 30
0.0
 40
1.094353273281249
 50
184.4663737694642
 51
267.9683014478967
  0
LINE
  5
467
  8
___
 62
     0
 10
354.2777157130795
 20
31.88751721889173
 30
0.0
 11
343.8273708798383
 21
31.88751721889167
 31
0.0
  0
LINE
  5
468
  8
___
 62
     0
 10
343.8273708798383
 20
52.88751721889167
 30
0.0
 11
354.2777157130795
 21
52.88751721889167
 31
0.0
  0
LINE
  5
469
  8
___
 62
     0
 10
355.2777157130795
 20
51.88751721889167
 30
0.0
 11
354.2777157130795
 21
52.88751721889167
 31
0.0
  0
LINE
  5
46A
  8
___
 62
     0
 10
341.8273708798383
 20
29.88751721889162
 30
0.0
 11
341.8273708798383
 21
33.13754607008764
 31
0.0
  0
LINE
  5
46B
  8
___
 62
     0
 10
355.2777157130795
 20
32.88751721889173
 30
0.0
 11
355.2777157130795
 21
51.88751721889167
 31
0.0
  0
LINE
  5
46C
  8
___
 62
     0
 10
354.2777157130795
 20
31.88751721889173
 30
0.0
 11
355.2777157130795
 21
32.88751721889173
 31
0.0
  0
LINE
  5
46D
  8
___
 62
     0
 10
355.0250580461827
 20
32.63751721889167
 30
0.0
 11
343.7777157130795
 21
32.63751721889167
 31
0.0
  0
LINE
  5
46E
  8
___
 62
     0
 10
341.8273708798383
 20
54.63751728957322
 30
0.0
 11
341.8273708798383
 21
31.88751721889167
 31
0.0
  0
LINE
  5
46F
  8
___
 62
     0
 10
355.0250580461827
 20
52.13751721889167
 30
0.0
 11
343.7777157130795
 21
52.13751721889167
 31
0.0
  0
LINE
  5
470
  8
___
 62
     0
 10
343.8273708798383
 20
51.88751728957322
 30
0.0
 11
343.8273708798383
 21
31.88751721889167
 31
0.0
  0
LINE
  5
471
  8
___
 62
     0
 10
343.8273708798383
 20
52.88751721889167
 30
0.0
 11
343.8273708798383
 21
51.63754607008764
 31
0.0
  0
LINE
  5
472
  8
___
 62
     0
 10
341.8273708798383
 20
51.63754607008764
 30
0.0
 11
341.8273708798383
 21
54.88751721889162
 31
0.0
  0
LINE
  5
473
  8
___
 62
     0
 10
341.7777157130795
 20
33.13754607008764
 30
0.0
 11
343.7777157130795
 21
33.13754607008764
 31
0.0
  0
LINE
  5
474
  8
___
 62
     0
 10
341.7777157130795
 20
51.63754607008764
 30
0.0
 11
343.7777157130795
 21
51.63754607008764
 31
0.0
  0
LINE
  5
475
  8
___
 62
     0
 10
340.8273708798383
 20
28.88751721889162
 30
0.0
 11
324.7777157130795
 21
28.88751721889162
 31
0.0
  0
ARC
  5
476
  8
___
 62
     0
 10
340.8273708798383
 20
29.88751721889162
 30
0.0
 40
1.0
 50
270.0
 51
0.0
  0
LINE
  5
477
  8
___
 62
     0
 10
324.7777157130795
 20
55.88751721889162
 30
0.0
 11
340.8273708798383
 21
55.88751721889162
 31
0.0
  0
ARC
  5
478
  8
___
 62
     0
 10
340.8273708798383
 20
54.88751721889162
 30
0.0
 40
1.0
 50
0.0
 51
90.0
  0
LINE
  5
479
  8
___
 62
     0
 10
323.7777157130795
 20
31.88751698958913
 30
0.0
 11
323.7777157130795
 21
29.88751721889162
 31
0.0
  0
LINE
  5
47A
  8
___
 62
     0
 10
323.7777157130795
 20
54.88751721889162
 30
0.0
 11
323.7777157130795
 21
31.88751721889162
 31
0.0
  0
LINE
  5
47B
  8
___
 62
     0
 10
308.8697093878127
 20
193.1696673682329
 30
0.0
 11
308.8697093878127
 21
208.1696673682329
 31
0.0
  0
DIMENSION
  5
47C
  8
___-1
 62
     0
  2
*D11
 10
337.4943662966636
 20
190.169638517037
 30
0.0
 11
337.4943662966636
 21
200.6696385170368
 31
0.0
 70
   160
  3
JIS
 13
324.8697107848523
 23
211.169638517037
 33
0.0
 14
324.8697107848523
 24
190.169638517037
 34
0.0
 50
-90.00000000000001
  0
LINE
  5
47D
  8
___-2
 62
     0
 10
361.1197093878127
 20
182.1696673682329
 30
0.0
 11
361.1197093878127
 21
220.9196673682329
 31
0.0
  0
CIRCLE
  5
47E
  8
___
 62
     0
 10
361.1197093878127
 20
200.6696673682329
 30
0.0
 40
13.5
  0
POLYLINE
  5
47F
  8
___
 62
     0
 66
     1
 10
0.0
 20
0.0
 30
0.0
 70
   129
  0
VERTEX
  5
480
  8
___
 62
     0
 10
354.8697093878127
 20
197.0612281857977
 30
0.0
  0
VERTEX
  5
481
  8
___
 62
     0
 10
361.1197093878127
 20
193.4527890033626
 30
0.0
  0
VERTEX
  5
482
  8
___
 62
     0
 10
367.3697093878127
 20
197.0612281857977
 30
0.0
  0
VERTEX
  5
483
  8
___
 62
     0
 10
367.3697093878127
 20
204.2781065506681
 30
0.0
  0
VERTEX
  5
484
  8
___
 62
     0
 10
361.1197093878127
 20
207.8865457331033
 30
0.0
  0
VERTEX
  5
485
  8
___
 62
     0
 10
354.8697093878127
 20
204.2781065506681
 30
0.0
  0
SEQEND
  5
486
  8
___
 62
     0
  0
CIRCLE
  5
487
  8
___
 62
     0
 10
361.1197093878127
 20
200.6696673682329
 30
0.0
 40
10.5
  0
CIRCLE
  5
488
  8
___
 62
     0
 10
361.1197093878127
 20
200.6696673682329
 30
0.0
 40
9.75
  0
DIMENSION
  5
489
  8
___-1
 62
     0
  2
*D12
 10
367.3697093878127
 20
170.6696673682329
 30
0.0
 11
361.1197093878127
 21
174.4466281525488
 31
0.0
 70
    32
  3
JIS
 13
354.8697093878127
 23
196.4196673682329
 33
0.0
 14
367.3697093878127
 24
196.4196673682329
 34
0.0
  0
DIMENSION
  5
48A
  8
___-1
 62
     0
  2
*D13
 10
325.8697093878127
 20
229.9196673682329
 30
0.0
 11
310.1197093878127
 21
229.9196673682329
 31
0.0
 70
   160
  3
JIS
 13
294.3697093878127
 23
213.1696673682329
 33
0.0
 14
325.8697093878127
 24
210.6696673682329
 34
0.0
  0
DIMENSION
  5
48B
  8
___-1
 62
     0
  2
*D14
 10
265.7953816312951
 20
214.1696385170369
 30
0.0
 11
262.0453816312929
 21
200.6696385170369
 31
0.0
 70
    32
  3
JIS
 13
295.4193659516117
 23
187.1696385170369
 33
0.0
 14
295.419365951611
 24
214.1696385170369
 34
0.0
 50
-90.0
  0
DIMENSION
  5
48C
  8
___-1
 62
     0
  2
*D15
 10
294.3697107848523
 20
173.8851434542789
 30
0.0
 11
310.1197107848523
 21
177.6621042385948
 31
0.0
 70
    32
  3
JIS
 13
325.8697107848523
 23
187.9280821727098
 33
0.0
 14
294.3697107848523
 24
187.9280821727098
 34
0.0
  0
DIMENSION
  5
48D
  8
___-1
 62
     0
  2
*D16
 10
294.3697107848523
 20
181.0862439808336
 30
0.0
 11
303.3697107848523
 21
184.8632047651495
 31
0.0
 70
    32
  3
JIS
 13
312.3697107848523
 23
187.9280821727098
 33
0.0
 14
294.3697107848523
 24
187.9280821727098
 34
0.0
  0
TEXT
  5
48E
  8
___-4
 62
     0
 10
327.837473011945
 20
19.14023317635053
 30
0.0
 40
3.5
  1
アダプタ－
  7
HELVETICA_NEUE
 11
327.837473011945
 21
22.64023317635053
 31
0.0
 73
     3
  0
TEXT
  5
48F
  8
___-4
 62
     0
 10
327.837473011945
 20
13.30689984301719
 30
0.0
 40
3.5
  1
　
  7
HELVETICA_NEUE
 11
327.837473011945
 21
16.80689984301719
 31
0.0
 73
     3
  0
TEXT
  5
490
  8
___-4
 62
     0
 10
312.7684233461638
 20
260.59682585225
 30
0.0
 40
6.5
  1
アダプタ
  7
HELVETICA_NEUE
 11
312.7684233461638
 21
267.09682585225
 31
0.0
 73
     3
  0
TEXT
  5
491
  8
___-4
 62
     0
 10
312.7684233461638
 20
249.7634925189167
 30
0.0
 40
6.5
  1
－
  7
HELVETICA_NEUE
 11
312.7684233461638
 21
256.2634925189167
 31
0.0
 73
     3
  0
DIMENSION
  5
492
  8
___-1
 62
     0
  2
*D17
 10
323.7777157130795
 20
64.79125097367341
 30
0.0
 11
332.7777157130795
 21
68.5682117579893
 31
0.0
 70
    32
  3
JIS
 13
341.7777157130795
 23
54.63751728957322
 33
0.0
 14
323.7777157130795
 24
55.62868932324363
 34
0.0
  0
TEXT
  5
493
  8
___-4
 62
     0
 10
374.8035861468043
 20
273.9130125019641
 30
0.0
 40
3.5
  1
Ｓ＝１/１
  7
HELVETICA_NEUE
 11
374.8035861468043
 21
277.4130125019641
 31
0.0
 73
     3
  0
TEXT
  5
494
  8
___-4
 62
     0
 10
52.88193040142704
 20
116.8951108558143
 30
0.0
 40
4.0
  1
水切り
  7
HELVETICA_NEUE
 72
     2
 11
61.28529174596486
 21
120.8951108558143
 31
0.0
 73
     3
  0
TEXT
  5
495
  8
___-4
 62
     0
 10
128.4589780285937
 20
127.5099562973055
 30
0.0
 40
3.0
  1
クラシック水栓　本体
  7
HELVETICA_NEUE
 11
128.4589780285937
 21
130.5099562973055
 31
0.0
 73
     3
  0
TEXT
  5
496
  8
___-4
 62
     0
 10
132.2089780285937
 20
137.7599562973055
 30
0.0
 40
4.0
  1
ﾌｧｲﾊﾞ-ﾊﾟｯｷﾝ
  7
HELVETICA_NEUE
 11
132.2089780285937
 21
141.7599562973055
 31
0.0
 73
     3
  0
TEXT
  5
497
  8
___-4
 62
     0
 10
131.7089780285937
 20
149.2599562973055
 30
0.0
 40
4.0
  1
ｸﾗｼｯｸ水栓　弁棒
  7
HELVETICA_NEUE
 11
131.7089780285937
 21
153.2599562973055
 31
0.0
 73
     3
  0
TEXT
  5
498
  8
___-4
 62
     0
 10
44.04441220226319
 20
142.7599562973055
 30
0.0
 40
4.0
  1
ｸﾗｼｯｸ水栓　上部ナット
  7
HELVETICA_NEUE
 72
     2
 11
80.45897802859372
 21
146.7599562973055
 31
0.0
 73
     3
  0
TEXT
  5
499
  8
___-4
 62
     0
 10
38.38778515668952
 20
129.6031454753635
 30
0.0
 40
4.0
  1
ｸﾗｼｯｸ水栓　上部ﾊﾟｯｷﾝ
  7
HELVETICA_NEUE
 72
     2
 11
80.40459187937859
 21
133.6031454753635
 31
0.0
 73
     3
  0
TEXT
  5
49A
  8
___-4
 62
     0
 10
127.6898370845563
 20
162.6338891101166
 30
0.0
 40
2.8
  1
クラシック水栓　元
  7
HELVETICA_NEUE
 11
127.6898370845563
 21
165.4338891101166
 31
0.0
 73
     3
  0
TEXT
  5
49B
  8
___-4
 62
     0
 10
127.6898370845563
 20
157.96722244345
 30
0.0
 40
2.8
  1
ねじ
  7
HELVETICA_NEUE
 11
127.6898370845563
 21
160.76722244345
 31
0.0
 73
     3
  0
TEXT
  5
49C
  8
___-4
 62
     0
 10
47.07886610892887
 20
157.0599564441623
 30
0.0
 40
4.0
  1
ｸﾗｼｯｸ水栓　ハンドル
  7
HELVETICA_NEUE
 72
     2
 11
80.69231148708013
 21
161.0599564441623
 31
0.0
 73
     3
  0
TEXT
  5
49D
  8
___-4
 62
     0
 10
135.2089780285937
 20
179.3036571869796
 30
0.0
 40
4.0
  1
ｸﾗｼｯｸ･ﾊﾝﾄﾞﾙ用ピン
  7
HELVETICA_NEUE
 11
135.2089780285937
 21
183.3036571869796
 31
0.0
 73
     3
  0
TEXT
  5
49E
  8
___-4
 62
     0
 10
120.4033446634326
 20
61.76053583390592
 30
0.0
 40
3.0
  1
コマパッキ
  7
HELVETICA_NEUE
 11
120.4033446634326
 21
64.76053583390592
 31
0.0
 73
     3
  0
TEXT
  5
49F
  8
___-4
 62
     0
 10
120.4033446634326
 20
56.76053583390592
 30
0.0
 40
3.0
  1
ン
  7
HELVETICA_NEUE
 11
120.4033446634326
 21
59.76053583390592
 31
0.0
 73
     3
  0
TEXT
  5
4A0
  8
___-4
 62
     0
 10
75.06651221954856
 20
59.03985872631829
 30
0.0
 40
3.0
  1
Ｕﾅｯﾄ
  7
HELVETICA_NEUE
 72
     2
 11
83.46987356408637
 21
62.03985872631829
 31
0.0
 73
     3
  0
VIEWPORT
  5
4A1
 67
     1
  8
0
 10
128.5
 20
97.5
 30
0.0
 40
314.226
 41
222.18
 68
     1
 69
     1
1001
ACAD
1000
MVIEW
1002
{
1070
    16
1010
0.0
1020
0.0
1030
0.0
1010
0.0
1020
0.0
1030
1.0
1040
0.0
1040
222.18
1040
128.5
1040
97.5
1040
50.0
1040
0.0
1040
0.0
1070
     0
1070
   100
1070
     0
1070
     3
1070
     0
1070
     0
1070
     0
1070
     0
1040
0.0
1040
0.0
1040
0.0
1040
10.0
1040
10.0
1040
10.0
1040
10.0
1070
     0
1002
{
1002
}
1002
}
  0
ENDSEC
  0
EOF
