  0
SECTION
  2
HEADER
  9
$ACADVER
  1
AC1009
  9
$DWGCODEPAGE
  3
dos932
  9
$INSBASE
 10
0.0
 20
0.0
 30
0.0
  9
$EXTMIN
 10
-10301.79585050715
 20
614.8222222222219
 30
0.0
  9
$EXTMAX
 10
-66.58933295997718
 20
15273.77151448186
 30
0.0
  9
$LIMMIN
 10
0.0
 20
0.0
  9
$LIMMAX
 10
12.0
 20
9.0
  9
$ORTHOMODE
 70
     0
  9
$REGENMODE
 70
     1
  9
$FILLMODE
 70
     1
  9
$QTEXTMODE
 70
     0
  9
$MIRRTEXT
 70
     1
  9
$DRAGMODE
 70
     2
  9
$LTSCALE
 40
0.9999999999999999
  9
$OSMODE
 70
    37
  9
$ATTMODE
 70
     1
  9
$TEXTSIZE
 40
0.2
  9
$TRACEWID
 40
1.0
  9
$TEXTSTYLE
  7
STANDARD
  9
$CLAYER
  8
__
  9
$CELTYPE
  6
BYLAYER
  9
$CECOLOR
 62
   256
  9
$DIMSCALE
 40
1.0
  9
$DIMASZ
 40
0.4495849609375
  9
$DIMEXO
 40
1.499999994412065
  9
$DIMDLI
 40
6.000000001303851
  9
$DIMRND
 40
0.0
  9
$DIMDLE
 40
0.0
  9
$DIMEXE
 40
0.0
  9
$DIMTP
 40
0.0
  9
$DIMTM
 40
0.0
  9
$DIMTXT
 40
4.248032407407403
  9
$DIMCEN
 40
0.0
  9
$DIMTSZ
 40
0.0
  9
$DIMTOL
 70
     0
  9
$DIMLIM
 70
     0
  9
$DIMTIH
 70
     0
  9
$DIMTOH
 70
     0
  9
$DIMSE1
 70
     0
  9
$DIMSE2
 70
     0
  9
$DIMTAD
 70
     1
  9
$DIMZIN
 70
     8
  9
$DIMBLK
  1
DOT
  9
$DIMASO
 70
     1
  9
$DIMSHO
 70
     1
  9
$DIMPOST
  1
<>
  9
$DIMAPOST
  1
[]
  9
$DIMALT
 70
     0
  9
$DIMALTD
 70
     0
  9
$DIMALTF
 40
1.0
  9
$DIMLFAC
 40
1.0
  9
$DIMTOFL
 70
     1
  9
$DIMTVP
 40
0.0
  9
$DIMTIX
 70
     1
  9
$DIMSOXD
 70
     0
  9
$DIMSAH
 70
     0
  9
$DIMBLK1
  1
DOT
  9
$DIMBLK2
  1
DOT
  9
$DIMSTYLE
  2
TOOLBOX
  9
$DIMCLRD
 70
     0
  9
$DIMCLRE
 70
     0
  9
$DIMCLRT
 70
     0
  9
$DIMTFAC
 40
0.8
  9
$DIMGAP
 40
0.0099999999627471
  9
$LUNITS
 70
     2
  9
$LUPREC
 70
     2
  9
$SKETCHINC
 40
0.1
  9
$FILLETRAD
 40
0.0
  9
$AUNITS
 70
     0
  9
$AUPREC
 70
     2
  9
$MENU
  1
.
  9
$ELEVATION
 40
0.0
  9
$PELEVATION
 40
0.0
  9
$THICKNESS
 40
0.0
  9
$LIMCHECK
 70
     0
  9
$CHAMFERA
 40
0.0
  9
$CHAMFERB
 40
0.0
  9
$SKPOLY
 70
     0
  9
$TDCREATE
 40
2460266.736815081
  9
$TDUPDATE
 40
2460266.736890556
  9
$TDINDWG
 40
0.0000000116
  9
$TDUSRTIMER
 40
0.0000000116
  9
$USRTIMER
 70
     1
  9
$ANGBASE
 50
0.0
  9
$ANGDIR
 70
     0
  9
$PDMODE
 70
     1
  9
$PDSIZE
 40
-2.0
  9
$PLINEWID
 40
0.0
  9
$COORDS
 70
     1
  9
$SPLFRAME
 70
     0
  9
$SPLINETYPE
 70
     6
  9
$SPLINESEGS
 70
     8
  9
$ATTDIA
 70
     0
  9
$ATTREQ
 70
     1
  9
$HANDLING
 70
     1
  9
$HANDSEED
  5
457
  9
$SURFTAB1
 70
     6
  9
$SURFTAB2
 70
     6
  9
$SURFTYPE
 70
     6
  9
$SURFU
 70
     6
  9
$SURFV
 70
     6
  9
$UCSNAME
  2

  9
$UCSORG
 10
0.0
 20
0.0
 30
0.0
  9
$UCSXDIR
 10
1.0
 20
0.0
 30
0.0
  9
$UCSYDIR
 10
0.0
 20
1.0
 30
0.0
  9
$PUCSNAME
  2

  9
$PUCSORG
 10
0.0
 20
0.0
 30
0.0
  9
$PUCSXDIR
 10
1.0
 20
0.0
 30
0.0
  9
$PUCSYDIR
 10
0.0
 20
1.0
 30
0.0
  9
$USERI1
 70
     0
  9
$USERI2
 70
     0
  9
$USERI3
 70
     0
  9
$USERI4
 70
     0
  9
$USERI5
 70
     0
  9
$USERR1
 40
0.0
  9
$USERR2
 40
0.0
  9
$USERR3
 40
0.0
  9
$USERR4
 40
0.0
  9
$USERR5
 40
0.0
  9
$WORLDVIEW
 70
     1
  9
$SHADEDGE
 70
     3
  9
$SHADEDIF
 70
    70
  9
$TILEMODE
 70
     1
  9
$MAXACTVP
 70
    64
  9
$PLIMCHECK
 70
     0
  9
$PEXTMIN
 10
1.000000000000000E+20
 20
1.000000000000000E+20
 30
1.000000000000000E+20
  9
$PEXTMAX
 10
-1.000000000000000E+20
 20
-1.000000000000000E+20
 30
-1.000000000000000E+20
  9
$PLIMMIN
 10
-20.0
 20
-7.5
  9
$PLIMMAX
 10
277.0
 20
202.5
  9
$UNITMODE
 70
     0
  9
$VISRETAIN
 70
     1
  9
$PLINEGEN
 70
     0
  9
$PSLTSCALE
 70
     1
  0
ENDSEC
  0
SECTION
  2
TABLES
  0
TABLE
  2
VPORT
 70
     1
  0
VPORT
  2
*ACTIVE
 70
     0
 10
0.0
 20
0.0
 11
1.0
 21
1.0
 12
-5184.192591733562
 22
7944.296868352038
 13
0.0
 23
0.0
 14
0.5
 24
0.5
 15
0.5
 25
0.5
 16
0.0
 26
0.0
 36
1.0
 17
0.0
 27
0.0
 37
0.0
 40
14658.94929225963
 41
0.6982223837114757
 42
2000.0
 43
0.0
 44
0.0
 50
0.0
 51
0.0
 71
     0
 72
   100
 73
     1
 74
     3
 75
     0
 76
     0
 77
     0
 78
     0
  0
ENDTAB
  0
TABLE
  2
LTYPE
 70
    14
  0
LTYPE
  2
CONTINUOUS
 70
     0
  3
Solid line
 72
    65
 73
     0
 40
0.0
  0
LTYPE
  2
ISO-11_______
 70
     0
  3

 72
    65
 73
     6
 40
8.509000000000002
 49
3.048
 49
-0.7619999999999999
 49
3.048
 49
-0.7620000000000007
 49
0.1270000000000001
 49
-0.7620000000000007
  0
LTYPE
  2
ISO-10______
 70
     0
  3

 72
    65
 73
     4
 40
4.699
 49
3.048
 49
-0.7619999999999999
 49
0.1270000000000001
 49
-0.7619999999999999
  0
LTYPE
  2
DASHED
 70
     0
  3

 72
    65
 73
     2
 40
39.99999999999999
 49
24.0
 49
-16.0
  0
LTYPE
  2
1
 70
     0
  3

 72
    65
 73
     2
 40
101.60254
 49
101.6
 49
-0.0025399999999941
  0
LTYPE
  2
______-8
 70
     0
  3

 72
    65
 73
     2
 40
11.43
 49
7.619999999999999
 49
-3.809999999999999
  0
LTYPE
  2
______-7
 70
     0
  3

 72
    65
 73
     4
 40
34.28999999999999
 49
22.86
 49
-3.809999999999997
 49
3.809999999999997
 49
-3.809999999999997
  0
LTYPE
  2
______-6
 70
     0
  3

 72
    65
 73
     4
 40
7.747000000000001
 49
6.095999999999999
 49
-0.7620000000000007
 49
0.1270000000000001
 49
-0.7620000000000007
  0
LTYPE
  2
______-5
 70
     0
  3

 72
    65
 73
     2
 40
0.4
 49
0.24
 49
-0.16
  0
LTYPE
  2
______-4
 70
     0
  3

 72
    65
 73
     6
 40
2.7
 49
1.8
 49
-0.2
 49
0.2
 49
-0.1000000000000002
 49
0.2
 49
-0.2
  0
LTYPE
  2
______-3
 70
     0
  3

 72
    65
 73
     4
 40
2.4
 49
1.8
 49
-0.2
 49
0.2
 49
-0.2
  0
LTYPE
  2
______-2
 70
     0
  3

 72
    65
 73
     2
 40
38.09999999999999
 49
25.4
 49
-12.7
  0
LTYPE
  2
______-1
 70
     0
  3

 72
    65
 73
     2
 40
101.60254
 49
101.6
 49
-0.0025399999999941
  0
LTYPE
  2
CENTER-2
 70
     0
  3

 72
    65
 73
     4
 40
25.4
 49
15.875
 49
-3.175
 49
3.175
 49
-3.175
  0
ENDTAB
  0
TABLE
  2
LAYER
 70
    11
  0
LAYER
  2
0
 70
     0
 62
     7
  6
CONTINUOUS
  0
LAYER
  2
__
 70
     0
 62
     7
  6
CONTINUOUS
  0
LAYER
  2
__-1
 70
     0
 62
     7
  6
CONTINUOUS
  0
LAYER
  2
__-2
 70
     0
 62
     7
  6
CONTINUOUS
  0
LAYER
  2
0_18__
 70
     0
 62
     7
  6
CONTINUOUS
  0
LAYER
  2
0_03____
 70
     0
 62
     7
  6
CONTINUOUS
  0
LAYER
  2
DEFPOINTS
 70
     0
 62
     7
  6
CONTINUOUS
  0
ENDTAB
  0
TABLE
  2
STYLE
 70
     3
  0
STYLE
  2
STANDARD
 70
     0
 40
0.0
 41
1.0
 50
0.0
 71
     0
 42
0.2
  3
txt
  4
BIGFONT.SHX
  0
STYLE
  2
____________
 70
     0
 40
0.0
 41
1.0
 50
0.0
 71
     0
 42
0.2
  3

  4

  0
STYLE
  2
YUGOTHIC_MEDIUM
 70
     0
 40
0.0
 41
1.0
 50
0.0
 71
     0
 42
0.2
  3

  4
YuGothic Medium
  0
ENDTAB
  0
TABLE
  2
VIEW
 70
     0
  0
ENDTAB
  0
TABLE
  2
UCS
 70
     0
  0
ENDTAB
  0
TABLE
  2
APPID
 70
     4
  0
APPID
  2
ACAD
 70
     0
  0
APPID
  2
ACCMTRANSPARENCY
 70
     0
  0
APPID
  2
ACAECLAYERSTANDARD
 70
     0
  0
APPID
  2
ACADANNOTATIVE
 70
     0
  0
ENDTAB
  0
TABLE
  2
DIMSTYLE
 70
     2
  0
DIMSTYLE
  2
STANDARD
 70
     0
  3

  4

  5

  6

  7

 40
1.0
 41
0.18
 42
0.0625
 43
0.38
 44
0.18
 45
0.0
 46
0.0
 47
0.0
 48
0.0
140
0.18
141
0.09
142
0.0
143
25.4
144
1.0
145
0.0
146
1.0
147
0.09
 71
     0
 72
     0
 73
     1
 74
     1
 75
     0
 76
     0
 77
     0
 78
     0
170
     0
171
     2
172
     0
173
     0
174
     0
175
     0
176
     0
177
     0
178
     0
  0
DIMSTYLE
  2
TOOLBOX
 70
     0
  3
<>
  4
[]
  5
DOT
  6
DOT
  7
DOT
 40
1.0
 41
0.4495849609375
 42
1.499999994412065
 43
6.000000001303851
 44
0.0
 45
0.0
 46
0.0
 47
0.0
 48
0.0
140
4.248032407407403
141
0.0
142
0.0
143
1.0
144
1.0
145
0.0
146
0.8
147
0.0099999999627471
 71
     0
 72
     0
 73
     0
 74
     0
 75
     0
 76
     0
 77
     1
 78
     8
170
     0
171
     0
172
     1
173
     0
174
     1
175
     0
176
     0
177
     0
178
     0
  0
ENDTAB
  0
ENDSEC
  0
SECTION
  2
BLOCKS
  0
BLOCK
  8
0
  2
$MODEL_SPACE
 70
     0
 10
0.0
 20
0.0
 30
0.0
  3
$MODEL_SPACE
  1

  0
ENDBLK
  5
21
  8
0
  0
BLOCK
 67
     1
  8
0
  2
$PAPER_SPACE
 70
     0
 10
0.0
 20
0.0
 30
0.0
  3
$PAPER_SPACE
  1

  0
ENDBLK
  5
1D
 67
     1
  8
0
  0
BLOCK
  8
0
  2
____
 70
     0
 10
0.0
 20
0.0
 30
0.0
  3
____
  1

  0
ENDBLK
  5
60
  8
0
  0
BLOCK
  8
0
  2
_A4
 70
     0
 10
0.0
 20
0.0
 30
0.0
  3
_A4
  1

  0
LINE
  5
A2
  8
__
  6
CONTINUOUS
 62
     0
 10
5036.606058014953
 20
146.5817975545197
 30
0.0
 11
-5036.606058014953
 21
146.5817975545197
 31
0.0
  0
INSERT
  5
A3
  8
__
 62
     7
  2
____
 10
0.0
 20
0.0
 30
0.0
  0
TEXT
  5
A4
  8
__
 62
     3
 10
3933.326895127157
 20
3.412572073498254
 30
0.0
 40
75.24088541666666
  1
SCALE:
  7
____________
 11
3933.326895127157
 21
78.65345749016491
 31
0.0
 73
     3
  0
TEXT
  5
A5
  8
__
 62
     3
 10
-1674.923202351824
 20
1.467908665613308
 30
0.0
 40
75.24088541666666
  1
NAME:
  7
____________
 11
-1674.923202351824
 21
76.70879408227997
 31
0.0
 73
     3
  0
TEXT
  5
A6
  8
__
 62
     3
 10
2573.689926061106
 20
1.39290866563077
 30
0.0
 40
75.24088541666666
  1
DATE:
  7
____________
 11
2573.689926061106
 21
76.63379408229743
 31
0.0
 73
     3
  0
TEXT
  5
A7
  8
__
 62
     3
 10
1269.015793245973
 20
-6.679633102304265
 30
0.0
 40
75.24088541666666
  1
ID:
  7
____________
 11
1269.015793245973
 21
68.56125231436239
 31
0.0
 73
     3
  0
ENDBLK
  5
64
  8
0
  0
BLOCK
  8
0
  2
*D3
 70
     1
 10
0.0
 20
0.0
 30
0.0
  3
*D3
  1

  0
LINE
  5
A8
  8
__-1
 62
     0
 10
-258.1720536708808
 20
819.6710192130586
 30
0.0
 11
-259.2630717789735
 21
807.2006943299111
 31
0.0
  0
LINE
  5
A9
  8
__-1
 62
     0
 10
-257.6055383377553
 20
806.5213331972699
 30
0.0
 11
-257.6055383377553
 21
807.1283244571591
 31
0.0
  0
ARC
  5
AA
  8
__-1
 62
     0
 10
-257.6055383377553
 20
826.146283191682
 30
0.0
 40
19.01795873452279
 50
266.3544774363343
 51
268.645494976155
  0
INSERT
  5
AB
  8
__-1
 62
     0
  2
_DOT
 10
-259.2630717789735
 20
807.2006943299111
 30
0.0
 41
0.4495849609375
 42
0.4495849609375
 43
0.4495849609375
 50
175.6772249244118
  0
INSERT
  5
AC
  8
__-1
 62
     0
  2
_DOT
 10
-257.6055383377553
 20
807.1283244571591
 30
0.0
 41
0.4495849609375
 42
0.4495849609375
 43
0.4495849609375
 50
359.3227474880775
  0
TEXT
  5
12F
  8
__-1
 62
     0
 10
-267.6867704506197
 20
809.9026147974197
 30
0.0
 40
4.248032407407403
  1
5°
 50
336.6941222233485
  7
YUGOTHIC_MEDIUM
1001
ACADANNOTATIVE
1000
AnnotativeData
1002
{
1070
     1
1070
     0
1002
}
  0
POINT
  5
130
  8
DEFPOINTS
 62
     0
 10
-257.6055383377553
 20
826.146283191682
 30
0.0
  0
POINT
  5
131
  8
DEFPOINTS
 62
     0
 10
-258.0413193377553
 20
821.165311191682
 30
0.0
  0
POINT
  5
132
  8
DEFPOINTS
 62
     0
 10
-257.6055383377553
 20
808.021333191682
 30
0.0
  0
POINT
  5
133
  8
DEFPOINTS
 62
     0
 10
-258.158673369663
 20
807.1363700918151
 30
0.0
  0
ENDBLK
  5
68
  8
0
  0
BLOCK
  8
0
  2
*D4
 70
     1
 10
0.0
 20
0.0
 30
0.0
  3
*D4
  1

  0
LINE
  5
134
  8
__-1
 62
     0
 10
-222.6055163377553
 20
824.64628319727
 30
0.0
 11
-222.6055163377553
 21
794.467174308365
 31
0.0
  0
LINE
  5
135
  8
__-1
 62
     0
 10
-257.6055053377552
 20
824.64628319727
 30
0.0
 11
-257.6055053377552
 21
794.467174308365
 31
0.0
  0
LINE
  5
136
  8
__-1
 62
     0
 10
-223.0551012986928
 20
794.467174308365
 30
0.0
 11
-257.1559203768177
 21
794.467174308365
 31
0.0
  0
INSERT
  5
137
  8
__-1
 62
     0
  2
_DOT
 10
-222.6055163377553
 20
794.467174308365
 30
0.0
 41
0.4495849609375
 42
0.4495849609375
 43
0.4495849609375
  0
INSERT
  5
138
  8
__-1
 62
     0
  2
_DOT
 10
-257.6055053377552
 20
794.467174308365
 30
0.0
 41
0.4495849609375
 42
0.4495849609375
 43
0.4495849609375
 50
180.0
  0
TEXT
  5
139
  8
__-1
 62
     0
 10
-244.151255987667
 20
794.4771743083277
 30
0.0
 40
4.248032407407403
  1
35
  7
YUGOTHIC_MEDIUM
1001
ACADANNOTATIVE
1000
AnnotativeData
1002
{
1070
     1
1070
     0
1002
}
  0
POINT
  5
13A
  8
DEFPOINTS
 62
     0
 10
-222.6055163377553
 20
826.1462831916821
 30
0.0
  0
POINT
  5
13B
  8
DEFPOINTS
 62
     0
 10
-257.6055053377552
 20
826.1462831916821
 30
0.0
  0
POINT
  5
13C
  8
DEFPOINTS
 62
     0
 10
-257.6055053377552
 20
794.467174308365
 30
0.0
  0
ENDBLK
  5
6B
  8
0
  0
BLOCK
  8
0
  2
*D5
 70
     1
 10
0.0
 20
0.0
 30
0.0
  3
*D5
  1

  0
LINE
  5
13D
  8
__-1
 62
     0
 10
-147.6055163377553
 20
824.1462971972701
 30
0.0
 11
-147.6055163377553
 21
794.467174308365
 31
0.0
  0
LINE
  5
13E
  8
__-1
 62
     0
 10
-222.6055163377553
 20
824.64628319727
 30
0.0
 11
-222.6055163377553
 21
794.467174308365
 31
0.0
  0
LINE
  5
13F
  8
__-1
 62
     0
 10
-148.0551012986928
 20
794.467174308365
 30
0.0
 11
-222.1559313768178
 21
794.467174308365
 31
0.0
  0
INSERT
  5
140
  8
__-1
 62
     0
  2
_DOT
 10
-147.6055163377553
 20
794.467174308365
 30
0.0
 41
0.4495849609375
 42
0.4495849609375
 43
0.4495849609375
  0
INSERT
  5
141
  8
__-1
 62
     0
  2
_DOT
 10
-222.6055163377553
 20
794.467174308365
 30
0.0
 41
0.4495849609375
 42
0.4495849609375
 43
0.4495849609375
 50
180.0
  0
TEXT
  5
142
  8
__-1
 62
     0
 10
-189.1512614876671
 20
794.4771743083277
 30
0.0
 40
4.248032407407403
  1
75
  7
YUGOTHIC_MEDIUM
1001
ACADANNOTATIVE
1000
AnnotativeData
1002
{
1070
     1
1070
     0
1002
}
  0
POINT
  5
143
  8
DEFPOINTS
 62
     0
 10
-147.6055163377553
 20
825.6462971916822
 30
0.0
  0
POINT
  5
144
  8
DEFPOINTS
 62
     0
 10
-222.6055163377553
 20
826.1462831916821
 30
0.0
  0
POINT
  5
145
  8
DEFPOINTS
 62
     0
 10
-222.6055163377553
 20
794.467174308365
 30
0.0
  0
ENDBLK
  5
6E
  8
0
  0
BLOCK
  8
0
  2
*D6
 70
     1
 10
0.0
 20
0.0
 30
0.0
  3
*D6
  1

  0
LINE
  5
146
  8
__-1
 62
     0
 10
-133.6055163377553
 20
824.1462971972701
 30
0.0
 11
-133.6055163377553
 21
777.3920234641828
 31
0.0
  0
LINE
  5
147
  8
__-1
 62
     0
 10
-147.6055163377553
 20
824.1462971972701
 30
0.0
 11
-147.6055163377553
 21
777.3920234641828
 31
0.0
  0
LINE
  5
148
  8
__-1
 62
     0
 10
-134.0551012986928
 20
777.3920234641828
 30
0.0
 11
-147.1559313768178
 21
777.3920234641828
 31
0.0
  0
INSERT
  5
149
  8
__-1
 62
     0
  2
_DOT
 10
-133.6055163377553
 20
777.3920234641828
 30
0.0
 41
0.4495849609375
 42
0.4495849609375
 43
0.4495849609375
  0
INSERT
  5
14A
  8
__-1
 62
     0
  2
_DOT
 10
-147.6055163377553
 20
777.3920234641828
 30
0.0
 41
0.4495849609375
 42
0.4495849609375
 43
0.4495849609375
 50
180.0
  0
TEXT
  5
14B
  8
__-1
 62
     0
 10
-145.0558360026583
 20
777.4020234641455
 30
0.0
 40
4.248032407407403
  1
14
  7
YUGOTHIC_MEDIUM
1001
ACADANNOTATIVE
1000
AnnotativeData
1002
{
1070
     1
1070
     0
1002
}
  0
POINT
  5
14C
  8
DEFPOINTS
 62
     0
 10
-133.6055163377553
 20
825.6462971916822
 30
0.0
  0
POINT
  5
14D
  8
DEFPOINTS
 62
     0
 10
-147.6055163377553
 20
825.6462971916822
 30
0.0
  0
POINT
  5
14E
  8
DEFPOINTS
 62
     0
 10
-147.6055163377553
 20
777.3920234641828
 30
0.0
  0
ENDBLK
  5
71
  8
0
  0
BLOCK
  8
0
  2
*D7
 70
     1
 10
0.0
 20
0.0
 30
0.0
  3
*D7
  1

  0
LINE
  5
14F
  8
__-1
 62
     0
 10
-273.7791963321672
 20
826.146283191682
 30
0.0
 11
-322.2791963377551
 21
826.146283191682
 31
0.0
  0
LINE
  5
150
  8
__-1
 62
     0
 10
-273.7791963321672
 20
850.1462971916822
 30
0.0
 11
-322.2791963377551
 21
850.1462971916822
 31
0.0
  0
LINE
  5
151
  8
__-1
 62
     0
 10
-322.2791963377551
 20
826.5958681526195
 30
0.0
 11
-322.2791963377551
 21
849.6967122307447
 31
0.0
  0
INSERT
  5
152
  8
__-1
 62
     0
  2
_DOT
 10
-322.2791963377551
 20
826.146283191682
 30
0.0
 41
0.4495849609375
 42
0.4495849609375
 43
0.4495849609375
 50
270.0
  0
INSERT
  5
153
  8
__-1
 62
     0
  2
_DOT
 10
-322.2791963377551
 20
850.1462971916822
 30
0.0
 41
0.4495849609375
 42
0.4495849609375
 43
0.4495849609375
 50
90.0
  0
TEXT
  5
154
  8
__-1
 62
     0
 10
-322.289196337718
 20
833.9994014130225
 30
0.0
 40
4.248032407407403
  1
24
 50
90.0
  7
YUGOTHIC_MEDIUM
1001
ACADANNOTATIVE
1000
AnnotativeData
1002
{
1070
     1
1070
     0
1002
}
  0
POINT
  5
155
  8
DEFPOINTS
 62
     0
 10
-272.2791963377551
 20
826.146283191682
 30
0.0
  0
POINT
  5
156
  8
DEFPOINTS
 62
     0
 10
-272.2791963377551
 20
850.1462971916822
 30
0.0
  0
POINT
  5
157
  8
DEFPOINTS
 62
     0
 10
-322.2791963377551
 20
850.1462971916822
 30
0.0
  0
ENDBLK
  5
74
  8
0
  0
BLOCK
  8
0
  2
*D8
 70
     1
 10
0.0
 20
0.0
 30
0.0
  3
*D8
  1

  0
LINE
  5
158
  8
__-1
 62
     0
 10
-272.2411708321674
 20
922.9462361916821
 30
0.0
 11
-322.2791963377551
 21
922.9462361916821
 31
0.0
  0
LINE
  5
159
  8
__-1
 62
     0
 10
-273.7791963321672
 20
850.1462971916822
 30
0.0
 11
-322.2791963377551
 21
850.1462971916822
 31
0.0
  0
LINE
  5
15A
  8
__-1
 62
     0
 10
-322.2791963377551
 20
922.4966512307446
 30
0.0
 11
-322.2791963377551
 21
850.5958821526197
 31
0.0
  0
INSERT
  5
15B
  8
__-1
 62
     0
  2
_DOT
 10
-322.2791963377551
 20
922.9462361916821
 30
0.0
 41
0.4495849609375
 42
0.4495849609375
 43
0.4495849609375
 50
90.0
  0
INSERT
  5
15C
  8
__-1
 62
     0
  2
_DOT
 10
-322.2791963377551
 20
850.1462971916822
 30
0.0
 41
0.4495849609375
 42
0.4495849609375
 43
0.4495849609375
 50
270.0
  0
TEXT
  5
15D
  8
__-1
 62
     0
 10
-322.289196337718
 20
873.4987385832167
 30
0.0
 40
4.248032407407403
  1
72.7999
 50
90.0
  7
YUGOTHIC_MEDIUM
1001
ACADANNOTATIVE
1000
AnnotativeData
1002
{
1070
     1
1070
     0
1002
}
  0
POINT
  5
15E
  8
DEFPOINTS
 62
     0
 10
-270.7411708377554
 20
922.9462361916821
 30
0.0
  0
POINT
  5
15F
  8
DEFPOINTS
 62
     0
 10
-272.2791963377551
 20
850.1462971916822
 30
0.0
  0
POINT
  5
160
  8
DEFPOINTS
 62
     0
 10
-322.2791963377551
 20
850.1462971916822
 30
0.0
  0
ENDBLK
  5
77
  8
0
  0
BLOCK
  8
0
  2
*D9
 70
     1
 10
0.0
 20
0.0
 30
0.0
  3
*D9
  1

  0
LINE
  5
161
  8
__-1
 62
     0
 10
-146.1055163433432
 20
827.1462971916822
 30
0.0
 11
-97.60551633775526
 21
827.1462971916822
 31
0.0
  0
LINE
  5
162
  8
__-1
 62
     0
 10
-146.1055163433432
 20
873.1462971916822
 30
0.0
 11
-97.60551633775526
 21
873.1462971916822
 31
0.0
  0
LINE
  5
163
  8
__-1
 62
     0
 10
-97.60551633775526
 20
827.5958821526197
 30
0.0
 11
-97.60551633775526
 21
872.6967122307447
 31
0.0
  0
INSERT
  5
164
  8
__-1
 62
     0
  2
_DOT
 10
-97.60551633775526
 20
827.1462971916822
 30
0.0
 41
0.4495849609375
 42
0.4495849609375
 43
0.4495849609375
 50
270.0
  0
INSERT
  5
165
  8
__-1
 62
     0
  2
_DOT
 10
-97.60551633775526
 20
873.1462971916822
 30
0.0
 41
0.4495849609375
 42
0.4495849609375
 43
0.4495849609375
 50
90.0
  0
TEXT
  5
166
  8
__-1
 62
     0
 10
-97.61551633771796
 20
846.1005520417702
 30
0.0
 40
4.248032407407403
  1
46
 50
90.0
  7
YUGOTHIC_MEDIUM
1001
ACADANNOTATIVE
1000
AnnotativeData
1002
{
1070
     1
1070
     0
1002
}
  0
POINT
  5
167
  8
DEFPOINTS
 62
     0
 10
-147.6055163377553
 20
827.1462971916822
 30
0.0
  0
POINT
  5
168
  8
DEFPOINTS
 62
     0
 10
-147.6055163377553
 20
873.1462971916822
 30
0.0
  0
POINT
  5
169
  8
DEFPOINTS
 62
     0
 10
-97.60551633775526
 20
873.1462971916822
 30
0.0
  0
ENDBLK
  5
7A
  8
0
  0
BLOCK
  8
0
  2
*D10
 70
     1
 10
0.0
 20
0.0
 30
0.0
  3
*D10
  1

  0
LINE
  5
16A
  8
__-1
 62
     0
 10
-129.3623406389856
 20
844.146266191682
 30
0.0
 11
-120.0995493377553
 21
844.146266191682
 31
0.0
  0
LINE
  5
16B
  8
__-1
 62
     0
 10
-129.105485343343
 20
856.146266191682
 30
0.0
 11
-120.0995493377553
 21
856.146266191682
 31
0.0
  0
LINE
  5
16C
  8
__-1
 62
     0
 10
-120.0995493377553
 20
844.5958511526195
 30
0.0
 11
-120.0995493377553
 21
855.6966812307445
 31
0.0
  0
INSERT
  5
16D
  8
__-1
 62
     0
  2
_DOT
 10
-120.0995493377553
 20
844.146266191682
 30
0.0
 41
0.4495849609375
 42
0.4495849609375
 43
0.4495849609375
 50
270.0
  0
INSERT
  5
16E
  8
__-1
 62
     0
  2
_DOT
 10
-120.0995493377553
 20
856.146266191682
 30
0.0
 41
0.4495849609375
 42
0.4495849609375
 43
0.4495849609375
 50
90.0
  0
TEXT
  5
16F
  8
__-1
 62
     0
 10
-120.109549337718
 20
845.7970901555268
 30
0.0
 40
4.248032407407403
  1
12
 50
90.0
  7
YUGOTHIC_MEDIUM
1001
ACADANNOTATIVE
1000
AnnotativeData
1002
{
1070
     1
1070
     0
1002
}
  0
POINT
  5
170
  8
DEFPOINTS
 62
     0
 10
-130.8623406333977
 20
844.146266191682
 30
0.0
  0
POINT
  5
171
  8
DEFPOINTS
 62
     0
 10
-130.6054853377551
 20
856.146266191682
 30
0.0
  0
POINT
  5
172
  8
DEFPOINTS
 62
     0
 10
-120.0995493377553
 20
856.146266191682
 30
0.0
  0
ENDBLK
  5
7D
  8
0
  0
BLOCK
  8
0
  2
*D11
 70
     1
 10
0.0
 20
0.0
 30
0.0
  3
*D11
  1

  0
LINE
  5
173
  8
__-1
 62
     0
 10
-257.6055053377552
 20
813.9183379545791
 30
0.0
 11
-257.6055053377552
 21
777.3920234641828
 31
0.0
  0
LINE
  5
174
  8
__-1
 62
     0
 10
-147.6055163377553
 20
813.9183379545791
 30
0.0
 11
-147.6055163377553
 21
777.3920234641828
 31
0.0
  0
LINE
  5
175
  8
__-1
 62
     0
 10
-257.1559203768177
 20
777.3920234641828
 30
0.0
 11
-148.0551012986928
 21
777.3920234641828
 31
0.0
  0
INSERT
  5
176
  8
__-1
 62
     0
  2
_DOT
 10
-257.6055053377552
 20
777.3920234641828
 30
0.0
 41
0.4495849609375
 42
0.4495849609375
 43
0.4495849609375
 50
180.0
  0
INSERT
  5
177
  8
__-1
 62
     0
  2
_DOT
 10
-147.6055163377553
 20
777.3920234641828
 30
0.0
 41
0.4495849609375
 42
0.4495849609375
 43
0.4495849609375
  0
TEXT
  5
178
  8
__-1
 62
     0
 10
-208.9775594488663
 20
777.4020234641455
 30
0.0
 40
4.248032407407403
  1
110
  7
YUGOTHIC_MEDIUM
1001
ACADANNOTATIVE
1000
AnnotativeData
1002
{
1070
     1
1070
     0
1002
}
  0
POINT
  5
179
  8
DEFPOINTS
 62
     0
 10
-257.6055053377552
 20
815.4183379489912
 30
0.0
  0
POINT
  5
17A
  8
DEFPOINTS
 62
     0
 10
-147.6055163377553
 20
815.4183379489912
 30
0.0
  0
POINT
  5
17B
  8
DEFPOINTS
 62
     0
 10
-147.6055163377553
 20
777.3920234641828
 30
0.0
  0
ENDBLK
  5
80
  8
0
  0
BLOCK
  8
0
  2
_DOT
 70
     0
 10
0.0
 20
0.0
 30
0.0
  3
_DOT
  1

  0
POLYLINE
  5
A0
  8
0
  6
BYBLOCK
 62
     0
 66
     1
 10
0.0
 20
0.0
 30
0.0
 70
     1
 40
0.5
 41
0.5
  0
VERTEX
  5
454
  8
0
  6
BYBLOCK
 62
     0
 10
-0.25
 20
0.0
 30
0.0
 42
1.0
  0
VERTEX
  5
455
  8
0
  6
BYBLOCK
 62
     0
 10
0.25
 20
0.0
 30
0.0
 42
1.0
  0
SEQEND
  5
456
  8
0
  6
BYBLOCK
 62
     0
  0
LINE
  5
A1
  8
0
  6
BYBLOCK
 62
     0
 10
-0.5
 20
0.0
 30
0.0
 11
-1.0
 21
0.0
 31
0.0
  0
ENDBLK
  5
9F
  8
0
  0
ENDSEC
  0
SECTION
  2
ENTITIES
  0
INSERT
  5
17C
  8
__
 62
    17
  2
_A4
 10
-5265.189792492195
 20
15127.18971692734
 30
0.0
  0
TEXT
  5
17D
  8
__
 62
     3
 10
-2270.827938992037
 20
15117.60478498378
 30
0.0
 40
106.2008101851852
  1
2023.11.17
  7
YUGOTHIC_MEDIUM
 11
-2270.827938992037
 21
15170.70519007637
 31
0.0
 73
     2
  0
TEXT
  5
17E
  8
__
 62
     3
 10
-850.8279389920361
 20
15117.60478498378
 30
0.0
 40
106.2008101851852
  1
1:2(A4)
  7
YUGOTHIC_MEDIUM
 11
-850.8279389920361
 21
15170.70519007637
 31
0.0
 73
     2
  0
TEXT
  5
17F
  8
__
 62
     3
 10
-6490.827938992036
 20
15117.60478498378
 30
0.0
 40
106.2008101851852
  1
WT-8/壁付けT型ハンドル単水栓
  7
YUGOTHIC_MEDIUM
 11
-6490.827938992036
 21
15170.70519007637
 31
0.0
 73
     2
  0
TEXT
  5
180
  8
__
 62
     3
 10
-3830.827938992037
 20
15113.48847397068
 30
0.0
 40
92.92570891203705
  1
KB-PT011-035
  7
YUGOTHIC_MEDIUM
 11
-3830.827938992037
 21
15159.9513284267
 31
0.0
 73
     2
  0
LINE
  5
181
  8
0_03____
  6
ISO-10______
 62
     2
 10
-222.6055163377553
 20
927.946266191682
 30
0.0
 11
-222.6055163377553
 21
832.146266191682
 31
0.0
  0
LINE
  5
182
  8
0_03____
  6
ISO-10______
 62
     2
 10
-249.0914843377553
 20
850.146266191682
 30
0.0
 11
-128.6055143377553
 21
850.146266191682
 31
0.0
  0
LINE
  5
183
  8
0_03____
  6
ISO-10______
 62
     2
 10
-258.0413193377553
 20
821.165310191682
 30
0.0
 11
-256.0648463377552
 21
843.756360191682
 31
0.0
  0
LINE
  5
184
  8
0_18__
 62
     1
 10
-234.6055143377553
 20
872.739806191682
 30
0.0
 11
-234.6055143377553
 21
871.646273191682
 31
0.0
  0
LINE
  5
185
  8
0_18__
 62
     1
 10
-210.6055163377553
 20
872.739806191682
 30
0.0
 11
-210.6055163377553
 21
871.646258191682
 31
0.0
  0
LINE
  5
186
  8
0_18__
 62
     1
 10
-147.6055143377553
 20
860.623766191682
 30
0.0
 11
-134.7675133377552
 21
860.623766191682
 31
0.0
  0
LINE
  5
187
  8
0_18__
 62
     1
 10
-147.6055133377553
 20
860.623765191682
 30
0.0
 11
-145.5928693377552
 21
859.4617641916819
 31
0.0
  0
LINE
  5
188
  8
0_18__
 62
     1
 10
-133.6055143377553
 20
859.4617661916819
 30
0.0
 11
-133.6055143377553
 21
840.830766191682
 31
0.0
  0
LINE
  5
189
  8
0_18__
 62
     1
 10
-134.7675113377553
 20
860.623769191682
 30
0.0
 11
-133.6055133377553
 21
859.4617701916819
 31
0.0
  0
LINE
  5
18A
  8
0_18__
 62
     1
 10
-145.5928723377553
 20
859.4617661916819
 30
0.0
 11
-133.6055143377553
 21
859.4617661916819
 31
0.0
  0
LINE
  5
18B
  8
0_18__
 62
     1
 10
-145.5928683377552
 20
840.830766191682
 30
0.0
 11
-133.6055143377553
 21
840.830766191682
 31
0.0
  0
LINE
  5
18C
  8
0_18__
 62
     1
 10
-147.6055143377553
 20
839.6687651916819
 30
0.0
 11
-134.7675173377552
 21
839.6687651916819
 31
0.0
  0
LINE
  5
18D
  8
0_18__
 62
     1
 10
-145.5928683377552
 20
840.830766191682
 30
0.0
 11
-147.6055123377553
 21
839.6687651916819
 31
0.0
  0
LINE
  5
18E
  8
0_18__
 62
     1
 10
-133.6055103377553
 20
840.830765191682
 30
0.0
 11
-134.7675113377553
 21
839.6687631916819
 31
0.0
  0
LINE
  5
18F
  8
0_18__
 62
     1
 10
-206.6055163377553
 20
875.239806191682
 30
0.0
 11
-206.8555163377553
 21
875.489806191682
 31
0.0
  0
LINE
  5
190
  8
0_18__
 62
     1
 10
-206.6055163377553
 20
875.739806191682
 30
0.0
 11
-206.8555163377553
 21
875.489806191682
 31
0.0
  0
LINE
  5
191
  8
0_18__
 62
     1
 10
-206.6055163377553
 20
875.239806191682
 30
0.0
 11
-206.6055163377553
 21
872.739806191682
 31
0.0
  0
LINE
  5
192
  8
0_18__
 62
     1
 10
-222.6055163377553
 20
872.739806191682
 30
0.0
 11
-206.6055163377553
 21
872.739806191682
 31
0.0
  0
LINE
  5
193
  8
0_18__
 62
     1
 10
-238.6055163377553
 20
875.239806191682
 30
0.0
 11
-238.3555163377553
 21
875.489806191682
 31
0.0
  0
LINE
  5
194
  8
0_18__
 62
     1
 10
-238.6055163377553
 20
875.739806191682
 30
0.0
 11
-238.3555163377553
 21
875.489806191682
 31
0.0
  0
LINE
  5
195
  8
0_18__
 62
     1
 10
-238.6055163377553
 20
875.239806191682
 30
0.0
 11
-238.6055163377553
 21
872.739806191682
 31
0.0
  0
LINE
  5
196
  8
0_18__
 62
     1
 10
-222.6055163377553
 20
872.739806191682
 30
0.0
 11
-238.6055163377553
 21
872.739806191682
 31
0.0
  0
LINE
  5
197
  8
0_18__
 62
     1
 10
-238.6055163377553
 20
875.739806191682
 30
0.0
 11
-206.6055163377553
 21
875.739806191682
 31
0.0
  0
LINE
  5
198
  8
0_18__
 62
     1
 10
-238.3555163377553
 20
875.489806191682
 30
0.0
 11
-206.8555163377553
 21
875.489806191682
 31
0.0
  0
LINE
  5
199
  8
0_18__
 62
     1
 10
-238.6055163377553
 20
875.239806191682
 30
0.0
 11
-206.6055163377553
 21
875.239806191682
 31
0.0
  0
LINE
  5
19A
  8
0_18__
 62
     1
 10
-211.6055163377553
 20
894.946266191682
 30
0.0
 11
-211.8466133377553
 21
894.746266191682
 31
0.0
  0
LINE
  5
19B
  8
0_18__
 62
     1
 10
-211.6377223377553
 20
894.946266191682
 30
0.0
 11
-211.8466133377553
 21
894.746266191682
 31
0.0
  0
LINE
  5
19C
  8
0_18__
 62
     1
 10
-211.7527683377552
 20
894.946266191682
 30
0.0
 11
-211.9695923377553
 21
894.746266191682
 31
0.0
  0
LINE
  5
19D
  8
0_18__
 62
     1
 10
-211.7937403377553
 20
894.946266191682
 30
0.0
 11
-211.9695923377553
 21
894.746266191682
 31
0.0
  0
LINE
  5
19E
  8
0_18__
 62
     1
 10
-211.9504093377553
 20
894.946266191682
 30
0.0
 11
-212.1735173377552
 21
894.746266191682
 31
0.0
  0
LINE
  5
19F
  8
0_18__
 62
     1
 10
-212.0114773377553
 20
894.946266191682
 30
0.0
 11
-212.1735173377552
 21
894.746266191682
 31
0.0
  0
LINE
  5
1A0
  8
0_18__
 62
     1
 10
-212.2291423377553
 20
894.946266191682
 30
0.0
 11
-212.4568363377552
 21
894.746266191682
 31
0.0
  0
LINE
  5
1A1
  8
0_18__
 62
     1
 10
-212.3098413377552
 20
894.946266191682
 30
0.0
 11
-212.4568363377552
 21
894.746266191682
 31
0.0
  0
LINE
  5
1A2
  8
0_18__
 62
     1
 10
-212.5868463377553
 20
894.946266191682
 30
0.0
 11
-212.8173923377553
 21
894.746266191682
 31
0.0
  0
LINE
  5
1A3
  8
0_18__
 62
     1
 10
-212.6865613377553
 20
894.946266191682
 30
0.0
 11
-212.8173923377553
 21
894.746266191682
 31
0.0
  0
LINE
  5
1A4
  8
0_18__
 62
     1
 10
-213.0207983377553
 20
894.946266191682
 30
0.0
 11
-213.2524423377553
 21
894.746266191682
 31
0.0
  0
LINE
  5
1A5
  8
0_18__
 62
     1
 10
-213.1387713377553
 20
894.946266191682
 30
0.0
 11
-213.2524423377553
 21
894.746266191682
 31
0.0
  0
LINE
  5
1A6
  8
0_18__
 62
     1
 10
-213.5276953377552
 20
894.946266191682
 30
0.0
 11
-213.7586743377553
 21
894.746266191682
 31
0.0
  0
LINE
  5
1A7
  8
0_18__
 62
     1
 10
-213.6630293377553
 20
894.946266191682
 30
0.0
 11
-213.7586743377553
 21
894.746266191682
 31
0.0
  0
LINE
  5
1A8
  8
0_18__
 62
     1
 10
-214.1036803377553
 20
894.946266191682
 30
0.0
 11
-214.3322363377553
 21
894.746266191682
 31
0.0
  0
LINE
  5
1A9
  8
0_18__
 62
     1
 10
-214.2553443377553
 20
894.946266191682
 30
0.0
 11
-214.3322363377553
 21
894.746266191682
 31
0.0
  0
LINE
  5
1AA
  8
0_18__
 62
     1
 10
-214.7443693377552
 20
894.946266191682
 30
0.0
 11
-214.9687633377553
 21
894.746266191682
 31
0.0
  0
LINE
  5
1AB
  8
0_18__
 62
     1
 10
-214.9112093377553
 20
894.946266191682
 30
0.0
 11
-214.9687633377553
 21
894.746266191682
 31
0.0
  0
LINE
  5
1AC
  8
0_18__
 62
     1
 10
-215.4448863377552
 20
894.946266191682
 30
0.0
 11
-215.6634103377552
 21
894.746266191682
 31
0.0
  0
LINE
  5
1AD
  8
0_18__
 62
     1
 10
-215.6256323377552
 20
894.946266191682
 30
0.0
 11
-215.6634103377552
 21
894.746266191682
 31
0.0
  0
LINE
  5
1AE
  8
0_18__
 62
     1
 10
-216.1999003377553
 20
894.946266191682
 30
0.0
 11
-216.4108903377552
 21
894.746266191682
 31
0.0
  0
LINE
  5
1AF
  8
0_18__
 62
     1
 10
-216.3931763377553
 20
894.946266191682
 30
0.0
 11
-216.4108903377552
 21
894.746266191682
 31
0.0
  0
LINE
  5
1B0
  8
0_18__
 62
     1
 10
-217.0036643377553
 20
894.946266191682
 30
0.0
 11
-217.2055163377553
 21
894.746266191682
 31
0.0
  0
LINE
  5
1B1
  8
0_18__
 62
     1
 10
-217.2080003377553
 20
894.946266191682
 30
0.0
 11
-217.2055163377553
 21
894.746266191682
 31
0.0
  0
LINE
  5
1B2
  8
0_18__
 62
     1
 10
-217.8500623377553
 20
894.946266191682
 30
0.0
 11
-218.0412393377553
 21
894.746266191682
 31
0.0
  0
LINE
  5
1B3
  8
0_18__
 62
     1
 10
-218.0639033377553
 20
894.946266191682
 30
0.0
 11
-218.0412393377553
 21
894.746266191682
 31
0.0
  0
LINE
  5
1B4
  8
0_18__
 62
     1
 10
-218.7326523377553
 20
894.946266191682
 30
0.0
 11
-218.9116983377552
 21
894.746266191682
 31
0.0
  0
LINE
  5
1B5
  8
0_18__
 62
     1
 10
-218.9543703377553
 20
894.946266191682
 30
0.0
 11
-218.9116983377552
 21
894.746266191682
 31
0.0
  0
LINE
  5
1B6
  8
0_18__
 62
     1
 10
-219.6447163377553
 20
894.946266191682
 30
0.0
 11
-219.8102703377552
 21
894.746266191682
 31
0.0
  0
LINE
  5
1B7
  8
0_18__
 62
     1
 10
-219.8726243377553
 20
894.946266191682
 30
0.0
 11
-219.8102703377552
 21
894.746266191682
 31
0.0
  0
LINE
  5
1B8
  8
0_18__
 62
     1
 10
-220.5793143377552
 20
894.946266191682
 30
0.0
 11
-220.7301163377552
 21
894.746266191682
 31
0.0
  0
LINE
  5
1B9
  8
0_18__
 62
     1
 10
-220.8116773377553
 20
894.946266191682
 30
0.0
 11
-220.7301163377552
 21
894.746266191682
 31
0.0
  0
LINE
  5
1BA
  8
0_18__
 62
     1
 10
-221.5293333377552
 20
894.946266191682
 30
0.0
 11
-221.6642343377553
 21
894.746266191682
 31
0.0
  0
LINE
  5
1BB
  8
0_18__
 62
     1
 10
-221.7643833377552
 20
894.946266191682
 30
0.0
 11
-221.6642343377553
 21
894.746266191682
 31
0.0
  0
LINE
  5
1BC
  8
0_18__
 62
     1
 10
-222.4875423377553
 20
894.946266191682
 30
0.0
 11
-222.6055163377553
 21
894.746266191682
 31
0.0
  0
LINE
  5
1BD
  8
0_18__
 62
     1
 10
-211.9055163377553
 20
894.646266191682
 30
0.0
 11
-211.6055163377553
 21
894.946266191682
 31
0.0
  0
LINE
  5
1BE
  8
0_18__
 62
     1
 10
-211.6055163377553
 20
897.3462661916819
 30
0.0
 11
-211.8466133377553
 21
897.546266191682
 31
0.0
  0
LINE
  5
1BF
  8
0_18__
 62
     1
 10
-211.6377223377553
 20
897.3462661916819
 30
0.0
 11
-211.8466133377553
 21
897.546266191682
 31
0.0
  0
LINE
  5
1C0
  8
0_18__
 62
     1
 10
-211.7527683377552
 20
897.3462661916819
 30
0.0
 11
-211.9695923377553
 21
897.546266191682
 31
0.0
  0
LINE
  5
1C1
  8
0_18__
 62
     1
 10
-211.7937403377553
 20
897.3462661916819
 30
0.0
 11
-211.9695923377553
 21
897.546266191682
 31
0.0
  0
LINE
  5
1C2
  8
0_18__
 62
     1
 10
-211.9504093377553
 20
897.3462661916819
 30
0.0
 11
-212.1735173377552
 21
897.546266191682
 31
0.0
  0
LINE
  5
1C3
  8
0_18__
 62
     1
 10
-212.0114773377553
 20
897.3462661916819
 30
0.0
 11
-212.1735173377552
 21
897.546266191682
 31
0.0
  0
LINE
  5
1C4
  8
0_18__
 62
     1
 10
-212.2291423377553
 20
897.3462661916819
 30
0.0
 11
-212.4568363377552
 21
897.546266191682
 31
0.0
  0
LINE
  5
1C5
  8
0_18__
 62
     1
 10
-212.3098413377552
 20
897.3462661916819
 30
0.0
 11
-212.4568363377552
 21
897.546266191682
 31
0.0
  0
LINE
  5
1C6
  8
0_18__
 62
     1
 10
-212.5868463377553
 20
897.3462661916819
 30
0.0
 11
-212.8173923377553
 21
897.546266191682
 31
0.0
  0
LINE
  5
1C7
  8
0_18__
 62
     1
 10
-212.6865613377553
 20
897.3462661916819
 30
0.0
 11
-212.8173923377553
 21
897.546266191682
 31
0.0
  0
LINE
  5
1C8
  8
0_18__
 62
     1
 10
-213.0207983377553
 20
897.3462661916819
 30
0.0
 11
-213.2524423377553
 21
897.546266191682
 31
0.0
  0
LINE
  5
1C9
  8
0_18__
 62
     1
 10
-213.1387713377553
 20
897.3462661916819
 30
0.0
 11
-213.2524423377553
 21
897.546266191682
 31
0.0
  0
LINE
  5
1CA
  8
0_18__
 62
     1
 10
-213.5276953377552
 20
897.3462661916819
 30
0.0
 11
-213.7586743377553
 21
897.546266191682
 31
0.0
  0
LINE
  5
1CB
  8
0_18__
 62
     1
 10
-213.6630293377553
 20
897.3462661916819
 30
0.0
 11
-213.7586743377553
 21
897.546266191682
 31
0.0
  0
LINE
  5
1CC
  8
0_18__
 62
     1
 10
-214.1036803377553
 20
897.3462661916819
 30
0.0
 11
-214.3322363377553
 21
897.546266191682
 31
0.0
  0
LINE
  5
1CD
  8
0_18__
 62
     1
 10
-214.2553443377553
 20
897.3462661916819
 30
0.0
 11
-214.3322363377553
 21
897.546266191682
 31
0.0
  0
LINE
  5
1CE
  8
0_18__
 62
     1
 10
-214.7443693377552
 20
897.3462661916819
 30
0.0
 11
-214.9687633377553
 21
897.546266191682
 31
0.0
  0
LINE
  5
1CF
  8
0_18__
 62
     1
 10
-214.9112093377553
 20
897.3462661916819
 30
0.0
 11
-214.9687633377553
 21
897.546266191682
 31
0.0
  0
LINE
  5
1D0
  8
0_18__
 62
     1
 10
-215.4448863377552
 20
897.3462661916819
 30
0.0
 11
-215.6634103377552
 21
897.546266191682
 31
0.0
  0
LINE
  5
1D1
  8
0_18__
 62
     1
 10
-215.6256323377552
 20
897.3462661916819
 30
0.0
 11
-215.6634103377552
 21
897.546266191682
 31
0.0
  0
LINE
  5
1D2
  8
0_18__
 62
     1
 10
-216.1999003377553
 20
897.3462661916819
 30
0.0
 11
-216.4108903377552
 21
897.546266191682
 31
0.0
  0
LINE
  5
1D3
  8
0_18__
 62
     1
 10
-216.3931763377553
 20
897.3462661916819
 30
0.0
 11
-216.4108903377552
 21
897.546266191682
 31
0.0
  0
LINE
  5
1D4
  8
0_18__
 62
     1
 10
-217.0036643377553
 20
897.3462661916819
 30
0.0
 11
-217.2055163377553
 21
897.546266191682
 31
0.0
  0
LINE
  5
1D5
  8
0_18__
 62
     1
 10
-217.2080003377553
 20
897.3462661916819
 30
0.0
 11
-217.2055163377553
 21
897.546266191682
 31
0.0
  0
LINE
  5
1D6
  8
0_18__
 62
     1
 10
-217.8500623377553
 20
897.3462661916819
 30
0.0
 11
-218.0412393377553
 21
897.546266191682
 31
0.0
  0
LINE
  5
1D7
  8
0_18__
 62
     1
 10
-218.0639033377553
 20
897.3462661916819
 30
0.0
 11
-218.0412393377553
 21
897.546266191682
 31
0.0
  0
LINE
  5
1D8
  8
0_18__
 62
     1
 10
-218.7326523377553
 20
897.3462661916819
 30
0.0
 11
-218.9116983377552
 21
897.546266191682
 31
0.0
  0
LINE
  5
1D9
  8
0_18__
 62
     1
 10
-218.9543703377553
 20
897.3462661916819
 30
0.0
 11
-218.9116983377552
 21
897.546266191682
 31
0.0
  0
LINE
  5
1DA
  8
0_18__
 62
     1
 10
-219.6447163377553
 20
897.3462661916819
 30
0.0
 11
-219.8102703377552
 21
897.546266191682
 31
0.0
  0
LINE
  5
1DB
  8
0_18__
 62
     1
 10
-219.8726243377553
 20
897.3462661916819
 30
0.0
 11
-219.8102703377552
 21
897.546266191682
 31
0.0
  0
LINE
  5
1DC
  8
0_18__
 62
     1
 10
-220.5793143377552
 20
897.3462661916819
 30
0.0
 11
-220.7301163377552
 21
897.546266191682
 31
0.0
  0
LINE
  5
1DD
  8
0_18__
 62
     1
 10
-220.8116773377553
 20
897.3462661916819
 30
0.0
 11
-220.7301163377552
 21
897.546266191682
 31
0.0
  0
LINE
  5
1DE
  8
0_18__
 62
     1
 10
-221.5293333377552
 20
897.3462661916819
 30
0.0
 11
-221.6642343377553
 21
897.546266191682
 31
0.0
  0
LINE
  5
1DF
  8
0_18__
 62
     1
 10
-221.7643833377552
 20
897.3462661916819
 30
0.0
 11
-221.6642343377553
 21
897.546266191682
 31
0.0
  0
LINE
  5
1E0
  8
0_18__
 62
     1
 10
-222.4875423377553
 20
897.3462661916819
 30
0.0
 11
-222.6055163377553
 21
897.546266191682
 31
0.0
  0
LINE
  5
1E1
  8
0_18__
 62
     1
 10
-217.2055163377553
 20
897.546266191682
 30
0.0
 11
-217.2055163377553
 21
894.746266191682
 31
0.0
  0
LINE
  5
1E2
  8
0_18__
 62
     1
 10
-218.0412393377553
 20
897.546266191682
 30
0.0
 11
-218.0412393377553
 21
894.746266191682
 31
0.0
  0
LINE
  5
1E3
  8
0_18__
 62
     1
 10
-218.9116983377552
 20
897.546266191682
 30
0.0
 11
-218.9116983377552
 21
894.746266191682
 31
0.0
  0
LINE
  5
1E4
  8
0_18__
 62
     1
 10
-219.8102703377552
 20
897.546266191682
 30
0.0
 11
-219.8102703377552
 21
894.746266191682
 31
0.0
  0
LINE
  5
1E5
  8
0_18__
 62
     1
 10
-220.7301163377552
 20
897.546266191682
 30
0.0
 11
-220.7301163377552
 21
894.746266191682
 31
0.0
  0
LINE
  5
1E6
  8
0_18__
 62
     1
 10
-221.6642343377553
 20
897.546266191682
 30
0.0
 11
-221.6642343377553
 21
894.746266191682
 31
0.0
  0
LINE
  5
1E7
  8
0_18__
 62
     1
 10
-211.7527683377552
 20
897.3462661916819
 30
0.0
 11
-211.7527683377552
 21
894.946266191682
 31
0.0
  0
LINE
  5
1E8
  8
0_18__
 62
     1
 10
-211.7937403377553
 20
897.3462661916819
 30
0.0
 11
-211.7937403377553
 21
894.946266191682
 31
0.0
  0
LINE
  5
1E9
  8
0_18__
 62
     1
 10
-211.9504093377553
 20
897.3462661916819
 30
0.0
 11
-211.9504093377553
 21
894.946266191682
 31
0.0
  0
LINE
  5
1EA
  8
0_18__
 62
     1
 10
-212.0114773377553
 20
897.3462661916819
 30
0.0
 11
-212.0114773377553
 21
894.946266191682
 31
0.0
  0
LINE
  5
1EB
  8
0_18__
 62
     1
 10
-212.2291423377553
 20
897.3462661916819
 30
0.0
 11
-212.2291423377553
 21
894.946266191682
 31
0.0
  0
LINE
  5
1EC
  8
0_18__
 62
     1
 10
-212.3098413377552
 20
897.3462661916819
 30
0.0
 11
-212.3098413377552
 21
894.946266191682
 31
0.0
  0
LINE
  5
1ED
  8
0_18__
 62
     1
 10
-212.5868463377553
 20
897.3462661916819
 30
0.0
 11
-212.5868463377553
 21
894.946266191682
 31
0.0
  0
LINE
  5
1EE
  8
0_18__
 62
     1
 10
-212.6865613377553
 20
897.3462661916819
 30
0.0
 11
-212.6865613377553
 21
894.946266191682
 31
0.0
  0
LINE
  5
1EF
  8
0_18__
 62
     1
 10
-213.0207983377553
 20
897.3462661916819
 30
0.0
 11
-213.0207983377553
 21
894.946266191682
 31
0.0
  0
LINE
  5
1F0
  8
0_18__
 62
     1
 10
-213.1387713377553
 20
897.3462661916819
 30
0.0
 11
-213.1387713377553
 21
894.946266191682
 31
0.0
  0
LINE
  5
1F1
  8
0_18__
 62
     1
 10
-213.5276953377552
 20
897.3462661916819
 30
0.0
 11
-213.5276953377552
 21
894.946266191682
 31
0.0
  0
LINE
  5
1F2
  8
0_18__
 62
     1
 10
-213.6630293377553
 20
897.3462661916819
 30
0.0
 11
-213.6630293377553
 21
894.946266191682
 31
0.0
  0
LINE
  5
1F3
  8
0_18__
 62
     1
 10
-214.1036803377553
 20
897.3462661916819
 30
0.0
 11
-214.1036803377553
 21
894.946266191682
 31
0.0
  0
LINE
  5
1F4
  8
0_18__
 62
     1
 10
-214.2553443377553
 20
897.3462661916819
 30
0.0
 11
-214.2553443377553
 21
894.946266191682
 31
0.0
  0
LINE
  5
1F5
  8
0_18__
 62
     1
 10
-214.7443693377552
 20
897.3462661916819
 30
0.0
 11
-214.7443693377552
 21
894.946266191682
 31
0.0
  0
LINE
  5
1F6
  8
0_18__
 62
     1
 10
-214.9112093377553
 20
897.3462661916819
 30
0.0
 11
-214.9112093377553
 21
894.946266191682
 31
0.0
  0
LINE
  5
1F7
  8
0_18__
 62
     1
 10
-215.4448863377552
 20
897.3462661916819
 30
0.0
 11
-215.4448863377552
 21
894.946266191682
 31
0.0
  0
LINE
  5
1F8
  8
0_18__
 62
     1
 10
-215.6256323377552
 20
897.3462661916819
 30
0.0
 11
-215.6256323377552
 21
894.946266191682
 31
0.0
  0
LINE
  5
1F9
  8
0_18__
 62
     1
 10
-216.1999003377553
 20
897.3462661916819
 30
0.0
 11
-216.1999003377553
 21
894.946266191682
 31
0.0
  0
LINE
  5
1FA
  8
0_18__
 62
     1
 10
-216.3931763377553
 20
897.3462661916819
 30
0.0
 11
-216.3931763377553
 21
894.946266191682
 31
0.0
  0
LINE
  5
1FB
  8
0_18__
 62
     1
 10
-217.0036643377553
 20
897.3462661916819
 30
0.0
 11
-217.0036643377553
 21
894.946266191682
 31
0.0
  0
LINE
  5
1FC
  8
0_18__
 62
     1
 10
-217.2080003377553
 20
897.3462661916819
 30
0.0
 11
-217.2080003377553
 21
894.946266191682
 31
0.0
  0
LINE
  5
1FD
  8
0_18__
 62
     1
 10
-217.8500623377553
 20
897.3462661916819
 30
0.0
 11
-217.8500623377553
 21
894.946266191682
 31
0.0
  0
LINE
  5
1FE
  8
0_18__
 62
     1
 10
-218.0639033377553
 20
897.3462661916819
 30
0.0
 11
-218.0639033377553
 21
894.946266191682
 31
0.0
  0
LINE
  5
1FF
  8
0_18__
 62
     1
 10
-218.7326523377553
 20
897.3462661916819
 30
0.0
 11
-218.7326523377553
 21
894.946266191682
 31
0.0
  0
LINE
  5
200
  8
0_18__
 62
     1
 10
-218.9543703377553
 20
897.3462661916819
 30
0.0
 11
-218.9543703377553
 21
894.946266191682
 31
0.0
  0
LINE
  5
201
  8
0_18__
 62
     1
 10
-219.6447163377553
 20
897.3462661916819
 30
0.0
 11
-219.6447163377553
 21
894.946266191682
 31
0.0
  0
LINE
  5
202
  8
0_18__
 62
     1
 10
-219.8726243377553
 20
897.3462661916819
 30
0.0
 11
-219.8726243377553
 21
894.946266191682
 31
0.0
  0
LINE
  5
203
  8
0_18__
 62
     1
 10
-220.5793143377552
 20
897.3462661916819
 30
0.0
 11
-220.5793143377552
 21
894.946266191682
 31
0.0
  0
LINE
  5
204
  8
0_18__
 62
     1
 10
-220.8116773377553
 20
897.3462661916819
 30
0.0
 11
-220.8116773377553
 21
894.946266191682
 31
0.0
  0
LINE
  5
205
  8
0_18__
 62
     1
 10
-221.5293333377552
 20
897.3462661916819
 30
0.0
 11
-221.5293333377552
 21
894.946266191682
 31
0.0
  0
LINE
  5
206
  8
0_18__
 62
     1
 10
-221.7643833377552
 20
897.3462661916819
 30
0.0
 11
-221.7643833377552
 21
894.946266191682
 31
0.0
  0
LINE
  5
207
  8
0_18__
 62
     1
 10
-222.4875423377553
 20
897.3462661916819
 30
0.0
 11
-222.4875423377553
 21
894.946266191682
 31
0.0
  0
LINE
  5
208
  8
0_18__
 62
     1
 10
-211.6377223377553
 20
897.3462661916819
 30
0.0
 11
-211.6377223377553
 21
894.946266191682
 31
0.0
  0
LINE
  5
209
  8
0_18__
 62
     1
 10
-211.9055163377553
 20
897.646266191682
 30
0.0
 11
-211.6055163377553
 21
897.3462661916819
 31
0.0
  0
LINE
  5
20A
  8
0_18__
 62
     1
 10
-211.6055163377553
 20
897.3462661916819
 30
0.0
 11
-211.6055163377553
 21
894.946266191682
 31
0.0
  0
LINE
  5
20B
  8
0_18__
 62
     1
 10
-233.6055163377553
 20
897.3462661916819
 30
0.0
 11
-233.3644193377552
 21
897.546266191682
 31
0.0
  0
LINE
  5
20C
  8
0_18__
 62
     1
 10
-233.5733093377552
 20
897.3462661916819
 30
0.0
 11
-233.3644193377552
 21
897.546266191682
 31
0.0
  0
LINE
  5
20D
  8
0_18__
 62
     1
 10
-233.4582643377553
 20
897.3462661916819
 30
0.0
 11
-233.2414403377553
 21
897.546266191682
 31
0.0
  0
LINE
  5
20E
  8
0_18__
 62
     1
 10
-233.4172923377553
 20
897.3462661916819
 30
0.0
 11
-233.2414403377553
 21
897.546266191682
 31
0.0
  0
LINE
  5
20F
  8
0_18__
 62
     1
 10
-233.2606233377552
 20
897.3462661916819
 30
0.0
 11
-233.0375153377553
 21
897.546266191682
 31
0.0
  0
LINE
  5
210
  8
0_18__
 62
     1
 10
-233.1995553377553
 20
897.3462661916819
 30
0.0
 11
-233.0375153377553
 21
897.546266191682
 31
0.0
  0
LINE
  5
211
  8
0_18__
 62
     1
 10
-232.9818903377553
 20
897.3462661916819
 30
0.0
 11
-232.7541963377553
 21
897.546266191682
 31
0.0
  0
LINE
  5
212
  8
0_18__
 62
     1
 10
-232.9011913377553
 20
897.3462661916819
 30
0.0
 11
-232.7541963377553
 21
897.546266191682
 31
0.0
  0
LINE
  5
213
  8
0_18__
 62
     1
 10
-232.6241863377552
 20
897.3462661916819
 30
0.0
 11
-232.3936403377552
 21
897.546266191682
 31
0.0
  0
LINE
  5
214
  8
0_18__
 62
     1
 10
-232.5244703377552
 20
897.3462661916819
 30
0.0
 11
-232.3936403377552
 21
897.546266191682
 31
0.0
  0
LINE
  5
215
  8
0_18__
 62
     1
 10
-232.1902343377553
 20
897.3462661916819
 30
0.0
 11
-231.9585903377553
 21
897.546266191682
 31
0.0
  0
LINE
  5
216
  8
0_18__
 62
     1
 10
-232.0722613377553
 20
897.3462661916819
 30
0.0
 11
-231.9585903377553
 21
897.546266191682
 31
0.0
  0
LINE
  5
217
  8
0_18__
 62
     1
 10
-231.6833373377553
 20
897.3462661916819
 30
0.0
 11
-231.4523583377552
 21
897.546266191682
 31
0.0
  0
LINE
  5
218
  8
0_18__
 62
     1
 10
-231.5480033377552
 20
897.3462661916819
 30
0.0
 11
-231.4523583377552
 21
897.546266191682
 31
0.0
  0
LINE
  5
219
  8
0_18__
 62
     1
 10
-231.1073523377552
 20
897.3462661916819
 30
0.0
 11
-230.8787963377553
 21
897.546266191682
 31
0.0
  0
LINE
  5
21A
  8
0_18__
 62
     1
 10
-230.9556883377552
 20
897.3462661916819
 30
0.0
 11
-230.8787963377553
 21
897.546266191682
 31
0.0
  0
LINE
  5
21B
  8
0_18__
 62
     1
 10
-230.4666633377553
 20
897.3462661916819
 30
0.0
 11
-230.2422693377553
 21
897.546266191682
 31
0.0
  0
LINE
  5
21C
  8
0_18__
 62
     1
 10
-230.2998233377552
 20
897.3462661916819
 30
0.0
 11
-230.2422693377553
 21
897.546266191682
 31
0.0
  0
LINE
  5
21D
  8
0_18__
 62
     1
 10
-229.7661463377553
 20
897.3462661916819
 30
0.0
 11
-229.5476223377553
 21
897.546266191682
 31
0.0
  0
LINE
  5
21E
  8
0_18__
 62
     1
 10
-229.5854003377553
 20
897.3462661916819
 30
0.0
 11
-229.5476223377553
 21
897.546266191682
 31
0.0
  0
LINE
  5
21F
  8
0_18__
 62
     1
 10
-229.0111323377553
 20
897.3462661916819
 30
0.0
 11
-228.8001413377553
 21
897.546266191682
 31
0.0
  0
LINE
  5
220
  8
0_18__
 62
     1
 10
-228.8178553377552
 20
897.3462661916819
 30
0.0
 11
-228.8001413377553
 21
897.546266191682
 31
0.0
  0
LINE
  5
221
  8
0_18__
 62
     1
 10
-228.2073683377553
 20
897.3462661916819
 30
0.0
 11
-228.0055163377553
 21
897.546266191682
 31
0.0
  0
LINE
  5
222
  8
0_18__
 62
     1
 10
-228.0030313377553
 20
897.3462661916819
 30
0.0
 11
-228.0055163377553
 21
897.546266191682
 31
0.0
  0
LINE
  5
223
  8
0_18__
 62
     1
 10
-227.3609703377552
 20
897.3462661916819
 30
0.0
 11
-227.1697933377553
 21
897.546266191682
 31
0.0
  0
LINE
  5
224
  8
0_18__
 62
     1
 10
-227.1471293377552
 20
897.3462661916819
 30
0.0
 11
-227.1697933377553
 21
897.546266191682
 31
0.0
  0
LINE
  5
225
  8
0_18__
 62
     1
 10
-226.4783803377553
 20
897.3462661916819
 30
0.0
 11
-226.2993333377553
 21
897.546266191682
 31
0.0
  0
LINE
  5
226
  8
0_18__
 62
     1
 10
-226.2566623377552
 20
897.3462661916819
 30
0.0
 11
-226.2993333377553
 21
897.546266191682
 31
0.0
  0
LINE
  5
227
  8
0_18__
 62
     1
 10
-225.5663153377553
 20
897.3462661916819
 30
0.0
 11
-225.4007623377553
 21
897.546266191682
 31
0.0
  0
LINE
  5
228
  8
0_18__
 62
     1
 10
-225.3384083377553
 20
897.3462661916819
 30
0.0
 11
-225.4007623377553
 21
897.546266191682
 31
0.0
  0
LINE
  5
229
  8
0_18__
 62
     1
 10
-224.6317173377553
 20
897.3462661916819
 30
0.0
 11
-224.4809163377553
 21
897.546266191682
 31
0.0
  0
LINE
  5
22A
  8
0_18__
 62
     1
 10
-224.3993553377553
 20
897.3462661916819
 30
0.0
 11
-224.4809163377553
 21
897.546266191682
 31
0.0
  0
LINE
  5
22B
  8
0_18__
 62
     1
 10
-223.6816993377553
 20
897.3462661916819
 30
0.0
 11
-223.5467983377553
 21
897.546266191682
 31
0.0
  0
LINE
  5
22C
  8
0_18__
 62
     1
 10
-223.4466493377553
 20
897.3462661916819
 30
0.0
 11
-223.5467983377553
 21
897.546266191682
 31
0.0
  0
LINE
  5
22D
  8
0_18__
 62
     1
 10
-222.7234903377553
 20
897.3462661916819
 30
0.0
 11
-222.6055163377553
 21
897.546266191682
 31
0.0
  0
LINE
  5
22E
  8
0_18__
 62
     1
 10
-233.6055163377553
 20
894.946266191682
 30
0.0
 11
-233.3644193377552
 21
894.746266191682
 31
0.0
  0
LINE
  5
22F
  8
0_18__
 62
     1
 10
-233.5733093377552
 20
894.946266191682
 30
0.0
 11
-233.3644193377552
 21
894.746266191682
 31
0.0
  0
LINE
  5
230
  8
0_18__
 62
     1
 10
-233.4582643377553
 20
894.946266191682
 30
0.0
 11
-233.2414403377553
 21
894.746266191682
 31
0.0
  0
LINE
  5
231
  8
0_18__
 62
     1
 10
-233.4172923377553
 20
894.946266191682
 30
0.0
 11
-233.2414403377553
 21
894.746266191682
 31
0.0
  0
LINE
  5
232
  8
0_18__
 62
     1
 10
-233.2606233377552
 20
894.946266191682
 30
0.0
 11
-233.0375153377553
 21
894.746266191682
 31
0.0
  0
LINE
  5
233
  8
0_18__
 62
     1
 10
-233.1995553377553
 20
894.946266191682
 30
0.0
 11
-233.0375153377553
 21
894.746266191682
 31
0.0
  0
LINE
  5
234
  8
0_18__
 62
     1
 10
-232.9818903377553
 20
894.946266191682
 30
0.0
 11
-232.7541963377553
 21
894.746266191682
 31
0.0
  0
LINE
  5
235
  8
0_18__
 62
     1
 10
-232.9011913377553
 20
894.946266191682
 30
0.0
 11
-232.7541963377553
 21
894.746266191682
 31
0.0
  0
LINE
  5
236
  8
0_18__
 62
     1
 10
-232.6241863377552
 20
894.946266191682
 30
0.0
 11
-232.3936403377552
 21
894.746266191682
 31
0.0
  0
LINE
  5
237
  8
0_18__
 62
     1
 10
-232.5244703377552
 20
894.946266191682
 30
0.0
 11
-232.3936403377552
 21
894.746266191682
 31
0.0
  0
LINE
  5
238
  8
0_18__
 62
     1
 10
-232.1902343377553
 20
894.946266191682
 30
0.0
 11
-231.9585903377553
 21
894.746266191682
 31
0.0
  0
LINE
  5
239
  8
0_18__
 62
     1
 10
-232.0722613377553
 20
894.946266191682
 30
0.0
 11
-231.9585903377553
 21
894.746266191682
 31
0.0
  0
LINE
  5
23A
  8
0_18__
 62
     1
 10
-231.6833373377553
 20
894.946266191682
 30
0.0
 11
-231.4523583377552
 21
894.746266191682
 31
0.0
  0
LINE
  5
23B
  8
0_18__
 62
     1
 10
-231.5480033377552
 20
894.946266191682
 30
0.0
 11
-231.4523583377552
 21
894.746266191682
 31
0.0
  0
LINE
  5
23C
  8
0_18__
 62
     1
 10
-231.1073523377552
 20
894.946266191682
 30
0.0
 11
-230.8787963377553
 21
894.746266191682
 31
0.0
  0
LINE
  5
23D
  8
0_18__
 62
     1
 10
-230.9556883377552
 20
894.946266191682
 30
0.0
 11
-230.8787963377553
 21
894.746266191682
 31
0.0
  0
LINE
  5
23E
  8
0_18__
 62
     1
 10
-230.4666633377553
 20
894.946266191682
 30
0.0
 11
-230.2422693377553
 21
894.746266191682
 31
0.0
  0
LINE
  5
23F
  8
0_18__
 62
     1
 10
-230.2998233377552
 20
894.946266191682
 30
0.0
 11
-230.2422693377553
 21
894.746266191682
 31
0.0
  0
LINE
  5
240
  8
0_18__
 62
     1
 10
-229.7661463377553
 20
894.946266191682
 30
0.0
 11
-229.5476223377553
 21
894.746266191682
 31
0.0
  0
LINE
  5
241
  8
0_18__
 62
     1
 10
-229.5854003377553
 20
894.946266191682
 30
0.0
 11
-229.5476223377553
 21
894.746266191682
 31
0.0
  0
LINE
  5
242
  8
0_18__
 62
     1
 10
-229.0111323377553
 20
894.946266191682
 30
0.0
 11
-228.8001413377553
 21
894.746266191682
 31
0.0
  0
LINE
  5
243
  8
0_18__
 62
     1
 10
-228.8178553377552
 20
894.946266191682
 30
0.0
 11
-228.8001413377553
 21
894.746266191682
 31
0.0
  0
LINE
  5
244
  8
0_18__
 62
     1
 10
-228.2073683377553
 20
894.946266191682
 30
0.0
 11
-228.0055163377553
 21
894.746266191682
 31
0.0
  0
LINE
  5
245
  8
0_18__
 62
     1
 10
-228.0030313377553
 20
894.946266191682
 30
0.0
 11
-228.0055163377553
 21
894.746266191682
 31
0.0
  0
LINE
  5
246
  8
0_18__
 62
     1
 10
-227.3609703377552
 20
894.946266191682
 30
0.0
 11
-227.1697933377553
 21
894.746266191682
 31
0.0
  0
LINE
  5
247
  8
0_18__
 62
     1
 10
-227.1471293377552
 20
894.946266191682
 30
0.0
 11
-227.1697933377553
 21
894.746266191682
 31
0.0
  0
LINE
  5
248
  8
0_18__
 62
     1
 10
-226.4783803377553
 20
894.946266191682
 30
0.0
 11
-226.2993333377553
 21
894.746266191682
 31
0.0
  0
LINE
  5
249
  8
0_18__
 62
     1
 10
-226.2566623377552
 20
894.946266191682
 30
0.0
 11
-226.2993333377553
 21
894.746266191682
 31
0.0
  0
LINE
  5
24A
  8
0_18__
 62
     1
 10
-225.5663153377553
 20
894.946266191682
 30
0.0
 11
-225.4007623377553
 21
894.746266191682
 31
0.0
  0
LINE
  5
24B
  8
0_18__
 62
     1
 10
-225.3384083377553
 20
894.946266191682
 30
0.0
 11
-225.4007623377553
 21
894.746266191682
 31
0.0
  0
LINE
  5
24C
  8
0_18__
 62
     1
 10
-224.6317173377553
 20
894.946266191682
 30
0.0
 11
-224.4809163377553
 21
894.746266191682
 31
0.0
  0
LINE
  5
24D
  8
0_18__
 62
     1
 10
-224.3993553377553
 20
894.946266191682
 30
0.0
 11
-224.4809163377553
 21
894.746266191682
 31
0.0
  0
LINE
  5
24E
  8
0_18__
 62
     1
 10
-223.6816993377553
 20
894.946266191682
 30
0.0
 11
-223.5467983377553
 21
894.746266191682
 31
0.0
  0
LINE
  5
24F
  8
0_18__
 62
     1
 10
-223.4466493377553
 20
894.946266191682
 30
0.0
 11
-223.5467983377553
 21
894.746266191682
 31
0.0
  0
LINE
  5
250
  8
0_18__
 62
     1
 10
-222.7234903377553
 20
894.946266191682
 30
0.0
 11
-222.6055163377553
 21
894.746266191682
 31
0.0
  0
LINE
  5
251
  8
0_18__
 62
     1
 10
-228.0055163377553
 20
897.546266191682
 30
0.0
 11
-228.0055163377553
 21
894.746266191682
 31
0.0
  0
LINE
  5
252
  8
0_18__
 62
     1
 10
-227.1697933377553
 20
897.546266191682
 30
0.0
 11
-227.1697933377553
 21
894.746266191682
 31
0.0
  0
LINE
  5
253
  8
0_18__
 62
     1
 10
-226.2993333377553
 20
897.546266191682
 30
0.0
 11
-226.2993333377553
 21
894.746266191682
 31
0.0
  0
LINE
  5
254
  8
0_18__
 62
     1
 10
-225.4007623377553
 20
897.546266191682
 30
0.0
 11
-225.4007623377553
 21
894.746266191682
 31
0.0
  0
LINE
  5
255
  8
0_18__
 62
     1
 10
-224.4809163377553
 20
897.546266191682
 30
0.0
 11
-224.4809163377553
 21
894.746266191682
 31
0.0
  0
LINE
  5
256
  8
0_18__
 62
     1
 10
-223.5467983377553
 20
897.546266191682
 30
0.0
 11
-223.5467983377553
 21
894.746266191682
 31
0.0
  0
LINE
  5
257
  8
0_18__
 62
     1
 10
-233.4582643377553
 20
897.3462661916819
 30
0.0
 11
-233.4582643377553
 21
894.946266191682
 31
0.0
  0
LINE
  5
258
  8
0_18__
 62
     1
 10
-233.4172923377553
 20
897.3462661916819
 30
0.0
 11
-233.4172923377553
 21
894.946266191682
 31
0.0
  0
LINE
  5
259
  8
0_18__
 62
     1
 10
-233.2606233377552
 20
897.3462661916819
 30
0.0
 11
-233.2606233377552
 21
894.946266191682
 31
0.0
  0
LINE
  5
25A
  8
0_18__
 62
     1
 10
-233.1995553377553
 20
897.3462661916819
 30
0.0
 11
-233.1995553377553
 21
894.946266191682
 31
0.0
  0
LINE
  5
25B
  8
0_18__
 62
     1
 10
-232.9818903377553
 20
897.3462661916819
 30
0.0
 11
-232.9818903377553
 21
894.946266191682
 31
0.0
  0
LINE
  5
25C
  8
0_18__
 62
     1
 10
-232.9011913377553
 20
897.3462661916819
 30
0.0
 11
-232.9011913377553
 21
894.946266191682
 31
0.0
  0
LINE
  5
25D
  8
0_18__
 62
     1
 10
-232.6241863377552
 20
897.3462661916819
 30
0.0
 11
-232.6241863377552
 21
894.946266191682
 31
0.0
  0
LINE
  5
25E
  8
0_18__
 62
     1
 10
-232.5244703377552
 20
897.3462661916819
 30
0.0
 11
-232.5244703377552
 21
894.946266191682
 31
0.0
  0
LINE
  5
25F
  8
0_18__
 62
     1
 10
-232.1902343377553
 20
897.3462661916819
 30
0.0
 11
-232.1902343377553
 21
894.946266191682
 31
0.0
  0
LINE
  5
260
  8
0_18__
 62
     1
 10
-232.0722613377553
 20
897.3462661916819
 30
0.0
 11
-232.0722613377553
 21
894.946266191682
 31
0.0
  0
LINE
  5
261
  8
0_18__
 62
     1
 10
-231.6833373377553
 20
897.3462661916819
 30
0.0
 11
-231.6833373377553
 21
894.946266191682
 31
0.0
  0
LINE
  5
262
  8
0_18__
 62
     1
 10
-231.5480033377552
 20
897.3462661916819
 30
0.0
 11
-231.5480033377552
 21
894.946266191682
 31
0.0
  0
LINE
  5
263
  8
0_18__
 62
     1
 10
-231.1073523377552
 20
897.3462661916819
 30
0.0
 11
-231.1073523377552
 21
894.946266191682
 31
0.0
  0
LINE
  5
264
  8
0_18__
 62
     1
 10
-230.9556883377552
 20
897.3462661916819
 30
0.0
 11
-230.9556883377552
 21
894.946266191682
 31
0.0
  0
LINE
  5
265
  8
0_18__
 62
     1
 10
-230.4666633377553
 20
897.3462661916819
 30
0.0
 11
-230.4666633377553
 21
894.946266191682
 31
0.0
  0
LINE
  5
266
  8
0_18__
 62
     1
 10
-230.2998233377552
 20
897.3462661916819
 30
0.0
 11
-230.2998233377552
 21
894.946266191682
 31
0.0
  0
LINE
  5
267
  8
0_18__
 62
     1
 10
-229.7661463377553
 20
897.3462661916819
 30
0.0
 11
-229.7661463377553
 21
894.946266191682
 31
0.0
  0
LINE
  5
268
  8
0_18__
 62
     1
 10
-229.5854003377553
 20
897.3462661916819
 30
0.0
 11
-229.5854003377553
 21
894.946266191682
 31
0.0
  0
LINE
  5
269
  8
0_18__
 62
     1
 10
-229.0111323377553
 20
897.3462661916819
 30
0.0
 11
-229.0111323377553
 21
894.946266191682
 31
0.0
  0
LINE
  5
26A
  8
0_18__
 62
     1
 10
-228.8178553377552
 20
897.3462661916819
 30
0.0
 11
-228.8178553377552
 21
894.946266191682
 31
0.0
  0
LINE
  5
26B
  8
0_18__
 62
     1
 10
-228.2073683377553
 20
897.3462661916819
 30
0.0
 11
-228.2073683377553
 21
894.946266191682
 31
0.0
  0
LINE
  5
26C
  8
0_18__
 62
     1
 10
-228.0030313377553
 20
897.3462661916819
 30
0.0
 11
-228.0030313377553
 21
894.946266191682
 31
0.0
  0
LINE
  5
26D
  8
0_18__
 62
     1
 10
-227.3609703377552
 20
897.3462661916819
 30
0.0
 11
-227.3609703377552
 21
894.946266191682
 31
0.0
  0
LINE
  5
26E
  8
0_18__
 62
     1
 10
-227.1471293377552
 20
897.3462661916819
 30
0.0
 11
-227.1471293377552
 21
894.946266191682
 31
0.0
  0
LINE
  5
26F
  8
0_18__
 62
     1
 10
-226.4783803377553
 20
897.3462661916819
 30
0.0
 11
-226.4783803377553
 21
894.946266191682
 31
0.0
  0
LINE
  5
270
  8
0_18__
 62
     1
 10
-226.2566623377552
 20
897.3462661916819
 30
0.0
 11
-226.2566623377552
 21
894.946266191682
 31
0.0
  0
LINE
  5
271
  8
0_18__
 62
     1
 10
-225.5663153377553
 20
897.3462661916819
 30
0.0
 11
-225.5663153377553
 21
894.946266191682
 31
0.0
  0
LINE
  5
272
  8
0_18__
 62
     1
 10
-225.3384083377553
 20
897.3462661916819
 30
0.0
 11
-225.3384083377553
 21
894.946266191682
 31
0.0
  0
LINE
  5
273
  8
0_18__
 62
     1
 10
-224.6317173377553
 20
897.3462661916819
 30
0.0
 11
-224.6317173377553
 21
894.946266191682
 31
0.0
  0
LINE
  5
274
  8
0_18__
 62
     1
 10
-224.3993553377553
 20
897.3462661916819
 30
0.0
 11
-224.3993553377553
 21
894.946266191682
 31
0.0
  0
LINE
  5
275
  8
0_18__
 62
     1
 10
-223.6816993377553
 20
897.3462661916819
 30
0.0
 11
-223.6816993377553
 21
894.946266191682
 31
0.0
  0
LINE
  5
276
  8
0_18__
 62
     1
 10
-223.4466493377553
 20
897.3462661916819
 30
0.0
 11
-223.4466493377553
 21
894.946266191682
 31
0.0
  0
LINE
  5
277
  8
0_18__
 62
     1
 10
-222.7234903377553
 20
897.3462661916819
 30
0.0
 11
-222.7234903377553
 21
894.946266191682
 31
0.0
  0
LINE
  5
278
  8
0_18__
 62
     1
 10
-233.5733093377552
 20
897.3462661916819
 30
0.0
 11
-233.5733093377552
 21
894.946266191682
 31
0.0
  0
LINE
  5
279
  8
0_18__
 62
     1
 10
-233.3055163377553
 20
894.646266191682
 30
0.0
 11
-233.6055163377553
 21
894.946266191682
 31
0.0
  0
LINE
  5
27A
  8
0_18__
 62
     1
 10
-233.3055163377553
 20
897.646266191682
 30
0.0
 11
-233.6055163377553
 21
897.3462661916819
 31
0.0
  0
LINE
  5
27B
  8
0_18__
 62
     1
 10
-233.6055163377553
 20
897.3462661916819
 30
0.0
 11
-233.6055163377553
 21
894.946266191682
 31
0.0
  0
LINE
  5
27C
  8
0_18__
 62
     1
 10
-227.4555163377553
 20
897.646266191682
 30
0.0
 11
-217.7555163377552
 21
897.646266191682
 31
0.0
  0
LINE
  5
27D
  8
0_18__
 62
     1
 10
-238.1055163377553
 20
878.239806191682
 30
0.0
 11
-238.6055163377553
 21
878.239806191682
 31
0.0
  0
LINE
  5
27E
  8
0_18__
 62
     1
 10
-207.1055163377553
 20
878.239806191682
 30
0.0
 11
-206.6055163377553
 21
878.239806191682
 31
0.0
  0
LINE
  5
27F
  8
0_18__
 62
     1
 10
-208.1055163377553
 20
884.546266191682
 30
0.0
 11
-212.6055163377553
 21
884.546266191682
 31
0.0
  0
LINE
  5
280
  8
0_18__
 62
     1
 10
-207.1055163377553
 20
878.239806191682
 30
0.0
 11
-207.1055163377553
 21
883.546266191682
 31
0.0
  0
LINE
  5
281
  8
0_18__
 62
     1
 10
-232.6055163377553
 20
884.546266191682
 30
0.0
 11
-237.1055163377553
 21
884.546266191682
 31
0.0
  0
LINE
  5
282
  8
0_18__
 62
     1
 10
-214.5055153377552
 20
892.646266191682
 30
0.0
 11
-212.6055163377553
 21
892.646266191682
 31
0.0
  0
LINE
  5
283
  8
0_18__
 62
     1
 10
-214.5055153377552
 20
892.646266191682
 30
0.0
 11
-214.5055153377552
 21
894.646266191682
 31
0.0
  0
LINE
  5
284
  8
0_18__
 62
     1
 10
-230.7055173377553
 20
894.646266191682
 30
0.0
 11
-233.3055163377553
 21
894.646266191682
 31
0.0
  0
LINE
  5
285
  8
0_18__
 62
     1
 10
-230.7055173377553
 20
892.646266191682
 30
0.0
 11
-230.7055173377553
 21
894.646266191682
 31
0.0
  0
LINE
  5
286
  8
0_18__
 62
     1
 10
-230.7055173377553
 20
892.646266191682
 30
0.0
 11
-232.6055163377553
 21
892.646266191682
 31
0.0
  0
LINE
  5
287
  8
0_18__
 62
     1
 10
-238.1055163377553
 20
883.546266191682
 30
0.0
 11
-237.1055163377553
 21
884.546266191682
 31
0.0
  0
LINE
  5
288
  8
0_18__
 62
     1
 10
-207.1055163377553
 20
883.546266191682
 30
0.0
 11
-208.1055163377553
 21
884.546266191682
 31
0.0
  0
LINE
  5
289
  8
0_18__
 62
     1
 10
-212.6055163377553
 20
884.546266191682
 30
0.0
 11
-212.6055163377553
 21
892.646266191682
 31
0.0
  0
LINE
  5
28A
  8
0_18__
 62
     1
 10
-232.6055163377553
 20
884.546266191682
 30
0.0
 11
-232.6055163377553
 21
892.646266191682
 31
0.0
  0
LINE
  5
28B
  8
0_18__
 62
     1
 10
-227.4555163377553
 20
897.646266191682
 30
0.0
 11
-233.3055163377553
 21
897.646266191682
 31
0.0
  0
LINE
  5
28C
  8
0_18__
 62
     1
 10
-214.5055153377552
 20
894.646266191682
 30
0.0
 11
-211.9055163377553
 21
894.646266191682
 31
0.0
  0
LINE
  5
28D
  8
0_18__
 62
     1
 10
-217.7555163377552
 20
897.646266191682
 30
0.0
 11
-211.9055163377553
 21
897.646266191682
 31
0.0
  0
LINE
  5
28E
  8
0_18__
 62
     1
 10
-238.1055163377553
 20
878.239806191682
 30
0.0
 11
-238.1055163377553
 21
883.546266191682
 31
0.0
  0
LINE
  5
28F
  8
0_18__
 62
     1
 10
-238.0559053377553
 20
883.546266191682
 30
0.0
 11
-238.0559053377553
 21
878.239806191682
 31
0.0
  0
LINE
  5
290
  8
0_18__
 62
     1
 10
-238.1055163377553
 20
878.239806191682
 30
0.0
 11
-207.1055163377553
 21
878.239806191682
 31
0.0
  0
LINE
  5
291
  8
0_18__
 62
     1
 10
-231.4038383377552
 20
883.546266191682
 30
0.0
 11
-231.4038383377552
 21
878.239806191682
 31
0.0
  0
LINE
  5
292
  8
0_18__
 62
     1
 10
-229.2575833377552
 20
883.546266191682
 30
0.0
 11
-229.2575833377552
 21
878.239806191682
 31
0.0
  0
LINE
  5
293
  8
0_18__
 62
     1
 10
-215.9534493377553
 20
883.546266191682
 30
0.0
 11
-215.9534493377553
 21
878.239806191682
 31
0.0
  0
LINE
  5
294
  8
0_18__
 62
     1
 10
-213.8071943377553
 20
883.546266191682
 30
0.0
 11
-213.8071943377553
 21
878.239806191682
 31
0.0
  0
LINE
  5
295
  8
0_18__
 62
     1
 10
-207.1551273377553
 20
883.546266191682
 30
0.0
 11
-207.1551273377553
 21
878.239806191682
 31
0.0
  0
ARC
  5
296
  8
0_18__
 62
     1
 10
-234.7298723377552
 20
878.515016191682
 30
0.0
 40
6.031249999999996
 50
56.5323050000006
 51
123.4676950000003
  0
ARC
  5
297
  8
0_18__
 62
     1
 10
-222.6055163377553
 20
861.921266191682
 30
0.0
 40
22.62500000000001
 50
72.90157599999999
 51
107.098424
  0
ARC
  5
298
  8
0_18__
 62
     1
 10
-210.4811603377553
 20
878.515016191682
 30
0.0
 40
6.031250000000028
 50
56.53230500000016
 51
123.4676949999998
  0
LINE
  5
299
  8
0_18__
 62
     1
 10
-232.6055163377553
 20
884.546266191682
 30
0.0
 11
-212.6055163377553
 21
884.546266191682
 31
0.0
  0
LINE
  5
29A
  8
0_18__
 62
     1
 10
-231.4038383377552
 20
883.546266191682
 30
0.0
 11
-229.2575833377552
 21
883.546266191682
 31
0.0
  0
LINE
  5
29B
  8
0_18__
 62
     1
 10
-215.9534493377553
 20
883.546266191682
 30
0.0
 11
-213.8071943377553
 21
883.546266191682
 31
0.0
  0
LINE
  5
29C
  8
0_18__
 62
     1
 10
-230.7055173377553
 20
892.646266191682
 30
0.0
 11
-214.5055153377552
 21
892.646266191682
 31
0.0
  0
LINE
  5
29D
  8
0_18__
 62
     1
 10
-230.7055173377553
 20
894.646266191682
 30
0.0
 11
-214.5055153377552
 21
894.646266191682
 31
0.0
  0
LINE
  5
29E
  8
0_18__
 62
     1
 10
-222.6055163377553
 20
897.646266191682
 30
0.0
 11
-222.6055163377553
 21
894.646266191682
 31
0.0
  0
LINE
  5
29F
  8
0_18__
 62
     1
 10
-217.1055163377553
 20
922.190356191682
 30
0.0
 11
-217.1055163377553
 21
919.946266191682
 31
0.0
  0
LINE
  5
2A0
  8
0_18__
 62
     1
 10
-218.1055163377553
 20
922.190356191682
 30
0.0
 11
-218.1055163377553
 21
919.946266191682
 31
0.0
  0
LINE
  5
2A1
  8
0_18__
 62
     1
 10
-219.1055163377553
 20
922.190356191682
 30
0.0
 11
-219.1055163377553
 21
919.946266191682
 31
0.0
  0
LINE
  5
2A2
  8
0_18__
 62
     1
 10
-220.1055163377553
 20
922.190356191682
 30
0.0
 11
-220.1055163377553
 21
919.946266191682
 31
0.0
  0
LINE
  5
2A3
  8
0_18__
 62
     1
 10
-221.1055163377553
 20
922.190356191682
 30
0.0
 11
-221.1055163377553
 21
919.946266191682
 31
0.0
  0
LINE
  5
2A4
  8
0_18__
 62
     1
 10
-222.1055163377553
 20
922.190356191682
 30
0.0
 11
-222.1055163377553
 21
919.946266191682
 31
0.0
  0
LINE
  5
2A5
  8
0_18__
 62
     1
 10
-228.1055163377553
 20
922.190356191682
 30
0.0
 11
-228.1055163377553
 21
919.946266191682
 31
0.0
  0
LINE
  5
2A6
  8
0_18__
 62
     1
 10
-227.1055163377553
 20
922.190356191682
 30
0.0
 11
-227.1055163377553
 21
919.946266191682
 31
0.0
  0
LINE
  5
2A7
  8
0_18__
 62
     1
 10
-226.1055163377553
 20
922.190356191682
 30
0.0
 11
-226.1055163377553
 21
919.946266191682
 31
0.0
  0
LINE
  5
2A8
  8
0_18__
 62
     1
 10
-225.1055163377553
 20
922.190356191682
 30
0.0
 11
-225.1055163377553
 21
919.946266191682
 31
0.0
  0
LINE
  5
2A9
  8
0_18__
 62
     1
 10
-224.1055163377553
 20
922.190356191682
 30
0.0
 11
-224.1055163377553
 21
919.946266191682
 31
0.0
  0
LINE
  5
2AA
  8
0_18__
 62
     1
 10
-223.1055163377553
 20
922.190356191682
 30
0.0
 11
-223.1055163377553
 21
919.946266191682
 31
0.0
  0
LINE
  5
2AB
  8
0_18__
 62
     1
 10
-228.6055163377553
 20
922.190356191682
 30
0.0
 11
-216.6055163377553
 21
922.190356191682
 31
0.0
  0
LINE
  5
2AC
  8
0_18__
 62
     1
 10
-215.5388693377553
 20
918.396266191682
 30
0.0
 11
-215.5388693377553
 21
910.896266191682
 31
0.0
  0
LINE
  5
2AD
  8
0_18__
 62
     1
 10
-229.6721633377553
 20
918.396266191682
 30
0.0
 11
-229.6721633377553
 21
910.896266191682
 31
0.0
  0
LINE
  5
2AE
  8
0_18__
 62
     1
 10
-222.6055163377553
 20
919.946266191682
 30
0.0
 11
-216.6130213377552
 21
919.946266191682
 31
0.0
  0
LINE
  5
2AF
  8
0_18__
 62
     1
 10
-222.6055163377553
 20
909.3462661916819
 30
0.0
 11
-216.6130213377552
 21
909.3462661916819
 31
0.0
  0
LINE
  5
2B0
  8
0_18__
 62
     1
 10
-227.3555163377553
 20
909.3462661916819
 30
0.0
 11
-227.3555163377553
 21
897.646266191682
 31
0.0
  0
LINE
  5
2B1
  8
0_18__
 62
     1
 10
-228.5980113377553
 20
919.946266191682
 30
0.0
 11
-222.6055163377553
 21
919.946266191682
 31
0.0
  0
LINE
  5
2B2
  8
0_18__
 62
     1
 10
-216.6055163377553
 20
922.190356191682
 30
0.0
 11
-216.6055163377553
 21
919.946266191682
 31
0.0
  0
LINE
  5
2B3
  8
0_18__
 62
     1
 10
-228.6055163377553
 20
922.190356191682
 30
0.0
 11
-228.6055163377553
 21
919.946266191682
 31
0.0
  0
ARC
  5
2B4
  8
0_18__
 62
     1
 10
-222.6055163377553
 20
886.786266191682
 30
0.0
 40
36.16000000000003
 50
80.85395799999999
 51
99.14604200000002
  0
ARC
  5
2B5
  8
0_18__
 62
     1
 10
-216.9055163377553
 20
922.190356191682
 30
0.0
 40
0.3000000000000114
 50
0.0
 51
80.85395799999316
  0
ARC
  5
2B6
  8
0_18__
 62
     1
 10
-228.3055163377553
 20
922.190356191682
 30
0.0
 40
0.3000000000000053
 50
99.14604200000684
 51
180.0
  0
LINE
  5
2B7
  8
0_18__
 62
     1
 10
-217.8555163377553
 20
909.3462661916819
 30
0.0
 11
-217.8555163377553
 21
897.646266191682
 31
0.0
  0
ARC
  5
2B8
  8
0_18__
 62
     1
 10
-222.6055163377553
 20
914.646266191682
 30
0.0
 40
7.999999999999996
 50
318.5091829999997
 51
332.0468130000001
  0
ARC
  5
2B9
  8
0_18__
 62
     1
 10
-222.6055163377553
 20
914.646266191682
 30
0.0
 40
7.999999999999988
 50
27.95318699999991
 51
41.49081699999969
  0
ARC
  5
2BA
  8
0_18__
 62
     1
 10
-222.6055163377553
 20
914.646266191682
 30
0.0
 40
7.999999999999988
 50
207.9531869999999
 51
221.490817
  0
LINE
  5
2BB
  8
0_18__
 62
     1
 10
-229.7055163377553
 20
910.896266191682
 30
0.0
 11
-230.7055163377553
 21
910.896266191682
 31
0.0
  0
LINE
  5
2BC
  8
0_18__
 62
     1
 10
-230.7055163377553
 20
918.396266191682
 30
0.0
 11
-229.6721633377553
 21
918.396266191682
 31
0.0
  0
LINE
  5
2BD
  8
0_18__
 62
     1
 10
-230.7055163377553
 20
918.396266191682
 30
0.0
 11
-230.7055163377553
 21
910.896266191682
 31
0.0
  0
LINE
  5
2BE
  8
0_18__
 62
     1
 10
-215.5055163377552
 20
910.896266191682
 30
0.0
 11
-214.5055163377552
 21
910.896266191682
 31
0.0
  0
LINE
  5
2BF
  8
0_18__
 62
     1
 10
-214.5055163377552
 20
918.396266191682
 30
0.0
 11
-214.5055163377552
 21
910.896266191682
 31
0.0
  0
LINE
  5
2C0
  8
0_18__
 62
     1
 10
-214.5055163377552
 20
918.396266191682
 30
0.0
 11
-215.5388693377553
 21
918.396266191682
 31
0.0
  0
ARC
  5
2C1
  8
0_18__
 62
     1
 10
-222.6055163377553
 20
914.646266191682
 30
0.0
 40
7.999999999999963
 50
138.5091830000006
 51
152.0468130000001
  0
LINE
  5
2C2
  8
0_18__
 62
     1
 10
-228.5980113377553
 20
909.3462661916819
 30
0.0
 11
-222.6055163377553
 21
909.3462661916819
 31
0.0
  0
LINE
  5
2C3
  8
0_18__
 62
     1
 10
-206.6055163377553
 20
878.239806191682
 30
0.0
 11
-206.6055163377553
 21
875.739806191682
 31
0.0
  0
LINE
  5
2C4
  8
0_18__
 62
     1
 10
-238.6055163377553
 20
878.239806191682
 30
0.0
 11
-238.6055163377553
 21
875.739806191682
 31
0.0
  0
LINE
  5
2C5
  8
0_18__
 62
     1
 10
-234.6055143377553
 20
871.646273191682
 30
0.0
 11
-233.5119813377553
 21
872.739806191682
 31
0.0
  0
LINE
  5
2C6
  8
0_18__
 62
     1
 10
-210.6055163377553
 20
871.646258191682
 30
0.0
 11
-211.6990643377553
 21
872.739806191682
 31
0.0
  0
ARC
  5
2C7
  8
0_03____
  6
ISO-10______
 62
     2
 10
-249.0914843377553
 20
843.146266191682
 30
0.0
 40
7.0
 50
90.0
 51
174.9999690000008
  0
LINE
  5
2C8
  8
0_03____
  6
ISO-10______
 62
     2
 10
-222.6055163377553
 20
991.4752185191431
 30
0.0
 11
-222.6055163377553
 21
1033.473347519143
 31
0.0
  0
LINE
  5
2C9
  8
0_18__
 62
     1
 10
-229.7055163377553
 20
1016.160744519143
 30
0.0
 11
-229.7055163377553
 21
1008.787821519143
 31
0.0
  0
LINE
  5
2CA
  8
0_18__
 62
     1
 10
-229.7055163377553
 20
1008.724282519143
 30
0.0
 11
-230.7055163377553
 21
1008.724282519143
 31
0.0
  0
LINE
  5
2CB
  8
0_18__
 62
     1
 10
-230.7055163377553
 20
1016.224282519143
 30
0.0
 11
-229.6721633377553
 21
1016.224282519143
 31
0.0
  0
LINE
  5
2CC
  8
0_18__
 62
     1
 10
-230.7055163377553
 20
1016.224282519143
 30
0.0
 11
-230.7055163377553
 21
1008.724282519143
 31
0.0
  0
LINE
  5
2CD
  8
0_18__
 62
     1
 10
-215.5055163377552
 20
1008.724282519143
 30
0.0
 11
-214.5055163377552
 21
1008.724282519143
 31
0.0
  0
LINE
  5
2CE
  8
0_18__
 62
     1
 10
-214.5055163377552
 20
1016.224282519143
 30
0.0
 11
-215.5388693377553
 21
1016.224282519143
 31
0.0
  0
ARC
  5
2CF
  8
0_18__
 62
     1
 10
-222.6055163377553
 20
1012.474282519143
 30
0.0
 40
8.000000000000034
 50
27.43924000000055
 51
152.5607599999994
  0
LINE
  5
2D0
  8
0_18__
 62
     1
 10
-215.5055163377552
 20
1016.160744519143
 30
0.0
 11
-215.5055163377552
 21
1008.787821519143
 31
0.0
  0
LINE
  5
2D1
  8
0_18__
 62
     1
 10
-214.5055163377552
 20
1016.224282519143
 30
0.0
 11
-214.5055163377552
 21
1008.724282519143
 31
0.0
  0
CIRCLE
  5
2D2
  8
0_18__
 62
     1
 10
-222.6055163377553
 20
1012.474282519143
 30
0.0
 40
6.0
  0
CIRCLE
  5
2D3
  8
0_18__
 62
     1
 10
-222.6055163377553
 20
1012.474282519143
 30
0.0
 40
3.5
  0
ARC
  5
2D4
  8
0_18__
 62
     1
 10
-222.6055163377553
 20
1012.474282519143
 30
0.0
 40
7.999999999999824
 50
207.4392399999977
 51
332.0468130000009
  0
ARC
  5
2D5
  8
0_18__
 62
     1
 10
-222.7785313377553
 20
1012.474282519143
 30
0.0
 40
14.50000000000001
 50
285.0901850000001
 51
314.9098150000002
  0
ARC
  5
2D6
  8
0_18__
 62
     1
 10
-222.7785313377553
 20
1012.474282519143
 30
0.0
 40
14.49999999999994
 50
225.0901849999999
 51
254.909815
  0
ARC
  5
2D7
  8
0_18__
 62
     1
 10
-222.7785313377553
 20
1012.474282519143
 30
0.0
 40
14.50000000000004
 50
11.87831300000011
 51
14.90981500000018
  0
ARC
  5
2D8
  8
0_18__
 62
     1
 10
-222.7785313377553
 20
1012.474282519143
 30
0.0
 40
14.50000000000022
 50
45.09018500000072
 51
74.90981500000018
  0
ARC
  5
2D9
  8
0_18__
 62
     1
 10
-222.7785313377553
 20
1012.474282519143
 30
0.0
 40
14.50000000000021
 50
105.0901849999996
 51
134.9098149999991
  0
ARC
  5
2DA
  8
0_18__
 62
     1
 10
-222.7785313377553
 20
1012.474282519143
 30
0.0
 40
14.5
 50
165.0901849999998
 51
168.0110100000001
  0
ARC
  5
2DB
  8
0_18__
 62
     1
 10
-222.7785313377553
 20
1012.474282519143
 30
0.0
 40
15.49999999999993
 50
295.4146210000002
 51
304.5853789999999
  0
ARC
  5
2DC
  8
0_18__
 62
     1
 10
-222.7785313377553
 20
1012.474282519143
 30
0.0
 40
15.50000000000004
 50
235.4146210000002
 51
244.5853789999999
  0
ARC
  5
2DD
  8
0_18__
 62
     1
 10
-222.7785313377553
 20
1012.474282519143
 30
0.0
 40
15.49999999999991
 50
115.4146210000001
 51
124.5853790000003
  0
ARC
  5
2DE
  8
0_18__
 62
     1
 10
-222.7785313377553
 20
1012.474282519143
 30
0.0
 40
15.49999999999988
 50
55.41462099999951
 51
64.58537899999975
  0
LINE
  5
2DF
  8
0_18__
 62
     1
 10
-231.5768533377553
 20
999.713422519143
 30
0.0
 11
-237.1945613377553
 21
1009.443578519143
 31
0.0
  0
LINE
  5
2E0
  8
0_18__
 62
     1
 10
-208.3471273377552
 20
1015.478356519143
 30
0.0
 11
-213.9802093377552
 21
1025.235141519143
 31
0.0
  0
LINE
  5
2E1
  8
0_18__
 62
     1
 10
-237.1945603377553
 20
1015.504988519143
 30
0.0
 11
-231.5768533377553
 21
1025.235141519143
 31
0.0
  0
LINE
  5
2E2
  8
0_18__
 62
     1
 10
-213.9802093377552
 20
999.713422519143
 30
0.0
 11
-208.3471263377552
 21
1009.470210519143
 31
0.0
  0
LINE
  5
2E3
  8
0_18__
 62
     1
 10
-229.4305983377553
 20
998.4742825191431
 30
0.0
 11
-216.1264643377552
 21
998.4742825191431
 31
0.0
  0
LINE
  5
2E4
  8
0_18__
 62
     1
 10
-229.4305983377553
 20
1026.474282519143
 30
0.0
 11
-216.1264643377552
 21
1026.474282519143
 31
0.0
  0
ARC
  5
2E5
  8
0_18__
 62
     1
 10
-222.7785313377553
 20
1012.474282519143
 30
0.0
 40
16.00000000000003
 50
11.19324700000007
 51
168.7065999999996
  0
LINE
  5
2E6
  8
0_18__
 62
     1
 10
-212.1844923377553
 20
1015.435081519143
 30
0.0
 11
-212.3465323377553
 21
1015.269527519143
 31
0.0
  0
LINE
  5
2E7
  8
0_18__
 62
     1
 10
-212.1234243377552
 20
1015.207174519143
 30
0.0
 11
-212.3465323377553
 21
1015.269527519143
 31
0.0
  0
LINE
  5
2E8
  8
0_18__
 62
     1
 10
-212.4828563377553
 20
1016.347146519143
 30
0.0
 11
-212.6298513377553
 21
1016.168099519143
 31
0.0
  0
LINE
  5
2E9
  8
0_18__
 62
     1
 10
-212.4021573377553
 20
1016.125428519143
 30
0.0
 11
-212.6298513377553
 21
1016.168099519143
 31
0.0
  0
LINE
  5
2EA
  8
0_18__
 62
     1
 10
-212.8595763377552
 20
1017.229736519143
 30
0.0
 11
-212.9904073377552
 21
1017.038559519143
 31
0.0
  0
LINE
  5
2EB
  8
0_18__
 62
     1
 10
-212.7598613377552
 20
1017.015895519143
 30
0.0
 11
-212.9904073377552
 21
1017.038559519143
 31
0.0
  0
LINE
  5
2EC
  8
0_18__
 62
     1
 10
-213.3117863377553
 20
1018.076133519143
 30
0.0
 11
-213.4254573377553
 21
1017.874282519143
 31
0.0
  0
LINE
  5
2ED
  8
0_18__
 62
     1
 10
-213.1938133377553
 20
1017.871797519143
 30
0.0
 11
-213.4254573377553
 21
1017.874282519143
 31
0.0
  0
LINE
  5
2EE
  8
0_18__
 62
     1
 10
-213.8360443377553
 20
1018.879898519143
 30
0.0
 11
-213.9316893377552
 21
1018.668907519143
 31
0.0
  0
LINE
  5
2EF
  8
0_18__
 62
     1
 10
-213.7007103377553
 20
1018.686621519143
 30
0.0
 11
-213.9316893377552
 21
1018.668907519143
 31
0.0
  0
LINE
  5
2F0
  8
0_18__
 62
     1
 10
-214.4283593377552
 20
1019.634912519143
 30
0.0
 11
-214.5052513377553
 21
1019.416388519143
 31
0.0
  0
LINE
  5
2F1
  8
0_18__
 62
     1
 10
-214.2766953377553
 20
1019.454166519143
 30
0.0
 11
-214.5052513377553
 21
1019.416388519143
 31
0.0
  0
LINE
  5
2F2
  8
0_18__
 62
     1
 10
-215.0842243377552
 20
1020.335429519143
 30
0.0
 11
-215.1417783377553
 21
1020.111035519143
 31
0.0
  0
LINE
  5
2F3
  8
0_18__
 62
     1
 10
-214.9173843377553
 20
1020.168589519143
 30
0.0
 11
-215.1417783377553
 21
1020.111035519143
 31
0.0
  0
LINE
  5
2F4
  8
0_18__
 62
     1
 10
-215.7986473377553
 20
1020.976118519143
 30
0.0
 11
-215.8364253377553
 21
1020.747562519143
 31
0.0
  0
LINE
  5
2F5
  8
0_18__
 62
     1
 10
-215.6179013377553
 20
1020.824454519143
 30
0.0
 11
-215.8364253377553
 21
1020.747562519143
 31
0.0
  0
LINE
  5
2F6
  8
0_18__
 62
     1
 10
-216.5661913377552
 20
1021.552103519143
 30
0.0
 11
-216.5839053377553
 21
1021.321124519143
 31
0.0
  0
LINE
  5
2F7
  8
0_18__
 62
     1
 10
-216.3729153377553
 20
1021.416769519143
 30
0.0
 11
-216.5839053377553
 21
1021.321124519143
 31
0.0
  0
LINE
  5
2F8
  8
0_18__
 62
     1
 10
-217.3810153377553
 20
1022.059000519143
 30
0.0
 11
-217.3785313377552
 21
1021.827356519143
 31
0.0
  0
LINE
  5
2F9
  8
0_18__
 62
     1
 10
-217.1766793377553
 20
1021.941026519143
 30
0.0
 11
-217.3785313377552
 21
1021.827356519143
 31
0.0
  0
LINE
  5
2FA
  8
0_18__
 62
     1
 10
-218.2369183377552
 20
1022.492952519143
 30
0.0
 11
-218.2142543377553
 21
1022.262406519143
 31
0.0
  0
LINE
  5
2FB
  8
0_18__
 62
     1
 10
-218.0230773377552
 20
1022.393236519143
 30
0.0
 11
-218.2142543377553
 21
1022.262406519143
 31
0.0
  0
LINE
  5
2FC
  8
0_18__
 62
     1
 10
-219.1273853377552
 20
1022.850655519143
 30
0.0
 11
-219.0847133377553
 21
1022.622962519143
 31
0.0
  0
LINE
  5
2FD
  8
0_18__
 62
     1
 10
-218.9056673377553
 20
1022.769957519143
 30
0.0
 11
-219.0847133377553
 21
1022.622962519143
 31
0.0
  0
LINE
  5
2FE
  8
0_18__
 62
     1
 10
-220.0456393377553
 20
1023.129388519143
 30
0.0
 11
-219.9832853377553
 21
1022.906280519143
 31
0.0
  0
LINE
  5
2FF
  8
0_18__
 62
     1
 10
-219.8177313377553
 20
1023.068321519143
 30
0.0
 11
-219.9832853377553
 21
1022.906280519143
 31
0.0
  0
LINE
  5
300
  8
0_18__
 62
     1
 10
-220.9846923377552
 20
1023.327030519143
 30
0.0
 11
-220.9031313377553
 21
1023.110205519143
 31
0.0
  0
LINE
  5
301
  8
0_18__
 62
     1
 10
-220.7523293377553
 20
1023.286058519143
 30
0.0
 11
-220.9031313377553
 21
1023.110205519143
 31
0.0
  0
LINE
  5
302
  8
0_18__
 62
     1
 10
-221.9373983377553
 20
1023.442075519143
 30
0.0
 11
-221.8372493377553
 21
1023.233184519143
 31
0.0
  0
LINE
  5
303
  8
0_18__
 62
     1
 10
-221.7023483377553
 20
1023.421511519143
 30
0.0
 11
-221.8372493377553
 21
1023.233184519143
 31
0.0
  0
LINE
  5
304
  8
0_18__
 62
     1
 10
-222.6605573377553
 20
1023.473649519143
 30
0.0
 11
-222.7785313377553
 21
1023.274282519143
 31
0.0
  0
ARC
  5
305
  8
0_18__
 62
     1
 10
-222.7785313377553
 20
1012.474282519143
 30
0.0
 40
11.00000000000017
 50
85.61450200000003
 51
89.38549799999996
  0
ARC
  5
306
  8
0_18__
 62
     1
 10
-222.7785313377553
 20
1012.474282519143
 30
0.0
 40
11.00000000000017
 50
80.61450200000009
 51
84.38549800000006
  0
ARC
  5
307
  8
0_18__
 62
     1
 10
-222.7785313377553
 20
1012.474282519143
 30
0.0
 40
11.0000000000002
 50
75.61450200000026
 51
79.38549799999977
  0
ARC
  5
308
  8
0_18__
 62
     1
 10
-222.7785313377553
 20
1012.474282519143
 30
0.0
 40
11.00000000000025
 50
70.61450200000054
 51
74.38549800000058
  0
ARC
  5
309
  8
0_18__
 62
     1
 10
-222.7785313377553
 20
1012.474282519143
 30
0.0
 40
11.00000000000024
 50
65.61450200000051
 51
69.38549799999986
  0
ARC
  5
30A
  8
0_18__
 62
     1
 10
-222.7785313377553
 20
1012.474282519143
 30
0.0
 40
11.00000000000003
 50
60.61450199999995
 51
64.38549800000023
  0
ARC
  5
30B
  8
0_18__
 62
     1
 10
-222.7785313377553
 20
1012.474282519143
 30
0.0
 40
11.00000000000011
 50
55.6145020000003
 51
59.38549800000063
  0
ARC
  5
30C
  8
0_18__
 62
     1
 10
-222.7785313377553
 20
1012.474282519143
 30
0.0
 40
11.00000000000006
 50
50.61450200000031
 51
54.38549800000025
  0
ARC
  5
30D
  8
0_18__
 62
     1
 10
-222.7785313377553
 20
1012.474282519143
 30
0.0
 40
11.00000000000017
 50
45.61450200000058
 51
49.38549799999997
  0
ARC
  5
30E
  8
0_18__
 62
     1
 10
-222.7785313377553
 20
1012.474282519143
 30
0.0
 40
11.00000000000001
 50
40.61450200000003
 51
44.38549800000047
  0
ARC
  5
30F
  8
0_18__
 62
     1
 10
-222.7785313377553
 20
1012.474282519143
 30
0.0
 40
11.00000000000008
 50
35.61450200000033
 51
39.38549799999966
  0
ARC
  5
310
  8
0_18__
 62
     1
 10
-222.7785313377553
 20
1012.474282519143
 30
0.0
 40
11.00000000000015
 50
30.61450200000125
 51
34.3854980000015
  0
ARC
  5
311
  8
0_18__
 62
     1
 10
-222.7785313377553
 20
1012.474282519143
 30
0.0
 40
11.00000000000013
 50
25.61450200000123
 51
29.38549800000006
  0
ARC
  5
312
  8
0_18__
 62
     1
 10
-222.7785313377553
 20
1012.474282519143
 30
0.0
 40
11.00000000000012
 50
20.61450200000106
 51
24.38549800000025
  0
ARC
  5
313
  8
0_18__
 62
     1
 10
-222.7785313377553
 20
1012.474282519143
 30
0.0
 40
11.00000000000005
 50
15.61450200000021
 51
19.38549799999988
  0
ARC
  5
314
  8
0_18__
 62
     1
 10
-222.7785313377553
 20
1012.474282519143
 30
0.0
 40
11.00000000000011
 50
14.21181500000151
 51
14.38549800000082
  0
LINE
  5
315
  8
0_18__
 62
     1
 10
-222.8965053377553
 20
1023.473649519143
 30
0.0
 11
-222.7785313377553
 21
1023.274282519143
 31
0.0
  0
ARC
  5
316
  8
0_18__
 62
     1
 10
-222.7785313377553
 20
1012.474282519143
 30
0.0
 40
11.00000000000001
 50
130.614502
 51
134.3854979999992
  0
ARC
  5
317
  8
0_18__
 62
     1
 10
-222.7785313377553
 20
1012.474282519143
 30
0.0
 40
11.0000000000001
 50
125.6145019999995
 51
129.3854979999997
  0
ARC
  5
318
  8
0_18__
 62
     1
 10
-222.7785313377553
 20
1012.474282519143
 30
0.0
 40
11.0000000000002
 50
120.6145019999994
 51
124.3854979999995
  0
ARC
  5
319
  8
0_18__
 62
     1
 10
-222.7785313377553
 20
1012.474282519143
 30
0.0
 40
11.00000000000016
 50
115.6145019999995
 51
119.3854979999998
  0
ARC
  5
31A
  8
0_18__
 62
     1
 10
-222.7785313377553
 20
1012.474282519143
 30
0.0
 40
10.99999999999994
 50
110.6145020000002
 51
114.3854979999992
  0
ARC
  5
31B
  8
0_18__
 62
     1
 10
-222.7785313377553
 20
1012.474282519143
 30
0.0
 40
11.00000000000036
 50
105.6145019999994
 51
109.3854979999995
  0
ARC
  5
31C
  8
0_18__
 62
     1
 10
-222.7785313377553
 20
1012.474282519143
 30
0.0
 40
11.0
 50
100.614502
 51
104.3854979999997
  0
ARC
  5
31D
  8
0_18__
 62
     1
 10
-222.7785313377553
 20
1012.474282519143
 30
0.0
 40
11.00000000000017
 50
95.61450199999996
 51
99.38549799999964
  0
ARC
  5
31E
  8
0_18__
 62
     1
 10
-222.7785313377553
 20
1012.474282519143
 30
0.0
 40
11.00000000000031
 50
90.61450200000003
 51
94.38549799999998
  0
LINE
  5
31F
  8
0_18__
 62
     1
 10
-223.8547143377552
 20
1023.421511519143
 30
0.0
 11
-223.7198133377553
 21
1023.233184519143
 31
0.0
  0
LINE
  5
320
  8
0_18__
 62
     1
 10
-223.6196643377552
 20
1023.442075519143
 30
0.0
 11
-223.7198133377553
 21
1023.233184519143
 31
0.0
  0
LINE
  5
321
  8
0_18__
 62
     1
 10
-224.8047323377552
 20
1023.286058519143
 30
0.0
 11
-224.6539313377552
 21
1023.110205519143
 31
0.0
  0
LINE
  5
322
  8
0_18__
 62
     1
 10
-224.5723703377553
 20
1023.327030519143
 30
0.0
 11
-224.6539313377552
 21
1023.110205519143
 31
0.0
  0
LINE
  5
323
  8
0_18__
 62
     1
 10
-225.7393303377552
 20
1023.068321519143
 30
0.0
 11
-225.5737773377552
 21
1022.906280519143
 31
0.0
  0
LINE
  5
324
  8
0_18__
 62
     1
 10
-225.5114233377553
 20
1023.129388519143
 30
0.0
 11
-225.5737773377552
 21
1022.906280519143
 31
0.0
  0
LINE
  5
325
  8
0_18__
 62
     1
 10
-226.6513953377553
 20
1022.769957519143
 30
0.0
 11
-226.4723483377552
 21
1022.622962519143
 31
0.0
  0
LINE
  5
326
  8
0_18__
 62
     1
 10
-226.4296773377553
 20
1022.850655519143
 30
0.0
 11
-226.4723483377552
 21
1022.622962519143
 31
0.0
  0
LINE
  5
327
  8
0_18__
 62
     1
 10
-227.5339853377553
 20
1022.393236519143
 30
0.0
 11
-227.3428083377553
 21
1022.262406519143
 31
0.0
  0
LINE
  5
328
  8
0_18__
 62
     1
 10
-227.3201443377553
 20
1022.492952519143
 30
0.0
 11
-227.3428083377553
 21
1022.262406519143
 31
0.0
  0
LINE
  5
329
  8
0_18__
 62
     1
 10
-228.3803833377553
 20
1021.941026519143
 30
0.0
 11
-228.1785313377553
 21
1021.827356519143
 31
0.0
  0
LINE
  5
32A
  8
0_18__
 62
     1
 10
-228.1760463377553
 20
1022.059000519143
 30
0.0
 11
-228.1785313377553
 21
1021.827356519143
 31
0.0
  0
LINE
  5
32B
  8
0_18__
 62
     1
 10
-229.1841473377553
 20
1021.416769519143
 30
0.0
 11
-228.9731563377553
 21
1021.321124519143
 31
0.0
  0
LINE
  5
32C
  8
0_18__
 62
     1
 10
-228.9908703377553
 20
1021.552103519143
 30
0.0
 11
-228.9731563377553
 21
1021.321124519143
 31
0.0
  0
LINE
  5
32D
  8
0_18__
 62
     1
 10
-229.9391613377553
 20
1020.824454519143
 30
0.0
 11
-229.7206373377552
 21
1020.747562519143
 31
0.0
  0
LINE
  5
32E
  8
0_18__
 62
     1
 10
-229.7584153377553
 20
1020.976118519143
 30
0.0
 11
-229.7206373377552
 21
1020.747562519143
 31
0.0
  0
LINE
  5
32F
  8
0_18__
 62
     1
 10
-233.3725703377552
 20
1015.435081519143
 30
0.0
 11
-233.2105303377552
 21
1015.269527519143
 31
0.0
  0
LINE
  5
330
  8
0_18__
 62
     1
 10
-233.4478173377553
 20
1015.203212519143
 30
0.0
 11
-233.2105303377552
 21
1015.269527519143
 31
0.0
  0
ARC
  5
331
  8
0_18__
 62
     1
 10
-222.7785313377553
 20
1012.474282519143
 30
0.0
 40
10.99999999999999
 50
160.614502
 51
164.3854979999997
  0
ARC
  5
332
  8
0_18__
 62
     1
 10
-222.7785313377553
 20
1012.474282519143
 30
0.0
 40
11.00000000000001
 50
155.6145019999996
 51
159.3854979999988
  0
ARC
  5
333
  8
0_18__
 62
     1
 10
-222.7785313377553
 20
1012.474282519143
 30
0.0
 40
10.99999999999998
 50
150.6145019999998
 51
154.3854979999986
  0
ARC
  5
334
  8
0_18__
 62
     1
 10
-222.7785313377553
 20
1012.474282519143
 30
0.0
 40
11.00000000000021
 50
145.6145019999985
 51
149.3854979999988
  0
ARC
  5
335
  8
0_18__
 62
     1
 10
-222.7785313377553
 20
1012.474282519143
 30
0.0
 40
10.99999999999994
 50
140.6145020000002
 51
144.3854979999995
  0
ARC
  5
336
  8
0_18__
 62
     1
 10
-222.7785313377553
 20
1012.474282519143
 30
0.0
 40
11.00000000000009
 50
135.6145019999993
 51
139.385498
  0
LINE
  5
337
  8
0_18__
 62
     1
 10
-230.6396783377552
 20
1020.168589519143
 30
0.0
 11
-230.4152843377553
 21
1020.111035519143
 31
0.0
  0
LINE
  5
338
  8
0_18__
 62
     1
 10
-230.4728383377553
 20
1020.335429519143
 30
0.0
 11
-230.4152843377553
 21
1020.111035519143
 31
0.0
  0
LINE
  5
339
  8
0_18__
 62
     1
 10
-231.2803673377553
 20
1019.454166519143
 30
0.0
 11
-231.0518113377553
 21
1019.416388519143
 31
0.0
  0
LINE
  5
33A
  8
0_18__
 62
     1
 10
-231.1287033377553
 20
1019.634912519143
 30
0.0
 11
-231.0518113377553
 21
1019.416388519143
 31
0.0
  0
LINE
  5
33B
  8
0_18__
 62
     1
 10
-231.8563523377553
 20
1018.686621519143
 30
0.0
 11
-231.6253733377553
 21
1018.668907519143
 31
0.0
  0
LINE
  5
33C
  8
0_18__
 62
     1
 10
-231.7210183377553
 20
1018.879898519143
 30
0.0
 11
-231.6253733377553
 21
1018.668907519143
 31
0.0
  0
LINE
  5
33D
  8
0_18__
 62
     1
 10
-232.3632493377552
 20
1017.871797519143
 30
0.0
 11
-232.1316053377553
 21
1017.874282519143
 31
0.0
  0
LINE
  5
33E
  8
0_18__
 62
     1
 10
-232.2452763377553
 20
1018.076133519143
 30
0.0
 11
-232.1316053377553
 21
1017.874282519143
 31
0.0
  0
LINE
  5
33F
  8
0_18__
 62
     1
 10
-232.7972013377553
 20
1017.015895519143
 30
0.0
 11
-232.5666553377553
 21
1017.038559519143
 31
0.0
  0
LINE
  5
340
  8
0_18__
 62
     1
 10
-232.6974853377553
 20
1017.229736519143
 30
0.0
 11
-232.5666553377553
 21
1017.038559519143
 31
0.0
  0
LINE
  5
341
  8
0_18__
 62
     1
 10
-233.1549053377553
 20
1016.125428519143
 30
0.0
 11
-232.9272113377553
 21
1016.168099519143
 31
0.0
  0
LINE
  5
342
  8
0_18__
 62
     1
 10
-233.0742063377552
 20
1016.347146519143
 30
0.0
 11
-232.9272113377553
 21
1016.168099519143
 31
0.0
  0
ARC
  5
343
  8
0_18__
 62
     1
 10
-222.7785313377553
 20
1012.474282519143
 30
0.0
 40
11.00000000000002
 50
165.6145019999991
 51
165.641393999999
  0
ARC
  5
344
  8
0_18__
 62
     1
 10
-222.7785313377553
 20
1012.474282519143
 30
0.0
 40
11.00000000000005
 50
285.6145020000002
 51
289.3854980000002
  0
LINE
  5
345
  8
0_18__
 62
     1
 10
-222.8965053377553
 20
1001.474914519143
 30
0.0
 11
-222.7785313377553
 21
1001.674282519143
 31
0.0
  0
ARC
  5
346
  8
0_18__
 62
     1
 10
-222.7785313377553
 20
1012.474282519143
 30
0.0
 40
10.9999999999999
 50
280.6145020000004
 51
284.3854980000002
  0
ARC
  5
347
  8
0_18__
 62
     1
 10
-222.7785313377553
 20
1012.474282519143
 30
0.0
 40
10.99999999999983
 50
275.6145020000001
 51
279.3854980000003
  0
ARC
  5
348
  8
0_18__
 62
     1
 10
-222.7785313377553
 20
1012.474282519143
 30
0.0
 40
10.99999999999996
 50
270.614502
 51
274.3854980000001
  0
LINE
  5
349
  8
0_18__
 62
     1
 10
-222.6605573377553
 20
1001.474914519143
 30
0.0
 11
-222.7785313377553
 21
1001.674282519143
 31
0.0
  0
LINE
  5
34A
  8
0_18__
 62
     1
 10
-221.7023483377553
 20
1001.527052519143
 30
0.0
 11
-221.8372493377553
 21
1001.715379519143
 31
0.0
  0
LINE
  5
34B
  8
0_18__
 62
     1
 10
-221.9373983377553
 20
1001.506488519143
 30
0.0
 11
-221.8372493377553
 21
1001.715379519143
 31
0.0
  0
LINE
  5
34C
  8
0_18__
 62
     1
 10
-220.7523293377553
 20
1001.662505519143
 30
0.0
 11
-220.9031313377553
 21
1001.838358519143
 31
0.0
  0
LINE
  5
34D
  8
0_18__
 62
     1
 10
-220.9846923377552
 20
1001.621533519143
 30
0.0
 11
-220.9031313377553
 21
1001.838358519143
 31
0.0
  0
LINE
  5
34E
  8
0_18__
 62
     1
 10
-219.8177313377553
 20
1001.880242519143
 30
0.0
 11
-219.9832853377553
 21
1002.042283519143
 31
0.0
  0
LINE
  5
34F
  8
0_18__
 62
     1
 10
-220.0456393377553
 20
1001.819175519143
 30
0.0
 11
-219.9832853377553
 21
1002.042283519143
 31
0.0
  0
ARC
  5
350
  8
0_18__
 62
     1
 10
-222.7785313377553
 20
1012.474282519143
 30
0.0
 40
11.00000000000004
 50
290.6145019999999
 51
294.3854980000002
  0
ARC
  5
351
  8
0_18__
 62
     1
 10
-222.7785313377553
 20
1012.474282519143
 30
0.0
 40
10.99999999999989
 50
225.6145019999996
 51
229.3854979999996
  0
ARC
  5
352
  8
0_18__
 62
     1
 10
-222.7785313377553
 20
1012.474282519143
 30
0.0
 40
10.99999999999983
 50
260.6145020000001
 51
264.3854979999999
  0
LINE
  5
353
  8
0_18__
 62
     1
 10
-223.8547143377552
 20
1001.527052519143
 30
0.0
 11
-223.7198133377553
 21
1001.715379519143
 31
0.0
  0
LINE
  5
354
  8
0_18__
 62
     1
 10
-223.6196643377552
 20
1001.506488519143
 30
0.0
 11
-223.7198133377553
 21
1001.715379519143
 31
0.0
  0
LINE
  5
355
  8
0_18__
 62
     1
 10
-229.7584153377553
 20
1003.972445519143
 30
0.0
 11
-229.7206373377552
 21
1004.201002519143
 31
0.0
  0
LINE
  5
356
  8
0_18__
 62
     1
 10
-229.9391613377553
 20
1004.124109519143
 30
0.0
 11
-229.7206373377552
 21
1004.201002519143
 31
0.0
  0
LINE
  5
357
  8
0_18__
 62
     1
 10
-228.9908703377553
 20
1003.396460519143
 30
0.0
 11
-228.9731563377553
 21
1003.627439519143
 31
0.0
  0
LINE
  5
358
  8
0_18__
 62
     1
 10
-229.1841473377553
 20
1003.531794519143
 30
0.0
 11
-228.9731563377553
 21
1003.627439519143
 31
0.0
  0
LINE
  5
359
  8
0_18__
 62
     1
 10
-228.1760463377553
 20
1002.889563519143
 30
0.0
 11
-228.1785313377553
 21
1003.121207519143
 31
0.0
  0
LINE
  5
35A
  8
0_18__
 62
     1
 10
-228.3803833377553
 20
1003.007537519143
 30
0.0
 11
-228.1785313377553
 21
1003.121207519143
 31
0.0
  0
LINE
  5
35B
  8
0_18__
 62
     1
 10
-227.3201443377553
 20
1002.455611519143
 30
0.0
 11
-227.3428083377553
 21
1002.686157519143
 31
0.0
  0
LINE
  5
35C
  8
0_18__
 62
     1
 10
-227.5339853377553
 20
1002.555327519143
 30
0.0
 11
-227.3428083377553
 21
1002.686157519143
 31
0.0
  0
LINE
  5
35D
  8
0_18__
 62
     1
 10
-226.4296773377553
 20
1002.097908519143
 30
0.0
 11
-226.4723483377552
 21
1002.325601519143
 31
0.0
  0
LINE
  5
35E
  8
0_18__
 62
     1
 10
-226.6513953377553
 20
1002.178607519143
 30
0.0
 11
-226.4723483377552
 21
1002.325601519143
 31
0.0
  0
LINE
  5
35F
  8
0_18__
 62
     1
 10
-225.5114233377553
 20
1001.819175519143
 30
0.0
 11
-225.5737773377552
 21
1002.042283519143
 31
0.0
  0
LINE
  5
360
  8
0_18__
 62
     1
 10
-225.7393303377552
 20
1001.880242519143
 30
0.0
 11
-225.5737773377552
 21
1002.042283519143
 31
0.0
  0
LINE
  5
361
  8
0_18__
 62
     1
 10
-224.5723703377553
 20
1001.621533519143
 30
0.0
 11
-224.6539313377552
 21
1001.838358519143
 31
0.0
  0
LINE
  5
362
  8
0_18__
 62
     1
 10
-224.8047323377552
 20
1001.662505519143
 30
0.0
 11
-224.6539313377552
 21
1001.838358519143
 31
0.0
  0
ARC
  5
363
  8
0_18__
 62
     1
 10
-222.7785313377553
 20
1012.474282519143
 30
0.0
 40
10.99999999999987
 50
255.6145019999998
 51
259.385498
  0
ARC
  5
364
  8
0_18__
 62
     1
 10
-222.7785313377553
 20
1012.474282519143
 30
0.0
 40
10.99999999999993
 50
250.6145019999999
 51
254.3854980000001
  0
ARC
  5
365
  8
0_18__
 62
     1
 10
-222.7785313377553
 20
1012.474282519143
 30
0.0
 40
10.99999999999993
 50
245.6145019999998
 51
249.3854980000001
  0
ARC
  5
366
  8
0_18__
 62
     1
 10
-222.7785313377553
 20
1012.474282519143
 30
0.0
 40
10.9999999999999
 50
240.6145019999999
 51
244.3854979999997
  0
ARC
  5
367
  8
0_18__
 62
     1
 10
-222.7785313377553
 20
1012.474282519143
 30
0.0
 40
10.99999999999983
 50
235.6145019999993
 51
239.3854979999997
  0
ARC
  5
368
  8
0_18__
 62
     1
 10
-222.7785313377553
 20
1012.474282519143
 30
0.0
 40
10.9999999999998
 50
230.6145019999992
 51
234.3854979999995
  0
LINE
  5
369
  8
0_18__
 62
     1
 10
-218.9056673377553
 20
1002.178607519143
 30
0.0
 11
-219.0847133377553
 21
1002.325601519143
 31
0.0
  0
LINE
  5
36A
  8
0_18__
 62
     1
 10
-219.1273853377552
 20
1002.097908519143
 30
0.0
 11
-219.0847133377553
 21
1002.325601519143
 31
0.0
  0
ARC
  5
36B
  8
0_18__
 62
     1
 10
-222.7785313377553
 20
1012.474282519143
 30
0.0
 40
10.99999999999988
 50
295.6145020000005
 51
299.3854980000003
  0
ARC
  5
36C
  8
0_18__
 62
     1
 10
-222.7785313377553
 20
1012.474282519143
 30
0.0
 40
10.99999999999983
 50
265.6145019999998
 51
269.385498
  0
LINE
  5
36D
  8
0_18__
 62
     1
 10
-218.0230773377552
 20
1002.555327519143
 30
0.0
 11
-218.2142543377553
 21
1002.686157519143
 31
0.0
  0
LINE
  5
36E
  8
0_18__
 62
     1
 10
-218.2369183377552
 20
1002.455611519143
 30
0.0
 11
-218.2142543377553
 21
1002.686157519143
 31
0.0
  0
LINE
  5
36F
  8
0_18__
 62
     1
 10
-213.3117863377553
 20
1006.872430519143
 30
0.0
 11
-213.4254573377553
 21
1007.074282519143
 31
0.0
  0
LINE
  5
370
  8
0_18__
 62
     1
 10
-213.1938133377553
 20
1007.076766519143
 30
0.0
 11
-213.4254573377553
 21
1007.074282519143
 31
0.0
  0
ARC
  5
371
  8
0_18__
 62
     1
 10
-222.7785313377553
 20
1012.474282519143
 30
0.0
 40
11.00000000000001
 50
325.614502
 51
329.3854980000008
  0
ARC
  5
372
  8
0_18__
 62
     1
 10
-222.7785313377553
 20
1012.474282519143
 30
0.0
 40
11.00000000000006
 50
320.6145019999999
 51
324.3854980000011
  0
ARC
  5
373
  8
0_18__
 62
     1
 10
-222.7785313377553
 20
1012.474282519143
 30
0.0
 40
10.99999999999989
 50
315.6145020000008
 51
319.3854980000004
  0
ARC
  5
374
  8
0_18__
 62
     1
 10
-222.7785313377553
 20
1012.474282519143
 30
0.0
 40
10.99999999999992
 50
310.6145020000004
 51
314.3854980000007
  0
ARC
  5
375
  8
0_18__
 62
     1
 10
-222.7785313377553
 20
1012.474282519143
 30
0.0
 40
10.99999999999986
 50
305.6145020000008
 51
309.3854980000008
  0
ARC
  5
376
  8
0_18__
 62
     1
 10
-222.7785313377553
 20
1012.474282519143
 30
0.0
 40
10.99999999999991
 50
300.6145020000003
 51
304.3854980000007
  0
LINE
  5
377
  8
0_18__
 62
     1
 10
-217.1766793377553
 20
1003.007537519143
 30
0.0
 11
-217.3785313377552
 21
1003.121207519143
 31
0.0
  0
LINE
  5
378
  8
0_18__
 62
     1
 10
-217.3810153377553
 20
1002.889563519143
 30
0.0
 11
-217.3785313377552
 21
1003.121207519143
 31
0.0
  0
LINE
  5
379
  8
0_18__
 62
     1
 10
-216.3729153377553
 20
1003.531794519143
 30
0.0
 11
-216.5839053377553
 21
1003.627439519143
 31
0.0
  0
LINE
  5
37A
  8
0_18__
 62
     1
 10
-216.5661913377552
 20
1003.396460519143
 30
0.0
 11
-216.5839053377553
 21
1003.627439519143
 31
0.0
  0
LINE
  5
37B
  8
0_18__
 62
     1
 10
-215.6179013377553
 20
1004.124109519143
 30
0.0
 11
-215.8364253377553
 21
1004.201002519143
 31
0.0
  0
LINE
  5
37C
  8
0_18__
 62
     1
 10
-215.7986473377553
 20
1003.972445519143
 30
0.0
 11
-215.8364253377553
 21
1004.201002519143
 31
0.0
  0
LINE
  5
37D
  8
0_18__
 62
     1
 10
-214.9173843377553
 20
1004.779974519143
 30
0.0
 11
-215.1417783377553
 21
1004.837528519143
 31
0.0
  0
LINE
  5
37E
  8
0_18__
 62
     1
 10
-215.0842243377552
 20
1004.613134519143
 30
0.0
 11
-215.1417783377553
 21
1004.837528519143
 31
0.0
  0
LINE
  5
37F
  8
0_18__
 62
     1
 10
-214.2766953377553
 20
1005.494398519143
 30
0.0
 11
-214.5052513377553
 21
1005.532175519143
 31
0.0
  0
LINE
  5
380
  8
0_18__
 62
     1
 10
-214.4283593377552
 20
1005.313651519143
 30
0.0
 11
-214.5052513377553
 21
1005.532175519143
 31
0.0
  0
LINE
  5
381
  8
0_18__
 62
     1
 10
-213.7007103377553
 20
1006.261942519143
 30
0.0
 11
-213.9316893377552
 21
1006.279656519143
 31
0.0
  0
LINE
  5
382
  8
0_18__
 62
     1
 10
-213.8360443377553
 20
1006.068665519143
 30
0.0
 11
-213.9316893377552
 21
1006.279656519143
 31
0.0
  0
ARC
  5
383
  8
0_18__
 62
     1
 10
-222.7785313377553
 20
1012.474282519143
 30
0.0
 40
10.99999999999996
 50
345.6145020000015
 51
345.7881890000015
  0
ARC
  5
384
  8
0_18__
 62
     1
 10
-222.7785313377553
 20
1012.474282519143
 30
0.0
 40
11.00000000000004
 50
340.6145020000001
 51
344.3854979999998
  0
ARC
  5
385
  8
0_18__
 62
     1
 10
-222.7785313377553
 20
1012.474282519143
 30
0.0
 40
11.00000000000006
 50
335.6145019999998
 51
339.3854980000012
  0
ARC
  5
386
  8
0_18__
 62
     1
 10
-222.7785313377553
 20
1012.474282519143
 30
0.0
 40
11.00000000000003
 50
330.614502
 51
334.3854980000009
  0
LINE
  5
387
  8
0_18__
 62
     1
 10
-212.7598613377552
 20
1007.932668519143
 30
0.0
 11
-212.9904073377552
 21
1007.910004519143
 31
0.0
  0
LINE
  5
388
  8
0_18__
 62
     1
 10
-212.8595763377552
 20
1007.718828519143
 30
0.0
 11
-212.9904073377552
 21
1007.910004519143
 31
0.0
  0
LINE
  5
389
  8
0_18__
 62
     1
 10
-212.4021573377553
 20
1008.823135519143
 30
0.0
 11
-212.6298513377553
 21
1008.780464519143
 31
0.0
  0
LINE
  5
38A
  8
0_18__
 62
     1
 10
-212.4828563377553
 20
1008.601417519143
 30
0.0
 11
-212.6298513377553
 21
1008.780464519143
 31
0.0
  0
LINE
  5
38B
  8
0_18__
 62
     1
 10
-212.1234243377552
 20
1009.741390519143
 30
0.0
 11
-212.3465323377553
 21
1009.679036519143
 31
0.0
  0
LINE
  5
38C
  8
0_18__
 62
     1
 10
-212.1844923377553
 20
1009.513482519143
 30
0.0
 11
-212.3465323377553
 21
1009.679036519143
 31
0.0
  0
ARC
  5
38D
  8
0_18__
 62
     1
 10
-222.7785313377553
 20
1012.474282519143
 30
0.0
 40
10.99999999999991
 50
200.6145019999989
 51
204.3854980000004
  0
LINE
  5
38E
  8
0_18__
 62
     1
 10
-232.6974853377553
 20
1007.718828519143
 30
0.0
 11
-232.5666553377553
 21
1007.910004519143
 31
0.0
  0
LINE
  5
38F
  8
0_18__
 62
     1
 10
-232.7972013377553
 20
1007.932668519143
 30
0.0
 11
-232.5666553377553
 21
1007.910004519143
 31
0.0
  0
LINE
  5
390
  8
0_18__
 62
     1
 10
-232.2452763377553
 20
1006.872430519143
 30
0.0
 11
-232.1316053377553
 21
1007.074282519143
 31
0.0
  0
LINE
  5
391
  8
0_18__
 62
     1
 10
-232.3632493377552
 20
1007.076766519143
 30
0.0
 11
-232.1316053377553
 21
1007.074282519143
 31
0.0
  0
LINE
  5
392
  8
0_18__
 62
     1
 10
-231.7210183377553
 20
1006.068665519143
 30
0.0
 11
-231.6253733377553
 21
1006.279656519143
 31
0.0
  0
LINE
  5
393
  8
0_18__
 62
     1
 10
-231.8563523377553
 20
1006.261942519143
 30
0.0
 11
-231.6253733377553
 21
1006.279656519143
 31
0.0
  0
LINE
  5
394
  8
0_18__
 62
     1
 10
-231.1287033377553
 20
1005.313651519143
 30
0.0
 11
-231.0518113377553
 21
1005.532175519143
 31
0.0
  0
LINE
  5
395
  8
0_18__
 62
     1
 10
-231.2803673377553
 20
1005.494398519143
 30
0.0
 11
-231.0518113377553
 21
1005.532175519143
 31
0.0
  0
LINE
  5
396
  8
0_18__
 62
     1
 10
-230.4728383377553
 20
1004.613134519143
 30
0.0
 11
-230.4152843377553
 21
1004.837528519143
 31
0.0
  0
LINE
  5
397
  8
0_18__
 62
     1
 10
-230.6396783377552
 20
1004.779974519143
 30
0.0
 11
-230.4152843377553
 21
1004.837528519143
 31
0.0
  0
ARC
  5
398
  8
0_18__
 62
     1
 10
-222.7785313377553
 20
1012.474282519143
 30
0.0
 40
10.99999999999993
 50
220.6145019999996
 51
224.3854979999994
  0
ARC
  5
399
  8
0_18__
 62
     1
 10
-222.7785313377553
 20
1012.474282519143
 30
0.0
 40
10.99999999999983
 50
215.614501999999
 51
219.3854980000003
  0
ARC
  5
39A
  8
0_18__
 62
     1
 10
-222.7785313377553
 20
1012.474282519143
 30
0.0
 40
10.99999999999992
 50
210.6145019999992
 51
214.385498
  0
ARC
  5
39B
  8
0_18__
 62
     1
 10
-222.7785313377553
 20
1012.474282519143
 30
0.0
 40
10.99999999999988
 50
205.6145019999992
 51
209.3854980000002
  0
ARC
  5
39C
  8
0_18__
 62
     1
 10
-222.7785313377553
 20
1012.474282519143
 30
0.0
 40
10.99999999999996
 50
194.3586009999996
 51
194.3854979999986
  0
LINE
  5
39D
  8
0_18__
 62
     1
 10
-233.0742063377552
 20
1008.601417519143
 30
0.0
 11
-232.9272113377553
 21
1008.780464519143
 31
0.0
  0
LINE
  5
39E
  8
0_18__
 62
     1
 10
-233.1549053377553
 20
1008.823135519143
 30
0.0
 11
-232.9272113377553
 21
1008.780464519143
 31
0.0
  0
ARC
  5
39F
  8
0_18__
 62
     1
 10
-222.7785313377553
 20
1012.474282519143
 30
0.0
 40
10.99999999999999
 50
195.6145020000003
 51
199.385498
  0
LINE
  5
3A0
  8
0_18__
 62
     1
 10
-233.4336383377553
 20
1009.741390519143
 30
0.0
 11
-233.2105303377552
 21
1009.679036519143
 31
0.0
  0
LINE
  5
3A1
  8
0_18__
 62
     1
 10
-233.3725703377552
 20
1009.513482519143
 30
0.0
 11
-233.2105303377552
 21
1009.679036519143
 31
0.0
  0
ARC
  5
3A2
  8
0_18__
 62
     1
 10
-222.7785313377553
 20
1012.474282519143
 30
0.0
 40
15.99999999999993
 50
191.2933999999988
 51
348.806753
  0
ARC
  5
3A3
  8
0_18__
 62
     1
 10
-222.7785313377553
 20
1012.474282519143
 30
0.0
 40
14.49999999999994
 50
191.9889899999999
 51
194.9098150000002
  0
ARC
  5
3A4
  8
0_18__
 62
     1
 10
-222.7785313377553
 20
1012.474282519143
 30
0.0
 40
14.50000000000006
 50
345.0901849999998
 51
348.1216869999999
  0
DIMENSION
  5
3A5
  8
__-1
 62
    17
  2
*D3
 10
-258.158673369663
 20
807.1363700918151
 30
0.0
 11
-265.1297982203726
 21
808.6800796074211
 31
0.0
 70
   165
  3
TOOLBOX
 13
-258.0413193377553
 23
821.165311191682
 33
0.0
 14
-257.6055383377553
 24
808.021333191682
 34
0.0
 15
-257.6055383377553
 25
826.146283191682
 35
0.0
  0
LINE
  5
3A6
  8
0_03____
  6
ISO-10______
 62
     2
 10
-128.6055143377553
 20
1012.474282519143
 30
0.0
 11
-270.5816173377553
 21
1012.474282519143
 31
0.0
  0
LINE
  5
3A7
  8
0_18__
 62
     1
 10
-133.6055143377553
 20
1021.789783519143
 30
0.0
 11
-133.6055143377553
 21
1003.158783519143
 31
0.0
  0
LINE
  5
3A8
  8
0_18__
 62
     1
 10
-145.5928723377553
 20
1021.789783519143
 30
0.0
 11
-133.6055143377553
 21
1021.789783519143
 31
0.0
  0
LINE
  5
3A9
  8
0_18__
 62
     1
 10
-134.7675113377553
 20
1022.951786519143
 30
0.0
 11
-133.6055133377553
 21
1021.789787519143
 31
0.0
  0
LINE
  5
3AA
  8
0_18__
 62
     1
 10
-147.6055133377553
 20
1022.951782519143
 30
0.0
 11
-145.5928693377552
 21
1021.789781519143
 31
0.0
  0
LINE
  5
3AB
  8
0_18__
 62
     1
 10
-147.6055143377553
 20
1022.951783519143
 30
0.0
 11
-134.7675133377552
 21
1022.951783519143
 31
0.0
  0
LINE
  5
3AC
  8
0_18__
 62
     1
 10
-145.5928683377552
 20
1003.158783519143
 30
0.0
 11
-147.6055123377553
 21
1001.996782519143
 31
0.0
  0
LINE
  5
3AD
  8
0_18__
 62
     1
 10
-133.6055103377553
 20
1003.158782519143
 30
0.0
 11
-134.7675113377553
 21
1001.996780519143
 31
0.0
  0
LINE
  5
3AE
  8
0_18__
 62
     1
 10
-145.5928683377552
 20
1003.158783519143
 30
0.0
 11
-133.6055143377553
 21
1003.158783519143
 31
0.0
  0
LINE
  5
3AF
  8
0_18__
 62
     1
 10
-147.6055143377553
 20
1001.996782519143
 30
0.0
 11
-134.7675173377552
 21
1001.996782519143
 31
0.0
  0
POLYLINE
  5
3B0
  8
0_18__
 62
     1
 66
     1
 10
0.0
 20
0.0
 30
0.0
 70
   128
  0
VERTEX
  5
3B1
  8
0_18__
 62
     1
 10
-147.6055143377553
 20
1035.474234519143
 30
0.0
  0
VERTEX
  5
3B2
  8
0_18__
 62
     1
 10
-147.6055143377553
 20
1012.474282519143
 30
0.0
  0
VERTEX
  5
3B3
  8
0_18__
 62
     1
 10
-147.6055143377553
 20
989.4742365191431
 30
0.0
  0
VERTEX
  5
3B4
  8
0_18__
 62
     1
 10
-147.6055143377553
 20
989.4742365191431
 30
0.0
 42
-0.4142207623906539
 70
     2
 50
-4661540.857464785
  0
VERTEX
  5
3B5
  8
0_18__
 62
     1
 10
-150.1055143377553
 20
991.9742365191431
 30
0.0
  0
VERTEX
  5
3B6
  8
0_18__
 62
     1
 10
-150.1055143377553
 20
1012.474282519143
 30
0.0
  0
VERTEX
  5
3B7
  8
0_18__
 62
     1
 10
-150.105499337754
 20
1032.974237006237
 30
0.0
  0
VERTEX
  5
3B8
  8
0_18__
 62
     1
 10
-150.105499337754
 20
1032.974237006237
 30
0.0
 42
-0.4142135061417058
 70
     2
 50
-0.0000569999953216
  0
VERTEX
  5
3B9
  8
0_18__
 62
     1
 10
-147.6054973306266
 20
1035.474234519142
 30
0.0
  0
SEQEND
  5
3BA
  8
0_18__
 62
     1
  0
POLYLINE
  5
3BB
  8
0_18__
 62
     1
 66
     1
 10
0.0
 20
0.0
 30
0.0
 70
   128
  0
VERTEX
  5
3BC
  8
0_18__
 62
     1
 10
-211.0032281699408
 20
1001.641820352035
 30
0.0
 42
0.0160639390021278
 70
     2
 50
-286.0908459609975
  0
VERTEX
  5
3BD
  8
0_18__
 62
     1
 10
-207.2524102154434
 20
1002.519185062934
 30
0.0
  0
VERTEX
  5
3BE
  8
0_18__
 62
     1
 10
-207.2524102154434
 20
1002.519185062934
 30
0.0
 42
-0.0655704500664517
 70
     2
 50
-213.7389156161626
  0
VERTEX
  5
3BF
  8
0_18__
 62
     1
 10
-194.3062793377553
 20
1004.224282519143
 30
0.0
  0
VERTEX
  5
3C0
  8
0_18__
 62
     1
 10
-153.1055133952775
 20
1004.224282519143
 30
0.0
  0
VERTEX
  5
3C1
  8
0_18__
 62
     1
 10
-153.1055133952775
 20
1004.224282519143
 30
0.0
 42
-0.4142134703580224
 70
     2
 50
182378171.4219325
  0
VERTEX
  5
3C2
  8
0_18__
 62
     1
 10
-150.1055143377553
 20
1001.224282519143
 30
0.0
  0
SEQEND
  5
3C3
  8
0_18__
 62
     1
  0
POLYLINE
  5
3C4
  8
0_18__
 62
     1
 66
     1
 10
0.0
 20
0.0
 30
0.0
 70
   128
  0
VERTEX
  5
3C5
  8
0_18__
 62
     1
 10
-150.1055143377553
 20
1023.724282519143
 30
0.0
 42
-0.4142134647419841
 70
     2
 50
-0.0000000000022023
  0
VERTEX
  5
3C6
  8
0_18__
 62
     1
 10
-153.1055133377553
 20
1020.724282519143
 30
0.0
  0
VERTEX
  5
3C7
  8
0_18__
 62
     1
 10
-194.306263629792
 20
1020.724282519146
 30
0.0
  0
VERTEX
  5
3C8
  8
0_18__
 62
     1
 10
-194.306263629792
 20
1020.724282519146
 30
0.0
 42
-0.0655705283892204
 70
     2
 50
-152019446.0833896
  0
VERTEX
  5
3C9
  8
0_18__
 62
     1
 10
-207.2524103575684
 20
1022.429379996265
 30
0.0
  0
VERTEX
  5
3CA
  8
0_18__
 62
     1
 10
-207.2524103575684
 20
1022.429379996265
 30
0.0
 42
0.0160639394867449
 70
     2
 50
213.7390763557377
  0
VERTEX
  5
3CB
  8
0_18__
 62
     1
 10
-211.0032283628759
 20
1023.306744722882
 30
0.0
  0
SEQEND
  5
3CC
  8
0_18__
 62
     1
  0
POLYLINE
  5
3CD
  8
0_18__
 62
     1
 66
     1
 10
0.0
 20
0.0
 30
0.0
 70
   128
  0
VERTEX
  5
3CE
  8
0_18__
 62
     1
 10
-233.9254797967083
 20
1023.95232993509
 30
0.0
 42
0.0149215823731275
 70
     2
 50
-279.4539288849575
  0
VERTEX
  5
3CF
  8
0_18__
 62
     1
 10
-237.4078177104491
 20
1023.129370742755
 30
0.0
  0
VERTEX
  5
3D0
  8
0_18__
 62
     1
 10
-237.4078177104491
 20
1023.129370742755
 30
0.0
 42
-0.0522082711622614
 70
     2
 50
-213.7395964781006
  0
VERTEX
  5
3D1
  8
0_18__
 62
     1
 10
-247.6920393377553
 20
1021.495190519143
 30
0.0
  0
VERTEX
  5
3D2
  8
0_18__
 62
     1
 10
-256.8816173377552
 20
1021.174282519143
 30
0.0
  0
VERTEX
  5
3D3
  8
0_18__
 62
     1
 10
-256.8816173377552
 20
1021.174282519143
 30
0.0
 42
0.9999999999999999
 70
     2
 50
-4394050521227444
  0
VERTEX
  5
3D4
  8
0_18__
 62
     1
 10
-256.8816173377552
 20
1003.774282519143
 30
0.0
  0
VERTEX
  5
3D5
  8
0_18__
 62
     1
 10
-249.5264753721159
 20
1003.517432100677
 30
0.0
  0
VERTEX
  5
3D6
  8
0_18__
 62
     1
 10
-249.5264753721159
 20
1003.517432100677
 30
0.0
 42
-0.0614161880433298
 70
     2
 50
3461.661447603417
  0
VERTEX
  5
3D7
  8
0_18__
 62
     1
 10
-237.407808885234
 20
1001.819183310315
 30
0.0
  0
VERTEX
  5
3D8
  8
0_18__
 62
     1
 10
-237.407808885234
 20
1001.819183310315
 30
0.0
 42
0.0149208736278251
 70
     2
 50
213.740687229154
  0
VERTEX
  5
3D9
  8
0_18__
 62
     1
 10
-233.925470569463
 20
1000.996227211357
 30
0.0
  0
SEQEND
  5
3DA
  8
0_18__
 62
     1
  0
POLYLINE
  5
3DB
  8
0_18__
 62
     1
 66
     1
 10
0.0
 20
0.0
 30
0.0
 70
   128
  0
VERTEX
  5
3DC
  8
0_18__
 62
     1
 10
-230.7055163377553
 20
1009.966228519143
 30
0.0
  0
VERTEX
  5
3DD
  8
0_18__
 62
     1
 10
-249.2289917517916
 20
1008.474282558923
 30
0.0
  0
VERTEX
  5
3DE
  8
0_18__
 62
     1
 10
-249.2289917517916
 20
1008.474282558923
 30
0.0
 42
-0.3441311499132422
 70
     2
 50
44.73196360916764
  0
VERTEX
  5
3DF
  8
0_18__
 62
     1
 10
-249.2289917517916
 20
1016.474282479364
 30
0.0
  0
VERTEX
  5
3E0
  8
0_18__
 62
     1
 10
-230.7055163377553
 20
1014.982337519143
 30
0.0
  0
SEQEND
  5
3E1
  8
0_18__
 62
     1
  0
POLYLINE
  5
3E2
  8
0_18__
 62
     1
 66
     1
 10
0.0
 20
0.0
 30
0.0
 70
   128
  0
VERTEX
  5
3E3
  8
0_18__
 62
     1
 10
-214.5055163377552
 20
1009.966228519143
 30
0.0
  0
VERTEX
  5
3E4
  8
0_18__
 62
     1
 10
-195.9820413377553
 20
1008.474282519143
 30
0.0
  0
VERTEX
  5
3E5
  8
0_18__
 62
     1
 10
-195.9820413377553
 20
1008.474282519143
 30
0.0
 42
0.3441311999566125
 70
     2
 50
-44.73197663448701
  0
VERTEX
  5
3E6
  8
0_18__
 62
     1
 10
-195.982040923719
 20
1016.474282479364
 30
0.0
  0
VERTEX
  5
3E7
  8
0_18__
 62
     1
 10
-214.5055163377552
 20
1014.982337519143
 30
0.0
  0
SEQEND
  5
3E8
  8
0_18__
 62
     1
  0
POLYLINE
  5
3E9
  8
0_18__
 62
     1
 66
     1
 10
0.0
 20
0.0
 30
0.0
 70
   128
  0
VERTEX
  5
3EA
  8
0_18__
 62
     1
 10
-150.1055223377556
 20
838.3962187256054
 30
0.0
 42
0.4142134703579919
 70
     2
 50
-0.0000280000002265
  0
VERTEX
  5
3EB
  8
0_18__
 62
     1
 10
-153.1055199292009
 20
841.396220191681
 30
0.0
  0
VERTEX
  5
3EC
  8
0_18__
 62
     1
 10
-192.6055223377552
 20
841.396266191682
 30
0.0
  0
VERTEX
  5
3ED
  8
0_18__
 62
     1
 10
-192.6055223377552
 20
841.396266191682
 30
0.0
 42
0.1461869677168616
 70
     2
 50
-1813620.197486932
  0
VERTEX
  5
3EE
  8
0_18__
 62
     1
 10
-194.2512962746565
 20
840.9045204486674
 30
0.0
  0
VERTEX
  5
3EF
  8
0_18__
 62
     1
 10
-194.2512962746565
 20
840.9045204486674
 30
0.0
 42
0.0320526001253355
 70
     2
 50
-705.8591656104969
  0
VERTEX
  5
3F0
  8
0_18__
 62
     1
 10
-213.2616845527881
 20
838.1270294875462
 30
0.0
  0
VERTEX
  5
3F1
  8
0_18__
 62
     1
 10
-213.2616845527881
 20
838.1270294875462
 30
0.0
 42
-0.1513490702654125
 70
     2
 50
-269.9237536564959
  0
VERTEX
  5
3F2
  8
0_18__
 62
     1
 10
-239.7836349233737
 20
840.5540611482245
 30
0.0
  0
VERTEX
  5
3F3
  8
0_18__
 62
     1
 10
-239.7836349233737
 20
840.5540611482245
 30
0.0
 42
0.5064565520066006
 70
     2
 50
138.7277767274683
  0
VERTEX
  5
3F4
  8
0_18__
 62
     1
 10
-248.0512103377553
 20
835.531364191682
 30
0.0
  0
VERTEX
  5
3F5
  8
0_18__
 62
     1
 10
-248.2478303377553
 20
833.2840011916819
 30
0.0
  0
VERTEX
  5
3F6
  8
0_18__
 62
     1
 10
-248.2478303377553
 20
833.2840011916819
 30
0.0
 42
0.1760745831348402
 70
     2
 50
-57.18378270817531
  0
VERTEX
  5
3F7
  8
0_18__
 62
     1
 10
-249.1130314942764
 20
831.4262014026451
 30
0.0
  0
VERTEX
  5
3F8
  8
0_18__
 62
     1
 10
-249.6359683377553
 20
825.449035191682
 30
0.0
  0
VERTEX
  5
3F9
  8
0_18__
 62
     1
 10
-265.5750913377553
 20
826.843534191682
 30
0.0
  0
VERTEX
  5
3FA
  8
0_18__
 62
     1
 10
-265.0521573377553
 20
832.820705191682
 30
0.0
  0
VERTEX
  5
3FB
  8
0_18__
 62
     1
 10
-265.0521573377553
 20
832.820705191682
 30
0.0
 42
0.1760771127468469
 70
     2
 50
-5.012772493268942
  0
VERTEX
  5
3FC
  8
0_18__
 62
     1
 10
-265.5816172210243
 20
834.8005199121942
 30
0.0
  0
VERTEX
  5
3FD
  8
0_18__
 62
     1
 10
-264.9828448088513
 20
841.6443910857744
 30
0.0
  0
VERTEX
  5
3FE
  8
0_18__
 62
     1
 10
-264.9828448088513
 20
841.6443910857744
 30
0.0
 42
-0.383644201041453
 70
     2
 50
-5.012780550339013
  0
VERTEX
  5
3FF
  8
0_18__
 62
     1
 10
-245.4233101531907
 20
859.8979400008145
 30
0.0
  0
VERTEX
  5
400
  8
0_18__
 62
     1
 10
-245.4233101531907
 20
859.8979400008145
 30
0.0
 42
0.4088874721674233
 70
     2
 50
-3144.364274873299
  0
VERTEX
  5
401
  8
0_18__
 62
     1
 10
-235.6055143377553
 20
869.896274191682
 30
0.0
  0
VERTEX
  5
402
  8
0_18__
 62
     1
 10
-235.6055033377552
 20
871.646266191682
 30
0.0
  0
VERTEX
  5
403
  8
0_18__
 62
     1
 10
-222.6055163377553
 20
871.646266191682
 30
0.0
  0
VERTEX
  5
404
  8
0_18__
 62
     1
 10
-209.6055033377552
 20
871.646266191682
 30
0.0
  0
VERTEX
  5
405
  8
0_18__
 62
     1
 10
-209.6055163377553
 20
869.896257191682
 30
0.0
  0
VERTEX
  5
406
  8
0_18__
 62
     1
 10
-209.6055163377553
 20
869.896257191682
 30
0.0
 42
0.4142129502402325
 70
     2
 50
0.0000684671021456
  0
VERTEX
  5
407
  8
0_18__
 62
     1
 10
-199.6055133377553
 20
859.896257191682
 30
0.0
  0
VERTEX
  5
408
  8
0_18__
 62
     1
 10
-194.5742053377552
 20
859.632574191682
 30
0.0
  0
VERTEX
  5
409
  8
0_18__
 62
     1
 10
-194.5742053377552
 20
859.632574191682
 30
0.0
 42
0.1808994794406788
 70
     2
 50
65.87879062678057
  0
VERTEX
  5
40A
  8
0_18__
 62
     1
 10
-192.6055103377553
 20
858.896266191682
 30
0.0
  0
VERTEX
  5
40B
  8
0_18__
 62
     1
 10
-153.1055103377553
 20
858.896266191682
 30
0.0
  0
VERTEX
  5
40C
  8
0_18__
 62
     1
 10
-153.1055103377553
 20
858.896266191682
 30
0.0
 42
0.4142242677378438
 70
     2
 50
2153425.757869306
  0
VERTEX
  5
40D
  8
0_18__
 62
     1
 10
-150.1055073377559
 20
861.8962192020066
 30
0.0
  0
SEQEND
  5
40E
  8
0_18__
 62
     1
  0
POLYLINE
  5
40F
  8
0_18__
 62
     1
 66
     1
 10
0.0
 20
0.0
 30
0.0
 70
   128
  0
VERTEX
  5
410
  8
0_18__
 62
     1
 10
-145.5928723377553
 20
1022.951783519143
 30
0.0
  0
VERTEX
  5
411
  8
0_18__
 62
     1
 10
-145.5928723377553
 20
1012.474283519143
 30
0.0
  0
VERTEX
  5
412
  8
0_18__
 62
     1
 10
-145.5928723377553
 20
1001.996782519143
 30
0.0
  0
SEQEND
  5
413
  8
0_18__
 62
     1
  0
POLYLINE
  5
414
  8
0_18__
 62
     1
 66
     1
 10
0.0
 20
0.0
 30
0.0
 70
   128
  0
VERTEX
  5
415
  8
0_18__
 62
     1
 10
-134.7675133377552
 20
1022.951783519143
 30
0.0
  0
VERTEX
  5
416
  8
0_18__
 62
     1
 10
-134.7675133377552
 20
1012.474283519143
 30
0.0
  0
VERTEX
  5
417
  8
0_18__
 62
     1
 10
-134.7675133377552
 20
1001.996782519143
 30
0.0
  0
SEQEND
  5
418
  8
0_18__
 62
     1
  0
POLYLINE
  5
419
  8
0_18__
 62
     1
 66
     1
 10
0.0
 20
0.0
 30
0.0
 70
   128
  0
VERTEX
  5
41A
  8
0_18__
 62
     1
 10
-145.5928723377553
 20
860.623766191682
 30
0.0
  0
VERTEX
  5
41B
  8
0_18__
 62
     1
 10
-145.5928723377553
 20
850.146266191682
 30
0.0
  0
VERTEX
  5
41C
  8
0_18__
 62
     1
 10
-145.5928723377553
 20
839.6687651916819
 30
0.0
  0
SEQEND
  5
41D
  8
0_18__
 62
     1
  0
POLYLINE
  5
41E
  8
0_18__
 62
     1
 66
     1
 10
0.0
 20
0.0
 30
0.0
 70
   128
  0
VERTEX
  5
41F
  8
0_18__
 62
     1
 10
-134.7675133377552
 20
860.623766191682
 30
0.0
  0
VERTEX
  5
420
  8
0_18__
 62
     1
 10
-134.7675133377552
 20
850.146266191682
 30
0.0
  0
VERTEX
  5
421
  8
0_18__
 62
     1
 10
-134.7675133377552
 20
839.6687651916819
 30
0.0
  0
SEQEND
  5
422
  8
0_18__
 62
     1
  0
POLYLINE
  5
423
  8
0_18__
 62
     1
 66
     1
 10
0.0
 20
0.0
 30
0.0
 70
   128
  0
VERTEX
  5
424
  8
0_18__
 62
     1
 10
-147.6054973306266
 20
873.1462181916812
 30
0.0
 42
0.4142135061416825
 70
     2
 50
71365352.28546135
  0
VERTEX
  5
425
  8
0_18__
 62
     1
 10
-150.105499337754
 20
870.6462206787761
 30
0.0
  0
VERTEX
  5
426
  8
0_18__
 62
     1
 10
-150.1055143377553
 20
850.146266191682
 30
0.0
  0
VERTEX
  5
427
  8
0_18__
 62
     1
 10
-150.1055143377553
 20
829.646220191682
 30
0.0
  0
VERTEX
  5
428
  8
0_18__
 62
     1
 10
-150.1055143377553
 20
829.646220191682
 30
0.0
 42
0.4142207623906072
 70
     2
 50
-0.0007042320188196
  0
VERTEX
  5
429
  8
0_18__
 62
     1
 10
-147.6055143377553
 20
827.146220191682
 30
0.0
  0
VERTEX
  5
42A
  8
0_18__
 62
     1
 10
-147.6055143377553
 20
850.146266191682
 30
0.0
  0
VERTEX
  5
42B
  8
0_18__
 62
     1
 10
-147.6055143377553
 20
873.146218191682
 30
0.0
  0
SEQEND
  5
42C
  8
0_18__
 62
     1
  0
POLYLINE
  5
42D
  8
0_18__
 62
     1
 66
     1
 10
0.0
 20
0.0
 30
0.0
 70
   128
  0
VERTEX
  5
42E
  8
0_18__
 62
     1
 10
-230.6055163377553
 20
912.146266191682
 30
0.0
  0
VERTEX
  5
42F
  8
0_18__
 62
     1
 10
-249.2289917517916
 20
910.6462662314613
 30
0.0
  0
VERTEX
  5
430
  8
0_18__
 62
     1
 10
-249.2289917517916
 20
910.6462662314613
 30
0.0
 42
-0.3441311499132172
 70
     2
 50
44.73196360916416
  0
VERTEX
  5
431
  8
0_18__
 62
     1
 10
-249.2289917517916
 20
918.6462661519026
 30
0.0
  0
VERTEX
  5
432
  8
0_18__
 62
     1
 10
-230.7055163377553
 20
917.154320191682
 30
0.0
  0
SEQEND
  5
433
  8
0_18__
 62
     1
  0
POLYLINE
  5
434
  8
0_18__
 62
     1
 66
     1
 10
0.0
 20
0.0
 30
0.0
 70
   128
  0
VERTEX
  5
435
  8
0_18__
 62
     1
 10
-214.5055163377552
 20
912.138211191682
 30
0.0
  0
VERTEX
  5
436
  8
0_18__
 62
     1
 10
-195.9820413377553
 20
910.646266191682
 30
0.0
  0
VERTEX
  5
437
  8
0_18__
 62
     1
 10
-195.9820413377553
 20
910.646266191682
 30
0.0
 42
0.3441311999566235
 70
     2
 50
-44.73197663448947
  0
VERTEX
  5
438
  8
0_18__
 62
     1
 10
-195.982040923719
 20
918.6462661519026
 30
0.0
  0
VERTEX
  5
439
  8
0_18__
 62
     1
 10
-214.5055163377552
 20
917.154320191682
 30
0.0
  0
SEQEND
  5
43A
  8
0_18__
 62
     1
  0
DIMENSION
  5
43B
  8
__-1
 62
    17
  2
*D4
 10
-257.6055053377552
 20
794.467174308365
 30
0.0
 11
-240.1055108377552
 21
796.6011905120314
 31
0.0
 70
    32
  3
TOOLBOX
 13
-222.6055163377553
 23
826.1462831916821
 33
0.0
 14
-257.6055053377552
 24
826.1462831916821
 34
0.0
  0
DIMENSION
  5
43C
  8
__-1
 62
    17
  2
*D5
 10
-222.6055163377553
 20
794.467174308365
 30
0.0
 11
-185.1055163377553
 21
796.6011905120314
 31
0.0
 70
    32
  3
TOOLBOX
 13
-147.6055163377553
 23
825.6462971916822
 33
0.0
 14
-222.6055163377553
 24
826.1462831916821
 34
0.0
  0
DIMENSION
  5
43D
  8
__-1
 62
    17
  2
*D6
 10
-147.6055163377553
 20
777.3920234641828
 30
0.0
 11
-140.6055163377553
 21
779.5260396678492
 31
0.0
 70
    32
  3
TOOLBOX
 13
-133.6055163377553
 23
825.6462971916822
 33
0.0
 14
-147.6055163377553
 24
825.6462971916822
 34
0.0
  0
DIMENSION
  5
43E
  8
__-1
 62
    17
  2
*D7
 10
-322.2791963377551
 20
850.1462971916822
 30
0.0
 11
-324.4132125414216
 21
838.146290191682
 31
0.0
 70
    32
  3
TOOLBOX
 13
-272.2791963377551
 23
826.146283191682
 33
0.0
 14
-272.2791963377551
 24
850.1462971916822
 34
0.0
 50
-90.0
  0
DIMENSION
  5
43F
  8
__-1
 62
    17
  2
*D8
 10
-322.2791963377551
 20
850.1462971916822
 30
0.0
 11
-324.4132125414216
 21
886.5462666916821
 31
0.0
 70
    32
  3
TOOLBOX
 13
-270.7411708377554
 23
922.9462361916821
 33
0.0
 14
-272.2791963377551
 24
850.1462971916822
 34
0.0
 50
-90.0
  0
DIMENSION
  5
440
  8
__-1
 62
    17
  2
*D9
 10
-97.60551633775526
 20
873.1462971916822
 30
0.0
 11
-99.73953254142172
 21
850.1462971916822
 31
0.0
 70
    32
  3
TOOLBOX
 13
-147.6055163377553
 23
827.1462971916822
 33
0.0
 14
-147.6055163377553
 24
873.1462971916822
 34
0.0
 50
-90.0
  0
DIMENSION
  5
441
  8
__-1
 62
    17
  2
*D10
 10
-120.0995493377553
 20
856.146266191682
 30
0.0
 11
-122.2335655414217
 21
850.146266191682
 31
0.0
 70
    32
  3
TOOLBOX
 13
-130.8623406333977
 23
844.146266191682
 33
0.0
 14
-130.6054853377551
 24
856.146266191682
 34
0.0
 50
-90.0
  0
LINE
  5
442
  8
__-2
 62
     2
 10
-141.7867113377553
 20
839.6687651916819
 30
0.0
 11
-124.0707930569934
 21
808.9838946266615
 31
0.0
  0
LINE
  5
443
  8
__-2
 62
     2
 10
-124.0707930569934
 20
808.9838946266615
 30
0.0
 11
-66.68811073775497
 21
808.9838946266615
 31
0.0
  0
TEXT
  5
444
  8
__-2
 62
     2
 10
-114.6891752078342
 20
813.1119940935337
 30
0.0
 40
3.717028356481483
  1
JIS給水栓取付ねじ 13
  7
YUGOTHIC_MEDIUM
 11
-114.6891752078342
 21
812.0499859916819
 31
0.0
 73
     1
  0
TEXT
  5
445
  8
__-2
 62
     2
 10
-90.36514329190469
 20
802.4970071694596
 30
0.0
 40
3.717028356481483
  1
(φ20.955)
  7
YUGOTHIC_MEDIUM
 11
-90.36514329190469
 21
806.2140355259411
 31
0.0
 73
     3
  0
TEXT
  5
446
  8
__
 62
    17
 10
-407.8279389920361
 20
618.3217777777774
 30
0.0
 40
4.248032407407408
  1
※　（　）内寸法は参考寸法
  7
YUGOTHIC_MEDIUM
  0
DIMENSION
  5
447
  8
__-1
 62
    17
  2
*D11
 10
-147.6055163377553
 20
777.3920234641828
 30
0.0
 11
-202.6055108377552
 21
779.5260396678492
 31
0.0
 70
    32
  3
TOOLBOX
 13
-257.6055053377552
 23
815.4183379489912
 33
0.0
 14
-147.6055163377553
 24
815.4183379489912
 34
0.0
  0
VIEWPORT
  5
448
 67
     1
  8
0
 10
128.5
 20
97.5
 30
0.0
 40
314.226
 41
222.18
 68
     1
 69
     1
1001
ACAD
1000
MVIEW
1002
{
1070
    16
1010
0.0
1020
0.0
1030
0.0
1010
0.0
1020
0.0
1030
1.0
1040
0.0
1040
222.18
1040
128.5
1040
97.5
1040
50.0
1040
0.0
1040
0.0
1070
     0
1070
   100
1070
     0
1070
     3
1070
     0
1070
     0
1070
     0
1070
     0
1040
0.0
1040
0.0
1040
0.0
1040
10.0
1040
10.0
1040
10.0
1040
10.0
1070
     0
1002
{
1002
}
1002
}
  0
ENDSEC
  0
EOF
