  0
SECTION
  2
HEADER
  9
$ACADVER
  1
AC1009
  9
$DWGCODEPAGE
  3
dos932
  9
$INSBASE
 10
0.0
 20
0.0
 30
0.0
  9
$EXTMIN
 10
-136.5182567793159
 20
-3179.864297911792
 30
0.0
  9
$EXTMAX
 10
4026.171329247519
 20
803.9215890628145
 30
0.0
  9
$LIMMIN
 10
0.0
 20
0.0
  9
$LIMMAX
 10
12.0
 20
9.0
  9
$ORTHOMODE
 70
     0
  9
$REGENMODE
 70
     1
  9
$FILLMODE
 70
     1
  9
$QTEXTMODE
 70
     0
  9
$MIRRTEXT
 70
     1
  9
$DRAGMODE
 70
     2
  9
$LTSCALE
 40
25.4
  9
$OSMODE
 70
    37
  9
$ATTMODE
 70
     1
  9
$TEXTSIZE
 40
0.2
  9
$TRACEWID
 40
1.0
  9
$TEXTSTYLE
  7
STANDARD
  9
$CLAYER
  8
__
  9
$CELTYPE
  6
BYLAYER
  9
$CECOLOR
 62
   256
  9
$DIMSCALE
 40
1.0
  9
$DIMASZ
 40
2.99981689453125
  9
$DIMEXO
 40
9.999999999999998
  9
$DIMDLI
 40
9.999999999999998
  9
$DIMRND
 40
0.0
  9
$DIMDLE
 40
0.0
  9
$DIMEXE
 40
0.0
  9
$DIMTP
 40
0.0
  9
$DIMTM
 40
0.0
  9
$DIMTXT
 40
16.34353298611111
  9
$DIMCEN
 40
0.0
  9
$DIMTSZ
 40
0.0
  9
$DIMTOL
 70
     0
  9
$DIMLIM
 70
     0
  9
$DIMTIH
 70
     0
  9
$DIMTOH
 70
     0
  9
$DIMSE1
 70
     0
  9
$DIMSE2
 70
     0
  9
$DIMTAD
 70
     1
  9
$DIMZIN
 70
     8
  9
$DIMBLK
  1
DOT
  9
$DIMASO
 70
     1
  9
$DIMSHO
 70
     1
  9
$DIMPOST
  1
<>
  9
$DIMAPOST
  1
[]
  9
$DIMALT
 70
     0
  9
$DIMALTD
 70
     3
  9
$DIMALTF
 40
0.0393700787401575
  9
$DIMLFAC
 40
1.0
  9
$DIMTOFL
 70
     1
  9
$DIMTVP
 40
0.0
  9
$DIMTIX
 70
     1
  9
$DIMSOXD
 70
     0
  9
$DIMSAH
 70
     0
  9
$DIMBLK1
  1
DOT
  9
$DIMBLK2
  1
DOT
  9
$DIMSTYLE
  2
TOOLBOX
  9
$DIMCLRD
 70
     0
  9
$DIMCLRE
 70
     0
  9
$DIMCLRT
 70
     0
  9
$DIMTFAC
 40
1.0
  9
$DIMGAP
 40
2.5
  9
$LUNITS
 70
     2
  9
$LUPREC
 70
     2
  9
$SKETCHINC
 40
0.1
  9
$FILLETRAD
 40
0.5
  9
$AUNITS
 70
     0
  9
$AUPREC
 70
     2
  9
$MENU
  1
.
  9
$ELEVATION
 40
0.0
  9
$PELEVATION
 40
0.0
  9
$THICKNESS
 40
0.0
  9
$LIMCHECK
 70
     0
  9
$CHAMFERA
 40
0.0
  9
$CHAMFERB
 40
0.0
  9
$SKPOLY
 70
     0
  9
$TDCREATE
 40
2460119.671611192
  9
$TDUPDATE
 40
2460119.67165066
  9
$TDINDWG
 40
0.0000000116
  9
$TDUSRTIMER
 40
0.0000000116
  9
$USRTIMER
 70
     1
  9
$ANGBASE
 50
0.0
  9
$ANGDIR
 70
     0
  9
$PDMODE
 70
     1
  9
$PDSIZE
 40
-2.0
  9
$PLINEWID
 40
0.0
  9
$COORDS
 70
     1
  9
$SPLFRAME
 70
     0
  9
$SPLINETYPE
 70
     6
  9
$SPLINESEGS
 70
     8
  9
$ATTDIA
 70
     0
  9
$ATTREQ
 70
     1
  9
$HANDLING
 70
     1
  9
$HANDSEED
  5
A85
  9
$SURFTAB1
 70
     6
  9
$SURFTAB2
 70
     6
  9
$SURFTYPE
 70
     6
  9
$SURFU
 70
     6
  9
$SURFV
 70
     6
  9
$UCSNAME
  2

  9
$UCSORG
 10
0.0
 20
0.0
 30
0.0
  9
$UCSXDIR
 10
1.0
 20
0.0
 30
0.0
  9
$UCSYDIR
 10
0.0
 20
1.0
 30
0.0
  9
$PUCSNAME
  2

  9
$PUCSORG
 10
0.0
 20
0.0
 30
0.0
  9
$PUCSXDIR
 10
1.0
 20
0.0
 30
0.0
  9
$PUCSYDIR
 10
0.0
 20
1.0
 30
0.0
  9
$USERI1
 70
     0
  9
$USERI2
 70
     0
  9
$USERI3
 70
     0
  9
$USERI4
 70
     0
  9
$USERI5
 70
     0
  9
$USERR1
 40
0.0
  9
$USERR2
 40
0.0
  9
$USERR3
 40
0.0
  9
$USERR4
 40
0.0
  9
$USERR5
 40
0.0
  9
$WORLDVIEW
 70
     1
  9
$SHADEDGE
 70
     3
  9
$SHADEDIF
 70
    70
  9
$TILEMODE
 70
     1
  9
$MAXACTVP
 70
    64
  9
$PLIMCHECK
 70
     0
  9
$PEXTMIN
 10
1.000000000000000E+20
 20
1.000000000000000E+20
 30
1.000000000000000E+20
  9
$PEXTMAX
 10
-1.000000000000000E+20
 20
-1.000000000000000E+20
 30
-1.000000000000000E+20
  9
$PLIMMIN
 10
-20.0
 20
-7.5
  9
$PLIMMAX
 10
277.0
 20
202.5
  9
$UNITMODE
 70
     0
  9
$VISRETAIN
 70
     1
  9
$PLINEGEN
 70
     0
  9
$PSLTSCALE
 70
     1
  0
ENDSEC
  0
SECTION
  2
TABLES
  0
TABLE
  2
VPORT
 70
     1
  0
VPORT
  2
*ACTIVE
 70
     0
 10
0.0
 20
0.0
 11
1.0
 21
1.0
 12
1944.826536234102
 22
-1187.971354424489
 13
0.0
 23
0.0
 14
0.5
 24
0.5
 15
0.5
 25
0.5
 16
0.0
 26
0.0
 36
1.0
 17
0.0
 27
0.0
 37
0.0
 40
3983.785886974607
 41
1.044907960449675
 42
2000.0
 43
0.0
 44
0.0
 50
0.0
 51
0.0
 71
     0
 72
   100
 73
     1
 74
     3
 75
     0
 76
     0
 77
     0
 78
     0
  0
ENDTAB
  0
TABLE
  2
LTYPE
 70
    11
  0
LTYPE
  2
CONTINUOUS
 70
     0
  3
Solid line
 72
    65
 73
     0
 40
0.0
  0
LTYPE
  2
VW-01____
 70
     0
  3

 72
    65
 73
     2
 40
0.20828
 49
0.20828
 49
-0.20828
  0
LTYPE
  2
ISO-10______
 70
     0
  3

 72
    65
 73
     4
 40
0.6
 49
0.6
 49
-0.15
 49
0.025
 49
-0.15
  0
LTYPE
  2
__0
 70
     0
  3

 72
    65
 73
     2
 40
0.0984251968503937
 49
0.0984251968503937
 49
-0.1377952755905512
  0
LTYPE
  2
______-7
 70
     0
  3

 72
    65
 73
     6
 40
0.625
 49
0.625
 49
-0.20828
 49
0.6250000000000001
 49
-0.2083599999999999
 49
0.06943
 49
-0.1389299999999999
  0
LTYPE
  2
ISO-04______
 70
     0
  3

 72
    65
 73
     4
 40
1.2
 49
1.2
 49
-0.1500000000000001
 49
0.025
 49
-0.1500000000000001
  0
LTYPE
  2
CENTER-4
 70
     0
  3

 72
    65
 73
     4
 40
15.90551181102362
 49
5.905511811023622
 49
-6.561679790026247
 49
0.6561679790026242
 49
-6.561679790026247
  0
LTYPE
  2
DASHED-4
 70
     0
  3

 72
    65
 73
     2
 40
18.12335958005249
 49
13.12335958005249
 49
-6.876640419947506
  0
LTYPE
  2
______-4
 70
     0
  3

 72
    65
 73
     2
 40
0.296751968503937
 49
0.296751968503937
 49
-0.1483759842519685
  0
LTYPE
  2
ISO-07___
 70
     0
  3

 72
    65
 73
     2
 40
0.025
 49
0.025
 49
-0.15
  0
LTYPE
  2
ISO-02___
 70
     0
  3

 72
    65
 73
     2
 40
0.6
 49
0.6
 49
-0.15
  0
ENDTAB
  0
TABLE
  2
LAYER
 70
    24
  0
LAYER
  2
0
 70
     0
 62
     7
  6
CONTINUOUS
  0
LAYER
  2
__
 70
     0
 62
     7
  6
CONTINUOUS
  0
LAYER
  2
__-1
 70
     0
 62
     5
  6
CONTINUOUS
  0
LAYER
  2
DEFPOINTS
 70
     0
 62
     7
  6
CONTINUOUS
  0
ENDTAB
  0
TABLE
  2
STYLE
 70
     3
  0
STYLE
  2
STANDARD
 70
     0
 40
0.0
 41
1.0
 50
0.0
 71
     0
 42
0.2
  3
txt
  4
BIGFONT.SHX
  0
STYLE
  2
YUGOTHIC_BOLD
 70
     0
 40
0.0
 41
1.0
 50
0.0
 71
     0
 42
0.2
  3

  4
YuGothic Bold
  0
STYLE
  2
____________
 70
     0
 40
0.0
 41
1.0
 50
0.0
 71
     0
 42
0.2
  3

  4
游ゴシック体 ミディアム
  0
ENDTAB
  0
TABLE
  2
VIEW
 70
     0
  0
ENDTAB
  0
TABLE
  2
UCS
 70
     0
  0
ENDTAB
  0
TABLE
  2
APPID
 70
     3
  0
APPID
  2
ACAD
 70
     0
  0
APPID
  2
ACCMTRANSPARENCY
 70
     0
  0
APPID
  2
ACAECLAYERSTANDARD
 70
     0
  0
ENDTAB
  0
TABLE
  2
DIMSTYLE
 70
     2
  0
DIMSTYLE
  2
STANDARD
 70
     0
  3

  4

  5

  6

  7

 40
1.0
 41
0.18
 42
0.0625
 43
0.38
 44
0.18
 45
0.0
 46
0.0
 47
0.0
 48
0.0
140
0.18
141
0.09
142
0.0
143
25.4
144
1.0
145
0.0
146
1.0
147
0.09
 71
     0
 72
     0
 73
     1
 74
     1
 75
     0
 76
     0
 77
     0
 78
     0
170
     0
171
     2
172
     0
173
     0
174
     0
175
     0
176
     0
177
     0
178
     0
  0
DIMSTYLE
  2
TOOLBOX
 70
     0
  3
<>
  4
[]
  5
DOT
  6
DOT
  7
DOT
 40
1.0
 41
2.99981689453125
 42
9.999999999999998
 43
9.999999999999998
 44
0.0
 45
0.0
 46
0.0
 47
0.0
 48
0.0
140
16.34353298611111
141
0.0
142
0.0
143
0.0393700787401575
144
1.0
145
0.0
146
1.0
147
2.5
 71
     0
 72
     0
 73
     0
 74
     0
 75
     0
 76
     0
 77
     1
 78
     8
170
     0
171
     3
172
     1
173
     0
174
     1
175
     0
176
     0
177
     0
178
     0
  0
ENDTAB
  0
ENDSEC
  0
SECTION
  2
BLOCKS
  0
BLOCK
  8
0
  2
$MODEL_SPACE
 70
     0
 10
0.0
 20
0.0
 30
0.0
  3
$MODEL_SPACE
  1

  0
ENDBLK
  5
21
  8
0
  0
BLOCK
 67
     1
  8
0
  2
$PAPER_SPACE
 70
     0
 10
0.0
 20
0.0
 30
0.0
  3
$PAPER_SPACE
  1

  0
ENDBLK
  5
1D
 67
     1
  8
0
  0
BLOCK
  8
0
  2
____-1
 70
     0
 10
0.0
 20
0.0
 30
0.0
  3
____-1
  1

  0
POLYLINE
  5
250
  8
__
  6
CONTINUOUS
 62
     1
 66
     1
 10
0.0
 20
0.0
 30
0.0
 70
   129
  0
VERTEX
  5
251
  8
__
  6
CONTINUOUS
 62
     1
 10
1568.158159637014
 20
-585.3782225016639
 30
0.0
  0
VERTEX
  5
252
  8
__
  6
CONTINUOUS
 62
     1
 10
1618.158159637014
 20
-585.3782225016639
 30
0.0
  0
VERTEX
  5
253
  8
__
  6
CONTINUOUS
 62
     1
 10
1618.158159637014
 20
-1485.378222501664
 30
0.0
  0
VERTEX
  5
254
  8
__
  6
CONTINUOUS
 62
     1
 10
1568.158159637014
 20
-1485.378222501664
 30
0.0
  0
SEQEND
  5
255
  8
__
  6
CONTINUOUS
 62
     1
  0
POLYLINE
  5
256
  8
__
  6
ISO-02___
 62
    17
 66
     1
 10
0.0
 20
0.0
 30
0.0
 70
   129
  0
VERTEX
  5
257
  8
__
  6
ISO-02___
 62
    17
 10
1600.158159637014
 20
-585.3782225016639
 30
0.0
  0
VERTEX
  5
258
  8
__
  6
ISO-02___
 62
    17
 10
1618.158159637014
 20
-585.3782225016639
 30
0.0
  0
VERTEX
  5
259
  8
__
  6
ISO-02___
 62
    17
 10
1618.158159637014
 20
-1485.378222501664
 30
0.0
  0
VERTEX
  5
25A
  8
__
  6
ISO-02___
 62
    17
 10
1600.158159637014
 20
-1485.378222501664
 30
0.0
  0
SEQEND
  5
25B
  8
__
  6
ISO-02___
 62
    17
  0
CIRCLE
  5
25C
  8
__
  6
CONTINUOUS
 62
    17
 10
1584.158159637014
 20
-635.3782225016639
 30
0.0
 40
3.000000000000131
  0
CIRCLE
  5
25D
  8
__
  6
CONTINUOUS
 62
    17
 10
1584.158159637014
 20
-735.3782225016639
 30
0.0
 40
3.000000000000131
  0
CIRCLE
  5
25E
  8
__
  6
CONTINUOUS
 62
    17
 10
1584.158159637014
 20
-835.3782225016639
 30
0.0
 40
3.000000000000131
  0
CIRCLE
  5
25F
  8
__
  6
CONTINUOUS
 62
    17
 10
1584.158159637014
 20
-935.3782225016639
 30
0.0
 40
3.000000000000131
  0
CIRCLE
  5
260
  8
__
  6
CONTINUOUS
 62
    17
 10
1584.158159637014
 20
-1035.378222501664
 30
0.0
 40
3.000000000000131
  0
CIRCLE
  5
261
  8
__
  6
CONTINUOUS
 62
    17
 10
1584.158159637014
 20
-1135.378222501664
 30
0.0
 40
3.000000000000131
  0
CIRCLE
  5
262
  8
__
  6
CONTINUOUS
 62
    17
 10
1584.158159637014
 20
-1235.378222501664
 30
0.0
 40
3.000000000000131
  0
CIRCLE
  5
263
  8
__
  6
CONTINUOUS
 62
    17
 10
1584.158159637014
 20
-835.3782225016639
 30
0.0
 40
3.000000000000131
  0
CIRCLE
  5
264
  8
__
  6
CONTINUOUS
 62
    17
 10
1584.158159637014
 20
-935.3782225016639
 30
0.0
 40
3.000000000000131
  0
CIRCLE
  5
265
  8
__
  6
CONTINUOUS
 62
    17
 10
1584.158159637014
 20
-1035.378222501664
 30
0.0
 40
3.000000000000131
  0
CIRCLE
  5
266
  8
__
  6
CONTINUOUS
 62
    17
 10
1584.158159637014
 20
-1135.378222501664
 30
0.0
 40
3.000000000000131
  0
CIRCLE
  5
267
  8
__
  6
CONTINUOUS
 62
    17
 10
1584.158159637014
 20
-1235.378222501664
 30
0.0
 40
3.000000000000131
  0
CIRCLE
  5
268
  8
__
  6
CONTINUOUS
 62
    17
 10
1584.158159637014
 20
-1335.378222501664
 30
0.0
 40
3.000000000000131
  0
CIRCLE
  5
269
  8
__
  6
CONTINUOUS
 62
    17
 10
1584.158159637014
 20
-1435.378222501664
 30
0.0
 40
3.000000000000131
  0
ENDBLK
  5
70
  8
0
  0
BLOCK
  8
0
  2
____-2-1
 70
     0
 10
0.0
 20
0.0
 30
0.0
  3
____-2-1
  1

  0
POLYLINE
  5
26A
  8
__
  6
CONTINUOUS
 62
     1
 66
     1
 10
0.0
 20
0.0
 30
0.0
 70
   129
  0
VERTEX
  5
26B
  8
__
  6
CONTINUOUS
 62
     1
 10
1407.349175371966
 20
-585.3782225016639
 30
0.0
  0
VERTEX
  5
26C
  8
__
  6
CONTINUOUS
 62
     1
 10
1425.349175371966
 20
-585.3782225016639
 30
0.0
  0
VERTEX
  5
26D
  8
__
  6
CONTINUOUS
 62
     1
 10
1425.349175371966
 20
-1485.378222501664
 30
0.0
  0
VERTEX
  5
26E
  8
__
  6
CONTINUOUS
 62
     1
 10
1407.349175371966
 20
-1485.378222501664
 30
0.0
  0
SEQEND
  5
26F
  8
__
  6
CONTINUOUS
 62
     1
  0
POLYLINE
  5
270
  8
__
  6
CONTINUOUS
 62
     1
 66
     1
 10
0.0
 20
0.0
 30
0.0
 70
   129
  0
VERTEX
  5
271
  8
__
  6
CONTINUOUS
 62
     1
 10
1425.349175371966
 20
-585.3782225016639
 30
0.0
  0
VERTEX
  5
272
  8
__
  6
CONTINUOUS
 62
     1
 10
1440.349175371966
 20
-585.3782225016639
 30
0.0
  0
VERTEX
  5
273
  8
__
  6
CONTINUOUS
 62
     1
 10
1440.349175371966
 20
-1485.378222501664
 30
0.0
  0
VERTEX
  5
274
  8
__
  6
CONTINUOUS
 62
     1
 10
1425.349175371966
 20
-1485.378222501664
 30
0.0
  0
SEQEND
  5
275
  8
__
  6
CONTINUOUS
 62
     1
  0
POLYLINE
  5
276
  8
__
  6
CONTINUOUS
 62
     1
 66
     1
 10
0.0
 20
0.0
 30
0.0
 70
   129
  0
VERTEX
  5
277
  8
__
  6
CONTINUOUS
 62
     1
 10
1392.349175371966
 20
-585.3782225016639
 30
0.0
  0
VERTEX
  5
278
  8
__
  6
CONTINUOUS
 62
     1
 10
1407.349175371966
 20
-585.3782225016639
 30
0.0
  0
VERTEX
  5
279
  8
__
  6
CONTINUOUS
 62
     1
 10
1407.349175371966
 20
-1485.378222501664
 30
0.0
  0
VERTEX
  5
27A
  8
__
  6
CONTINUOUS
 62
     1
 10
1392.349175371966
 20
-1485.378222501664
 30
0.0
  0
SEQEND
  5
27B
  8
__
  6
CONTINUOUS
 62
     1
  0
ENDBLK
  5
73
  8
0
  0
BLOCK
  8
0
  2
____-3-1
 70
     0
 10
0.0
 20
0.0
 30
0.0
  3
____-3-1
  1

  0
POLYLINE
  5
27C
  8
__
  6
ISO-02___
 62
    17
 66
     1
 10
0.0
 20
0.0
 30
0.0
 70
   129
  0
VERTEX
  5
27D
  8
__
  6
ISO-02___
 62
    17
 10
1392.349175371966
 20
-632.3782225016639
 30
0.0
  0
VERTEX
  5
27E
  8
__
  6
ISO-02___
 62
    17
 10
1407.349175371966
 20
-632.3782225016639
 30
0.0
  0
VERTEX
  5
27F
  8
__
  6
ISO-02___
 62
    17
 10
1407.349175371966
 20
-638.3782225016639
 30
0.0
  0
VERTEX
  5
280
  8
__
  6
ISO-02___
 62
    17
 10
1392.349175371966
 20
-638.3782225016639
 30
0.0
  0
SEQEND
  5
281
  8
__
  6
ISO-02___
 62
    17
  0
POLYLINE
  5
282
  8
__
  6
ISO-02___
 62
    17
 66
     1
 10
0.0
 20
0.0
 30
0.0
 70
   129
  0
VERTEX
  5
283
  8
__
  6
ISO-02___
 62
    17
 10
1425.349175371966
 20
-632.3782225016639
 30
0.0
  0
VERTEX
  5
284
  8
__
  6
ISO-02___
 62
    17
 10
1440.349175371966
 20
-632.3782225016639
 30
0.0
  0
VERTEX
  5
285
  8
__
  6
ISO-02___
 62
    17
 10
1440.349175371966
 20
-638.3782225016639
 30
0.0
  0
VERTEX
  5
286
  8
__
  6
ISO-02___
 62
    17
 10
1425.349175371966
 20
-638.3782225016639
 30
0.0
  0
SEQEND
  5
287
  8
__
  6
ISO-02___
 62
    17
  0
ENDBLK
  5
76
  8
0
  0
BLOCK
  8
0
  2
____-4-1
 70
     0
 10
0.0
 20
0.0
 30
0.0
  3
____-4-1
  1

  0
POLYLINE
  5
288
  8
__
  6
ISO-02___
 62
    17
 66
     1
 10
0.0
 20
0.0
 30
0.0
 70
   129
  0
VERTEX
  5
289
  8
__
  6
ISO-02___
 62
    17
 10
1392.349175371966
 20
-732.3782225016639
 30
0.0
  0
VERTEX
  5
28A
  8
__
  6
ISO-02___
 62
    17
 10
1407.349175371966
 20
-732.3782225016639
 30
0.0
  0
VERTEX
  5
28B
  8
__
  6
ISO-02___
 62
    17
 10
1407.349175371966
 20
-738.3782225016639
 30
0.0
  0
VERTEX
  5
28C
  8
__
  6
ISO-02___
 62
    17
 10
1392.349175371966
 20
-738.3782225016639
 30
0.0
  0
SEQEND
  5
28D
  8
__
  6
ISO-02___
 62
    17
  0
POLYLINE
  5
28E
  8
__
  6
ISO-02___
 62
    17
 66
     1
 10
0.0
 20
0.0
 30
0.0
 70
   129
  0
VERTEX
  5
28F
  8
__
  6
ISO-02___
 62
    17
 10
1425.349175371966
 20
-732.3782225016639
 30
0.0
  0
VERTEX
  5
290
  8
__
  6
ISO-02___
 62
    17
 10
1440.349175371966
 20
-732.3782225016639
 30
0.0
  0
VERTEX
  5
291
  8
__
  6
ISO-02___
 62
    17
 10
1440.349175371966
 20
-738.3782225016639
 30
0.0
  0
VERTEX
  5
292
  8
__
  6
ISO-02___
 62
    17
 10
1425.349175371966
 20
-738.3782225016639
 30
0.0
  0
SEQEND
  5
293
  8
__
  6
ISO-02___
 62
    17
  0
ENDBLK
  5
79
  8
0
  0
BLOCK
  8
0
  2
____-5-1
 70
     0
 10
0.0
 20
0.0
 30
0.0
  3
____-5-1
  1

  0
POLYLINE
  5
294
  8
__
  6
ISO-02___
 62
    17
 66
     1
 10
0.0
 20
0.0
 30
0.0
 70
   129
  0
VERTEX
  5
295
  8
__
  6
ISO-02___
 62
    17
 10
1392.349175371966
 20
-832.3782225016639
 30
0.0
  0
VERTEX
  5
296
  8
__
  6
ISO-02___
 62
    17
 10
1407.349175371966
 20
-832.3782225016639
 30
0.0
  0
VERTEX
  5
297
  8
__
  6
ISO-02___
 62
    17
 10
1407.349175371966
 20
-838.3782225016639
 30
0.0
  0
VERTEX
  5
298
  8
__
  6
ISO-02___
 62
    17
 10
1392.349175371966
 20
-838.3782225016639
 30
0.0
  0
SEQEND
  5
299
  8
__
  6
ISO-02___
 62
    17
  0
POLYLINE
  5
29A
  8
__
  6
ISO-02___
 62
    17
 66
     1
 10
0.0
 20
0.0
 30
0.0
 70
   129
  0
VERTEX
  5
29B
  8
__
  6
ISO-02___
 62
    17
 10
1425.349175371966
 20
-832.3782225016639
 30
0.0
  0
VERTEX
  5
29C
  8
__
  6
ISO-02___
 62
    17
 10
1440.349175371966
 20
-832.3782225016639
 30
0.0
  0
VERTEX
  5
29D
  8
__
  6
ISO-02___
 62
    17
 10
1440.349175371966
 20
-838.3782225016639
 30
0.0
  0
VERTEX
  5
29E
  8
__
  6
ISO-02___
 62
    17
 10
1425.349175371966
 20
-838.3782225016639
 30
0.0
  0
SEQEND
  5
29F
  8
__
  6
ISO-02___
 62
    17
  0
ENDBLK
  5
7C
  8
0
  0
BLOCK
  8
0
  2
____-6-1
 70
     0
 10
0.0
 20
0.0
 30
0.0
  3
____-6-1
  1

  0
POLYLINE
  5
2A0
  8
__
  6
ISO-02___
 62
    17
 66
     1
 10
0.0
 20
0.0
 30
0.0
 70
   129
  0
VERTEX
  5
2A1
  8
__
  6
ISO-02___
 62
    17
 10
1392.349175371966
 20
-932.3782225016639
 30
0.0
  0
VERTEX
  5
2A2
  8
__
  6
ISO-02___
 62
    17
 10
1407.349175371966
 20
-932.3782225016639
 30
0.0
  0
VERTEX
  5
2A3
  8
__
  6
ISO-02___
 62
    17
 10
1407.349175371966
 20
-938.3782225016639
 30
0.0
  0
VERTEX
  5
2A4
  8
__
  6
ISO-02___
 62
    17
 10
1392.349175371966
 20
-938.3782225016639
 30
0.0
  0
SEQEND
  5
2A5
  8
__
  6
ISO-02___
 62
    17
  0
POLYLINE
  5
2A6
  8
__
  6
ISO-02___
 62
    17
 66
     1
 10
0.0
 20
0.0
 30
0.0
 70
   129
  0
VERTEX
  5
2A7
  8
__
  6
ISO-02___
 62
    17
 10
1425.349175371966
 20
-932.3782225016639
 30
0.0
  0
VERTEX
  5
2A8
  8
__
  6
ISO-02___
 62
    17
 10
1440.349175371966
 20
-932.3782225016639
 30
0.0
  0
VERTEX
  5
2A9
  8
__
  6
ISO-02___
 62
    17
 10
1440.349175371966
 20
-938.3782225016639
 30
0.0
  0
VERTEX
  5
2AA
  8
__
  6
ISO-02___
 62
    17
 10
1425.349175371966
 20
-938.3782225016639
 30
0.0
  0
SEQEND
  5
2AB
  8
__
  6
ISO-02___
 62
    17
  0
ENDBLK
  5
7F
  8
0
  0
BLOCK
  8
0
  2
____-7-1
 70
     0
 10
0.0
 20
0.0
 30
0.0
  3
____-7-1
  1

  0
POLYLINE
  5
2AC
  8
__
  6
ISO-02___
 62
    17
 66
     1
 10
0.0
 20
0.0
 30
0.0
 70
   129
  0
VERTEX
  5
2AD
  8
__
  6
ISO-02___
 62
    17
 10
1392.349175371966
 20
-1032.378222501664
 30
0.0
  0
VERTEX
  5
2AE
  8
__
  6
ISO-02___
 62
    17
 10
1407.349175371966
 20
-1032.378222501664
 30
0.0
  0
VERTEX
  5
2AF
  8
__
  6
ISO-02___
 62
    17
 10
1407.349175371966
 20
-1038.378222501664
 30
0.0
  0
VERTEX
  5
2B0
  8
__
  6
ISO-02___
 62
    17
 10
1392.349175371966
 20
-1038.378222501664
 30
0.0
  0
SEQEND
  5
2B1
  8
__
  6
ISO-02___
 62
    17
  0
POLYLINE
  5
2B2
  8
__
  6
ISO-02___
 62
    17
 66
     1
 10
0.0
 20
0.0
 30
0.0
 70
   129
  0
VERTEX
  5
2B3
  8
__
  6
ISO-02___
 62
    17
 10
1425.349175371966
 20
-1032.378222501664
 30
0.0
  0
VERTEX
  5
2B4
  8
__
  6
ISO-02___
 62
    17
 10
1440.349175371966
 20
-1032.378222501664
 30
0.0
  0
VERTEX
  5
2B5
  8
__
  6
ISO-02___
 62
    17
 10
1440.349175371966
 20
-1038.378222501664
 30
0.0
  0
VERTEX
  5
2B6
  8
__
  6
ISO-02___
 62
    17
 10
1425.349175371966
 20
-1038.378222501664
 30
0.0
  0
SEQEND
  5
2B7
  8
__
  6
ISO-02___
 62
    17
  0
ENDBLK
  5
82
  8
0
  0
BLOCK
  8
0
  2
____-8-1
 70
     0
 10
0.0
 20
0.0
 30
0.0
  3
____-8-1
  1

  0
POLYLINE
  5
2B8
  8
__
  6
ISO-02___
 62
    17
 66
     1
 10
0.0
 20
0.0
 30
0.0
 70
   129
  0
VERTEX
  5
2B9
  8
__
  6
ISO-02___
 62
    17
 10
1392.349175371966
 20
-1132.378222501664
 30
0.0
  0
VERTEX
  5
2BA
  8
__
  6
ISO-02___
 62
    17
 10
1407.349175371966
 20
-1132.378222501664
 30
0.0
  0
VERTEX
  5
2BB
  8
__
  6
ISO-02___
 62
    17
 10
1407.349175371966
 20
-1138.378222501664
 30
0.0
  0
VERTEX
  5
2BC
  8
__
  6
ISO-02___
 62
    17
 10
1392.349175371966
 20
-1138.378222501664
 30
0.0
  0
SEQEND
  5
2BD
  8
__
  6
ISO-02___
 62
    17
  0
POLYLINE
  5
2BE
  8
__
  6
ISO-02___
 62
    17
 66
     1
 10
0.0
 20
0.0
 30
0.0
 70
   129
  0
VERTEX
  5
2BF
  8
__
  6
ISO-02___
 62
    17
 10
1425.349175371966
 20
-1132.378222501664
 30
0.0
  0
VERTEX
  5
2C0
  8
__
  6
ISO-02___
 62
    17
 10
1440.349175371966
 20
-1132.378222501664
 30
0.0
  0
VERTEX
  5
2C1
  8
__
  6
ISO-02___
 62
    17
 10
1440.349175371966
 20
-1138.378222501664
 30
0.0
  0
VERTEX
  5
2C2
  8
__
  6
ISO-02___
 62
    17
 10
1425.349175371966
 20
-1138.378222501664
 30
0.0
  0
SEQEND
  5
2C3
  8
__
  6
ISO-02___
 62
    17
  0
ENDBLK
  5
85
  8
0
  0
BLOCK
  8
0
  2
____-9-1
 70
     0
 10
0.0
 20
0.0
 30
0.0
  3
____-9-1
  1

  0
POLYLINE
  5
2C4
  8
__
  6
ISO-02___
 62
    17
 66
     1
 10
0.0
 20
0.0
 30
0.0
 70
   129
  0
VERTEX
  5
2C5
  8
__
  6
ISO-02___
 62
    17
 10
1392.349175371966
 20
-1232.378222501664
 30
0.0
  0
VERTEX
  5
2C6
  8
__
  6
ISO-02___
 62
    17
 10
1407.349175371966
 20
-1232.378222501664
 30
0.0
  0
VERTEX
  5
2C7
  8
__
  6
ISO-02___
 62
    17
 10
1407.349175371966
 20
-1238.378222501664
 30
0.0
  0
VERTEX
  5
2C8
  8
__
  6
ISO-02___
 62
    17
 10
1392.349175371966
 20
-1238.378222501664
 30
0.0
  0
SEQEND
  5
2C9
  8
__
  6
ISO-02___
 62
    17
  0
POLYLINE
  5
2CA
  8
__
  6
ISO-02___
 62
    17
 66
     1
 10
0.0
 20
0.0
 30
0.0
 70
   129
  0
VERTEX
  5
2CB
  8
__
  6
ISO-02___
 62
    17
 10
1425.349175371966
 20
-1232.378222501664
 30
0.0
  0
VERTEX
  5
2CC
  8
__
  6
ISO-02___
 62
    17
 10
1440.349175371966
 20
-1232.378222501664
 30
0.0
  0
VERTEX
  5
2CD
  8
__
  6
ISO-02___
 62
    17
 10
1440.349175371966
 20
-1238.378222501664
 30
0.0
  0
VERTEX
  5
2CE
  8
__
  6
ISO-02___
 62
    17
 10
1425.349175371966
 20
-1238.378222501664
 30
0.0
  0
SEQEND
  5
2CF
  8
__
  6
ISO-02___
 62
    17
  0
ENDBLK
  5
88
  8
0
  0
BLOCK
  8
0
  2
____-10-1
 70
     0
 10
0.0
 20
0.0
 30
0.0
  3
____-10-1
  1

  0
POLYLINE
  5
2D0
  8
__
  6
ISO-02___
 62
    17
 66
     1
 10
0.0
 20
0.0
 30
0.0
 70
   129
  0
VERTEX
  5
2D1
  8
__
  6
ISO-02___
 62
    17
 10
1392.349175371966
 20
-1332.378222501664
 30
0.0
  0
VERTEX
  5
2D2
  8
__
  6
ISO-02___
 62
    17
 10
1407.349175371966
 20
-1332.378222501664
 30
0.0
  0
VERTEX
  5
2D3
  8
__
  6
ISO-02___
 62
    17
 10
1407.349175371966
 20
-1338.378222501664
 30
0.0
  0
VERTEX
  5
2D4
  8
__
  6
ISO-02___
 62
    17
 10
1392.349175371966
 20
-1338.378222501664
 30
0.0
  0
SEQEND
  5
2D5
  8
__
  6
ISO-02___
 62
    17
  0
POLYLINE
  5
2D6
  8
__
  6
ISO-02___
 62
    17
 66
     1
 10
0.0
 20
0.0
 30
0.0
 70
   129
  0
VERTEX
  5
2D7
  8
__
  6
ISO-02___
 62
    17
 10
1425.349175371966
 20
-1332.378222501664
 30
0.0
  0
VERTEX
  5
2D8
  8
__
  6
ISO-02___
 62
    17
 10
1440.349175371966
 20
-1332.378222501664
 30
0.0
  0
VERTEX
  5
2D9
  8
__
  6
ISO-02___
 62
    17
 10
1440.349175371966
 20
-1338.378222501664
 30
0.0
  0
VERTEX
  5
2DA
  8
__
  6
ISO-02___
 62
    17
 10
1425.349175371966
 20
-1338.378222501664
 30
0.0
  0
SEQEND
  5
2DB
  8
__
  6
ISO-02___
 62
    17
  0
ENDBLK
  5
8B
  8
0
  0
BLOCK
  8
0
  2
____-11-1
 70
     0
 10
0.0
 20
0.0
 30
0.0
  3
____-11-1
  1

  0
POLYLINE
  5
2DC
  8
__
  6
ISO-02___
 62
    17
 66
     1
 10
0.0
 20
0.0
 30
0.0
 70
   129
  0
VERTEX
  5
2DD
  8
__
  6
ISO-02___
 62
    17
 10
1392.349175371966
 20
-1432.378222501664
 30
0.0
  0
VERTEX
  5
2DE
  8
__
  6
ISO-02___
 62
    17
 10
1407.349175371966
 20
-1432.378222501664
 30
0.0
  0
VERTEX
  5
2DF
  8
__
  6
ISO-02___
 62
    17
 10
1407.349175371966
 20
-1438.378222501664
 30
0.0
  0
VERTEX
  5
2E0
  8
__
  6
ISO-02___
 62
    17
 10
1392.349175371966
 20
-1438.378222501664
 30
0.0
  0
SEQEND
  5
2E1
  8
__
  6
ISO-02___
 62
    17
  0
POLYLINE
  5
2E2
  8
__
  6
ISO-02___
 62
    17
 66
     1
 10
0.0
 20
0.0
 30
0.0
 70
   129
  0
VERTEX
  5
2E3
  8
__
  6
ISO-02___
 62
    17
 10
1425.349175371966
 20
-1432.378222501664
 30
0.0
  0
VERTEX
  5
2E4
  8
__
  6
ISO-02___
 62
    17
 10
1440.349175371966
 20
-1432.378222501664
 30
0.0
  0
VERTEX
  5
2E5
  8
__
  6
ISO-02___
 62
    17
 10
1440.349175371966
 20
-1438.378222501664
 30
0.0
  0
VERTEX
  5
2E6
  8
__
  6
ISO-02___
 62
    17
 10
1425.349175371966
 20
-1438.378222501664
 30
0.0
  0
SEQEND
  5
2E7
  8
__
  6
ISO-02___
 62
    17
  0
ENDBLK
  5
8E
  8
0
  0
BLOCK
  8
0
  2
____-12-1
 70
     0
 10
0.0
 20
0.0
 30
0.0
  3
____-12-1
  1

  0
INSERT
  5
2E8
  8
__
 62
     1
  2
____-2-1
 10
0.0
 20
0.0
 30
0.0
  0
INSERT
  5
2E9
  8
__
 62
    17
  2
____-3-1
 10
0.0
 20
0.0
 30
0.0
  0
CIRCLE
  5
2EA
  8
__
  6
CONTINUOUS
 62
    17
 10
1416.349175371966
 20
-635.3782225016639
 30
0.0
 40
1.99999999999994
  0
CIRCLE
  5
2EB
  8
__
  6
CONTINUOUS
 62
    17
 10
1416.349175371966
 20
-835.3782225016639
 30
0.0
 40
1.99999999999994
  0
CIRCLE
  5
2EC
  8
__
  6
CONTINUOUS
 62
    17
 10
1416.349175371966
 20
-1035.378222501664
 30
0.0
 40
1.99999999999994
  0
CIRCLE
  5
2ED
  8
__
  6
CONTINUOUS
 62
    17
 10
1416.349175371966
 20
-1435.378222501664
 30
0.0
 40
1.99999999999994
  0
CIRCLE
  5
2EE
  8
__
  6
CONTINUOUS
 62
    17
 10
1416.349175371966
 20
-1235.378222501664
 30
0.0
 40
1.99999999999994
  0
INSERT
  5
2EF
  8
__
 62
    17
  2
____-4-1
 10
0.0
 20
0.0
 30
0.0
  0
INSERT
  5
2F0
  8
__
 62
    17
  2
____-5-1
 10
0.0
 20
0.0
 30
0.0
  0
INSERT
  5
2F1
  8
__
 62
    17
  2
____-6-1
 10
0.0
 20
0.0
 30
0.0
  0
INSERT
  5
2F2
  8
__
 62
    17
  2
____-7-1
 10
0.0
 20
0.0
 30
0.0
  0
INSERT
  5
2F3
  8
__
 62
    17
  2
____-8-1
 10
0.0
 20
0.0
 30
0.0
  0
INSERT
  5
2F4
  8
__
 62
    17
  2
____-9-1
 10
0.0
 20
0.0
 30
0.0
  0
INSERT
  5
2F5
  8
__
 62
    17
  2
____-10-1
 10
0.0
 20
0.0
 30
0.0
  0
INSERT
  5
2F6
  8
__
 62
    17
  2
____-11-1
 10
0.0
 20
0.0
 30
0.0
  0
ENDBLK
  5
91
  8
0
  0
BLOCK
  8
0
  2
____-13-1
 70
     0
 10
0.0
 20
0.0
 30
0.0
  3
____-13-1
  1

  0
POLYLINE
  5
2F7
  8
__
  6
CONTINUOUS
 62
     1
 66
     1
 10
0.0
 20
0.0
 30
0.0
 70
   129
  0
VERTEX
  5
2F8
  8
__
  6
CONTINUOUS
 62
     1
 10
257.0516637473175
 20
-722.1828243608966
 30
0.0
  0
VERTEX
  5
2F9
  8
__
  6
CONTINUOUS
 62
     1
 10
789.0516637473175
 20
-722.1828243608966
 30
0.0
  0
VERTEX
  5
2FA
  8
__
  6
CONTINUOUS
 62
     1
 10
789.0516637473175
 20
-802.1828243608966
 30
0.0
  0
VERTEX
  5
2FB
  8
__
  6
CONTINUOUS
 62
     1
 10
257.0516637473175
 20
-742.1828243608966
 30
0.0
  0
SEQEND
  5
2FC
  8
__
  6
CONTINUOUS
 62
     1
  0
CIRCLE
  5
2FD
  8
__
  6
CONTINUOUS
 62
     1
 10
773.0516637473175
 20
-742.1828243608966
 30
0.0
 40
2.999999999999864
  0
ENDBLK
  5
94
  8
0
  0
BLOCK
  8
0
  2
____-14-1
 70
     0
 10
0.0
 20
0.0
 30
0.0
  3
____-14-1
  1

  0
POLYLINE
  5
2FE
  8
__
  6
CONTINUOUS
 62
     1
 66
     1
 10
0.0
 20
0.0
 30
0.0
 70
   129
  0
VERTEX
  5
2FF
  8
__
  6
CONTINUOUS
 62
     1
 10
507.0516637473175
 20
-1039.923826524354
 30
0.0
  0
VERTEX
  5
300
  8
__
  6
CONTINUOUS
 62
     1
 10
789.0516637473175
 20
-1039.923826524354
 30
0.0
  0
VERTEX
  5
301
  8
__
  6
CONTINUOUS
 62
     1
 10
789.0516637473175
 20
-1089.923826524354
 30
0.0
  0
VERTEX
  5
302
  8
__
  6
CONTINUOUS
 62
     1
 10
507.0516637473175
 20
-1059.923826524354
 30
0.0
  0
SEQEND
  5
303
  8
__
  6
CONTINUOUS
 62
     1
  0
CIRCLE
  5
304
  8
__
  6
CONTINUOUS
 62
     1
 10
773.0516637473175
 20
-1059.923826524354
 30
0.0
 40
2.999999999999864
  0
ENDBLK
  5
97
  8
0
  0
BLOCK
  8
0
  2
*D15
 70
     1
 10
0.0
 20
0.0
 30
0.0
  3
*D15
  1

  0
LINE
  5
305
  8
__-1
  6
CONTINUOUS
 62
     0
 10
1479.0
 20
-427.6394669520109
 30
0.0
 11
1479.0
 21
-415.6394669520109
 31
0.0
  0
LINE
  5
306
  8
__-1
  6
CONTINUOUS
 62
     0
 10
1464.0
 20
-427.6394669520109
 30
0.0
 11
1464.0
 21
-415.6394669520109
 31
0.0
  0
LINE
  5
307
  8
__-1
  6
CONTINUOUS
 62
     0
 10
1479.0
 20
-415.6394669520109
 30
0.0
 11
1464.0
 21
-415.6394669520109
 31
0.0
  0
LINE
  5
308
  8
__-1
  6
CONTINUOUS
 62
     0
 10
1481.999816894531
 20
-415.6394669520109
 30
0.0
 11
1484.999633789062
 21
-415.6394669520109
 31
0.0
  0
LINE
  5
309
  8
__-1
  6
CONTINUOUS
 62
     0
 10
1461.000183105469
 20
-415.6394669520109
 30
0.0
 11
1458.000366210938
 21
-415.6394669520109
 31
0.0
  0
INSERT
  5
30A
  8
__-1
 62
     0
  2
_DOT
 10
1479.0
 20
-415.6394669520109
 30
0.0
 41
2.99981689453125
 42
2.99981689453125
 43
2.99981689453125
 50
180.0
  0
INSERT
  5
30B
  8
__-1
 62
     0
  2
_DOT
 10
1464.0
 20
-415.6394669520109
 30
0.0
 41
2.99981689453125
 42
2.99981689453125
 43
2.99981689453125
  0
TEXT
  5
30C
  8
__-1
  6
CONTINUOUS
 62
     0
 10
1454.767335276124
 20
-413.1394669520109
 30
0.0
 40
16.34353298611111
  1
15
  7
YUGOTHIC_BOLD
  0
POINT
  5
30D
  8
DEFPOINTS
 62
     0
 10
1479.0
 20
-437.6394669520109
 30
0.0
  0
POINT
  5
30E
  8
DEFPOINTS
 62
     0
 10
1464.0
 20
-437.6394669520109
 30
0.0
  0
POINT
  5
823
  8
DEFPOINTS
 62
     0
 10
1464.0
 20
-415.6394669520109
 30
0.0
  0
ENDBLK
  5
9B
  8
0
  0
BLOCK
  8
0
  2
*D16
 70
     1
 10
0.0
 20
0.0
 30
0.0
  3
*D16
  1

  0
LINE
  5
30F
  8
__-1
  6
CONTINUOUS
 62
     0
 10
1497.0
 20
-427.6394669520109
 30
0.0
 11
1497.0
 21
-397.2644669520109
 31
0.0
  0
LINE
  5
310
  8
__-1
  6
CONTINUOUS
 62
     0
 10
1479.0
 20
-427.6394669520109
 30
0.0
 11
1479.0
 21
-397.2644669520109
 31
0.0
  0
LINE
  5
311
  8
__-1
  6
CONTINUOUS
 62
     0
 10
1494.000183105469
 20
-397.2644669520109
 30
0.0
 11
1481.999816894531
 21
-397.2644669520109
 31
0.0
  0
INSERT
  5
312
  8
__-1
 62
     0
  2
_DOT
 10
1497.0
 20
-397.2644669520109
 30
0.0
 41
2.99981689453125
 42
2.99981689453125
 43
2.99981689453125
  0
INSERT
  5
313
  8
__-1
 62
     0
  2
_DOT
 10
1479.0
 20
-397.2644669520109
 30
0.0
 41
2.99981689453125
 42
2.99981689453125
 43
2.99981689453125
 50
180.0
  0
TEXT
  5
314
  8
__-1
  6
CONTINUOUS
 62
     0
 10
1472.36997447313
 20
-394.7644669520109
 30
0.0
 40
16.34353298611111
  1
18
  7
YUGOTHIC_BOLD
  0
POINT
  5
315
  8
DEFPOINTS
 62
     0
 10
1497.0
 20
-437.6394669520109
 30
0.0
  0
POINT
  5
316
  8
DEFPOINTS
 62
     0
 10
1479.0
 20
-437.6394669520109
 30
0.0
  0
POINT
  5
317
  8
DEFPOINTS
 62
     0
 10
1479.0
 20
-415.6394669520109
 30
0.0
  0
ENDBLK
  5
9E
  8
0
  0
BLOCK
  8
0
  2
*D17
 70
     1
 10
0.0
 20
0.0
 30
0.0
  3
*D17
  1

  0
LINE
  5
31A
  8
__-1
  6
CONTINUOUS
 62
     0
 10
1512.0
 20
-427.6394669520109
 30
0.0
 11
1512.0
 21
-397.2644669520109
 31
0.0
  0
LINE
  5
31B
  8
__-1
  6
CONTINUOUS
 62
     0
 10
1497.0
 20
-427.6394669520109
 30
0.0
 11
1497.0
 21
-397.2644669520109
 31
0.0
  0
LINE
  5
31C
  8
__-1
  6
CONTINUOUS
 62
     0
 10
1512.0
 20
-397.2644669520109
 30
0.0
 11
1544.125984635933
 21
-397.2644669520109
 31
0.0
  0
LINE
  5
31D
  8
__-1
  6
CONTINUOUS
 62
     0
 10
1509.000183105469
 20
-397.2644669520109
 30
0.0
 11
1499.999816894531
 21
-397.2644669520109
 31
0.0
  0
INSERT
  5
31E
  8
__-1
 62
     0
  2
_DOT
 10
1512.0
 20
-397.2644669520109
 30
0.0
 41
2.99981689453125
 42
2.99981689453125
 43
2.99981689453125
  0
INSERT
  5
31F
  8
__-1
 62
     0
  2
_DOT
 10
1497.0
 20
-397.2644669520109
 30
0.0
 41
2.99981689453125
 42
2.99981689453125
 43
2.99981689453125
 50
180.0
  0
TEXT
  5
320
  8
__-1
  6
CONTINUOUS
 62
     0
 10
1512.830236041357
 20
-394.7644669520109
 30
0.0
 40
16.34353298611111
  1
15
  7
YUGOTHIC_BOLD
  0
POINT
  5
321
  8
DEFPOINTS
 62
     0
 10
1512.0
 20
-437.6394669520109
 30
0.0
  0
POINT
  5
322
  8
DEFPOINTS
 62
     0
 10
1497.0
 20
-437.6394669520109
 30
0.0
  0
POINT
  5
323
  8
DEFPOINTS
 62
     0
 10
1497.0
 20
-415.6394669520109
 30
0.0
  0
ENDBLK
  5
A1
  8
0
  0
BLOCK
  8
0
  2
*D18
 70
     1
 10
0.0
 20
0.0
 30
0.0
  3
*D18
  1

  0
LINE
  5
325
  8
__-1
  6
CONTINUOUS
 62
     0
 10
1454.0
 20
-487.6394669520109
 30
0.0
 11
1424.0
 21
-487.6394669520109
 31
0.0
  0
LINE
  5
326
  8
__-1
  6
CONTINUOUS
 62
     0
 10
1454.0
 20
-437.6394669520109
 30
0.0
 11
1424.0
 21
-437.6394669520109
 31
0.0
  0
LINE
  5
327
  8
__-1
  6
CONTINUOUS
 62
     0
 10
1424.0
 20
-484.6396500574797
 30
0.0
 11
1424.0
 21
-440.6392838465422
 31
0.0
  0
INSERT
  5
328
  8
__-1
 62
     0
  2
_DOT
 10
1424.0
 20
-487.6394669520109
 30
0.0
 41
2.99981689453125
 42
2.99981689453125
 43
2.99981689453125
 50
270.0
  0
INSERT
  5
329
  8
__-1
 62
     0
  2
_DOT
 10
1424.0
 20
-437.6394669520109
 30
0.0
 41
2.99981689453125
 42
2.99981689453125
 43
2.99981689453125
 50
90.0
  0
TEXT
  5
32A
  8
__-1
  6
CONTINUOUS
 62
     0
 10
1421.5
 20
-478.2047364625928
 30
0.0
 40
16.34353298611111
  1
50
 50
90.0
  7
YUGOTHIC_BOLD
  0
POINT
  5
32B
  8
DEFPOINTS
 62
     0
 10
1464.0
 20
-487.6394669520109
 30
0.0
  0
POINT
  5
32C
  8
DEFPOINTS
 62
     0
 10
1464.0
 20
-437.6394669520109
 30
0.0
  0
POINT
  5
32D
  8
DEFPOINTS
 62
     0
 10
1424.0
 20
-437.6394669520109
 30
0.0
  0
ENDBLK
  5
A4
  8
0
  0
BLOCK
  8
0
  2
*D19
 70
     1
 10
0.0
 20
0.0
 30
0.0
  3
*D19
  1

  0
LINE
  5
32E
  8
__-1
  6
CONTINUOUS
 62
     0
 10
1454.0
 20
-1455.0
 30
0.0
 11
1424.0
 21
-1455.0
 31
0.0
  0
LINE
  5
32F
  8
__-1
  6
CONTINUOUS
 62
     0
 10
1454.0
 20
-555.0
 30
0.0
 11
1424.0
 21
-555.0
 31
0.0
  0
LINE
  5
330
  8
__-1
  6
CONTINUOUS
 62
     0
 10
1424.0
 20
-1452.000183105469
 30
0.0
 11
1424.0
 21
-557.9998168945312
 31
0.0
  0
INSERT
  5
331
  8
__-1
 62
     0
  2
_DOT
 10
1424.0
 20
-1455.0
 30
0.0
 41
2.99981689453125
 42
2.99981689453125
 43
2.99981689453125
 50
270.0
  0
INSERT
  5
332
  8
__-1
 62
     0
  2
_DOT
 10
1424.0
 20
-555.0
 30
0.0
 41
2.99981689453125
 42
2.99981689453125
 43
2.99981689453125
 50
90.0
  0
TEXT
  5
333
  8
__-1
  6
CONTINUOUS
 62
     0
 10
1421.5
 20
-1028.347904265873
 30
0.0
 40
16.34353298611111
  1
900
 50
90.0
  7
YUGOTHIC_BOLD
  0
POINT
  5
334
  8
DEFPOINTS
 62
     0
 10
1464.0
 20
-1455.0
 30
0.0
  0
POINT
  5
335
  8
DEFPOINTS
 62
     0
 10
1464.0
 20
-555.0
 30
0.0
  0
POINT
  5
336
  8
DEFPOINTS
 62
     0
 10
1424.0
 20
-555.0
 30
0.0
  0
ENDBLK
  5
A7
  8
0
  0
BLOCK
  8
0
  2
*D20
 70
     1
 10
0.0
 20
0.0
 30
0.0
  3
*D20
  1

  0
LINE
  5
337
  8
__-1
  6
CONTINUOUS
 62
     0
 10
1512.0
 20
-427.6394669520109
 30
0.0
 11
1512.0
 21
-368.9399623734114
 31
0.0
  0
LINE
  5
338
  8
__-1
  6
CONTINUOUS
 62
     0
 10
1464.0
 20
-427.6394669520109
 30
0.0
 11
1464.0
 21
-368.9399623734114
 31
0.0
  0
LINE
  5
339
  8
__-1
  6
CONTINUOUS
 62
     0
 10
1509.000183105469
 20
-368.9399623734114
 30
0.0
 11
1466.999816894531
 21
-368.9399623734114
 31
0.0
  0
INSERT
  5
33A
  8
__-1
 62
     0
  2
_DOT
 10
1512.0
 20
-368.9399623734114
 30
0.0
 41
2.99981689453125
 42
2.99981689453125
 43
2.99981689453125
  0
INSERT
  5
33B
  8
__-1
 62
     0
  2
_DOT
 10
1464.0
 20
-368.9399623734114
 30
0.0
 41
2.99981689453125
 42
2.99981689453125
 43
2.99981689453125
 50
180.0
  0
TEXT
  5
33C
  8
__-1
  6
CONTINUOUS
 62
     0
 10
1472.434730489418
 20
-366.4399623734114
 30
0.0
 40
16.34353298611111
  1
48
  7
YUGOTHIC_BOLD
  0
POINT
  5
33D
  8
DEFPOINTS
 62
     0
 10
1512.0
 20
-437.6394669520109
 30
0.0
  0
POINT
  5
33E
  8
DEFPOINTS
 62
     0
 10
1464.0
 20
-437.6394669520109
 30
0.0
  0
POINT
  5
33F
  8
DEFPOINTS
 62
     0
 10
1464.0
 20
-368.9399623734114
 30
0.0
  0
ENDBLK
  5
AA
  8
0
  0
BLOCK
  8
0
  2
*D21
 70
     1
 10
0.0
 20
0.0
 30
0.0
  3
*D21
  1

  0
LINE
  5
340
  8
__-1
  6
CONTINUOUS
 62
     0
 10
318.7024883753512
 20
-711.8046018592327
 30
0.0
 11
283.7024883753512
 21
-711.8046018592327
 31
0.0
  0
LINE
  5
341
  8
__-1
  6
CONTINUOUS
 62
     0
 10
318.7024883753512
 20
-691.8046018592327
 30
0.0
 11
283.7024883753512
 21
-691.8046018592327
 31
0.0
  0
LINE
  5
342
  8
__-1
  6
CONTINUOUS
 62
     0
 10
283.7024883753512
 20
-711.8046018592327
 30
0.0
 11
283.7024883753512
 21
-691.8046018592327
 31
0.0
  0
LINE
  5
343
  8
__-1
  6
CONTINUOUS
 62
     0
 10
283.7024883753512
 20
-714.8044187537639
 30
0.0
 11
283.7024883753512
 21
-717.8042356482952
 31
0.0
  0
LINE
  5
344
  8
__-1
  6
CONTINUOUS
 62
     0
 10
283.7024883753512
 20
-688.8047849647014
 30
0.0
 11
283.7024883753512
 21
-685.8049680701702
 31
0.0
  0
INSERT
  5
345
  8
__-1
 62
     0
  2
_DOT
 10
283.7024883753512
 20
-711.8046018592327
 30
0.0
 41
2.99981689453125
 42
2.99981689453125
 43
2.99981689453125
 50
90.0
  0
INSERT
  5
346
  8
__-1
 62
     0
  2
_DOT
 10
283.7024883753512
 20
-691.8046018592327
 30
0.0
 41
2.99981689453125
 42
2.99981689453125
 43
2.99981689453125
 50
270.0
  0
TEXT
  5
347
  8
__-1
  6
CONTINUOUS
 62
     0
 10
281.2024883753512
 20
-717.3698713698147
 30
0.0
 40
16.34353298611111
  1
20
 50
90.0
  7
YUGOTHIC_BOLD
  0
POINT
  5
348
  8
DEFPOINTS
 62
     0
 10
328.7024883753512
 20
-711.8046018592327
 30
0.0
  0
POINT
  5
349
  8
DEFPOINTS
 62
     0
 10
328.7024883753512
 20
-691.8046018592327
 30
0.0
  0
POINT
  5
34A
  8
DEFPOINTS
 62
     0
 10
283.7024883753512
 20
-691.8046018592327
 30
0.0
  0
ENDBLK
  5
AD
  8
0
  0
BLOCK
  8
0
  2
*D22
 70
     1
 10
0.0
 20
0.0
 30
0.0
  3
*D22
  1

  0
LINE
  5
34B
  8
__-1
  6
CONTINUOUS
 62
     0
 10
860.7024883753511
 20
-681.8046018592327
 30
0.0
 11
860.7024883753511
 21
-647.8046018592327
 31
0.0
  0
LINE
  5
34C
  8
__-1
  6
CONTINUOUS
 62
     0
 10
328.7024883753512
 20
-681.8046018592327
 30
0.0
 11
328.7024883753512
 21
-647.8046018592327
 31
0.0
  0
LINE
  5
34D
  8
__-1
  6
CONTINUOUS
 62
     0
 10
857.7026714808198
 20
-647.8046018592327
 30
0.0
 11
331.7023052698824
 21
-647.8046018592327
 31
0.0
  0
INSERT
  5
34E
  8
__-1
 62
     0
  2
_DOT
 10
860.7024883753511
 20
-647.8046018592327
 30
0.0
 41
2.99981689453125
 42
2.99981689453125
 43
2.99981689453125
  0
INSERT
  5
34F
  8
__-1
 62
     0
  2
_DOT
 10
328.7024883753512
 20
-647.8046018592327
 30
0.0
 41
2.99981689453125
 42
2.99981689453125
 43
2.99981689453125
 50
180.0
  0
TEXT
  5
350
  8
__-1
  6
CONTINUOUS
 62
     0
 10
571.3545841094781
 20
-645.3046018592327
 30
0.0
 40
16.34353298611111
  1
532
  7
YUGOTHIC_BOLD
  0
POINT
  5
351
  8
DEFPOINTS
 62
     0
 10
860.7024883753511
 20
-691.8046018592327
 30
0.0
  0
POINT
  5
352
  8
DEFPOINTS
 62
     0
 10
328.7024883753512
 20
-691.8046018592327
 30
0.0
  0
POINT
  5
353
  8
DEFPOINTS
 62
     0
 10
328.7024883753512
 20
-647.8046018592327
 30
0.0
  0
ENDBLK
  5
B0
  8
0
  0
BLOCK
  8
0
  2
*D23
 70
     1
 10
0.0
 20
0.0
 30
0.0
  3
*D23
  1

  0
LINE
  5
354
  8
__-1
  6
CONTINUOUS
 62
     0
 10
870.7024883753511
 20
-771.8046018592327
 30
0.0
 11
911.7024883753513
 21
-771.8046018592327
 31
0.0
  0
LINE
  5
355
  8
__-1
  6
CONTINUOUS
 62
     0
 10
870.7024883753511
 20
-691.8046018592327
 30
0.0
 11
911.7024883753513
 21
-691.8046018592327
 31
0.0
  0
LINE
  5
356
  8
__-1
  6
CONTINUOUS
 62
     0
 10
911.7024883753513
 20
-768.8047849647014
 30
0.0
 11
911.7024883753513
 21
-694.8044187537639
 31
0.0
  0
INSERT
  5
357
  8
__-1
 62
     0
  2
_DOT
 10
911.7024883753513
 20
-771.8046018592327
 30
0.0
 41
2.99981689453125
 42
2.99981689453125
 43
2.99981689453125
 50
270.0
  0
INSERT
  5
358
  8
__-1
 62
     0
  2
_DOT
 10
911.7024883753513
 20
-691.8046018592327
 30
0.0
 41
2.99981689453125
 42
2.99981689453125
 43
2.99981689453125
 50
90.0
  0
TEXT
  5
359
  8
__-1
  6
CONTINUOUS
 62
     0
 10
909.2024883753513
 20
-747.3698713698149
 30
0.0
 40
16.34353298611111
  1
80
 50
90.0
  7
YUGOTHIC_BOLD
  0
POINT
  5
35A
  8
DEFPOINTS
 62
     0
 10
860.7024883753511
 20
-771.8046018592327
 30
0.0
  0
POINT
  5
35B
  8
DEFPOINTS
 62
     0
 10
860.7024883753511
 20
-691.8046018592327
 30
0.0
  0
POINT
  5
35C
  8
DEFPOINTS
 62
     0
 10
911.7024883753513
 20
-691.8046018592327
 30
0.0
  0
ENDBLK
  5
B3
  8
0
  0
BLOCK
  8
0
  2
*D24
 70
     1
 10
0.0
 20
0.0
 30
0.0
  3
*D24
  1

  0
LINE
  5
35D
  8
__-1
  6
CONTINUOUS
 62
     0
 10
870.7024883753511
 20
-1059.54560402269
 30
0.0
 11
915.7024883753513
 21
-1059.54560402269
 31
0.0
  0
LINE
  5
35E
  8
__-1
  6
CONTINUOUS
 62
     0
 10
870.7024883753511
 20
-1009.54560402269
 30
0.0
 11
915.7024883753513
 21
-1009.54560402269
 31
0.0
  0
LINE
  5
35F
  8
__-1
  6
CONTINUOUS
 62
     0
 10
915.7024883753513
 20
-1056.545787128159
 30
0.0
 11
915.7024883753513
 21
-1012.545420917221
 31
0.0
  0
INSERT
  5
360
  8
__-1
 62
     0
  2
_DOT
 10
915.7024883753513
 20
-1059.54560402269
 30
0.0
 41
2.99981689453125
 42
2.99981689453125
 43
2.99981689453125
 50
270.0
  0
INSERT
  5
361
  8
__-1
 62
     0
  2
_DOT
 10
915.7024883753513
 20
-1009.54560402269
 30
0.0
 41
2.99981689453125
 42
2.99981689453125
 43
2.99981689453125
 50
90.0
  0
TEXT
  5
362
  8
__-1
  6
CONTINUOUS
 62
     0
 10
913.2024883753511
 20
-1050.110873533272
 30
0.0
 40
16.34353298611111
  1
50
 50
90.0
  7
YUGOTHIC_BOLD
  0
POINT
  5
363
  8
DEFPOINTS
 62
     0
 10
860.7024883753511
 20
-1059.54560402269
 30
0.0
  0
POINT
  5
364
  8
DEFPOINTS
 62
     0
 10
860.7024883753511
 20
-1009.54560402269
 30
0.0
  0
POINT
  5
365
  8
DEFPOINTS
 62
     0
 10
915.7024883753513
 20
-1009.54560402269
 30
0.0
  0
ENDBLK
  5
B6
  8
0
  0
BLOCK
  8
0
  2
*D25
 70
     1
 10
0.0
 20
0.0
 30
0.0
  3
*D25
  1

  0
LINE
  5
366
  8
__-1
  6
CONTINUOUS
 62
     0
 10
568.7024883753511
 20
-1029.54560402269
 30
0.0
 11
532.7024883753512
 21
-1029.54560402269
 31
0.0
  0
LINE
  5
367
  8
__-1
  6
CONTINUOUS
 62
     0
 10
568.7024883753511
 20
-1009.54560402269
 30
0.0
 11
532.7024883753512
 21
-1009.54560402269
 31
0.0
  0
LINE
  5
368
  8
__-1
  6
CONTINUOUS
 62
     0
 10
532.7024883753512
 20
-1029.54560402269
 30
0.0
 11
532.7024883753512
 21
-1009.54560402269
 31
0.0
  0
LINE
  5
369
  8
__-1
  6
CONTINUOUS
 62
     0
 10
532.7024883753512
 20
-1032.545420917221
 30
0.0
 11
532.7024883753512
 21
-1035.545237811752
 31
0.0
  0
LINE
  5
36A
  8
__-1
  6
CONTINUOUS
 62
     0
 10
532.7024883753512
 20
-1006.545787128159
 30
0.0
 11
532.7024883753512
 21
-1003.545970233627
 31
0.0
  0
INSERT
  5
36B
  8
__-1
 62
     0
  2
_DOT
 10
532.7024883753512
 20
-1029.54560402269
 30
0.0
 41
2.99981689453125
 42
2.99981689453125
 43
2.99981689453125
 50
90.0
  0
INSERT
  5
36C
  8
__-1
 62
     0
  2
_DOT
 10
532.7024883753512
 20
-1009.54560402269
 30
0.0
 41
2.99981689453125
 42
2.99981689453125
 43
2.99981689453125
 50
270.0
  0
TEXT
  5
36D
  8
__-1
  6
CONTINUOUS
 62
     0
 10
530.2024883753513
 20
-1035.110873533272
 30
0.0
 40
16.34353298611111
  1
20
 50
90.0
  7
YUGOTHIC_BOLD
  0
POINT
  5
36E
  8
DEFPOINTS
 62
     0
 10
578.7024883753511
 20
-1029.54560402269
 30
0.0
  0
POINT
  5
36F
  8
DEFPOINTS
 62
     0
 10
578.7024883753511
 20
-1009.54560402269
 30
0.0
  0
POINT
  5
370
  8
DEFPOINTS
 62
     0
 10
532.7024883753512
 20
-1009.54560402269
 30
0.0
  0
ENDBLK
  5
B9
  8
0
  0
BLOCK
  8
0
  2
*D26
 70
     1
 10
0.0
 20
0.0
 30
0.0
  3
*D26
  1

  0
LINE
  5
371
  8
__-1
  6
CONTINUOUS
 62
     0
 10
860.7024883753511
 20
-999.5456040226898
 30
0.0
 11
860.7024883753511
 21
-963.8427274309527
 31
0.0
  0
LINE
  5
372
  8
__-1
  6
CONTINUOUS
 62
     0
 10
578.7024883753511
 20
-999.5456040226898
 30
0.0
 11
578.7024883753511
 21
-963.8427274309527
 31
0.0
  0
LINE
  5
373
  8
__-1
  6
CONTINUOUS
 62
     0
 10
857.7026714808198
 20
-963.8427274309527
 30
0.0
 11
581.7023052698823
 21
-963.8427274309527
 31
0.0
  0
INSERT
  5
374
  8
__-1
 62
     0
  2
_DOT
 10
860.7024883753511
 20
-963.8427274309527
 30
0.0
 41
2.99981689453125
 42
2.99981689453125
 43
2.99981689453125
  0
INSERT
  5
375
  8
__-1
 62
     0
  2
_DOT
 10
578.7024883753511
 20
-963.8427274309527
 30
0.0
 41
2.99981689453125
 42
2.99981689453125
 43
2.99981689453125
 50
180.0
  0
TEXT
  5
376
  8
__-1
  6
CONTINUOUS
 62
     0
 10
696.3545841094781
 20
-961.3427274309527
 30
0.0
 40
16.34353298611111
  1
282
  7
YUGOTHIC_BOLD
  0
POINT
  5
377
  8
DEFPOINTS
 62
     0
 10
860.7024883753511
 20
-1009.54560402269
 30
0.0
  0
POINT
  5
378
  8
DEFPOINTS
 62
     0
 10
578.7024883753511
 20
-1009.54560402269
 30
0.0
  0
POINT
  5
379
  8
DEFPOINTS
 62
     0
 10
578.7024883753511
 20
-963.8427274309527
 30
0.0
  0
ENDBLK
  5
BC
  8
0
  0
BLOCK
  8
0
  2
*D27
 70
     1
 10
0.0
 20
0.0
 30
0.0
  3
*D27
  1

  0
LINE
  5
37A
  8
__-1
  6
CONTINUOUS
 62
     0
 10
2639.545265288577
 20
219.9215890628139
 30
0.0
 11
2602.545265288577
 21
219.9215890628139
 31
0.0
  0
LINE
  5
37B
  8
__-1
  6
CONTINUOUS
 62
     0
 10
2639.545265288577
 20
234.9215890628138
 30
0.0
 11
2602.545265288577
 21
234.9215890628138
 31
0.0
  0
LINE
  5
37C
  8
__-1
  6
CONTINUOUS
 62
     0
 10
2602.545265288577
 20
219.9215890628139
 30
0.0
 11
2602.545265288577
 21
234.9215890628138
 31
0.0
  0
LINE
  5
37D
  8
__-1
  6
CONTINUOUS
 62
     0
 10
2602.545265288577
 20
216.9217721682826
 30
0.0
 11
2602.545265288577
 21
213.9219552737514
 31
0.0
  0
LINE
  5
37E
  8
__-1
  6
CONTINUOUS
 62
     0
 10
2602.545265288577
 20
237.9214059573451
 30
0.0
 11
2602.545265288577
 21
240.9212228518763
 31
0.0
  0
INSERT
  5
37F
  8
__-1
 62
     0
  2
_DOT
 10
2602.545265288577
 20
219.9215890628139
 30
0.0
 41
2.99981689453125
 42
2.99981689453125
 43
2.99981689453125
 50
90.0
  0
INSERT
  5
380
  8
__-1
 62
     0
  2
_DOT
 10
2602.545265288577
 20
234.9215890628138
 30
0.0
 41
2.99981689453125
 42
2.99981689453125
 43
2.99981689453125
 50
270.0
  0
TEXT
  5
381
  8
__-1
  6
CONTINUOUS
 62
     0
 10
2600.045265288577
 20
210.6889243389383
 30
0.0
 40
16.34353298611111
  1
15
 50
90.0
  7
YUGOTHIC_BOLD
  0
POINT
  5
382
  8
DEFPOINTS
 62
     0
 10
2649.545265288577
 20
219.9215890628139
 30
0.0
  0
POINT
  5
383
  8
DEFPOINTS
 62
     0
 10
2649.545265288577
 20
234.9215890628138
 30
0.0
  0
POINT
  5
830
  8
DEFPOINTS
 62
     0
 10
2602.545265288577
 20
234.9215890628138
 30
0.0
  0
ENDBLK
  5
BF
  8
0
  0
BLOCK
  8
0
  2
*D28
 70
     1
 10
0.0
 20
0.0
 30
0.0
  3
*D28
  1

  0
LINE
  5
384
  8
__-1
  6
CONTINUOUS
 62
     0
 10
2639.545265288577
 20
39.92158906281394
 30
0.0
 11
2602.545265288577
 21
39.92158906281395
 31
0.0
  0
LINE
  5
385
  8
__-1
  6
CONTINUOUS
 62
     0
 10
2639.545265288577
 20
219.9215890628139
 30
0.0
 11
2602.545265288577
 21
219.9215890628139
 31
0.0
  0
LINE
  5
386
  8
__-1
  6
CONTINUOUS
 62
     0
 10
2602.545265288577
 20
42.9214059573452
 30
0.0
 11
2602.545265288577
 21
216.9217721682826
 31
0.0
  0
INSERT
  5
387
  8
__-1
 62
     0
  2
_DOT
 10
2602.545265288577
 20
39.92158906281395
 30
0.0
 41
2.99981689453125
 42
2.99981689453125
 43
2.99981689453125
 50
270.0
  0
INSERT
  5
388
  8
__-1
 62
     0
  2
_DOT
 10
2602.545265288577
 20
219.9215890628139
 30
0.0
 41
2.99981689453125
 42
2.99981689453125
 43
2.99981689453125
 50
90.0
  0
TEXT
  5
389
  8
__-1
  6
CONTINUOUS
 62
     0
 10
2600.045265288577
 20
105.4062895836473
 30
0.0
 40
16.34353298611111
  1
180
 50
90.0
  7
YUGOTHIC_BOLD
  0
POINT
  5
38A
  8
DEFPOINTS
 62
     0
 10
2649.545265288577
 20
39.92158906281394
 30
0.0
  0
POINT
  5
38B
  8
DEFPOINTS
 62
     0
 10
2649.545265288577
 20
219.9215890628139
 30
0.0
  0
POINT
  5
38C
  8
DEFPOINTS
 62
     0
 10
2602.545265288577
 20
219.9215890628139
 30
0.0
  0
ENDBLK
  5
C2
  8
0
  0
BLOCK
  8
0
  2
*D29
 70
     1
 10
0.0
 20
0.0
 30
0.0
  3
*D29
  1

  0
LINE
  5
38D
  8
__-1
  6
CONTINUOUS
 62
     0
 10
2639.545265288577
 20
24.92158906281394
 30
0.0
 11
2602.545265288577
 21
24.92158906281393
 31
0.0
  0
LINE
  5
38E
  8
__-1
  6
CONTINUOUS
 62
     0
 10
2639.545265288577
 20
39.92158906281394
 30
0.0
 11
2602.545265288577
 21
39.92158906281394
 31
0.0
  0
LINE
  5
38F
  8
__-1
  6
CONTINUOUS
 62
     0
 10
2602.545265288577
 20
24.92158906281393
 30
0.0
 11
2602.545265288577
 21
39.92158906281394
 31
0.0
  0
LINE
  5
390
  8
__-1
  6
CONTINUOUS
 62
     0
 10
2602.545265288577
 20
21.92177216828268
 30
0.0
 11
2602.545265288577
 21
18.92195527375143
 31
0.0
  0
LINE
  5
391
  8
__-1
  6
CONTINUOUS
 62
     0
 10
2602.545265288577
 20
42.92140595734519
 30
0.0
 11
2602.545265288577
 21
45.92122285187644
 31
0.0
  0
INSERT
  5
392
  8
__-1
 62
     0
  2
_DOT
 10
2602.545265288577
 20
24.92158906281393
 30
0.0
 41
2.99981689453125
 42
2.99981689453125
 43
2.99981689453125
 50
90.0
  0
INSERT
  5
393
  8
__-1
 62
     0
  2
_DOT
 10
2602.545265288577
 20
39.92158906281394
 30
0.0
 41
2.99981689453125
 42
2.99981689453125
 43
2.99981689453125
 50
270.0
  0
TEXT
  5
394
  8
__-1
  6
CONTINUOUS
 62
     0
 10
2600.045265288577
 20
15.68892433893825
 30
0.0
 40
16.34353298611111
  1
15
 50
90.0
  7
YUGOTHIC_BOLD
  0
POINT
  5
395
  8
DEFPOINTS
 62
     0
 10
2649.545265288577
 20
24.92158906281394
 30
0.0
  0
POINT
  5
396
  8
DEFPOINTS
 62
     0
 10
2649.545265288577
 20
39.92158906281394
 30
0.0
  0
POINT
  5
397
  8
DEFPOINTS
 62
     0
 10
2602.545265288577
 20
39.92158906281394
 30
0.0
  0
ENDBLK
  5
C5
  8
0
  0
BLOCK
  8
0
  2
*D30
 70
     1
 10
0.0
 20
0.0
 30
0.0
  3
*D30
  1

  0
LINE
  5
398
  8
__-1
  6
CONTINUOUS
 62
     0
 10
2668.545265288577
 20
24.92158906281394
 30
0.0
 11
2557.545265288577
 21
24.92158906281395
 31
0.0
  0
LINE
  5
399
  8
__-1
  6
CONTINUOUS
 62
     0
 10
2668.545265288577
 20
234.9215890628138
 30
0.0
 11
2557.545265288577
 21
234.9215890628138
 31
0.0
  0
LINE
  5
39A
  8
__-1
  6
CONTINUOUS
 62
     0
 10
2557.545265288577
 20
27.9214059573452
 30
0.0
 11
2557.545265288577
 21
231.9217721682826
 31
0.0
  0
INSERT
  5
39B
  8
__-1
 62
     0
  2
_DOT
 10
2557.545265288577
 20
24.92158906281395
 30
0.0
 41
2.99981689453125
 42
2.99981689453125
 43
2.99981689453125
 50
270.0
  0
INSERT
  5
39C
  8
__-1
 62
     0
  2
_DOT
 10
2557.545265288577
 20
234.9215890628138
 30
0.0
 41
2.99981689453125
 42
2.99981689453125
 43
2.99981689453125
 50
90.0
  0
TEXT
  5
39D
  8
__-1
  6
CONTINUOUS
 62
     0
 10
2555.045265288577
 20
106.5736847969406
 30
0.0
 40
16.34353298611111
  1
210
 50
90.0
  7
YUGOTHIC_BOLD
  0
POINT
  5
39E
  8
DEFPOINTS
 62
     0
 10
2678.545265288577
 20
24.92158906281394
 30
0.0
  0
POINT
  5
39F
  8
DEFPOINTS
 62
     0
 10
2678.545265288577
 20
234.9215890628138
 30
0.0
  0
POINT
  5
3A0
  8
DEFPOINTS
 62
     0
 10
2557.545265288577
 20
234.9215890628138
 30
0.0
  0
ENDBLK
  5
C8
  8
0
  0
BLOCK
  8
0
  2
*D31
 70
     1
 10
0.0
 20
0.0
 30
0.0
  3
*D31
  1

  0
LINE
  5
3A1
  8
__-1
  6
CONTINUOUS
 62
     0
 10
2667.545265288577
 20
229.9215890628139
 30
0.0
 11
2667.545265288577
 21
279.9215890628139
 31
0.0
  0
LINE
  5
3A2
  8
__-1
  6
CONTINUOUS
 62
     0
 10
2649.545265288577
 20
229.9215890628139
 30
0.0
 11
2649.545265288577
 21
279.9215890628139
 31
0.0
  0
LINE
  5
3A3
  8
__-1
  6
CONTINUOUS
 62
     0
 10
2667.545265288577
 20
279.9215890628139
 30
0.0
 11
2649.545265288577
 21
279.9215890628139
 31
0.0
  0
LINE
  5
3A4
  8
__-1
  6
CONTINUOUS
 62
     0
 10
2670.545082183108
 20
279.9215890628139
 30
0.0
 11
2673.544899077639
 21
279.9215890628139
 31
0.0
  0
LINE
  5
3A5
  8
__-1
  6
CONTINUOUS
 62
     0
 10
2646.545448394046
 20
279.9215890628139
 30
0.0
 11
2643.545631499514
 21
279.9215890628139
 31
0.0
  0
INSERT
  5
3A6
  8
__-1
 62
     0
  2
_DOT
 10
2667.545265288577
 20
279.9215890628139
 30
0.0
 41
2.99981689453125
 42
2.99981689453125
 43
2.99981689453125
 50
180.0
  0
INSERT
  5
3A7
  8
__-1
 62
     0
  2
_DOT
 10
2649.545265288577
 20
279.9215890628139
 30
0.0
 41
2.99981689453125
 42
2.99981689453125
 43
2.99981689453125
  0
TEXT
  5
3A8
  8
__-1
  6
CONTINUOUS
 62
     0
 10
2641.812600564701
 20
282.4215890628139
 30
0.0
 40
16.34353298611111
  1
18
  7
YUGOTHIC_BOLD
  0
POINT
  5
3A9
  8
DEFPOINTS
 62
     0
 10
2667.545265288577
 20
219.9215890628139
 30
0.0
  0
POINT
  5
3AA
  8
DEFPOINTS
 62
     0
 10
2649.545265288577
 20
219.9215890628139
 30
0.0
  0
POINT
  5
3AB
  8
DEFPOINTS
 62
     0
 10
2649.545265288577
 20
279.9215890628139
 30
0.0
  0
ENDBLK
  5
CB
  8
0
  0
BLOCK
  8
0
  2
*D32
 70
     1
 10
0.0
 20
0.0
 30
0.0
  3
*D32
  1

  0
LINE
  5
3AC
  8
__-1
  6
CONTINUOUS
 62
     0
 10
3249.545265288577
 20
229.9215890628139
 30
0.0
 11
3249.545265288577
 21
279.9215890628139
 31
0.0
  0
LINE
  5
3AD
  8
__-1
  6
CONTINUOUS
 62
     0
 10
2667.545265288577
 20
229.9215890628139
 30
0.0
 11
2667.545265288577
 21
279.9215890628139
 31
0.0
  0
LINE
  5
3AE
  8
__-1
  6
CONTINUOUS
 62
     0
 10
3246.545448394046
 20
279.9215890628139
 30
0.0
 11
2670.545082183108
 21
279.9215890628139
 31
0.0
  0
INSERT
  5
3AF
  8
__-1
 62
     0
  2
_DOT
 10
3249.545265288577
 20
279.9215890628139
 30
0.0
 41
2.99981689453125
 42
2.99981689453125
 43
2.99981689453125
  0
INSERT
  5
3B0
  8
__-1
 62
     0
  2
_DOT
 10
2667.545265288577
 20
279.9215890628139
 30
0.0
 41
2.99981689453125
 42
2.99981689453125
 43
2.99981689453125
 50
180.0
  0
TEXT
  5
3B1
  8
__-1
  6
CONTINUOUS
 62
     0
 10
2935.197361022704
 20
282.4215890628139
 30
0.0
 40
16.34353298611111
  1
582
  7
YUGOTHIC_BOLD
  0
POINT
  5
3B2
  8
DEFPOINTS
 62
     0
 10
3249.545265288577
 20
219.9215890628139
 30
0.0
  0
POINT
  5
3B3
  8
DEFPOINTS
 62
     0
 10
2667.545265288577
 20
219.9215890628139
 30
0.0
  0
POINT
  5
3B4
  8
DEFPOINTS
 62
     0
 10
2667.545265288577
 20
279.9215890628139
 30
0.0
  0
ENDBLK
  5
CE
  8
0
  0
BLOCK
  8
0
  2
*D33
 70
     1
 10
0.0
 20
0.0
 30
0.0
  3
*D33
  1

  0
LINE
  5
3B5
  8
__-1
  6
CONTINUOUS
 62
     0
 10
3267.545265288577
 20
229.9215890628139
 30
0.0
 11
3267.545265288577
 21
279.9215890628139
 31
0.0
  0
LINE
  5
3B6
  8
__-1
  6
CONTINUOUS
 62
     0
 10
3249.545265288577
 20
229.9215890628139
 30
0.0
 11
3249.545265288577
 21
279.9215890628139
 31
0.0
  0
LINE
  5
3B7
  8
__-1
  6
CONTINUOUS
 62
     0
 10
3267.545265288577
 20
279.9215890628139
 30
0.0
 11
3249.545265288577
 21
279.9215890628139
 31
0.0
  0
LINE
  5
3B8
  8
__-1
  6
CONTINUOUS
 62
     0
 10
3270.545082183108
 20
279.9215890628139
 30
0.0
 11
3273.544899077639
 21
279.9215890628139
 31
0.0
  0
LINE
  5
3B9
  8
__-1
  6
CONTINUOUS
 62
     0
 10
3246.545448394046
 20
279.9215890628139
 30
0.0
 11
3243.545631499514
 21
279.9215890628139
 31
0.0
  0
INSERT
  5
3BA
  8
__-1
 62
     0
  2
_DOT
 10
3267.545265288577
 20
279.9215890628139
 30
0.0
 41
2.99981689453125
 42
2.99981689453125
 43
2.99981689453125
 50
180.0
  0
INSERT
  5
3BB
  8
__-1
 62
     0
  2
_DOT
 10
3249.545265288577
 20
279.9215890628139
 30
0.0
 41
2.99981689453125
 42
2.99981689453125
 43
2.99981689453125
  0
TEXT
  5
3BC
  8
__-1
  6
CONTINUOUS
 62
     0
 10
3241.812600564701
 20
282.4215890628139
 30
0.0
 40
16.34353298611111
  1
18
  7
YUGOTHIC_BOLD
  0
POINT
  5
3BD
  8
DEFPOINTS
 62
     0
 10
3267.545265288577
 20
219.9215890628139
 30
0.0
  0
POINT
  5
3BE
  8
DEFPOINTS
 62
     0
 10
3249.545265288577
 20
219.9215890628139
 30
0.0
  0
POINT
  5
3BF
  8
DEFPOINTS
 62
     0
 10
3249.545265288577
 20
279.9215890628139
 30
0.0
  0
ENDBLK
  5
D1
  8
0
  0
BLOCK
  8
0
  2
*D34
 70
     1
 10
0.0
 20
0.0
 30
0.0
  3
*D34
  1

  0
LINE
  5
3C0
  8
__-1
  6
CONTINUOUS
 62
     0
 10
3274.545265288577
 20
229.9215890628139
 30
0.0
 11
3274.545265288577
 21
329.9215890628139
 31
0.0
  0
LINE
  5
3C1
  8
__-1
  6
CONTINUOUS
 62
     0
 10
2642.545265288577
 20
229.9215890628139
 30
0.0
 11
2642.545265288577
 21
329.9215890628139
 31
0.0
  0
LINE
  5
3C2
  8
__-1
  6
CONTINUOUS
 62
     0
 10
3271.545448394046
 20
329.9215890628139
 30
0.0
 11
2645.545082183108
 21
329.9215890628139
 31
0.0
  0
INSERT
  5
3C3
  8
__-1
 62
     0
  2
_DOT
 10
3274.545265288577
 20
329.9215890628139
 30
0.0
 41
2.99981689453125
 42
2.99981689453125
 43
2.99981689453125
  0
INSERT
  5
3C4
  8
__-1
 62
     0
  2
_DOT
 10
2642.545265288577
 20
329.9215890628139
 30
0.0
 41
2.99981689453125
 42
2.99981689453125
 43
2.99981689453125
 50
180.0
  0
TEXT
  5
3C5
  8
__-1
  6
CONTINUOUS
 62
     0
 10
2934.808229284939
 20
332.4215890628139
 30
0.0
 40
16.34353298611111
  1
632
  7
YUGOTHIC_BOLD
  0
POINT
  5
3C6
  8
DEFPOINTS
 62
     0
 10
3274.545265288577
 20
219.9215890628139
 30
0.0
  0
POINT
  5
3C7
  8
DEFPOINTS
 62
     0
 10
2642.545265288577
 20
219.9215890628139
 30
0.0
  0
POINT
  5
3C8
  8
DEFPOINTS
 62
     0
 10
2642.545265288577
 20
329.9215890628139
 30
0.0
  0
ENDBLK
  5
D4
  8
0
  0
BLOCK
  8
0
  2
*D35
 70
     1
 10
0.0
 20
0.0
 30
0.0
  3
*D35
  1

  0
LINE
  5
3C9
  8
__-1
  6
CONTINUOUS
 62
     0
 10
3703.545265288577
 20
244.9215890628138
 30
0.0
 11
3703.545265288577
 21
279.9215890628138
 31
0.0
  0
LINE
  5
3CA
  8
__-1
  6
CONTINUOUS
 62
     0
 10
3453.545265288577
 20
244.9215890628138
 30
0.0
 11
3453.545265288577
 21
279.9215890628138
 31
0.0
  0
LINE
  5
3CB
  8
__-1
  6
CONTINUOUS
 62
     0
 10
3700.545448394046
 20
279.9215890628138
 30
0.0
 11
3456.545082183108
 21
279.9215890628138
 31
0.0
  0
INSERT
  5
3CC
  8
__-1
 62
     0
  2
_DOT
 10
3703.545265288577
 20
279.9215890628138
 30
0.0
 41
2.99981689453125
 42
2.99981689453125
 43
2.99981689453125
  0
INSERT
  5
3CD
  8
__-1
 62
     0
  2
_DOT
 10
3453.545265288577
 20
279.9215890628138
 30
0.0
 41
2.99981689453125
 42
2.99981689453125
 43
2.99981689453125
 50
180.0
  0
TEXT
  5
3CE
  8
__-1
  6
CONTINUOUS
 62
     0
 10
3555.197361022704
 20
282.4215890628138
 30
0.0
 40
16.34353298611111
  1
250
  7
YUGOTHIC_BOLD
  0
POINT
  5
3CF
  8
DEFPOINTS
 62
     0
 10
3703.545265288577
 20
234.9215890628138
 30
0.0
  0
POINT
  5
3D0
  8
DEFPOINTS
 62
     0
 10
3453.545265288577
 20
234.9215890628138
 30
0.0
  0
POINT
  5
3D1
  8
DEFPOINTS
 62
     0
 10
3453.545265288577
 20
279.9215890628138
 30
0.0
  0
ENDBLK
  5
D7
  8
0
  0
BLOCK
  8
0
  2
*D36
 70
     1
 10
0.0
 20
0.0
 30
0.0
  3
*D36
  1

  0
LINE
  5
3D2
  8
__-1
  6
CONTINUOUS
 62
     0
 10
3735.545265288577
 20
229.9215890628139
 30
0.0
 11
3735.545265288577
 21
279.9215890628138
 31
0.0
  0
LINE
  5
3D3
  8
__-1
  6
CONTINUOUS
 62
     0
 10
3703.545265288577
 20
244.9215890628138
 30
0.0
 11
3703.545265288577
 21
279.9215890628138
 31
0.0
  0
LINE
  5
3D4
  8
__-1
  6
CONTINUOUS
 62
     0
 10
3732.545448394046
 20
279.9215890628138
 30
0.0
 11
3706.545082183108
 21
279.9215890628138
 31
0.0
  0
INSERT
  5
3D5
  8
__-1
 62
     0
  2
_DOT
 10
3735.545265288577
 20
279.9215890628138
 30
0.0
 41
2.99981689453125
 42
2.99981689453125
 43
2.99981689453125
  0
INSERT
  5
3D6
  8
__-1
 62
     0
  2
_DOT
 10
3703.545265288577
 20
279.9215890628138
 30
0.0
 41
2.99981689453125
 42
2.99981689453125
 43
2.99981689453125
 50
180.0
  0
TEXT
  5
3D7
  8
__-1
  6
CONTINUOUS
 62
     0
 10
3703.979995777995
 20
282.4215890628138
 30
0.0
 40
16.34353298611111
  1
32
  7
YUGOTHIC_BOLD
  0
POINT
  5
3D8
  8
DEFPOINTS
 62
     0
 10
3735.545265288577
 20
219.9215890628139
 30
0.0
  0
POINT
  5
3D9
  8
DEFPOINTS
 62
     0
 10
3703.545265288577
 20
234.9215890628138
 30
0.0
  0
POINT
  5
3DA
  8
DEFPOINTS
 62
     0
 10
3703.545265288577
 20
279.9215890628138
 30
0.0
  0
ENDBLK
  5
DA
  8
0
  0
BLOCK
  8
0
  2
*D37
 70
     1
 10
0.0
 20
0.0
 30
0.0
  3
*D37
  1

  0
LINE
  5
3DB
  8
__-1
  6
CONTINUOUS
 62
     0
 10
3735.545265288577
 20
229.9215890628139
 30
0.0
 11
3735.545265288577
 21
329.9215890628138
 31
0.0
  0
LINE
  5
3DC
  8
__-1
  6
CONTINUOUS
 62
     0
 10
3453.545265288577
 20
244.9215890628138
 30
0.0
 11
3453.545265288577
 21
329.9215890628138
 31
0.0
  0
LINE
  5
3DD
  8
__-1
  6
CONTINUOUS
 62
     0
 10
3732.545448394046
 20
329.9215890628138
 30
0.0
 11
3456.545082183108
 21
329.9215890628138
 31
0.0
  0
INSERT
  5
3DE
  8
__-1
 62
     0
  2
_DOT
 10
3735.545265288577
 20
329.9215890628138
 30
0.0
 41
2.99981689453125
 42
2.99981689453125
 43
2.99981689453125
  0
INSERT
  5
3DF
  8
__-1
 62
     0
  2
_DOT
 10
3453.545265288577
 20
329.9215890628138
 30
0.0
 41
2.99981689453125
 42
2.99981689453125
 43
2.99981689453125
 50
180.0
  0
TEXT
  5
3E0
  8
__-1
  6
CONTINUOUS
 62
     0
 10
3571.197361022704
 20
332.4215890628138
 30
0.0
 40
16.34353298611111
  1
282
  7
YUGOTHIC_BOLD
  0
POINT
  5
3E1
  8
DEFPOINTS
 62
     0
 10
3735.545265288577
 20
219.9215890628139
 30
0.0
  0
POINT
  5
3E2
  8
DEFPOINTS
 62
     0
 10
3453.545265288577
 20
234.9215890628138
 30
0.0
  0
POINT
  5
3E3
  8
DEFPOINTS
 62
     0
 10
3453.545265288577
 20
329.9215890628138
 30
0.0
  0
ENDBLK
  5
DD
  8
0
  0
BLOCK
  8
0
  2
*D38
 70
     1
 10
0.0
 20
0.0
 30
0.0
  3
*D38
  1

  0
LINE
  5
3E4
  8
__-1
  6
CONTINUOUS
 62
     0
 10
3206.916666666667
 20
-3136.966565296873
 30
0.0
 11
3206.916666666667
 21
-3169.84757617769
 31
0.0
  0
LINE
  5
3E5
  8
__-1
  6
CONTINUOUS
 62
     0
 10
2607.916666666667
 20
-3136.966565296873
 30
0.0
 11
2607.916666666667
 21
-3169.84757617769
 31
0.0
  0
LINE
  5
3E6
  8
__-1
  6
CONTINUOUS
 62
     0
 10
3203.916849772135
 20
-3169.84757617769
 30
0.0
 11
2610.916483561198
 21
-3169.84757617769
 31
0.0
  0
INSERT
  5
3E7
  8
__-1
 62
     0
  2
_DOT
 10
3206.916666666667
 20
-3169.84757617769
 30
0.0
 41
2.99981689453125
 42
2.99981689453125
 43
2.99981689453125
  0
INSERT
  5
3E8
  8
__-1
 62
     0
  2
_DOT
 10
2607.916666666667
 20
-3169.84757617769
 30
0.0
 41
2.99981689453125
 42
2.99981689453125
 43
2.99981689453125
 50
180.0
  0
TEXT
  5
3E9
  8
__-1
  6
CONTINUOUS
 62
     0
 10
2884.457894138558
 20
-3167.34757617769
 30
0.0
 40
16.34353298611111
  1
599
  7
YUGOTHIC_BOLD
  0
POINT
  5
3EA
  8
DEFPOINTS
 62
     0
 10
3206.916666666667
 20
-3126.966565296873
 30
0.0
  0
POINT
  5
3EB
  8
DEFPOINTS
 62
     0
 10
2607.916666666667
 20
-3126.966565296873
 30
0.0
  0
POINT
  5
3EC
  8
DEFPOINTS
 62
     0
 10
2607.916666666667
 20
-3169.84757617769
 30
0.0
  0
ENDBLK
  5
E0
  8
0
  0
BLOCK
  8
0
  2
*D39
 70
     1
 10
0.0
 20
0.0
 30
0.0
  3
*D39
  1

  0
LINE
  5
3ED
  8
__-1
  6
CONTINUOUS
 62
     0
 10
3506.916666666667
 20
-2670.361632446331
 30
0.0
 11
3506.916666666667
 21
-2713.25936506125
 31
0.0
  0
LINE
  5
3EE
  8
__-1
  6
CONTINUOUS
 62
     0
 10
2607.916666666667
 20
-2670.361632446331
 30
0.0
 11
2607.916666666667
 21
-2713.25936506125
 31
0.0
  0
LINE
  5
3EF
  8
__-1
  6
CONTINUOUS
 62
     0
 10
3503.916849772136
 20
-2713.25936506125
 30
0.0
 11
2610.916483561198
 21
-2713.25936506125
 31
0.0
  0
INSERT
  5
3F0
  8
__-1
 62
     0
  2
_DOT
 10
3506.916666666667
 20
-2713.25936506125
 30
0.0
 41
2.99981689453125
 42
2.99981689453125
 43
2.99981689453125
  0
INSERT
  5
3F1
  8
__-1
 62
     0
  2
_DOT
 10
2607.916666666667
 20
-2713.25936506125
 30
0.0
 41
2.99981689453125
 42
2.99981689453125
 43
2.99981689453125
 50
180.0
  0
TEXT
  5
3F2
  8
__-1
  6
CONTINUOUS
 62
     0
 10
3034.457894138558
 20
-2710.75936506125
 30
0.0
 40
16.34353298611111
  1
899
  7
YUGOTHIC_BOLD
  0
POINT
  5
3F3
  8
DEFPOINTS
 62
     0
 10
3506.916666666667
 20
-2660.361632446331
 30
0.0
  0
POINT
  5
3F4
  8
DEFPOINTS
 62
     0
 10
2607.916666666667
 20
-2660.361632446331
 30
0.0
  0
POINT
  5
3F5
  8
DEFPOINTS
 62
     0
 10
2607.916666666667
 20
-2713.25936506125
 30
0.0
  0
ENDBLK
  5
E3
  8
0
  0
BLOCK
  8
0
  2
*D40
 70
     1
 10
0.0
 20
0.0
 30
0.0
  3
*D40
  1

  0
LINE
  5
3F6
  8
__-1
  6
CONTINUOUS
 62
     0
 10
1498.0
 20
-605.0
 30
0.0
 11
1559.5
 21
-605.0
 31
0.0
  0
LINE
  5
3F7
  8
__-1
  6
CONTINUOUS
 62
     0
 10
1498.0
 20
-555.0
 30
0.0
 11
1559.5
 21
-555.0
 31
0.0
  0
LINE
  5
3F8
  8
__-1
  6
CONTINUOUS
 62
     0
 10
1559.5
 20
-602.0001831054688
 30
0.0
 11
1559.5
 21
-557.9998168945312
 31
0.0
  0
INSERT
  5
3F9
  8
__-1
 62
     0
  2
_DOT
 10
1559.5
 20
-605.0
 30
0.0
 41
2.99981689453125
 42
2.99981689453125
 43
2.99981689453125
 50
270.0
  0
INSERT
  5
3FA
  8
__-1
 62
     0
  2
_DOT
 10
1559.5
 20
-555.0
 30
0.0
 41
2.99981689453125
 42
2.99981689453125
 43
2.99981689453125
 50
90.0
  0
TEXT
  5
3FB
  8
__-1
  6
CONTINUOUS
 62
     0
 10
1557.0
 20
-595.5652695105819
 30
0.0
 40
16.34353298611111
  1
50
 50
90.0
  7
YUGOTHIC_BOLD
  0
POINT
  5
3FC
  8
DEFPOINTS
 62
     0
 10
1488.0
 20
-605.0
 30
0.0
  0
POINT
  5
3FD
  8
DEFPOINTS
 62
     0
 10
1488.0
 20
-555.0
 30
0.0
  0
POINT
  5
3FE
  8
DEFPOINTS
 62
     0
 10
1559.5
 20
-555.0
 30
0.0
  0
ENDBLK
  5
E6
  8
0
  0
BLOCK
  8
0
  2
*D41
 70
     1
 10
0.0
 20
0.0
 30
0.0
  3
*D41
  1

  0
LINE
  5
3FF
  8
__-1
  6
CONTINUOUS
 62
     0
 10
1498.0
 20
-805.0
 30
0.0
 11
1559.5
 21
-805.0
 31
0.0
  0
LINE
  5
400
  8
__-1
  6
CONTINUOUS
 62
     0
 10
1498.0
 20
-605.0
 30
0.0
 11
1559.5
 21
-605.0
 31
0.0
  0
LINE
  5
401
  8
__-1
  6
CONTINUOUS
 62
     0
 10
1559.5
 20
-802.0001831054688
 30
0.0
 11
1559.5
 21
-607.9998168945312
 31
0.0
  0
INSERT
  5
402
  8
__-1
 62
     0
  2
_DOT
 10
1559.5
 20
-805.0
 30
0.0
 41
2.99981689453125
 42
2.99981689453125
 43
2.99981689453125
 50
270.0
  0
INSERT
  5
403
  8
__-1
 62
     0
  2
_DOT
 10
1559.5
 20
-605.0
 30
0.0
 41
2.99981689453125
 42
2.99981689453125
 43
2.99981689453125
 50
90.0
  0
TEXT
  5
404
  8
__-1
  6
CONTINUOUS
 62
     0
 10
1557.0
 20
-728.347904265873
 30
0.0
 40
16.34353298611111
  1
200
 50
90.0
  7
YUGOTHIC_BOLD
  0
POINT
  5
405
  8
DEFPOINTS
 62
     0
 10
1488.0
 20
-805.0
 30
0.0
  0
POINT
  5
406
  8
DEFPOINTS
 62
     0
 10
1488.0
 20
-605.0
 30
0.0
  0
POINT
  5
407
  8
DEFPOINTS
 62
     0
 10
1559.5
 20
-605.0
 30
0.0
  0
ENDBLK
  5
E9
  8
0
  0
BLOCK
  8
0
  2
*D42
 70
     1
 10
0.0
 20
0.0
 30
0.0
  3
*D42
  1

  0
LINE
  5
408
  8
__-1
  6
CONTINUOUS
 62
     0
 10
1498.0
 20
-1205.0
 30
0.0
 11
1559.5
 21
-1205.0
 31
0.0
  0
LINE
  5
409
  8
__-1
  6
CONTINUOUS
 62
     0
 10
1498.0
 20
-805.0
 30
0.0
 11
1559.5
 21
-805.0
 31
0.0
  0
LINE
  5
40A
  8
__-1
  6
CONTINUOUS
 62
     0
 10
1559.5
 20
-1202.000183105469
 30
0.0
 11
1559.5
 21
-807.9998168945312
 31
0.0
  0
INSERT
  5
40B
  8
__-1
 62
     0
  2
_DOT
 10
1559.5
 20
-1205.0
 30
0.0
 41
2.99981689453125
 42
2.99981689453125
 43
2.99981689453125
 50
270.0
  0
INSERT
  5
40C
  8
__-1
 62
     0
  2
_DOT
 10
1559.5
 20
-805.0
 30
0.0
 41
2.99981689453125
 42
2.99981689453125
 43
2.99981689453125
 50
90.0
  0
TEXT
  5
40D
  8
__-1
  6
CONTINUOUS
 62
     0
 10
1557.0
 20
-1028.347904265873
 30
0.0
 40
16.34353298611111
  1
400
 50
90.0
  7
YUGOTHIC_BOLD
  0
POINT
  5
40E
  8
DEFPOINTS
 62
     0
 10
1488.0
 20
-1205.0
 30
0.0
  0
POINT
  5
40F
  8
DEFPOINTS
 62
     0
 10
1488.0
 20
-805.0
 30
0.0
  0
POINT
  5
410
  8
DEFPOINTS
 62
     0
 10
1559.5
 20
-805.0
 30
0.0
  0
ENDBLK
  5
EC
  8
0
  0
BLOCK
  8
0
  2
*D43
 70
     1
 10
0.0
 20
0.0
 30
0.0
  3
*D43
  1

  0
LINE
  5
411
  8
__-1
  6
CONTINUOUS
 62
     0
 10
1498.0
 20
-1405.0
 30
0.0
 11
1559.5
 21
-1405.0
 31
0.0
  0
LINE
  5
412
  8
__-1
  6
CONTINUOUS
 62
     0
 10
1498.0
 20
-1205.0
 30
0.0
 11
1559.5
 21
-1205.0
 31
0.0
  0
LINE
  5
413
  8
__-1
  6
CONTINUOUS
 62
     0
 10
1559.5
 20
-1402.000183105469
 30
0.0
 11
1559.5
 21
-1207.999816894531
 31
0.0
  0
INSERT
  5
414
  8
__-1
 62
     0
  2
_DOT
 10
1559.5
 20
-1405.0
 30
0.0
 41
2.99981689453125
 42
2.99981689453125
 43
2.99981689453125
 50
270.0
  0
INSERT
  5
415
  8
__-1
 62
     0
  2
_DOT
 10
1559.5
 20
-1205.0
 30
0.0
 41
2.99981689453125
 42
2.99981689453125
 43
2.99981689453125
 50
90.0
  0
TEXT
  5
416
  8
__-1
  6
CONTINUOUS
 62
     0
 10
1557.0
 20
-1328.347904265873
 30
0.0
 40
16.34353298611111
  1
200
 50
90.0
  7
YUGOTHIC_BOLD
  0
POINT
  5
417
  8
DEFPOINTS
 62
     0
 10
1488.0
 20
-1405.0
 30
0.0
  0
POINT
  5
418
  8
DEFPOINTS
 62
     0
 10
1488.0
 20
-1205.0
 30
0.0
  0
POINT
  5
419
  8
DEFPOINTS
 62
     0
 10
1559.5
 20
-1205.0
 30
0.0
  0
ENDBLK
  5
EF
  8
0
  0
BLOCK
  8
0
  2
*D44
 70
     1
 10
0.0
 20
0.0
 30
0.0
  3
*D44
  1

  0
LINE
  5
41A
  8
__-1
  6
CONTINUOUS
 62
     0
 10
1522.0
 20
-1455.0
 30
0.0
 11
1559.5
 21
-1455.0
 31
0.0
  0
LINE
  5
41B
  8
__-1
  6
CONTINUOUS
 62
     0
 10
1498.0
 20
-1405.0
 30
0.0
 11
1559.5
 21
-1405.0
 31
0.0
  0
LINE
  5
41C
  8
__-1
  6
CONTINUOUS
 62
     0
 10
1559.5
 20
-1452.000183105469
 30
0.0
 11
1559.5
 21
-1407.999816894531
 31
0.0
  0
INSERT
  5
41D
  8
__-1
 62
     0
  2
_DOT
 10
1559.5
 20
-1455.0
 30
0.0
 41
2.99981689453125
 42
2.99981689453125
 43
2.99981689453125
 50
270.0
  0
INSERT
  5
41E
  8
__-1
 62
     0
  2
_DOT
 10
1559.5
 20
-1405.0
 30
0.0
 41
2.99981689453125
 42
2.99981689453125
 43
2.99981689453125
 50
90.0
  0
TEXT
  5
41F
  8
__-1
  6
CONTINUOUS
 62
     0
 10
1557.0
 20
-1445.565269510582
 30
0.0
 40
16.34353298611111
  1
50
 50
90.0
  7
YUGOTHIC_BOLD
  0
POINT
  5
420
  8
DEFPOINTS
 62
     0
 10
1512.0
 20
-1455.0
 30
0.0
  0
POINT
  5
421
  8
DEFPOINTS
 62
     0
 10
1488.0
 20
-1405.0
 30
0.0
  0
POINT
  5
422
  8
DEFPOINTS
 62
     0
 10
1559.5
 20
-1405.0
 30
0.0
  0
ENDBLK
  5
F2
  8
0
  0
BLOCK
  8
0
  2
*D45
 70
     1
 10
0.0
 20
0.0
 30
0.0
  3
*D45
  1

  0
LINE
  5
423
  8
__-1
  6
CONTINUOUS
 62
     0
 10
1665.808984265047
 20
-605.0
 30
0.0
 11
1748.515222826867
 21
-605.0
 31
0.0
  0
LINE
  5
424
  8
__-1
  6
CONTINUOUS
 62
     0
 10
1681.808984265047
 20
-555.0
 30
0.0
 11
1748.515222826867
 21
-555.0
 31
0.0
  0
LINE
  5
425
  8
__-1
  6
CONTINUOUS
 62
     0
 10
1748.515222826867
 20
-602.0001831054688
 30
0.0
 11
1748.515222826867
 21
-557.9998168945312
 31
0.0
  0
INSERT
  5
426
  8
__-1
 62
     0
  2
_DOT
 10
1748.515222826867
 20
-605.0
 30
0.0
 41
2.99981689453125
 42
2.99981689453125
 43
2.99981689453125
 50
270.0
  0
INSERT
  5
427
  8
__-1
 62
     0
  2
_DOT
 10
1748.515222826867
 20
-555.0
 30
0.0
 41
2.99981689453125
 42
2.99981689453125
 43
2.99981689453125
 50
90.0
  0
TEXT
  5
428
  8
__-1
  6
CONTINUOUS
 62
     0
 10
1746.015222826867
 20
-595.5652695105819
 30
0.0
 40
16.34353298611111
  1
50
 50
90.0
  7
YUGOTHIC_BOLD
  0
POINT
  5
429
  8
DEFPOINTS
 62
     0
 10
1655.808984265047
 20
-605.0
 30
0.0
  0
POINT
  5
42A
  8
DEFPOINTS
 62
     0
 10
1671.808984265047
 20
-555.0
 30
0.0
  0
POINT
  5
42B
  8
DEFPOINTS
 62
     0
 10
1748.515222826867
 20
-555.0
 30
0.0
  0
ENDBLK
  5
F5
  8
0
  0
BLOCK
  8
0
  2
*D46
 70
     1
 10
0.0
 20
0.0
 30
0.0
  3
*D46
  1

  0
LINE
  5
42C
  8
__-1
  6
CONTINUOUS
 62
     0
 10
1665.808984265047
 20
-705.0
 30
0.0
 11
1748.515222826867
 21
-705.0
 31
0.0
  0
LINE
  5
42D
  8
__-1
  6
CONTINUOUS
 62
     0
 10
1665.808984265047
 20
-605.0
 30
0.0
 11
1748.515222826867
 21
-605.0
 31
0.0
  0
LINE
  5
42E
  8
__-1
  6
CONTINUOUS
 62
     0
 10
1748.515222826867
 20
-702.0001831054688
 30
0.0
 11
1748.515222826867
 21
-607.9998168945312
 31
0.0
  0
INSERT
  5
42F
  8
__-1
 62
     0
  2
_DOT
 10
1748.515222826867
 20
-705.0
 30
0.0
 41
2.99981689453125
 42
2.99981689453125
 43
2.99981689453125
 50
270.0
  0
INSERT
  5
430
  8
__-1
 62
     0
  2
_DOT
 10
1748.515222826867
 20
-605.0
 30
0.0
 41
2.99981689453125
 42
2.99981689453125
 43
2.99981689453125
 50
90.0
  0
TEXT
  5
431
  8
__-1
  6
CONTINUOUS
 62
     0
 10
1746.015222826867
 20
-679.5152994791667
 30
0.0
 40
16.34353298611111
  1
100
 50
90.0
  7
YUGOTHIC_BOLD
  0
POINT
  5
432
  8
DEFPOINTS
 62
     0
 10
1655.808984265047
 20
-705.0
 30
0.0
  0
POINT
  5
433
  8
DEFPOINTS
 62
     0
 10
1655.808984265047
 20
-605.0
 30
0.0
  0
POINT
  5
434
  8
DEFPOINTS
 62
     0
 10
1748.515222826867
 20
-605.0
 30
0.0
  0
ENDBLK
  5
F8
  8
0
  0
BLOCK
  8
0
  2
*D47
 70
     1
 10
0.0
 20
0.0
 30
0.0
  3
*D47
  1

  0
LINE
  5
435
  8
__-1
  6
CONTINUOUS
 62
     0
 10
1665.808984265047
 20
-805.0
 30
0.0
 11
1748.515222826867
 21
-805.0
 31
0.0
  0
LINE
  5
436
  8
__-1
  6
CONTINUOUS
 62
     0
 10
1665.808984265047
 20
-705.0
 30
0.0
 11
1748.515222826867
 21
-705.0
 31
0.0
  0
LINE
  5
437
  8
__-1
  6
CONTINUOUS
 62
     0
 10
1748.515222826867
 20
-802.0001831054688
 30
0.0
 11
1748.515222826867
 21
-707.9998168945312
 31
0.0
  0
INSERT
  5
438
  8
__-1
 62
     0
  2
_DOT
 10
1748.515222826867
 20
-805.0
 30
0.0
 41
2.99981689453125
 42
2.99981689453125
 43
2.99981689453125
 50
270.0
  0
INSERT
  5
439
  8
__-1
 62
     0
  2
_DOT
 10
1748.515222826867
 20
-705.0
 30
0.0
 41
2.99981689453125
 42
2.99981689453125
 43
2.99981689453125
 50
90.0
  0
TEXT
  5
43A
  8
__-1
  6
CONTINUOUS
 62
     0
 10
1746.015222826867
 20
-779.5152994791667
 30
0.0
 40
16.34353298611111
  1
100
 50
90.0
  7
YUGOTHIC_BOLD
  0
POINT
  5
43B
  8
DEFPOINTS
 62
     0
 10
1655.808984265047
 20
-805.0
 30
0.0
  0
POINT
  5
43C
  8
DEFPOINTS
 62
     0
 10
1655.808984265047
 20
-705.0
 30
0.0
  0
POINT
  5
43D
  8
DEFPOINTS
 62
     0
 10
1748.515222826867
 20
-705.0
 30
0.0
  0
ENDBLK
  5
FB
  8
0
  0
BLOCK
  8
0
  2
*D48
 70
     1
 10
0.0
 20
0.0
 30
0.0
  3
*D48
  1

  0
LINE
  5
43E
  8
__-1
  6
CONTINUOUS
 62
     0
 10
1665.808984265047
 20
-905.0
 30
0.0
 11
1748.515222826867
 21
-905.0
 31
0.0
  0
LINE
  5
43F
  8
__-1
  6
CONTINUOUS
 62
     0
 10
1665.808984265047
 20
-805.0
 30
0.0
 11
1748.515222826867
 21
-805.0
 31
0.0
  0
LINE
  5
440
  8
__-1
  6
CONTINUOUS
 62
     0
 10
1748.515222826867
 20
-902.0001831054688
 30
0.0
 11
1748.515222826867
 21
-807.9998168945312
 31
0.0
  0
INSERT
  5
441
  8
__-1
 62
     0
  2
_DOT
 10
1748.515222826867
 20
-905.0
 30
0.0
 41
2.99981689453125
 42
2.99981689453125
 43
2.99981689453125
 50
270.0
  0
INSERT
  5
442
  8
__-1
 62
     0
  2
_DOT
 10
1748.515222826867
 20
-805.0
 30
0.0
 41
2.99981689453125
 42
2.99981689453125
 43
2.99981689453125
 50
90.0
  0
TEXT
  5
443
  8
__-1
  6
CONTINUOUS
 62
     0
 10
1746.015222826867
 20
-879.5152994791667
 30
0.0
 40
16.34353298611111
  1
100
 50
90.0
  7
YUGOTHIC_BOLD
  0
POINT
  5
444
  8
DEFPOINTS
 62
     0
 10
1655.808984265047
 20
-905.0
 30
0.0
  0
POINT
  5
445
  8
DEFPOINTS
 62
     0
 10
1655.808984265047
 20
-805.0
 30
0.0
  0
POINT
  5
446
  8
DEFPOINTS
 62
     0
 10
1748.515222826867
 20
-805.0
 30
0.0
  0
ENDBLK
  5
FE
  8
0
  0
BLOCK
  8
0
  2
*D49
 70
     1
 10
0.0
 20
0.0
 30
0.0
  3
*D49
  1

  0
LINE
  5
447
  8
__-1
  6
CONTINUOUS
 62
     0
 10
1665.808984265047
 20
-1005.0
 30
0.0
 11
1748.515222826867
 21
-1005.0
 31
0.0
  0
LINE
  5
448
  8
__-1
  6
CONTINUOUS
 62
     0
 10
1665.808984265047
 20
-905.0
 30
0.0
 11
1748.515222826867
 21
-905.0
 31
0.0
  0
LINE
  5
449
  8
__-1
  6
CONTINUOUS
 62
     0
 10
1748.515222826867
 20
-1002.000183105469
 30
0.0
 11
1748.515222826867
 21
-907.9998168945312
 31
0.0
  0
INSERT
  5
44A
  8
__-1
 62
     0
  2
_DOT
 10
1748.515222826867
 20
-1005.0
 30
0.0
 41
2.99981689453125
 42
2.99981689453125
 43
2.99981689453125
 50
270.0
  0
INSERT
  5
44B
  8
__-1
 62
     0
  2
_DOT
 10
1748.515222826867
 20
-905.0
 30
0.0
 41
2.99981689453125
 42
2.99981689453125
 43
2.99981689453125
 50
90.0
  0
TEXT
  5
44C
  8
__-1
  6
CONTINUOUS
 62
     0
 10
1746.015222826867
 20
-979.5152994791667
 30
0.0
 40
16.34353298611111
  1
100
 50
90.0
  7
YUGOTHIC_BOLD
  0
POINT
  5
44D
  8
DEFPOINTS
 62
     0
 10
1655.808984265047
 20
-1005.0
 30
0.0
  0
POINT
  5
44E
  8
DEFPOINTS
 62
     0
 10
1655.808984265047
 20
-905.0
 30
0.0
  0
POINT
  5
44F
  8
DEFPOINTS
 62
     0
 10
1748.515222826867
 20
-905.0
 30
0.0
  0
ENDBLK
  5
101
  8
0
  0
BLOCK
  8
0
  2
*D50
 70
     1
 10
0.0
 20
0.0
 30
0.0
  3
*D50
  1

  0
LINE
  5
450
  8
__-1
  6
CONTINUOUS
 62
     0
 10
1665.808984265047
 20
-1105.0
 30
0.0
 11
1748.515222826867
 21
-1105.0
 31
0.0
  0
LINE
  5
451
  8
__-1
  6
CONTINUOUS
 62
     0
 10
1665.808984265047
 20
-1005.0
 30
0.0
 11
1748.515222826867
 21
-1005.0
 31
0.0
  0
LINE
  5
452
  8
__-1
  6
CONTINUOUS
 62
     0
 10
1748.515222826867
 20
-1102.000183105469
 30
0.0
 11
1748.515222826867
 21
-1007.999816894531
 31
0.0
  0
INSERT
  5
453
  8
__-1
 62
     0
  2
_DOT
 10
1748.515222826867
 20
-1105.0
 30
0.0
 41
2.99981689453125
 42
2.99981689453125
 43
2.99981689453125
 50
270.0
  0
INSERT
  5
454
  8
__-1
 62
     0
  2
_DOT
 10
1748.515222826867
 20
-1005.0
 30
0.0
 41
2.99981689453125
 42
2.99981689453125
 43
2.99981689453125
 50
90.0
  0
TEXT
  5
455
  8
__-1
  6
CONTINUOUS
 62
     0
 10
1746.015222826867
 20
-1079.515299479167
 30
0.0
 40
16.34353298611111
  1
100
 50
90.0
  7
YUGOTHIC_BOLD
  0
POINT
  5
456
  8
DEFPOINTS
 62
     0
 10
1655.808984265047
 20
-1105.0
 30
0.0
  0
POINT
  5
457
  8
DEFPOINTS
 62
     0
 10
1655.808984265047
 20
-1005.0
 30
0.0
  0
POINT
  5
458
  8
DEFPOINTS
 62
     0
 10
1748.515222826867
 20
-1005.0
 30
0.0
  0
ENDBLK
  5
104
  8
0
  0
BLOCK
  8
0
  2
*D51
 70
     1
 10
0.0
 20
0.0
 30
0.0
  3
*D51
  1

  0
LINE
  5
459
  8
__-1
  6
CONTINUOUS
 62
     0
 10
1665.808984265047
 20
-1205.0
 30
0.0
 11
1748.515222826867
 21
-1205.0
 31
0.0
  0
LINE
  5
45A
  8
__-1
  6
CONTINUOUS
 62
     0
 10
1665.808984265047
 20
-1105.0
 30
0.0
 11
1748.515222826867
 21
-1105.0
 31
0.0
  0
LINE
  5
45B
  8
__-1
  6
CONTINUOUS
 62
     0
 10
1748.515222826867
 20
-1202.000183105469
 30
0.0
 11
1748.515222826867
 21
-1107.999816894531
 31
0.0
  0
INSERT
  5
45C
  8
__-1
 62
     0
  2
_DOT
 10
1748.515222826867
 20
-1205.0
 30
0.0
 41
2.99981689453125
 42
2.99981689453125
 43
2.99981689453125
 50
270.0
  0
INSERT
  5
45D
  8
__-1
 62
     0
  2
_DOT
 10
1748.515222826867
 20
-1105.0
 30
0.0
 41
2.99981689453125
 42
2.99981689453125
 43
2.99981689453125
 50
90.0
  0
TEXT
  5
45E
  8
__-1
  6
CONTINUOUS
 62
     0
 10
1746.015222826867
 20
-1179.515299479167
 30
0.0
 40
16.34353298611111
  1
100
 50
90.0
  7
YUGOTHIC_BOLD
  0
POINT
  5
45F
  8
DEFPOINTS
 62
     0
 10
1655.808984265047
 20
-1205.0
 30
0.0
  0
POINT
  5
460
  8
DEFPOINTS
 62
     0
 10
1655.808984265047
 20
-1105.0
 30
0.0
  0
POINT
  5
461
  8
DEFPOINTS
 62
     0
 10
1748.515222826867
 20
-1105.0
 30
0.0
  0
ENDBLK
  5
107
  8
0
  0
BLOCK
  8
0
  2
*D52
 70
     1
 10
0.0
 20
0.0
 30
0.0
  3
*D52
  1

  0
LINE
  5
462
  8
__-1
  6
CONTINUOUS
 62
     0
 10
1665.808984265047
 20
-1305.0
 30
0.0
 11
1748.515222826867
 21
-1305.0
 31
0.0
  0
LINE
  5
463
  8
__-1
  6
CONTINUOUS
 62
     0
 10
1665.808984265047
 20
-1205.0
 30
0.0
 11
1748.515222826867
 21
-1205.0
 31
0.0
  0
LINE
  5
464
  8
__-1
  6
CONTINUOUS
 62
     0
 10
1748.515222826867
 20
-1302.000183105469
 30
0.0
 11
1748.515222826867
 21
-1207.999816894531
 31
0.0
  0
INSERT
  5
465
  8
__-1
 62
     0
  2
_DOT
 10
1748.515222826867
 20
-1305.0
 30
0.0
 41
2.99981689453125
 42
2.99981689453125
 43
2.99981689453125
 50
270.0
  0
INSERT
  5
466
  8
__-1
 62
     0
  2
_DOT
 10
1748.515222826867
 20
-1205.0
 30
0.0
 41
2.99981689453125
 42
2.99981689453125
 43
2.99981689453125
 50
90.0
  0
TEXT
  5
467
  8
__-1
  6
CONTINUOUS
 62
     0
 10
1746.015222826867
 20
-1279.515299479167
 30
0.0
 40
16.34353298611111
  1
100
 50
90.0
  7
YUGOTHIC_BOLD
  0
POINT
  5
468
  8
DEFPOINTS
 62
     0
 10
1655.808984265047
 20
-1305.0
 30
0.0
  0
POINT
  5
469
  8
DEFPOINTS
 62
     0
 10
1655.808984265047
 20
-1205.0
 30
0.0
  0
POINT
  5
46A
  8
DEFPOINTS
 62
     0
 10
1748.515222826867
 20
-1205.0
 30
0.0
  0
ENDBLK
  5
10A
  8
0
  0
BLOCK
  8
0
  2
*D53
 70
     1
 10
0.0
 20
0.0
 30
0.0
  3
*D53
  1

  0
LINE
  5
46B
  8
__-1
  6
CONTINUOUS
 62
     0
 10
1665.808984265047
 20
-1405.0
 30
0.0
 11
1748.515222826867
 21
-1405.0
 31
0.0
  0
LINE
  5
46C
  8
__-1
  6
CONTINUOUS
 62
     0
 10
1665.808984265047
 20
-1305.0
 30
0.0
 11
1748.515222826867
 21
-1305.0
 31
0.0
  0
LINE
  5
46D
  8
__-1
  6
CONTINUOUS
 62
     0
 10
1748.515222826867
 20
-1402.000183105469
 30
0.0
 11
1748.515222826867
 21
-1307.999816894531
 31
0.0
  0
INSERT
  5
46E
  8
__-1
 62
     0
  2
_DOT
 10
1748.515222826867
 20
-1405.0
 30
0.0
 41
2.99981689453125
 42
2.99981689453125
 43
2.99981689453125
 50
270.0
  0
INSERT
  5
46F
  8
__-1
 62
     0
  2
_DOT
 10
1748.515222826867
 20
-1305.0
 30
0.0
 41
2.99981689453125
 42
2.99981689453125
 43
2.99981689453125
 50
90.0
  0
TEXT
  5
470
  8
__-1
  6
CONTINUOUS
 62
     0
 10
1746.015222826867
 20
-1379.515299479167
 30
0.0
 40
16.34353298611111
  1
100
 50
90.0
  7
YUGOTHIC_BOLD
  0
POINT
  5
471
  8
DEFPOINTS
 62
     0
 10
1655.808984265047
 20
-1405.0
 30
0.0
  0
POINT
  5
472
  8
DEFPOINTS
 62
     0
 10
1655.808984265047
 20
-1305.0
 30
0.0
  0
POINT
  5
473
  8
DEFPOINTS
 62
     0
 10
1748.515222826867
 20
-1305.0
 30
0.0
  0
ENDBLK
  5
10D
  8
0
  0
BLOCK
  8
0
  2
*D54
 70
     1
 10
0.0
 20
0.0
 30
0.0
  3
*D54
  1

  0
LINE
  5
474
  8
__-1
  6
CONTINUOUS
 62
     0
 10
1665.808984265047
 20
-1455.0
 30
0.0
 11
1748.515222826867
 21
-1455.0
 31
0.0
  0
LINE
  5
475
  8
__-1
  6
CONTINUOUS
 62
     0
 10
1665.808984265047
 20
-1405.0
 30
0.0
 11
1748.515222826867
 21
-1405.0
 31
0.0
  0
LINE
  5
476
  8
__-1
  6
CONTINUOUS
 62
     0
 10
1748.515222826867
 20
-1452.000183105469
 30
0.0
 11
1748.515222826867
 21
-1407.999816894531
 31
0.0
  0
INSERT
  5
477
  8
__-1
 62
     0
  2
_DOT
 10
1748.515222826867
 20
-1455.0
 30
0.0
 41
2.99981689453125
 42
2.99981689453125
 43
2.99981689453125
 50
270.0
  0
INSERT
  5
478
  8
__-1
 62
     0
  2
_DOT
 10
1748.515222826867
 20
-1405.0
 30
0.0
 41
2.99981689453125
 42
2.99981689453125
 43
2.99981689453125
 50
90.0
  0
TEXT
  5
479
  8
__-1
  6
CONTINUOUS
 62
     0
 10
1746.015222826867
 20
-1445.565269510582
 30
0.0
 40
16.34353298611111
  1
50
 50
90.0
  7
YUGOTHIC_BOLD
  0
POINT
  5
47A
  8
DEFPOINTS
 62
     0
 10
1655.808984265047
 20
-1455.0
 30
0.0
  0
POINT
  5
47B
  8
DEFPOINTS
 62
     0
 10
1655.808984265047
 20
-1405.0
 30
0.0
  0
POINT
  5
47C
  8
DEFPOINTS
 62
     0
 10
1748.515222826867
 20
-1405.0
 30
0.0
  0
ENDBLK
  5
110
  8
0
  0
BLOCK
  8
0
  2
*D55
 70
     1
 10
0.0
 20
0.0
 30
0.0
  3
*D55
  1

  0
LINE
  5
47D
  8
__-1
  6
CONTINUOUS
 62
     0
 10
2597.916666666667
 20
-743.0666666666666
 30
0.0
 11
2564.030140027887
 21
-743.0666666666666
 31
0.0
  0
LINE
  5
47E
  8
__-1
  6
CONTINUOUS
 62
     0
 10
2622.916666666667
 20
-523.0666666666666
 30
0.0
 11
2564.030140027887
 21
-523.0666666666666
 31
0.0
  0
LINE
  5
47F
  8
__-1
  6
CONTINUOUS
 62
     0
 10
2564.030140027887
 20
-740.0668497721354
 30
0.0
 11
2564.030140027887
 21
-526.0664835611979
 31
0.0
  0
INSERT
  5
480
  8
__-1
 62
     0
  2
_DOT
 10
2564.030140027887
 20
-743.0666666666666
 30
0.0
 41
2.99981689453125
 42
2.99981689453125
 43
2.99981689453125
 50
270.0
  0
INSERT
  5
481
  8
__-1
 62
     0
  2
_DOT
 10
2564.030140027887
 20
-523.0666666666666
 30
0.0
 41
2.99981689453125
 42
2.99981689453125
 43
2.99981689453125
 50
90.0
  0
TEXT
  5
482
  8
__-1
  6
CONTINUOUS
 62
     0
 10
2561.530140027887
 20
-656.4145709325398
 30
0.0
 40
16.34353298611111
  1
220
 50
90.0
  7
YUGOTHIC_BOLD
  0
POINT
  5
483
  8
DEFPOINTS
 62
     0
 10
2607.916666666667
 20
-743.0666666666666
 30
0.0
  0
POINT
  5
484
  8
DEFPOINTS
 62
     0
 10
2632.916666666667
 20
-523.0666666666666
 30
0.0
  0
POINT
  5
485
  8
DEFPOINTS
 62
     0
 10
2564.030140027887
 20
-523.0666666666666
 30
0.0
  0
ENDBLK
  5
113
  8
0
  0
BLOCK
  8
0
  2
*D56
 70
     1
 10
0.0
 20
0.0
 30
0.0
  3
*D56
  1

  0
LINE
  5
486
  8
__-1
  6
CONTINUOUS
 62
     0
 10
3857.916666666667
 20
-1028.066666666667
 30
0.0
 11
3857.916666666667
 21
-1090.933333333333
 31
0.0
  0
LINE
  5
487
  8
__-1
  6
CONTINUOUS
 62
     0
 10
2607.916666666667
 20
-1028.066666666667
 30
0.0
 11
2607.916666666667
 21
-1090.933333333333
 31
0.0
  0
LINE
  5
488
  8
__-1
  6
CONTINUOUS
 62
     0
 10
3854.916849772135
 20
-1090.933333333333
 30
0.0
 11
2610.916483561198
 21
-1090.933333333333
 31
0.0
  0
INSERT
  5
489
  8
__-1
 62
     0
  2
_DOT
 10
3857.916666666667
 20
-1090.933333333333
 30
0.0
 41
2.99981689453125
 42
2.99981689453125
 43
2.99981689453125
  0
INSERT
  5
48A
  8
__-1
 62
     0
  2
_DOT
 10
2607.916666666667
 20
-1090.933333333333
 30
0.0
 41
2.99981689453125
 42
2.99981689453125
 43
2.99981689453125
 50
180.0
  0
TEXT
  5
48B
  8
__-1
  6
CONTINUOUS
 62
     0
 10
3200.618732432209
 20
-1088.433333333333
 30
0.0
 40
16.34353298611111
  1
1250
  7
YUGOTHIC_BOLD
  0
POINT
  5
48C
  8
DEFPOINTS
 62
     0
 10
3857.916666666667
 20
-1018.066666666667
 30
0.0
  0
POINT
  5
48D
  8
DEFPOINTS
 62
     0
 10
2607.916666666667
 20
-1018.066666666667
 30
0.0
  0
POINT
  5
48E
  8
DEFPOINTS
 62
     0
 10
2607.916666666667
 20
-1090.933333333333
 30
0.0
  0
ENDBLK
  5
116
  8
0
  0
BLOCK
  8
0
  2
*D57
 70
     1
 10
0.0
 20
0.0
 30
0.0
  3
*D57
  1

  0
LINE
  5
48F
  8
__-1
  6
CONTINUOUS
 62
     0
 10
2597.916666666667
 20
-1620.235356787973
 30
0.0
 11
2563.060750484466
 21
-1620.235356787973
 31
0.0
  0
LINE
  5
490
  8
__-1
  6
CONTINUOUS
 62
     0
 10
2613.916666666667
 20
-1400.235356787973
 30
0.0
 11
2563.060750484466
 21
-1400.235356787973
 31
0.0
  0
LINE
  5
491
  8
__-1
  6
CONTINUOUS
 62
     0
 10
2563.060750484466
 20
-1617.235539893441
 30
0.0
 11
2563.060750484466
 21
-1403.235173682504
 31
0.0
  0
INSERT
  5
492
  8
__-1
 62
     0
  2
_DOT
 10
2563.060750484466
 20
-1620.235356787973
 30
0.0
 41
2.99981689453125
 42
2.99981689453125
 43
2.99981689453125
 50
270.0
  0
INSERT
  5
493
  8
__-1
 62
     0
  2
_DOT
 10
2563.060750484466
 20
-1400.235356787973
 30
0.0
 41
2.99981689453125
 42
2.99981689453125
 43
2.99981689453125
 50
90.0
  0
TEXT
  5
494
  8
__-1
  6
CONTINUOUS
 62
     0
 10
2560.560750484466
 20
-1533.583261053846
 30
0.0
 40
16.34353298611111
  1
220
 50
90.0
  7
YUGOTHIC_BOLD
  0
POINT
  5
495
  8
DEFPOINTS
 62
     0
 10
2607.916666666667
 20
-1620.235356787973
 30
0.0
  0
POINT
  5
496
  8
DEFPOINTS
 62
     0
 10
2623.916666666667
 20
-1400.235356787973
 30
0.0
  0
POINT
  5
497
  8
DEFPOINTS
 62
     0
 10
2563.060750484466
 20
-1400.235356787973
 30
0.0
  0
ENDBLK
  5
119
  8
0
  0
BLOCK
  8
0
  2
*D58
 70
     1
 10
0.0
 20
0.0
 30
0.0
  3
*D58
  1

  0
LINE
  5
498
  8
__-1
  6
CONTINUOUS
 62
     0
 10
3557.916666666667
 20
-1905.235356787973
 30
0.0
 11
3557.916666666667
 21
-1968.102023454639
 31
0.0
  0
LINE
  5
499
  8
__-1
  6
CONTINUOUS
 62
     0
 10
2607.916666666667
 20
-1905.235356787973
 30
0.0
 11
2607.916666666667
 21
-1968.102023454639
 31
0.0
  0
LINE
  5
49A
  8
__-1
  6
CONTINUOUS
 62
     0
 10
3554.916849772135
 20
-1968.102023454639
 30
0.0
 11
2610.916483561198
 21
-1968.102023454639
 31
0.0
  0
INSERT
  5
49B
  8
__-1
 62
     0
  2
_DOT
 10
3557.916666666667
 20
-1968.102023454639
 30
0.0
 41
2.99981689453125
 42
2.99981689453125
 43
2.99981689453125
  0
INSERT
  5
49C
  8
__-1
 62
     0
  2
_DOT
 10
2607.916666666667
 20
-1968.102023454639
 30
0.0
 41
2.99981689453125
 42
2.99981689453125
 43
2.99981689453125
 50
180.0
  0
TEXT
  5
49D
  8
__-1
  6
CONTINUOUS
 62
     0
 10
3059.568762400793
 20
-1965.602023454639
 30
0.0
 40
16.34353298611111
  1
950
  7
YUGOTHIC_BOLD
  0
POINT
  5
49E
  8
DEFPOINTS
 62
     0
 10
3557.916666666667
 20
-1895.235356787973
 30
0.0
  0
POINT
  5
49F
  8
DEFPOINTS
 62
     0
 10
2607.916666666667
 20
-1895.235356787973
 30
0.0
  0
POINT
  5
4A0
  8
DEFPOINTS
 62
     0
 10
2607.916666666667
 20
-1968.102023454639
 30
0.0
  0
ENDBLK
  5
11C
  8
0
  0
BLOCK
  8
0
  2
CALLOUT
 70
     0
 10
0.0
 20
0.0
 30
0.0
  3
CALLOUT
  1

  0
LINE
  5
4A1
  8
__
  6
CONTINUOUS
 62
    17
 10
0.0
 20
0.0
 30
0.0
 11
-35.0
 21
-78.0
 31
0.0
  0
LINE
  5
4A2
  8
__
  6
CONTINUOUS
 62
    17
 10
20.0
 20
0.0
 30
0.0
 11
0.0
 21
0.0
 31
0.0
  0
TEXT
  5
4A3
  8
__
 62
    17
 10
21.19
 20
-3.210277777777776
 30
0.0
 40
19.06745515046297
  1
M4オニメナット
  7
YUGOTHIC_BOLD
 11
21.19
 21
15.85717737268519
 31
0.0
 73
     3
  0
ENDBLK
  5
11F
  8
0
  0
BLOCK
  8
0
  2
CALLOUT-1
 70
     0
 10
0.0
 20
0.0
 30
0.0
  3
CALLOUT-1
  1

  0
LINE
  5
4A4
  8
__
  6
CONTINUOUS
 62
    17
 10
0.0
 20
0.0
 30
0.0
 11
-35.0
 21
-78.0
 31
0.0
  0
LINE
  5
4A5
  8
__
  6
CONTINUOUS
 62
    17
 10
20.0
 20
0.0
 30
0.0
 11
0.0
 21
0.0
 31
0.0
  0
TEXT
  5
4A6
  8
__
 62
    17
 10
21.19
 20
-3.210277777777776
 30
0.0
 40
19.06745515046297
  1
ブラケット位置
  7
YUGOTHIC_BOLD
 11
21.19
 21
15.85717737268519
 31
0.0
 73
     3
  0
ENDBLK
  5
122
  8
0
  0
BLOCK
  8
0
  2
*D61
 70
     1
 10
0.0
 20
0.0
 30
0.0
  3
*D61
  1

  0
LINE
  5
4A7
  8
__-1
  6
CONTINUOUS
 62
     0
 10
2632.916666666667
 20
-1610.235356787973
 30
0.0
 11
2632.916666666667
 21
-1286.647856787973
 31
0.0
  0
LINE
  5
4A8
  8
__-1
  6
CONTINUOUS
 62
     0
 10
2607.916666666667
 20
-1610.235356787973
 30
0.0
 11
2607.916666666667
 21
-1286.647856787973
 31
0.0
  0
LINE
  5
4A9
  8
__-1
  6
CONTINUOUS
 62
     0
 10
2607.916666666667
 20
-1286.647856787973
 30
0.0
 11
2565.036270364251
 21
-1286.647856787973
 31
0.0
  0
LINE
  5
4AA
  8
__-1
  6
CONTINUOUS
 62
     0
 10
2629.916849772135
 20
-1286.647856787973
 30
0.0
 11
2610.916483561198
 21
-1286.647856787973
 31
0.0
  0
INSERT
  5
4AB
  8
__-1
 62
     0
  2
_DOT
 10
2632.916666666667
 20
-1286.647856787973
 30
0.0
 41
2.99981689453125
 42
2.99981689453125
 43
2.99981689453125
  0
INSERT
  5
4AC
  8
__-1
 62
     0
  2
_DOT
 10
2607.916666666667
 20
-1286.647856787973
 30
0.0
 41
2.99981689453125
 42
2.99981689453125
 43
2.99981689453125
 50
180.0
  0
TEXT
  5
4AD
  8
__-1
  6
CONTINUOUS
 62
     0
 10
2565.201479937664
 20
-1284.147856787973
 30
0.0
 40
16.34353298611111
  1
25
  7
YUGOTHIC_BOLD
  0
POINT
  5
4AE
  8
DEFPOINTS
 62
     0
 10
2632.916666666667
 20
-1620.235356787973
 30
0.0
  0
POINT
  5
4AF
  8
DEFPOINTS
 62
     0
 10
2607.916666666667
 20
-1620.235356787973
 30
0.0
  0
POINT
  5
4B0
  8
DEFPOINTS
 62
     0
 10
2607.916666666667
 20
-1310.168690121306
 30
0.0
  0
ENDBLK
  5
125
  8
0
  0
BLOCK
  8
0
  2
CALLOUT-2
 70
     0
 10
0.0
 20
0.0
 30
0.0
  3
CALLOUT-2
  1

  0
LINE
  5
4B1
  8
__
  6
CONTINUOUS
 62
    17
 10
0.0
 20
0.0
 30
0.0
 11
-44.8921724757713
 21
-91.59723754064083
 31
0.0
  0
LINE
  5
4B2
  8
__
  6
CONTINUOUS
 62
    17
 10
20.0
 20
0.0
 30
0.0
 11
0.0
 21
0.0
 31
0.0
  0
TEXT
  5
4B3
  8
__
 62
    17
 10
21.19
 20
-3.210277777777776
 30
0.0
 40
19.06745515046297
  1
M4オニメナット
  7
YUGOTHIC_BOLD
 11
21.19
 21
15.85717737268519
 31
0.0
 73
     3
  0
ENDBLK
  5
128
  8
0
  0
BLOCK
  8
0
  2
CALLOUT-3
 70
     0
 10
0.0
 20
0.0
 30
0.0
  3
CALLOUT-3
  1

  0
LINE
  5
4B4
  8
__
  6
CONTINUOUS
 62
    17
 10
0.0
 20
0.0
 30
0.0
 11
-35.0
 21
-78.0
 31
0.0
  0
LINE
  5
4B5
  8
__
  6
CONTINUOUS
 62
    17
 10
20.0
 20
0.0
 30
0.0
 11
0.0
 21
0.0
 31
0.0
  0
TEXT
  5
4B6
  8
__
 62
    17
 10
21.19
 20
-3.210277777777776
 30
0.0
 40
19.06745515046297
  1
ブラケット位置
  7
YUGOTHIC_BOLD
 11
21.19
 21
15.85717737268519
 31
0.0
 73
     3
  0
ENDBLK
  5
12B
  8
0
  0
BLOCK
  8
0
  2
*D64
 70
     1
 10
0.0
 20
0.0
 30
0.0
  3
*D64
  1

  0
LINE
  5
4B7
  8
__-1
  6
CONTINUOUS
 62
     0
 10
2632.916666666667
 20
-725.0666666666666
 30
0.0
 11
2632.916666666667
 21
-401.4791666666667
 31
0.0
  0
LINE
  5
4B8
  8
__-1
  6
CONTINUOUS
 62
     0
 10
2607.916666666667
 20
-725.0666666666666
 30
0.0
 11
2607.916666666667
 21
-401.4791666666667
 31
0.0
  0
LINE
  5
4B9
  8
__-1
  6
CONTINUOUS
 62
     0
 10
2607.916666666667
 20
-401.4791666666667
 30
0.0
 11
2565.036270364251
 21
-401.4791666666667
 31
0.0
  0
LINE
  5
4BA
  8
__-1
  6
CONTINUOUS
 62
     0
 10
2629.916849772135
 20
-401.4791666666667
 30
0.0
 11
2610.916483561198
 21
-401.4791666666667
 31
0.0
  0
INSERT
  5
4BB
  8
__-1
 62
     0
  2
_DOT
 10
2632.916666666667
 20
-401.4791666666667
 30
0.0
 41
2.99981689453125
 42
2.99981689453125
 43
2.99981689453125
  0
INSERT
  5
4BC
  8
__-1
 62
     0
  2
_DOT
 10
2607.916666666667
 20
-401.4791666666667
 30
0.0
 41
2.99981689453125
 42
2.99981689453125
 43
2.99981689453125
 50
180.0
  0
TEXT
  5
4BD
  8
__-1
  6
CONTINUOUS
 62
     0
 10
2565.201479937664
 20
-398.9791666666667
 30
0.0
 40
16.34353298611111
  1
25
  7
YUGOTHIC_BOLD
  0
POINT
  5
4BE
  8
DEFPOINTS
 62
     0
 10
2632.916666666667
 20
-735.0666666666666
 30
0.0
  0
POINT
  5
4BF
  8
DEFPOINTS
 62
     0
 10
2607.916666666667
 20
-735.0666666666666
 30
0.0
  0
POINT
  5
4C0
  8
DEFPOINTS
 62
     0
 10
2607.916666666667
 20
-425.0
 30
0.0
  0
ENDBLK
  5
12E
  8
0
  0
BLOCK
  8
0
  2
*D65
 70
     1
 10
0.0
 20
0.0
 30
0.0
  3
*D65
  1

  0
LINE
  5
4C1
  8
__-1
  6
CONTINUOUS
 62
     0
 10
2632.916666666667
 20
-725.0666666666666
 30
0.0
 11
2632.916666666667
 21
-401.4791666666667
 31
0.0
  0
LINE
  5
4C2
  8
__-1
  6
CONTINUOUS
 62
     0
 10
3232.916666666667
 20
-733.0666666666666
 30
0.0
 11
3232.916666666667
 21
-401.4791666666667
 31
0.0
  0
LINE
  5
4C3
  8
__-1
  6
CONTINUOUS
 62
     0
 10
3232.916666666667
 20
-401.4791666666667
 30
0.0
 11
4136.008525692597
 21
-401.4791666666667
 31
0.0
  0
LINE
  5
4C4
  8
__-1
  6
CONTINUOUS
 62
     0
 10
2635.916483561198
 20
-401.4791666666667
 30
0.0
 11
3229.916849772135
 21
-401.4791666666667
 31
0.0
  0
INSERT
  5
4C5
  8
__-1
 62
     0
  2
_DOT
 10
2632.916666666667
 20
-401.4791666666667
 30
0.0
 41
2.99981689453125
 42
2.99981689453125
 43
2.99981689453125
 50
180.0
  0
INSERT
  5
4C6
  8
__-1
 62
     0
  2
_DOT
 10
3232.916666666667
 20
-401.4791666666667
 30
0.0
 41
2.99981689453125
 42
2.99981689453125
 43
2.99981689453125
  0
TEXT
  5
4C7
  8
__-1
  6
CONTINUOUS
 62
     0
 10
4089.147507587438
 20
-398.9791666666667
 30
0.0
 40
16.34353298611111
  1
600
  7
YUGOTHIC_BOLD
  0
POINT
  5
4C8
  8
DEFPOINTS
 62
     0
 10
2632.916666666667
 20
-735.0666666666666
 30
0.0
  0
POINT
  5
4C9
  8
DEFPOINTS
 62
     0
 10
3232.916666666667
 20
-743.0666666666666
 30
0.0
  0
POINT
  5
4CA
  8
DEFPOINTS
 62
     0
 10
3232.916666666667
 20
-425.0
 30
0.0
  0
ENDBLK
  5
131
  8
0
  0
BLOCK
  8
0
  2
*D66
 70
     1
 10
0.0
 20
0.0
 30
0.0
  3
*D66
  1

  0
LINE
  5
4CB
  8
__-1
  6
CONTINUOUS
 62
     0
 10
3832.916666666667
 20
-725.0666666666666
 30
0.0
 11
3832.916666666667
 21
-425.0
 31
0.0
  0
LINE
  5
4CC
  8
__-1
  6
CONTINUOUS
 62
     0
 10
3232.916666666667
 20
-725.0666666666666
 30
0.0
 11
3232.916666666667
 21
-425.0
 31
0.0
  0
LINE
  5
4CD
  8
__-1
  6
CONTINUOUS
 62
     0
 10
3829.916849772135
 20
-425.0
 30
0.0
 11
3235.916483561198
 21
-425.0
 31
0.0
  0
INSERT
  5
4CE
  8
__-1
 62
     0
  2
_DOT
 10
3832.916666666667
 20
-425.0
 30
0.0
 41
2.99981689453125
 42
2.99981689453125
 43
2.99981689453125
  0
INSERT
  5
4CF
  8
__-1
 62
     0
  2
_DOT
 10
3232.916666666667
 20
-425.0
 30
0.0
 41
2.99981689453125
 42
2.99981689453125
 43
2.99981689453125
 50
180.0
  0
TEXT
  5
4D0
  8
__-1
  6
CONTINUOUS
 62
     0
 10
3509.179630663029
 20
-422.5
 30
0.0
 40
16.34353298611111
  1
600
  7
YUGOTHIC_BOLD
  0
POINT
  5
4D1
  8
DEFPOINTS
 62
     0
 10
3832.916666666667
 20
-735.0666666666666
 30
0.0
  0
POINT
  5
4D2
  8
DEFPOINTS
 62
     0
 10
3232.916666666667
 20
-735.0666666666666
 30
0.0
  0
POINT
  5
4D3
  8
DEFPOINTS
 62
     0
 10
3232.916666666667
 20
-425.0
 30
0.0
  0
ENDBLK
  5
134
  8
0
  0
BLOCK
  8
0
  2
*D67
 70
     1
 10
0.0
 20
0.0
 30
0.0
  3
*D67
  1

  0
LINE
  5
4D4
  8
__-1
  6
CONTINUOUS
 62
     0
 10
3857.916666666667
 20
-725.0666666666666
 30
0.0
 11
3857.916666666667
 21
-425.0
 31
0.0
  0
LINE
  5
4D5
  8
__-1
  6
CONTINUOUS
 62
     0
 10
3832.916666666667
 20
-725.0666666666666
 30
0.0
 11
3832.916666666667
 21
-425.0
 31
0.0
  0
LINE
  5
4D6
  8
__-1
  6
CONTINUOUS
 62
     0
 10
3857.916666666667
 20
-425.0
 30
0.0
 11
3832.916666666667
 21
-425.0
 31
0.0
  0
LINE
  5
4D7
  8
__-1
  6
CONTINUOUS
 62
     0
 10
3860.916483561198
 20
-425.0
 30
0.0
 11
3863.916300455729
 21
-425.0
 31
0.0
  0
LINE
  5
4D8
  8
__-1
  6
CONTINUOUS
 62
     0
 10
3829.916849772135
 20
-425.0
 30
0.0
 11
3826.917032877604
 21
-425.0
 31
0.0
  0
INSERT
  5
4D9
  8
__-1
 62
     0
  2
_DOT
 10
3857.916666666667
 20
-425.0
 30
0.0
 41
2.99981689453125
 42
2.99981689453125
 43
2.99981689453125
 50
180.0
  0
INSERT
  5
4DA
  8
__-1
 62
     0
  2
_DOT
 10
3832.916666666667
 20
-425.0
 30
0.0
 41
2.99981689453125
 42
2.99981689453125
 43
2.99981689453125
  0
TEXT
  5
4DB
  8
__-1
  6
CONTINUOUS
 62
     0
 10
3829.851397156084
 20
-422.5
 30
0.0
 40
16.34353298611111
  1
25
  7
YUGOTHIC_BOLD
  0
POINT
  5
4DC
  8
DEFPOINTS
 62
     0
 10
3857.916666666667
 20
-735.0666666666666
 30
0.0
  0
POINT
  5
4DD
  8
DEFPOINTS
 62
     0
 10
3832.916666666667
 20
-735.0666666666666
 30
0.0
  0
POINT
  5
4DE
  8
DEFPOINTS
 62
     0
 10
3832.916666666667
 20
-425.0
 30
0.0
  0
ENDBLK
  5
137
  8
0
  0
BLOCK
  8
0
  2
*D68
 70
     1
 10
0.0
 20
0.0
 30
0.0
  3
*D68
  1

  0
LINE
  5
4DF
  8
__-1
  6
CONTINUOUS
 62
     0
 10
3532.916666666667
 20
-1610.235356787973
 30
0.0
 11
3532.916666666667
 21
-1310.168690121306
 31
0.0
  0
LINE
  5
4E0
  8
__-1
  6
CONTINUOUS
 62
     0
 10
2632.916666666667
 20
-1610.235356787973
 30
0.0
 11
2632.916666666667
 21
-1310.168690121306
 31
0.0
  0
LINE
  5
4E1
  8
__-1
  6
CONTINUOUS
 62
     0
 10
3529.916849772135
 20
-1310.168690121306
 30
0.0
 11
2635.916483561198
 21
-1310.168690121306
 31
0.0
  0
INSERT
  5
4E2
  8
__-1
 62
     0
  2
_DOT
 10
3532.916666666667
 20
-1310.168690121306
 30
0.0
 41
2.99981689453125
 42
2.99981689453125
 43
2.99981689453125
  0
INSERT
  5
4E3
  8
__-1
 62
     0
  2
_DOT
 10
2632.916666666667
 20
-1310.168690121306
 30
0.0
 41
2.99981689453125
 42
2.99981689453125
 43
2.99981689453125
 50
180.0
  0
TEXT
  5
4E4
  8
__-1
  6
CONTINUOUS
 62
     0
 10
3059.568762400793
 20
-1307.668690121306
 30
0.0
 40
16.34353298611111
  1
900
  7
YUGOTHIC_BOLD
  0
POINT
  5
4E5
  8
DEFPOINTS
 62
     0
 10
3532.916666666667
 20
-1620.235356787973
 30
0.0
  0
POINT
  5
4E6
  8
DEFPOINTS
 62
     0
 10
2632.916666666667
 20
-1620.235356787973
 30
0.0
  0
POINT
  5
4E7
  8
DEFPOINTS
 62
     0
 10
2632.916666666667
 20
-1310.168690121306
 30
0.0
  0
ENDBLK
  5
13A
  8
0
  0
BLOCK
  8
0
  2
*D69
 70
     1
 10
0.0
 20
0.0
 30
0.0
  3
*D69
  1

  0
LINE
  5
4E8
  8
__-1
  6
CONTINUOUS
 62
     0
 10
3557.916666666667
 20
-1610.235356787973
 30
0.0
 11
3557.916666666667
 21
-1310.168690121306
 31
0.0
  0
LINE
  5
4E9
  8
__-1
  6
CONTINUOUS
 62
     0
 10
3532.916666666667
 20
-1610.235356787973
 30
0.0
 11
3532.916666666667
 21
-1310.168690121306
 31
0.0
  0
LINE
  5
4EA
  8
__-1
  6
CONTINUOUS
 62
     0
 10
3557.916666666667
 20
-1310.168690121306
 30
0.0
 11
3532.916666666667
 21
-1310.168690121306
 31
0.0
  0
LINE
  5
4EB
  8
__-1
  6
CONTINUOUS
 62
     0
 10
3560.916483561198
 20
-1310.168690121306
 30
0.0
 11
3563.916300455729
 21
-1310.168690121306
 31
0.0
  0
LINE
  5
4EC
  8
__-1
  6
CONTINUOUS
 62
     0
 10
3529.916849772135
 20
-1310.168690121306
 30
0.0
 11
3526.917032877604
 21
-1310.168690121306
 31
0.0
  0
INSERT
  5
4ED
  8
__-1
 62
     0
  2
_DOT
 10
3557.916666666667
 20
-1310.168690121306
 30
0.0
 41
2.99981689453125
 42
2.99981689453125
 43
2.99981689453125
 50
180.0
  0
INSERT
  5
4EE
  8
__-1
 62
     0
  2
_DOT
 10
3532.916666666667
 20
-1310.168690121306
 30
0.0
 41
2.99981689453125
 42
2.99981689453125
 43
2.99981689453125
  0
TEXT
  5
4EF
  8
__-1
  6
CONTINUOUS
 62
     0
 10
3529.851397156084
 20
-1307.668690121306
 30
0.0
 40
16.34353298611111
  1
25
  7
YUGOTHIC_BOLD
  0
POINT
  5
4F0
  8
DEFPOINTS
 62
     0
 10
3557.916666666667
 20
-1620.235356787973
 30
0.0
  0
POINT
  5
4F1
  8
DEFPOINTS
 62
     0
 10
3532.916666666667
 20
-1620.235356787973
 30
0.0
  0
POINT
  5
4F2
  8
DEFPOINTS
 62
     0
 10
3532.916666666667
 20
-1310.168690121306
 30
0.0
  0
ENDBLK
  5
13D
  8
0
  0
BLOCK
  8
0
  2
*D70
 70
     1
 10
0.0
 20
0.0
 30
0.0
  3
*D70
  1

  0
LINE
  5
4F3
  8
__-1
  6
CONTINUOUS
 62
     0
 10
2623.916666666667
 20
-912.0666666666666
 30
0.0
 11
2623.916666666667
 21
-905.5458333333332
 31
0.0
  0
LINE
  5
4F4
  8
__-1
  6
CONTINUOUS
 62
     0
 10
2607.916666666667
 20
-910.0666666666666
 30
0.0
 11
2607.916666666667
 21
-905.5458333333332
 31
0.0
  0
LINE
  5
4F5
  8
__-1
  6
CONTINUOUS
 62
     0
 10
2607.916666666667
 20
-905.5458333333332
 30
0.0
 11
2569.032333536122
 21
-905.5458333333332
 31
0.0
  0
LINE
  5
4F6
  8
__-1
  6
CONTINUOUS
 62
     0
 10
2620.916849772135
 20
-905.5458333333332
 30
0.0
 11
2610.916483561198
 21
-905.5458333333332
 31
0.0
  0
INSERT
  5
4F7
  8
__-1
 62
     0
  2
_DOT
 10
2623.916666666667
 20
-905.5458333333332
 30
0.0
 41
2.99981689453125
 42
2.99981689453125
 43
2.99981689453125
  0
INSERT
  5
4F8
  8
__-1
 62
     0
  2
_DOT
 10
2607.916666666667
 20
-905.5458333333332
 30
0.0
 41
2.99981689453125
 42
2.99981689453125
 43
2.99981689453125
 50
180.0
  0
TEXT
  5
4F9
  8
__-1
  6
CONTINUOUS
 62
     0
 10
2566.862752682948
 20
-903.0458333333332
 30
0.0
 40
16.34353298611111
  1
16
  7
YUGOTHIC_BOLD
  0
POINT
  5
4FA
  8
DEFPOINTS
 62
     0
 10
2623.916666666667
 20
-902.0666666666666
 30
0.0
  0
POINT
  5
4FB
  8
DEFPOINTS
 62
     0
 10
2607.916666666667
 20
-900.0666666666666
 30
0.0
  0
POINT
  5
4FC
  8
DEFPOINTS
 62
     0
 10
2607.916666666667
 20
-929.0666666666666
 30
0.0
  0
ENDBLK
  5
140
  8
0
  0
BLOCK
  8
0
  2
*D71
 70
     1
 10
0.0
 20
0.0
 30
0.0
  3
*D71
  1

  0
LINE
  5
4FD
  8
__-1
  6
CONTINUOUS
 62
     0
 10
2641.916666666667
 20
-919.0666666666666
 30
0.0
 11
2641.916666666667
 21
-905.5458333333332
 31
0.0
  0
LINE
  5
4FE
  8
__-1
  6
CONTINUOUS
 62
     0
 10
2623.916666666667
 20
-912.0666666666666
 30
0.0
 11
2623.916666666667
 21
-905.5458333333332
 31
0.0
  0
LINE
  5
4FF
  8
__-1
  6
CONTINUOUS
 62
     0
 10
2641.916666666667
 20
-905.5458333333332
 30
0.0
 11
2674.0426513026
 21
-905.5458333333332
 31
0.0
  0
LINE
  5
500
  8
__-1
  6
CONTINUOUS
 62
     0
 10
2638.916849772135
 20
-905.5458333333332
 30
0.0
 11
2626.916483561198
 21
-905.5458333333332
 31
0.0
  0
INSERT
  5
501
  8
__-1
 62
     0
  2
_DOT
 10
2641.916666666667
 20
-905.5458333333332
 30
0.0
 41
2.99981689453125
 42
2.99981689453125
 43
2.99981689453125
  0
INSERT
  5
502
  8
__-1
 62
     0
  2
_DOT
 10
2623.916666666667
 20
-905.5458333333332
 30
0.0
 41
2.99981689453125
 42
2.99981689453125
 43
2.99981689453125
 50
180.0
  0
TEXT
  5
503
  8
__-1
  6
CONTINUOUS
 62
     0
 10
2642.746902708023
 20
-903.0458333333332
 30
0.0
 40
16.34353298611111
  1
18
  7
YUGOTHIC_BOLD
  0
POINT
  5
504
  8
DEFPOINTS
 62
     0
 10
2641.916666666667
 20
-929.0666666666666
 30
0.0
  0
POINT
  5
505
  8
DEFPOINTS
 62
     0
 10
2623.916666666667
 20
-902.0666666666666
 30
0.0
  0
POINT
  5
506
  8
DEFPOINTS
 62
     0
 10
2623.916666666667
 20
-929.0666666666666
 30
0.0
  0
ENDBLK
  5
143
  8
0
  0
BLOCK
  8
0
  2
*D72
 70
     1
 10
0.0
 20
0.0
 30
0.0
  3
*D72
  1

  0
LINE
  5
508
  8
__-1
  6
CONTINUOUS
 62
     0
 10
2623.916666666667
 20
-1797.235356787973
 30
0.0
 11
2623.916666666667
 21
-1790.714523454639
 31
0.0
  0
LINE
  5
509
  8
__-1
  6
CONTINUOUS
 62
     0
 10
2607.916666666667
 20
-1795.235356787973
 30
0.0
 11
2607.916666666667
 21
-1790.714523454639
 31
0.0
  0
LINE
  5
50A
  8
__-1
  6
CONTINUOUS
 62
     0
 10
2607.916666666667
 20
-1790.714523454639
 30
0.0
 11
2569.032333536122
 21
-1790.714523454639
 31
0.0
  0
LINE
  5
50B
  8
__-1
  6
CONTINUOUS
 62
     0
 10
2620.916849772135
 20
-1790.714523454639
 30
0.0
 11
2610.916483561198
 21
-1790.714523454639
 31
0.0
  0
INSERT
  5
50C
  8
__-1
 62
     0
  2
_DOT
 10
2623.916666666667
 20
-1790.714523454639
 30
0.0
 41
2.99981689453125
 42
2.99981689453125
 43
2.99981689453125
  0
INSERT
  5
50D
  8
__-1
 62
     0
  2
_DOT
 10
2607.916666666667
 20
-1790.714523454639
 30
0.0
 41
2.99981689453125
 42
2.99981689453125
 43
2.99981689453125
 50
180.0
  0
TEXT
  5
50E
  8
__-1
  6
CONTINUOUS
 62
     0
 10
2566.862752682948
 20
-1788.214523454639
 30
0.0
 40
16.34353298611111
  1
16
  7
YUGOTHIC_BOLD
  0
POINT
  5
50F
  8
DEFPOINTS
 62
     0
 10
2623.916666666667
 20
-1787.235356787973
 30
0.0
  0
POINT
  5
510
  8
DEFPOINTS
 62
     0
 10
2607.916666666667
 20
-1785.235356787973
 30
0.0
  0
POINT
  5
511
  8
DEFPOINTS
 62
     0
 10
2607.916666666667
 20
-1814.235356787973
 30
0.0
  0
ENDBLK
  5
146
  8
0
  0
BLOCK
  8
0
  2
*D73
 70
     1
 10
0.0
 20
0.0
 30
0.0
  3
*D73
  1

  0
LINE
  5
512
  8
__-1
  6
CONTINUOUS
 62
     0
 10
2641.916666666667
 20
-1804.235356787973
 30
0.0
 11
2641.916666666667
 21
-1790.714523454639
 31
0.0
  0
LINE
  5
513
  8
__-1
  6
CONTINUOUS
 62
     0
 10
2623.916666666667
 20
-1797.235356787973
 30
0.0
 11
2623.916666666667
 21
-1790.714523454639
 31
0.0
  0
LINE
  5
514
  8
__-1
  6
CONTINUOUS
 62
     0
 10
2641.916666666667
 20
-1790.714523454639
 30
0.0
 11
2674.0426513026
 21
-1790.714523454639
 31
0.0
  0
LINE
  5
515
  8
__-1
  6
CONTINUOUS
 62
     0
 10
2638.916849772135
 20
-1790.714523454639
 30
0.0
 11
2626.916483561198
 21
-1790.714523454639
 31
0.0
  0
INSERT
  5
516
  8
__-1
 62
     0
  2
_DOT
 10
2641.916666666667
 20
-1790.714523454639
 30
0.0
 41
2.99981689453125
 42
2.99981689453125
 43
2.99981689453125
  0
INSERT
  5
517
  8
__-1
 62
     0
  2
_DOT
 10
2623.916666666667
 20
-1790.714523454639
 30
0.0
 41
2.99981689453125
 42
2.99981689453125
 43
2.99981689453125
 50
180.0
  0
TEXT
  5
518
  8
__-1
  6
CONTINUOUS
 62
     0
 10
2642.746902708023
 20
-1788.214523454639
 30
0.0
 40
16.34353298611111
  1
18
  7
YUGOTHIC_BOLD
  0
POINT
  5
519
  8
DEFPOINTS
 62
     0
 10
2641.916666666667
 20
-1814.235356787973
 30
0.0
  0
POINT
  5
51A
  8
DEFPOINTS
 62
     0
 10
2623.916666666667
 20
-1787.235356787973
 30
0.0
  0
POINT
  5
51B
  8
DEFPOINTS
 62
     0
 10
2623.916666666667
 20
-1814.235356787973
 30
0.0
  0
ENDBLK
  5
149
  8
0
  0
BLOCK
  8
0
  2
*D74
 70
     1
 10
0.0
 20
0.0
 30
0.0
  3
*D74
  1

  0
LINE
  5
51D
  8
__-1
  6
CONTINUOUS
 62
     0
 10
2447.639213778139
 20
-1028.066666666667
 30
0.0
 11
2447.639213778139
 21
-1090.933333333333
 31
0.0
  0
LINE
  5
51E
  8
__-1
  6
CONTINUOUS
 62
     0
 10
2429.639213778139
 20
-1028.066666666667
 30
0.0
 11
2429.639213778139
 21
-1090.933333333333
 31
0.0
  0
LINE
  5
51F
  8
__-1
  6
CONTINUOUS
 62
     0
 10
2447.639213778139
 20
-1090.933333333333
 30
0.0
 11
2429.639213778139
 21
-1090.933333333333
 31
0.0
  0
LINE
  5
520
  8
__-1
  6
CONTINUOUS
 62
     0
 10
2450.63903067267
 20
-1090.933333333333
 30
0.0
 11
2453.638847567202
 21
-1090.933333333333
 31
0.0
  0
LINE
  5
521
  8
__-1
  6
CONTINUOUS
 62
     0
 10
2426.639396883608
 20
-1090.933333333333
 30
0.0
 11
2423.639579989077
 21
-1090.933333333333
 31
0.0
  0
INSERT
  5
522
  8
__-1
 62
     0
  2
_DOT
 10
2447.639213778139
 20
-1090.933333333333
 30
0.0
 41
2.99981689453125
 42
2.99981689453125
 43
2.99981689453125
 50
180.0
  0
INSERT
  5
523
  8
__-1
 62
     0
  2
_DOT
 10
2429.639213778139
 20
-1090.933333333333
 30
0.0
 41
2.99981689453125
 42
2.99981689453125
 43
2.99981689453125
  0
TEXT
  5
524
  8
__-1
  6
CONTINUOUS
 62
     0
 10
2421.906549054263
 20
-1088.433333333333
 30
0.0
 40
16.34353298611111
  1
18
  7
YUGOTHIC_BOLD
  0
POINT
  5
525
  8
DEFPOINTS
 62
     0
 10
2447.639213778139
 20
-1018.066666666667
 30
0.0
  0
POINT
  5
526
  8
DEFPOINTS
 62
     0
 10
2429.639213778139
 20
-1018.066666666667
 30
0.0
  0
POINT
  5
527
  8
DEFPOINTS
 62
     0
 10
2429.639213778139
 20
-1090.933333333333
 30
0.0
  0
ENDBLK
  5
14C
  8
0
  0
BLOCK
  8
0
  2
*D75
 70
     1
 10
0.0
 20
0.0
 30
0.0
  3
*D75
  1

  0
LINE
  5
528
  8
__-1
  6
CONTINUOUS
 62
     0
 10
2419.639213778139
 20
-1018.066666666667
 30
0.0
 11
2394.579396328964
 21
-1018.066666666667
 31
0.0
  0
LINE
  5
529
  8
__-1
  6
CONTINUOUS
 62
     0
 10
2419.639213778139
 20
-468.0666666666666
 30
0.0
 11
2394.579396328964
 21
-468.0666666666666
 31
0.0
  0
LINE
  5
52A
  8
__-1
  6
CONTINUOUS
 62
     0
 10
2394.579396328964
 20
-1015.066849772135
 30
0.0
 11
2394.579396328964
 21
-471.0664835611979
 31
0.0
  0
INSERT
  5
52B
  8
__-1
 62
     0
  2
_DOT
 10
2394.579396328964
 20
-1018.066666666667
 30
0.0
 41
2.99981689453125
 42
2.99981689453125
 43
2.99981689453125
 50
270.0
  0
INSERT
  5
52C
  8
__-1
 62
     0
  2
_DOT
 10
2394.579396328964
 20
-468.0666666666666
 30
0.0
 41
2.99981689453125
 42
2.99981689453125
 43
2.99981689453125
 50
90.0
  0
TEXT
  5
52D
  8
__-1
  6
CONTINUOUS
 62
     0
 10
2392.079396328964
 20
-766.4145709325398
 30
0.0
 40
16.34353298611111
  1
550
 50
90.0
  7
YUGOTHIC_BOLD
  0
POINT
  5
52E
  8
DEFPOINTS
 62
     0
 10
2429.639213778139
 20
-1018.066666666667
 30
0.0
  0
POINT
  5
52F
  8
DEFPOINTS
 62
     0
 10
2429.639213778139
 20
-468.0666666666666
 30
0.0
  0
POINT
  5
530
  8
DEFPOINTS
 62
     0
 10
2394.579396328964
 20
-468.0666666666666
 30
0.0
  0
ENDBLK
  5
14F
  8
0
  0
BLOCK
  8
0
  2
*D76
 70
     1
 10
0.0
 20
0.0
 30
0.0
  3
*D76
  1

  0
LINE
  5
531
  8
__-1
  6
CONTINUOUS
 62
     0
 10
2597.916666666667
 20
-743.0666666666666
 30
0.0
 11
2564.030140027887
 21
-743.0666666666666
 31
0.0
  0
LINE
  5
532
  8
__-1
  6
CONTINUOUS
 62
     0
 10
2597.916666666667
 20
-1018.066666666667
 30
0.0
 11
2564.030140027887
 21
-1018.066666666667
 31
0.0
  0
LINE
  5
533
  8
__-1
  6
CONTINUOUS
 62
     0
 10
2564.030140027887
 20
-746.0664835611979
 30
0.0
 11
2564.030140027887
 21
-1015.066849772135
 31
0.0
  0
INSERT
  5
534
  8
__-1
 62
     0
  2
_DOT
 10
2564.030140027887
 20
-743.0666666666666
 30
0.0
 41
2.99981689453125
 42
2.99981689453125
 43
2.99981689453125
 50
90.0
  0
INSERT
  5
535
  8
__-1
 62
     0
  2
_DOT
 10
2564.030140027887
 20
-1018.066666666667
 30
0.0
 41
2.99981689453125
 42
2.99981689453125
 43
2.99981689453125
 50
270.0
  0
TEXT
  5
536
  8
__-1
  6
CONTINUOUS
 62
     0
 10
2561.530140027887
 20
-903.9145709325398
 30
0.0
 40
16.34353298611111
  1
275
 50
90.0
  7
YUGOTHIC_BOLD
  0
POINT
  5
537
  8
DEFPOINTS
 62
     0
 10
2607.916666666667
 20
-743.0666666666666
 30
0.0
  0
POINT
  5
538
  8
DEFPOINTS
 62
     0
 10
2607.916666666667
 20
-1018.066666666667
 30
0.0
  0
POINT
  5
539
  8
DEFPOINTS
 62
     0
 10
2564.030140027887
 20
-1018.066666666667
 30
0.0
  0
ENDBLK
  5
152
  8
0
  0
BLOCK
  8
0
  2
*D77
 70
     1
 10
0.0
 20
0.0
 30
0.0
  3
*D77
  1

  0
LINE
  5
53A
  8
__-1
  6
CONTINUOUS
 62
     0
 10
2597.916666666667
 20
-1620.235356787973
 30
0.0
 11
2563.060750484466
 21
-1620.235356787973
 31
0.0
  0
LINE
  5
53B
  8
__-1
  6
CONTINUOUS
 62
     0
 10
2597.916666666667
 20
-1895.235356787973
 30
0.0
 11
2563.060750484466
 21
-1895.235356787973
 31
0.0
  0
LINE
  5
53C
  8
__-1
  6
CONTINUOUS
 62
     0
 10
2563.060750484466
 20
-1623.235173682504
 30
0.0
 11
2563.060750484466
 21
-1892.235539893441
 31
0.0
  0
INSERT
  5
53D
  8
__-1
 62
     0
  2
_DOT
 10
2563.060750484466
 20
-1620.235356787973
 30
0.0
 41
2.99981689453125
 42
2.99981689453125
 43
2.99981689453125
 50
90.0
  0
INSERT
  5
53E
  8
__-1
 62
     0
  2
_DOT
 10
2563.060750484466
 20
-1895.235356787973
 30
0.0
 41
2.99981689453125
 42
2.99981689453125
 43
2.99981689453125
 50
270.0
  0
TEXT
  5
53F
  8
__-1
  6
CONTINUOUS
 62
     0
 10
2560.560750484466
 20
-1781.083261053845
 30
0.0
 40
16.34353298611111
  1
275
 50
90.0
  7
YUGOTHIC_BOLD
  0
POINT
  5
540
  8
DEFPOINTS
 62
     0
 10
2607.916666666667
 20
-1620.235356787973
 30
0.0
  0
POINT
  5
541
  8
DEFPOINTS
 62
     0
 10
2607.916666666667
 20
-1895.235356787973
 30
0.0
  0
POINT
  5
542
  8
DEFPOINTS
 62
     0
 10
2563.060750484466
 20
-1895.235356787973
 30
0.0
  0
ENDBLK
  5
155
  8
0
  0
BLOCK
  8
0
  2
*D78
 70
     1
 10
0.0
 20
0.0
 30
0.0
  3
*D78
  1

  0
LINE
  5
543
  8
__-1
  6
CONTINUOUS
 62
     0
 10
555.9524883753511
 20
-681.8046018592329
 30
0.0
 11
555.9524883753511
 21
-679.7111898162864
 31
0.0
  0
LINE
  5
544
  8
__-1
  6
CONTINUOUS
 62
     0
 10
551.4524883753509
 20
-681.8046018592329
 30
0.0
 11
551.4524883753509
 21
-679.7111898162864
 31
0.0
  0
LINE
  5
545
  8
__-1
  6
CONTINUOUS
 62
     0
 10
555.9524883753511
 20
-679.7111898162864
 30
0.0
 11
551.4524883753509
 21
-679.7111898162864
 31
0.0
  0
LINE
  5
546
  8
__-1
  6
CONTINUOUS
 62
     0
 10
558.9523052698823
 20
-679.7111898162864
 30
0.0
 11
561.9521221644136
 21
-679.7111898162864
 31
0.0
  0
LINE
  5
547
  8
__-1
  6
CONTINUOUS
 62
     0
 10
548.4526714808196
 20
-679.7111898162864
 30
0.0
 11
545.4528545862884
 21
-679.7111898162864
 31
0.0
  0
INSERT
  5
548
  8
__-1
 62
     0
  2
_DOT
 10
555.9524883753511
 20
-679.7111898162864
 30
0.0
 41
2.99981689453125
 42
2.99981689453125
 43
2.99981689453125
 50
180.0
  0
INSERT
  5
549
  8
__-1
 62
     0
  2
_DOT
 10
551.4524883753509
 20
-679.7111898162864
 30
0.0
 41
2.99981689453125
 42
2.99981689453125
 43
2.99981689453125
  0
TEXT
  5
54A
  8
__-1
  6
CONTINUOUS
 62
     0
 10
534.2459014871234
 20
-677.2111898162864
 30
0.0
 40
16.34353298611111
  1
4.5
  7
YUGOTHIC_BOLD
  0
POINT
  5
54B
  8
DEFPOINTS
 62
     0
 10
555.9524883753511
 20
-691.8046018592329
 30
0.0
  0
POINT
  5
54C
  8
DEFPOINTS
 62
     0
 10
551.4524883753509
 20
-691.8046018592329
 30
0.0
  0
POINT
  5
54D
  8
DEFPOINTS
 62
     0
 10
551.4524883753509
 20
-679.7111898162864
 30
0.0
  0
ENDBLK
  5
158
  8
0
  0
BLOCK
  8
0
  2
*D79
 70
     1
 10
0.0
 20
0.0
 30
0.0
  3
*D79
  1

  0
LINE
  5
54E
  8
__-1
  6
CONTINUOUS
 62
     0
 10
557.9524883753511
 20
-747.6598650171275
 30
0.0
 11
557.9524883753511
 21
-764.6112363819686
 31
0.0
  0
LINE
  5
54F
  8
__-1
  6
CONTINUOUS
 62
     0
 10
549.4524883753513
 20
-746.701218400586
 30
0.0
 11
549.4524883753513
 21
-764.6112363819686
 31
0.0
  0
LINE
  5
550
  8
__-1
  6
CONTINUOUS
 62
     0
 10
557.9524883753511
 20
-764.6112363819686
 30
0.0
 11
549.4524883753513
 21
-764.6112363819686
 31
0.0
  0
LINE
  5
551
  8
__-1
  6
CONTINUOUS
 62
     0
 10
560.9523052698823
 20
-764.6112363819686
 30
0.0
 11
563.9521221644136
 21
-764.6112363819686
 31
0.0
  0
LINE
  5
552
  8
__-1
  6
CONTINUOUS
 62
     0
 10
546.4526714808201
 20
-764.6112363819686
 30
0.0
 11
543.4528545862888
 21
-764.6112363819686
 31
0.0
  0
INSERT
  5
553
  8
__-1
 62
     0
  2
_DOT
 10
557.9524883753511
 20
-764.6112363819686
 30
0.0
 41
2.99981689453125
 42
2.99981689453125
 43
2.99981689453125
 50
180.0
  0
INSERT
  5
554
  8
__-1
 62
     0
  2
_DOT
 10
549.4524883753513
 20
-764.6112363819686
 30
0.0
 41
2.99981689453125
 42
2.99981689453125
 43
2.99981689453125
  0
TEXT
  5
555
  8
__-1
  6
CONTINUOUS
 62
     0
 10
534.2459014871237
 20
-762.1112363819686
 30
0.0
 40
16.34353298611111
  1
8.5
  7
YUGOTHIC_BOLD
  0
POINT
  5
556
  8
DEFPOINTS
 62
     0
 10
557.9524883753511
 20
-737.6598650171275
 30
0.0
  0
POINT
  5
557
  8
DEFPOINTS
 62
     0
 10
549.4524883753513
 20
-736.701218400586
 30
0.0
  0
POINT
  5
8EF
  8
DEFPOINTS
 62
     0
 10
549.4524883753513
 20
-764.6112363819686
 30
0.0
  0
ENDBLK
  5
15B
  8
0
  0
BLOCK
  8
0
  2
*D80
 70
     1
 10
0.0
 20
0.0
 30
0.0
  3
*D80
  1

  0
LINE
  5
558
  8
__-1
  6
CONTINUOUS
 62
     0
 10
860.7024883753511
 20
-576.6029580856598
 30
0.0
 11
860.7024883753511
 21
-565.3511807218113
 31
0.0
  0
LINE
  5
559
  8
__-1
  6
CONTINUOUS
 62
     0
 10
773.7024883753511
 20
-576.6029580856598
 30
0.0
 11
773.7024883753511
 21
-565.3511807218113
 31
0.0
  0
LINE
  5
55A
  8
__-1
  6
CONTINUOUS
 62
     0
 10
857.7026714808198
 20
-565.3511807218113
 30
0.0
 11
776.7023052698823
 21
-565.3511807218113
 31
0.0
  0
INSERT
  5
55B
  8
__-1
 62
     0
  2
_DOT
 10
860.7024883753511
 20
-565.3511807218113
 30
0.0
 41
2.99981689453125
 42
2.99981689453125
 43
2.99981689453125
  0
INSERT
  5
55C
  8
__-1
 62
     0
  2
_DOT
 10
773.7024883753511
 20
-565.3511807218113
 30
0.0
 41
2.99981689453125
 42
2.99981689453125
 43
2.99981689453125
 50
180.0
  0
TEXT
  5
55D
  8
__-1
  6
CONTINUOUS
 62
     0
 10
801.637218864769
 20
-562.8511807218113
 30
0.0
 40
16.34353298611111
  1
87
  7
YUGOTHIC_BOLD
  0
POINT
  5
55E
  8
DEFPOINTS
 62
     0
 10
860.7024883753511
 20
-586.6029580856598
 30
0.0
  0
POINT
  5
55F
  8
DEFPOINTS
 62
     0
 10
773.7024883753511
 20
-586.6029580856598
 30
0.0
  0
POINT
  5
560
  8
DEFPOINTS
 62
     0
 10
773.7024883753511
 20
-565.3511807218113
 30
0.0
  0
ENDBLK
  5
15E
  8
0
  0
BLOCK
  8
0
  2
*D81
 70
     1
 10
0.0
 20
0.0
 30
0.0
  3
*D81
  1

  0
LINE
  5
561
  8
__-1
  6
CONTINUOUS
 62
     0
 10
860.7024883753511
 20
-889.5691934122098
 30
0.0
 11
860.7024883753511
 21
-882.027347250647
 31
0.0
  0
LINE
  5
562
  8
__-1
  6
CONTINUOUS
 62
     0
 10
678.7024883753511
 20
-898.5691934122098
 30
0.0
 11
678.7024883753511
 21
-882.027347250647
 31
0.0
  0
LINE
  5
563
  8
__-1
  6
CONTINUOUS
 62
     0
 10
857.7026714808198
 20
-882.027347250647
 30
0.0
 11
681.7023052698823
 21
-882.027347250647
 31
0.0
  0
INSERT
  5
564
  8
__-1
 62
     0
  2
_DOT
 10
860.7024883753511
 20
-882.027347250647
 30
0.0
 41
2.99981689453125
 42
2.99981689453125
 43
2.99981689453125
  0
INSERT
  5
565
  8
__-1
 62
     0
  2
_DOT
 10
678.7024883753511
 20
-882.027347250647
 30
0.0
 41
2.99981689453125
 42
2.99981689453125
 43
2.99981689453125
 50
180.0
  0
TEXT
  5
566
  8
__-1
  6
CONTINUOUS
 62
     0
 10
745.1871888961845
 20
-879.527347250647
 30
0.0
 40
16.34353298611111
  1
182
  7
YUGOTHIC_BOLD
  0
POINT
  5
567
  8
DEFPOINTS
 62
     0
 10
860.7024883753511
 20
-899.5691934122098
 30
0.0
  0
POINT
  5
568
  8
DEFPOINTS
 62
     0
 10
678.7024883753511
 20
-908.5691934122098
 30
0.0
  0
POINT
  5
569
  8
DEFPOINTS
 62
     0
 10
678.7024883753511
 20
-882.027347250647
 30
0.0
  0
ENDBLK
  5
161
  8
0
  0
BLOCK
  8
0
  2
*D82
 70
     1
 10
0.0
 20
0.0
 30
0.0
  3
*D82
  1

  0
LINE
  5
56A
  8
__-1
  6
CONTINUOUS
 62
     0
 10
681.7024883753511
 20
-999.5456040226898
 30
0.0
 11
681.7024883753511
 21
-993.5611282551718
 31
0.0
  0
LINE
  5
56B
  8
__-1
  6
CONTINUOUS
 62
     0
 10
675.7024883753511
 20
-999.5456040226898
 30
0.0
 11
675.7024883753511
 21
-993.5611282551718
 31
0.0
  0
LINE
  5
56C
  8
__-1
  6
CONTINUOUS
 62
     0
 10
681.7024883753511
 20
-993.5611282551718
 30
0.0
 11
675.7024883753511
 21
-993.5611282551718
 31
0.0
  0
LINE
  5
56D
  8
__-1
  6
CONTINUOUS
 62
     0
 10
684.7023052698823
 20
-993.5611282551718
 30
0.0
 11
687.7021221644136
 21
-993.5611282551718
 31
0.0
  0
LINE
  5
56E
  8
__-1
  6
CONTINUOUS
 62
     0
 10
672.7026714808198
 20
-993.5611282551718
 30
0.0
 11
669.7028545862886
 21
-993.5611282551718
 31
0.0
  0
INSERT
  5
56F
  8
__-1
 62
     0
  2
_DOT
 10
681.7024883753511
 20
-993.5611282551718
 30
0.0
 41
2.99981689453125
 42
2.99981689453125
 43
2.99981689453125
 50
180.0
  0
INSERT
  5
570
  8
__-1
 62
     0
  2
_DOT
 10
675.7024883753511
 20
-993.5611282551718
 30
0.0
 41
2.99981689453125
 42
2.99981689453125
 43
2.99981689453125
  0
TEXT
  5
571
  8
__-1
  6
CONTINUOUS
 62
     0
 10
670.5307218822956
 20
-991.0611282551718
 30
0.0
 40
16.34353298611111
  1
6
  7
YUGOTHIC_BOLD
  0
POINT
  5
572
  8
DEFPOINTS
 62
     0
 10
681.7024883753511
 20
-1009.54560402269
 30
0.0
  0
POINT
  5
573
  8
DEFPOINTS
 62
     0
 10
675.7024883753511
 20
-1009.54560402269
 30
0.0
  0
POINT
  5
8F5
  8
DEFPOINTS
 62
     0
 10
675.7024883753511
 20
-993.5611282551718
 30
0.0
  0
ENDBLK
  5
164
  8
0
  0
BLOCK
  8
0
  2
*D83
 70
     1
 10
0.0
 20
0.0
 30
0.0
  3
*D83
  1

  0
LINE
  5
574
  8
__-1
  6
CONTINUOUS
 62
     0
 10
318.7024883753512
 20
-604.6029580856598
 30
0.0
 11
283.7024883753512
 21
-604.6029580856598
 31
0.0
  0
LINE
  5
575
  8
__-1
  6
CONTINUOUS
 62
     0
 10
318.7024883753512
 20
-586.6029580856598
 30
0.0
 11
283.7024883753512
 21
-586.6029580856598
 31
0.0
  0
LINE
  5
576
  8
__-1
  6
CONTINUOUS
 62
     0
 10
283.7024883753512
 20
-604.6029580856598
 30
0.0
 11
283.7024883753512
 21
-586.6029580856598
 31
0.0
  0
LINE
  5
577
  8
__-1
  6
CONTINUOUS
 62
     0
 10
283.7024883753512
 20
-607.602774980191
 30
0.0
 11
283.7024883753512
 21
-610.6025918747223
 31
0.0
  0
LINE
  5
578
  8
__-1
  6
CONTINUOUS
 62
     0
 10
283.7024883753512
 20
-583.6031411911285
 30
0.0
 11
283.7024883753512
 21
-580.6033242965973
 31
0.0
  0
INSERT
  5
579
  8
__-1
 62
     0
  2
_DOT
 10
283.7024883753512
 20
-604.6029580856598
 30
0.0
 41
2.99981689453125
 42
2.99981689453125
 43
2.99981689453125
 50
90.0
  0
INSERT
  5
57A
  8
__-1
 62
     0
  2
_DOT
 10
283.7024883753512
 20
-586.6029580856598
 30
0.0
 41
2.99981689453125
 42
2.99981689453125
 43
2.99981689453125
 50
270.0
  0
TEXT
  5
57B
  8
__-1
  6
CONTINUOUS
 62
     0
 10
281.2024883753512
 20
-612.3356228095355
 30
0.0
 40
16.34353298611111
  1
18
 50
90.0
  7
YUGOTHIC_BOLD
  0
POINT
  5
57C
  8
DEFPOINTS
 62
     0
 10
328.7024883753512
 20
-604.6029580856598
 30
0.0
  0
POINT
  5
57D
  8
DEFPOINTS
 62
     0
 10
328.7024883753512
 20
-586.6029580856598
 30
0.0
  0
POINT
  5
57E
  8
DEFPOINTS
 62
     0
 10
283.7024883753512
 20
-586.6029580856598
 30
0.0
  0
ENDBLK
  5
167
  8
0
  0
BLOCK
  8
0
  2
*D84
 70
     1
 10
0.0
 20
0.0
 30
0.0
  3
*D84
  1

  0
LINE
  5
57F
  8
__-1
  6
CONTINUOUS
 62
     0
 10
568.7024883753511
 20
-917.5691934122098
 30
0.0
 11
532.7024883753511
 21
-917.5691934122098
 31
0.0
  0
LINE
  5
580
  8
__-1
  6
CONTINUOUS
 62
     0
 10
568.7024883753511
 20
-899.5691934122098
 30
0.0
 11
532.7024883753511
 21
-899.5691934122098
 31
0.0
  0
LINE
  5
581
  8
__-1
  6
CONTINUOUS
 62
     0
 10
532.7024883753511
 20
-917.5691934122098
 30
0.0
 11
532.7024883753511
 21
-899.5691934122098
 31
0.0
  0
LINE
  5
582
  8
__-1
  6
CONTINUOUS
 62
     0
 10
532.7024883753511
 20
-920.569010306741
 30
0.0
 11
532.7024883753511
 21
-923.5688272012723
 31
0.0
  0
LINE
  5
583
  8
__-1
  6
CONTINUOUS
 62
     0
 10
532.7024883753511
 20
-896.5693765176785
 30
0.0
 11
532.7024883753511
 21
-893.5695596231473
 31
0.0
  0
INSERT
  5
584
  8
__-1
 62
     0
  2
_DOT
 10
532.7024883753511
 20
-917.5691934122098
 30
0.0
 41
2.99981689453125
 42
2.99981689453125
 43
2.99981689453125
 50
90.0
  0
INSERT
  5
585
  8
__-1
 62
     0
  2
_DOT
 10
532.7024883753511
 20
-899.5691934122098
 30
0.0
 41
2.99981689453125
 42
2.99981689453125
 43
2.99981689453125
 50
270.0
  0
TEXT
  5
586
  8
__-1
  6
CONTINUOUS
 62
     0
 10
530.2024883753511
 20
-925.3018581360855
 30
0.0
 40
16.34353298611111
  1
18
 50
90.0
  7
YUGOTHIC_BOLD
  0
POINT
  5
587
  8
DEFPOINTS
 62
     0
 10
578.7024883753511
 20
-917.5691934122098
 30
0.0
  0
POINT
  5
588
  8
DEFPOINTS
 62
     0
 10
578.7024883753511
 20
-899.5691934122098
 30
0.0
  0
POINT
  5
589
  8
DEFPOINTS
 62
     0
 10
532.7024883753511
 20
-899.5691934122098
 30
0.0
  0
ENDBLK
  5
16A
  8
0
  0
BLOCK
  8
0
  2
*D85
 70
     1
 10
0.0
 20
0.0
 30
0.0
  3
*D85
  1

  0
LINE
  5
58A
  8
__-1
  6
CONTINUOUS
 62
     0
 10
860.7024883753511
 20
-1264.265629187825
 30
0.0
 11
860.7024883753511
 21
-1212.64017289184
 31
0.0
  0
LINE
  5
58B
  8
__-1
  6
CONTINUOUS
 62
     0
 10
526.7024883753511
 20
-1264.265629187825
 30
0.0
 11
526.7024883753511
 21
-1212.64017289184
 31
0.0
  0
LINE
  5
58C
  8
__-1
  6
CONTINUOUS
 62
     0
 10
857.7026714808198
 20
-1212.64017289184
 30
0.0
 11
529.7023052698823
 21
-1212.64017289184
 31
0.0
  0
INSERT
  5
58D
  8
__-1
 62
     0
  2
_DOT
 10
860.7024883753511
 20
-1212.64017289184
 30
0.0
 41
2.99981689453125
 42
2.99981689453125
 43
2.99981689453125
  0
INSERT
  5
58E
  8
__-1
 62
     0
  2
_DOT
 10
526.7024883753511
 20
-1212.64017289184
 30
0.0
 41
2.99981689453125
 42
2.99981689453125
 43
2.99981689453125
 50
180.0
  0
TEXT
  5
58F
  8
__-1
  6
CONTINUOUS
 62
     0
 10
669.9654523717135
 20
-1210.14017289184
 30
0.0
 40
16.34353298611111
  1
334
  7
YUGOTHIC_BOLD
  0
POINT
  5
590
  8
DEFPOINTS
 62
     0
 10
860.7024883753511
 20
-1274.265629187825
 30
0.0
  0
POINT
  5
591
  8
DEFPOINTS
 62
     0
 10
526.7024883753511
 20
-1274.265629187825
 30
0.0
  0
POINT
  5
592
  8
DEFPOINTS
 62
     0
 10
526.7024883753511
 20
-1212.64017289184
 30
0.0
  0
ENDBLK
  5
16D
  8
0
  0
BLOCK
  8
0
  2
*D86
 70
     1
 10
0.0
 20
0.0
 30
0.0
  3
*D86
  1

  0
LINE
  5
593
  8
__-1
  6
CONTINUOUS
 62
     0
 10
870.7024883753511
 20
-1299.265629187825
 30
0.0
 11
915.7024883753511
 21
-1299.265629187825
 31
0.0
  0
LINE
  5
594
  8
__-1
  6
CONTINUOUS
 62
     0
 10
870.7024883753511
 20
-1249.265629187825
 30
0.0
 11
915.7024883753511
 21
-1249.265629187825
 31
0.0
  0
LINE
  5
595
  8
__-1
  6
CONTINUOUS
 62
     0
 10
915.7024883753511
 20
-1296.265812293294
 30
0.0
 11
915.7024883753511
 21
-1252.265446082356
 31
0.0
  0
INSERT
  5
596
  8
__-1
 62
     0
  2
_DOT
 10
915.7024883753511
 20
-1299.265629187825
 30
0.0
 41
2.99981689453125
 42
2.99981689453125
 43
2.99981689453125
 50
270.0
  0
INSERT
  5
597
  8
__-1
 62
     0
  2
_DOT
 10
915.7024883753511
 20
-1249.265629187825
 30
0.0
 41
2.99981689453125
 42
2.99981689453125
 43
2.99981689453125
 50
90.0
  0
TEXT
  5
598
  8
__-1
  6
CONTINUOUS
 62
     0
 10
913.2024883753509
 20
-1289.830898698407
 30
0.0
 40
16.34353298611111
  1
50
 50
90.0
  7
YUGOTHIC_BOLD
  0
POINT
  5
599
  8
DEFPOINTS
 62
     0
 10
860.7024883753511
 20
-1299.265629187825
 30
0.0
  0
POINT
  5
59A
  8
DEFPOINTS
 62
     0
 10
860.7024883753511
 20
-1249.265629187825
 30
0.0
  0
POINT
  5
59B
  8
DEFPOINTS
 62
     0
 10
915.7024883753511
 20
-1249.265629187825
 30
0.0
  0
ENDBLK
  5
170
  8
0
  0
BLOCK
  8
0
  2
*D87
 70
     1
 10
0.0
 20
0.0
 30
0.0
  3
*D87
  1

  0
LINE
  5
59C
  8
__-1
  6
CONTINUOUS
 62
     0
 10
516.7024883753511
 20
-1274.265629187826
 30
0.0
 11
496.219155042018
 21
-1274.265629187826
 31
0.0
  0
LINE
  5
59D
  8
__-1
  6
CONTINUOUS
 62
     0
 10
516.7024883753511
 20
-1249.265629187825
 30
0.0
 11
496.219155042018
 21
-1249.265629187825
 31
0.0
  0
LINE
  5
59E
  8
__-1
  6
CONTINUOUS
 62
     0
 10
496.219155042018
 20
-1274.265629187826
 30
0.0
 11
496.219155042018
 21
-1249.265629187825
 31
0.0
  0
LINE
  5
59F
  8
__-1
  6
CONTINUOUS
 62
     0
 10
496.219155042018
 20
-1277.265446082357
 30
0.0
 11
496.219155042018
 21
-1280.265262976888
 31
0.0
  0
LINE
  5
5A0
  8
__-1
  6
CONTINUOUS
 62
     0
 10
496.219155042018
 20
-1246.265812293294
 30
0.0
 11
496.219155042018
 21
-1243.265995398763
 31
0.0
  0
INSERT
  5
5A1
  8
__-1
 62
     0
  2
_DOT
 10
496.219155042018
 20
-1274.265629187826
 30
0.0
 41
2.99981689453125
 42
2.99981689453125
 43
2.99981689453125
 50
90.0
  0
INSERT
  5
5A2
  8
__-1
 62
     0
  2
_DOT
 10
496.219155042018
 20
-1249.265629187825
 30
0.0
 41
2.99981689453125
 42
2.99981689453125
 43
2.99981689453125
 50
270.0
  0
TEXT
  5
5A3
  8
__-1
  6
CONTINUOUS
 62
     0
 10
493.7191550420177
 20
-1277.330898698408
 30
0.0
 40
16.34353298611111
  1
25
 50
90.0
  7
YUGOTHIC_BOLD
  0
POINT
  5
5A4
  8
DEFPOINTS
 62
     0
 10
526.7024883753511
 20
-1274.265629187826
 30
0.0
  0
POINT
  5
909
  8
DEFPOINTS
 62
     0
 10
526.7024883753511
 20
-1249.265629187825
 30
0.0
  0
POINT
  5
90A
  8
DEFPOINTS
 62
     0
 10
496.219155042018
 20
-1249.265629187825
 30
0.0
  0
ENDBLK
  5
173
  8
0
  0
BLOCK
  8
0
  2
*D88
 70
     1
 10
0.0
 20
0.0
 30
0.0
  3
*D88
  1

  0
LINE
  5
5A5
  8
__-1
  6
CONTINUOUS
 62
     0
 10
521.386255846629
 20
-1299.265629187826
 30
0.0
 11
496.219155042018
 21
-1299.265629187826
 31
0.0
  0
LINE
  5
5A6
  8
__-1
  6
CONTINUOUS
 62
     0
 10
516.7024883753511
 20
-1274.265629187826
 30
0.0
 11
496.219155042018
 21
-1274.265629187826
 31
0.0
  0
LINE
  5
5A7
  8
__-1
  6
CONTINUOUS
 62
     0
 10
496.219155042018
 20
-1299.265629187826
 30
0.0
 11
496.219155042018
 21
-1274.265629187826
 31
0.0
  0
LINE
  5
5A8
  8
__-1
  6
CONTINUOUS
 62
     0
 10
496.219155042018
 20
-1302.265446082357
 30
0.0
 11
496.219155042018
 21
-1305.265262976888
 31
0.0
  0
LINE
  5
5A9
  8
__-1
  6
CONTINUOUS
 62
     0
 10
496.219155042018
 20
-1271.265812293294
 30
0.0
 11
496.219155042018
 21
-1268.265995398763
 31
0.0
  0
INSERT
  5
5AA
  8
__-1
 62
     0
  2
_DOT
 10
496.219155042018
 20
-1299.265629187826
 30
0.0
 41
2.99981689453125
 42
2.99981689453125
 43
2.99981689453125
 50
90.0
  0
INSERT
  5
5AB
  8
__-1
 62
     0
  2
_DOT
 10
496.219155042018
 20
-1274.265629187826
 30
0.0
 41
2.99981689453125
 42
2.99981689453125
 43
2.99981689453125
 50
270.0
  0
TEXT
  5
5AC
  8
__-1
  6
CONTINUOUS
 62
     0
 10
493.7191550420177
 20
-1302.330898698408
 30
0.0
 40
16.34353298611111
  1
25
 50
90.0
  7
YUGOTHIC_BOLD
  0
POINT
  5
5AD
  8
DEFPOINTS
 62
     0
 10
531.386255846629
 20
-1299.265629187826
 30
0.0
  0
POINT
  5
90C
  8
DEFPOINTS
 62
     0
 10
526.7024883753511
 20
-1274.265629187826
 30
0.0
  0
POINT
  5
90D
  8
DEFPOINTS
 62
     0
 10
496.219155042018
 20
-1274.265629187826
 30
0.0
  0
ENDBLK
  5
176
  8
0
  0
BLOCK
  8
0
  2
*D89
 70
     1
 10
0.0
 20
0.0
 30
0.0
  3
*D89
  1

  0
LINE
  5
5AE
  8
__-1
  6
CONTINUOUS
 62
     0
 10
576.7024883753511
 20
-1254.768274927626
 30
0.0
 11
576.7024883753511
 21
-1241.561531499461
 31
0.0
  0
LINE
  5
5AF
  8
__-1
  6
CONTINUOUS
 62
     0
 10
526.7024883753511
 20
-1239.265629187825
 30
0.0
 11
526.7024883753511
 21
-1241.561531499461
 31
0.0
  0
LINE
  5
5B0
  8
__-1
  6
CONTINUOUS
 62
     0
 10
573.7026714808198
 20
-1241.561531499461
 30
0.0
 11
529.7023052698823
 21
-1241.561531499461
 31
0.0
  0
INSERT
  5
5B1
  8
__-1
 62
     0
  2
_DOT
 10
576.7024883753511
 20
-1241.561531499461
 30
0.0
 41
2.99981689453125
 42
2.99981689453125
 43
2.99981689453125
  0
INSERT
  5
5B2
  8
__-1
 62
     0
  2
_DOT
 10
526.7024883753511
 20
-1241.561531499461
 30
0.0
 41
2.99981689453125
 42
2.99981689453125
 43
2.99981689453125
 50
180.0
  0
TEXT
  5
5B3
  8
__-1
  6
CONTINUOUS
 62
     0
 10
536.137218864769
 20
-1239.06153149946
 30
0.0
 40
16.34353298611111
  1
50
  7
YUGOTHIC_BOLD
  0
POINT
  5
5B4
  8
DEFPOINTS
 62
     0
 10
576.7024883753511
 20
-1264.768274927626
 30
0.0
  0
POINT
  5
5B5
  8
DEFPOINTS
 62
     0
 10
526.7024883753511
 20
-1249.265629187825
 30
0.0
  0
POINT
  5
5B6
  8
DEFPOINTS
 62
     0
 10
526.7024883753511
 20
-1241.561531499461
 30
0.0
  0
ENDBLK
  5
179
  8
0
  0
BLOCK
  8
0
  2
CALLOUT-4
 70
     0
 10
0.0
 20
0.0
 30
0.0
  3
CALLOUT-4
  1

  0
LINE
  5
5B7
  8
__
  6
CONTINUOUS
 62
     1
 10
0.0
 20
0.0
 30
0.0
 11
-24.30966462463539
 21
61.54753797711305
 31
0.0
  0
LINE
  5
5B8
  8
__
  6
CONTINUOUS
 62
     1
 10
20.0
 20
0.0
 30
0.0
 11
0.0
 21
0.0
 31
0.0
  0
TEXT
  5
5B9
  8
__
 62
     1
 10
21.19
 20
19.33222222222219
 30
0.0
 40
10.8956886574074
  1
φ19.5貫通穴 
  7
YUGOTHIC_BOLD
 11
21.19
 21
30.22791087962959
 31
0.0
 73
     3
  0
TEXT
  5
5BA
  8
__
 62
     1
 10
21.19
 20
-1.834444444444449
 30
0.0
 40
10.8956886574074
  1
φ19パイプ通し穴
  7
YUGOTHIC_BOLD
 11
21.19
 21
9.061244212962947
 31
0.0
 73
     3
  0
ENDBLK
  5
17C
  8
0
  0
BLOCK
  8
0
  2
*D91
 70
     1
 10
0.0
 20
0.0
 30
0.0
  3
*D91
  1

  0
LINE
  5
5BB
  8
__-1
  6
CONTINUOUS
 62
     0
 10
3732.545265288577
 20
179.9215890628139
 30
0.0
 11
3776.453606670593
 21
179.9215890628139
 31
0.0
  0
LINE
  5
5BC
  8
__-1
  6
CONTINUOUS
 62
     0
 10
3745.545265288577
 20
219.9215890628139
 30
0.0
 11
3776.453606670593
 21
219.9215890628139
 31
0.0
  0
LINE
  5
5BD
  8
__-1
  6
CONTINUOUS
 62
     0
 10
3776.453606670593
 20
182.9214059573451
 30
0.0
 11
3776.453606670593
 21
216.9217721682826
 31
0.0
  0
INSERT
  5
5BE
  8
__-1
 62
     0
  2
_DOT
 10
3776.453606670593
 20
179.9215890628139
 30
0.0
 41
2.99981689453125
 42
2.99981689453125
 43
2.99981689453125
 50
270.0
  0
INSERT
  5
5BF
  8
__-1
 62
     0
  2
_DOT
 10
3776.453606670593
 20
219.9215890628139
 30
0.0
 41
2.99981689453125
 42
2.99981689453125
 43
2.99981689453125
 50
90.0
  0
TEXT
  5
5C0
  8
__-1
  6
CONTINUOUS
 62
     0
 10
3773.953606670593
 20
184.3563195522315
 30
0.0
 40
16.34353298611111
  1
40
 50
90.0
  7
YUGOTHIC_BOLD
  0
POINT
  5
5C1
  8
DEFPOINTS
 62
     0
 10
3722.545265288577
 20
179.9215890628139
 30
0.0
  0
POINT
  5
5C2
  8
DEFPOINTS
 62
     0
 10
3735.545265288577
 20
219.9215890628139
 30
0.0
  0
POINT
  5
5C3
  8
DEFPOINTS
 62
     0
 10
3776.453606670593
 20
219.9215890628139
 30
0.0
  0
ENDBLK
  5
17F
  8
0
  0
BLOCK
  8
0
  2
*D92
 70
     1
 10
0.0
 20
0.0
 30
0.0
  3
*D92
  1

  0
LINE
  5
5C4
  8
__-1
  6
CONTINUOUS
 62
     0
 10
3732.545265288577
 20
79.92158906281395
 30
0.0
 11
3776.453606670593
 21
79.92158906281395
 31
0.0
  0
LINE
  5
5C5
  8
__-1
  6
CONTINUOUS
 62
     0
 10
3732.545265288577
 20
179.9215890628139
 30
0.0
 11
3776.453606670593
 21
179.9215890628139
 31
0.0
  0
LINE
  5
5C6
  8
__-1
  6
CONTINUOUS
 62
     0
 10
3776.453606670593
 20
82.9214059573452
 30
0.0
 11
3776.453606670593
 21
176.9217721682826
 31
0.0
  0
INSERT
  5
5C7
  8
__-1
 62
     0
  2
_DOT
 10
3776.453606670593
 20
79.92158906281395
 30
0.0
 41
2.99981689453125
 42
2.99981689453125
 43
2.99981689453125
 50
270.0
  0
INSERT
  5
5C8
  8
__-1
 62
     0
  2
_DOT
 10
3776.453606670593
 20
179.9215890628139
 30
0.0
 41
2.99981689453125
 42
2.99981689453125
 43
2.99981689453125
 50
90.0
  0
TEXT
  5
5C9
  8
__-1
  6
CONTINUOUS
 62
     0
 10
3773.953606670593
 20
105.4062895836473
 30
0.0
 40
16.34353298611111
  1
100
 50
90.0
  7
YUGOTHIC_BOLD
  0
POINT
  5
5CA
  8
DEFPOINTS
 62
     0
 10
3722.545265288577
 20
79.92158906281395
 30
0.0
  0
POINT
  5
5CB
  8
DEFPOINTS
 62
     0
 10
3722.545265288577
 20
179.9215890628139
 30
0.0
  0
POINT
  5
5CC
  8
DEFPOINTS
 62
     0
 10
3776.453606670593
 20
179.9215890628139
 30
0.0
  0
ENDBLK
  5
182
  8
0
  0
BLOCK
  8
0
  2
*D93
 70
     1
 10
0.0
 20
0.0
 30
0.0
  3
*D93
  1

  0
LINE
  5
5CD
  8
__-1
  6
CONTINUOUS
 62
     0
 10
3745.545265288577
 20
39.92158906281394
 30
0.0
 11
3763.37027333726
 21
39.92158906281394
 31
0.0
  0
LINE
  5
5CE
  8
__-1
  6
CONTINUOUS
 62
     0
 10
3732.545265288577
 20
79.92158906281395
 30
0.0
 11
3763.37027333726
 21
79.92158906281395
 31
0.0
  0
LINE
  5
5CF
  8
__-1
  6
CONTINUOUS
 62
     0
 10
3763.37027333726
 20
39.92158906281394
 30
0.0
 11
3763.37027333726
 21
5.460814000292991
 31
0.0
  0
LINE
  5
5D0
  8
__-1
  6
CONTINUOUS
 62
     0
 10
3763.37027333726
 20
42.92140595734519
 30
0.0
 11
3763.37027333726
 21
76.9217721682827
 31
0.0
  0
INSERT
  5
5D1
  8
__-1
 62
     0
  2
_DOT
 10
3763.37027333726
 20
39.92158906281394
 30
0.0
 41
2.99981689453125
 42
2.99981689453125
 43
2.99981689453125
 50
270.0
  0
INSERT
  5
5D2
  8
__-1
 62
     0
  2
_DOT
 10
3763.37027333726
 20
79.92158906281395
 30
0.0
 41
2.99981689453125
 42
2.99981689453125
 43
2.99981689453125
 50
90.0
  0
TEXT
  5
5D3
  8
__-1
  6
CONTINUOUS
 62
     0
 10
3760.87027333726
 20
5.626023573705424
 30
0.0
 40
16.34353298611111
  1
40
 50
90.0
  7
YUGOTHIC_BOLD
  0
POINT
  5
5D4
  8
DEFPOINTS
 62
     0
 10
3735.545265288577
 20
39.92158906281394
 30
0.0
  0
POINT
  5
5D5
  8
DEFPOINTS
 62
     0
 10
3722.545265288577
 20
79.92158906281395
 30
0.0
  0
POINT
  5
5D6
  8
DEFPOINTS
 62
     0
 10
3776.453606670593
 20
79.92158906281395
 30
0.0
  0
ENDBLK
  5
185
  8
0
  0
BLOCK
  8
0
  2
*D94
 70
     1
 10
0.0
 20
0.0
 30
0.0
  3
*D94
  1

  0
LINE
  5
5D7
  8
__-1
  6
CONTINUOUS
 62
     0
 10
2597.416666666667
 20
-2525.361632446331
 30
0.0
 11
2568.563301859437
 21
-2525.361632446331
 31
0.0
  0
LINE
  5
5D8
  8
__-1
  6
CONTINUOUS
 62
     0
 10
2597.416666666667
 20
-2375.361632446331
 30
0.0
 11
2568.563301859436
 21
-2375.361632446331
 31
0.0
  0
LINE
  5
5D9
  8
__-1
  6
CONTINUOUS
 62
     0
 10
2568.563301859437
 20
-2522.361815551799
 30
0.0
 11
2568.563301859436
 21
-2378.361449340862
 31
0.0
  0
INSERT
  5
5DA
  8
__-1
 62
     0
  2
_DOT
 10
2568.563301859437
 20
-2525.361632446331
 30
0.0
 41
2.99981689453125
 42
2.99981689453125
 43
2.99981689453125
 50
270.0000000000002
  0
INSERT
  5
5DB
  8
__-1
 62
     0
  2
_DOT
 10
2568.563301859436
 20
-2375.361632446331
 30
0.0
 41
2.99981689453125
 42
2.99981689453125
 43
2.99981689453125
 50
90.00000000000018
  0
TEXT
  5
5DC
  8
__-1
  6
CONTINUOUS
 62
     0
 10
2566.063301859436
 20
-2474.876931925497
 30
0.0
 40
16.34353298611111
  1
150
 50
90.00000000000018
  7
YUGOTHIC_BOLD
  0
POINT
  5
5DD
  8
DEFPOINTS
 62
     0
 10
2607.416666666667
 20
-2525.361632446331
 30
0.0
  0
POINT
  5
5DE
  8
DEFPOINTS
 62
     0
 10
2607.416666666667
 20
-2375.361632446331
 30
0.0
  0
POINT
  5
5DF
  8
DEFPOINTS
 62
     0
 10
2568.563301859436
 20
-2375.361632446331
 30
0.0
  0
ENDBLK
  5
188
  8
0
  0
BLOCK
  8
0
  2
*D95
 70
     1
 10
0.0
 20
0.0
 30
0.0
  3
*D95
  1

  0
LINE
  5
5E0
  8
__-1
  6
CONTINUOUS
 62
     0
 10
2597.916666666667
 20
-2660.361632446331
 30
0.0
 11
2568.563301859436
 21
-2660.361632446331
 31
0.0
  0
LINE
  5
5E1
  8
__-1
  6
CONTINUOUS
 62
     0
 10
2597.416666666667
 20
-2525.361632446331
 30
0.0
 11
2568.563301859436
 21
-2525.361632446331
 31
0.0
  0
LINE
  5
5E2
  8
__-1
  6
CONTINUOUS
 62
     0
 10
2568.563301859436
 20
-2657.361815551799
 30
0.0
 11
2568.563301859436
 21
-2528.361449340862
 31
0.0
  0
INSERT
  5
5E3
  8
__-1
 62
     0
  2
_DOT
 10
2568.563301859436
 20
-2660.361632446331
 30
0.0
 41
2.99981689453125
 42
2.99981689453125
 43
2.99981689453125
 50
270.0
  0
INSERT
  5
5E4
  8
__-1
 62
     0
  2
_DOT
 10
2568.563301859436
 20
-2525.361632446331
 30
0.0
 41
2.99981689453125
 42
2.99981689453125
 43
2.99981689453125
 50
90.0
  0
TEXT
  5
5E5
  8
__-1
  6
CONTINUOUS
 62
     0
 10
2566.063301859436
 20
-2617.376931925497
 30
0.0
 40
16.34353298611111
  1
135
 50
90.0
  7
YUGOTHIC_BOLD
  0
POINT
  5
5E6
  8
DEFPOINTS
 62
     0
 10
2607.916666666667
 20
-2660.361632446331
 30
0.0
  0
POINT
  5
5E7
  8
DEFPOINTS
 62
     0
 10
2607.416666666667
 20
-2525.361632446331
 30
0.0
  0
POINT
  5
5E8
  8
DEFPOINTS
 62
     0
 10
2568.563301859436
 20
-2525.361632446331
 30
0.0
  0
ENDBLK
  5
18B
  8
0
  0
BLOCK
  8
0
  2
*D96
 70
     1
 10
0.0
 20
0.0
 30
0.0
  3
*D96
  1

  0
LINE
  5
5E9
  8
__-1
  6
CONTINUOUS
 62
     0
 10
2441.246574637113
 20
-2670.361632446331
 30
0.0
 11
2441.246574637113
 21
-2700.176031727916
 31
0.0
  0
LINE
  5
5EA
  8
__-1
  6
CONTINUOUS
 62
     0
 10
2423.246574637113
 20
-2670.361632446331
 30
0.0
 11
2423.246574637113
 21
-2700.176031727916
 31
0.0
  0
LINE
  5
5EB
  8
__-1
  6
CONTINUOUS
 62
     0
 10
2438.246757742582
 20
-2700.176031727916
 30
0.0
 11
2426.246391531644
 21
-2700.176031727916
 31
0.0
  0
INSERT
  5
5EC
  8
__-1
 62
     0
  2
_DOT
 10
2441.246574637113
 20
-2700.176031727916
 30
0.0
 41
2.99981689453125
 42
2.99981689453125
 43
2.99981689453125
  0
INSERT
  5
5ED
  8
__-1
 62
     0
  2
_DOT
 10
2423.246574637113
 20
-2700.176031727916
 30
0.0
 41
2.99981689453125
 42
2.99981689453125
 43
2.99981689453125
 50
180.0
  0
TEXT
  5
5EE
  8
__-1
  6
CONTINUOUS
 62
     0
 10
2415.206840014448
 20
-2697.676031727916
 30
0.0
 40
16.34353298611111
  1
18
  7
YUGOTHIC_BOLD
  0
POINT
  5
5EF
  8
DEFPOINTS
 62
     0
 10
2441.246574637113
 20
-2660.361632446331
 30
0.0
  0
POINT
  5
5F0
  8
DEFPOINTS
 62
     0
 10
2423.246574637113
 20
-2660.361632446331
 30
0.0
  0
POINT
  5
5F1
  8
DEFPOINTS
 62
     0
 10
2423.246574637113
 20
-2713.25936506125
 30
0.0
  0
ENDBLK
  5
18E
  8
0
  0
BLOCK
  8
0
  2
*D97
 70
     1
 10
0.0
 20
0.0
 30
0.0
  3
*D97
  1

  0
LINE
  5
5F4
  8
__-1
  6
CONTINUOUS
 62
     0
 10
2413.246574637113
 20
-2525.361632446331
 30
0.0
 11
2388.890182024242
 21
-2525.361632446331
 31
0.0
  0
LINE
  5
5F5
  8
__-1
  6
CONTINUOUS
 62
     0
 10
2413.246574637113
 20
-2360.361632446331
 30
0.0
 11
2388.890182024242
 21
-2360.361632446331
 31
0.0
  0
LINE
  5
5F6
  8
__-1
  6
CONTINUOUS
 62
     0
 10
2388.890182024242
 20
-2522.361815551799
 30
0.0
 11
2388.890182024242
 21
-2363.361449340862
 31
0.0
  0
INSERT
  5
5F7
  8
__-1
 62
     0
  2
_DOT
 10
2388.890182024242
 20
-2525.361632446331
 30
0.0
 41
2.99981689453125
 42
2.99981689453125
 43
2.99981689453125
 50
270.0
  0
INSERT
  5
5F8
  8
__-1
 62
     0
  2
_DOT
 10
2388.890182024242
 20
-2360.361632446331
 30
0.0
 41
2.99981689453125
 42
2.99981689453125
 43
2.99981689453125
 50
90.0
  0
TEXT
  5
5F9
  8
__-1
  6
CONTINUOUS
 62
     0
 10
2386.390182024242
 20
-2467.376931925497
 30
0.0
 40
16.34353298611111
  1
165
 50
90.0
  7
YUGOTHIC_BOLD
  0
POINT
  5
5FA
  8
DEFPOINTS
 62
     0
 10
2423.246574637113
 20
-2525.361632446331
 30
0.0
  0
POINT
  5
5FB
  8
DEFPOINTS
 62
     0
 10
2423.246574637113
 20
-2360.361632446331
 30
0.0
  0
POINT
  5
5FC
  8
DEFPOINTS
 62
     0
 10
2388.890182024242
 20
-2360.361632446331
 30
0.0
  0
ENDBLK
  5
191
  8
0
  0
BLOCK
  8
0
  2
*D98
 70
     1
 10
0.0
 20
0.0
 30
0.0
  3
*D98
  1

  0
LINE
  5
5FD
  8
__-1
  6
CONTINUOUS
 62
     0
 10
2597.416666666667
 20
-2991.966565296873
 30
0.0
 11
2567.940152490164
 21
-2991.966565296873
 31
0.0
  0
LINE
  5
5FE
  8
__-1
  6
CONTINUOUS
 62
     0
 10
2597.416666666667
 20
-2841.966565296873
 30
0.0
 11
2567.940152490164
 21
-2841.966565296873
 31
0.0
  0
LINE
  5
5FF
  8
__-1
  6
CONTINUOUS
 62
     0
 10
2567.940152490164
 20
-2988.966748402342
 30
0.0
 11
2567.940152490164
 21
-2844.966382191404
 31
0.0
  0
INSERT
  5
600
  8
__-1
 62
     0
  2
_DOT
 10
2567.940152490164
 20
-2991.966565296873
 30
0.0
 41
2.99981689453125
 42
2.99981689453125
 43
2.99981689453125
 50
270.0
  0
INSERT
  5
601
  8
__-1
 62
     0
  2
_DOT
 10
2567.940152490164
 20
-2841.966565296873
 30
0.0
 41
2.99981689453125
 42
2.99981689453125
 43
2.99981689453125
 50
90.0
  0
TEXT
  5
602
  8
__-1
  6
CONTINUOUS
 62
     0
 10
2565.440152490164
 20
-2941.481864776039
 30
0.0
 40
16.34353298611111
  1
150
 50
90.0
  7
YUGOTHIC_BOLD
  0
POINT
  5
603
  8
DEFPOINTS
 62
     0
 10
2607.416666666667
 20
-2991.966565296873
 30
0.0
  0
POINT
  5
604
  8
DEFPOINTS
 62
     0
 10
2607.416666666667
 20
-2841.966565296873
 30
0.0
  0
POINT
  5
605
  8
DEFPOINTS
 62
     0
 10
2567.940152490164
 20
-2841.966565296873
 30
0.0
  0
ENDBLK
  5
194
  8
0
  0
BLOCK
  8
0
  2
*D99
 70
     1
 10
0.0
 20
0.0
 30
0.0
  3
*D99
  1

  0
LINE
  5
606
  8
__-1
  6
CONTINUOUS
 62
     0
 10
2597.416666666667
 20
-3126.966565296873
 30
0.0
 11
2567.940152490164
 21
-3126.966565296873
 31
0.0
  0
LINE
  5
607
  8
__-1
  6
CONTINUOUS
 62
     0
 10
2597.416666666667
 20
-2991.966565296873
 30
0.0
 11
2567.940152490164
 21
-2991.966565296873
 31
0.0
  0
LINE
  5
608
  8
__-1
  6
CONTINUOUS
 62
     0
 10
2567.940152490164
 20
-3123.966748402342
 30
0.0
 11
2567.940152490164
 21
-2994.966382191404
 31
0.0
  0
INSERT
  5
609
  8
__-1
 62
     0
  2
_DOT
 10
2567.940152490164
 20
-3126.966565296873
 30
0.0
 41
2.99981689453125
 42
2.99981689453125
 43
2.99981689453125
 50
270.0
  0
INSERT
  5
60A
  8
__-1
 62
     0
  2
_DOT
 10
2567.940152490164
 20
-2991.966565296873
 30
0.0
 41
2.99981689453125
 42
2.99981689453125
 43
2.99981689453125
 50
90.0
  0
TEXT
  5
60B
  8
__-1
  6
CONTINUOUS
 62
     0
 10
2565.440152490164
 20
-3083.981864776039
 30
0.0
 40
16.34353298611111
  1
135
 50
90.0
  7
YUGOTHIC_BOLD
  0
POINT
  5
60C
  8
DEFPOINTS
 62
     0
 10
2607.416666666667
 20
-3126.966565296873
 30
0.0
  0
POINT
  5
60D
  8
DEFPOINTS
 62
     0
 10
2607.416666666667
 20
-2991.966565296873
 30
0.0
  0
POINT
  5
60E
  8
DEFPOINTS
 62
     0
 10
2567.940152490164
 20
-2991.966565296873
 30
0.0
  0
ENDBLK
  5
197
  8
0
  0
BLOCK
  8
0
  2
CALLOUT-5
 70
     0
 10
0.0
 20
0.0
 30
0.0
  3
CALLOUT-5
  1

  0
LINE
  5
60F
  8
__
  6
CONTINUOUS
 62
    17
 10
0.0
 20
0.0
 30
0.0
 11
-44.8921724757713
 21
-91.59723754064083
 31
0.0
  0
LINE
  5
610
  8
__
  6
CONTINUOUS
 62
    17
 10
20.0
 20
0.0
 30
0.0
 11
0.0
 21
0.0
 31
0.0
  0
TEXT
  5
611
  8
__
 62
    17
 10
21.19
 20
-1.83444443
 30
0.0
 40
10.89568857161458
  1
φ6.5半穴 深さ8 
  7
YUGOTHIC_BOLD
 11
21.19
 21
9.061244141614583
 31
0.0
 73
     3
  0
TEXT
  5
612
  8
__
 62
    17
 10
21.19
 20
-23.00111093
 30
0.0
 40
10.89568857161458
  1
ピン固定決め穴
  7
YUGOTHIC_BOLD
 11
21.19
 21
-12.10542235838541
 31
0.0
 73
     3
  0
ENDBLK
  5
19A
  8
0
  0
BLOCK
  8
0
  2
*D101
 70
     1
 10
0.0
 20
0.0
 30
0.0
  3
*D101
  1

  0
LINE
  5
613
  8
__-1
  6
CONTINUOUS
 62
     0
 10
2441.246574637113
 20
-2512.111632446331
 30
0.0
 11
2441.246574637113
 21
-2494.096298106917
 31
0.0
  0
LINE
  5
614
  8
__-1
  6
CONTINUOUS
 62
     0
 10
2433.246574637113
 20
-2512.111632446331
 30
0.0
 11
2433.246574637113
 21
-2494.096298106917
 31
0.0
  0
LINE
  5
615
  8
__-1
  6
CONTINUOUS
 62
     0
 10
2441.246574637113
 20
-2494.096298106917
 30
0.0
 11
2463.141897083583
 21
-2494.096298106917
 31
0.0
  0
LINE
  5
616
  8
__-1
  6
CONTINUOUS
 62
     0
 10
2441.246574637113
 20
-2494.096298106917
 30
0.0
 11
2433.246574637113
 21
-2494.096298106917
 31
0.0
  0
LINE
  5
617
  8
__-1
  6
CONTINUOUS
 62
     0
 10
2444.246391531644
 20
-2494.096298106917
 30
0.0
 11
2447.246208426176
 21
-2494.096298106917
 31
0.0
  0
LINE
  5
618
  8
__-1
  6
CONTINUOUS
 62
     0
 10
2430.246757742582
 20
-2494.096298106917
 30
0.0
 11
2427.246940848051
 21
-2494.096298106917
 31
0.0
  0
INSERT
  5
619
  8
__-1
 62
     0
  2
_DOT
 10
2441.246574637113
 20
-2494.096298106917
 30
0.0
 41
2.99981689453125
 42
2.99981689453125
 43
2.99981689453125
 50
180.0
  0
INSERT
  5
61A
  8
__-1
 62
     0
  2
_DOT
 10
2433.246574637113
 20
-2494.096298106917
 30
0.0
 41
2.99981689453125
 42
2.99981689453125
 43
2.99981689453125
  0
TEXT
  5
61B
  8
__-1
  6
CONTINUOUS
 62
     0
 10
2447.411417999588
 20
-2491.596298106917
 30
0.0
 40
16.34353298611111
  1
8
  7
YUGOTHIC_BOLD
  0
POINT
  5
61C
  8
DEFPOINTS
 62
     0
 10
2441.246574637113
 20
-2522.111632446331
 30
0.0
  0
POINT
  5
942
  8
DEFPOINTS
 62
     0
 10
2433.246574637113
 20
-2522.111632446331
 30
0.0
  0
POINT
  5
943
  8
DEFPOINTS
 62
     0
 10
2433.246574637113
 20
-2507.17963144025
 30
0.0
  0
ENDBLK
  5
19D
  8
0
  0
BLOCK
  8
0
  2
CALLOUT-6
 70
     0
 10
0.0
 20
0.0
 30
0.0
  3
CALLOUT-6
  1

  0
LINE
  5
61D
  8
__
  6
CONTINUOUS
 62
    17
 10
0.0
 20
0.0
 30
0.0
 11
-17.5
 21
-39.0
 31
0.0
  0
LINE
  5
61E
  8
__
  6
CONTINUOUS
 62
    17
 10
20.0
 20
0.0
 30
0.0
 11
0.0
 21
0.0
 31
0.0
  0
TEXT
  5
61F
  8
__
 62
    17
 10
21.19
 20
-1.83444443
 30
0.0
 40
10.89568857161458
  1
ブラケット位置
  7
YUGOTHIC_BOLD
 11
21.19
 21
9.061244141614583
 31
0.0
 73
     3
  0
ENDBLK
  5
1A0
  8
0
  0
BLOCK
  8
0
  2
*D103
 70
     1
 10
0.0
 20
0.0
 30
0.0
  3
*D103
  1

  0
LINE
  5
620
  8
__-1
  6
CONTINUOUS
 62
     0
 10
2616.416666666667
 20
-2642.228299112997
 30
0.0
 11
2616.416666666667
 21
-2632.355901019236
 31
0.0
  0
LINE
  5
621
  8
__-1
  6
CONTINUOUS
 62
     0
 10
2607.416666666667
 20
-2642.228299112997
 30
0.0
 11
2607.416666666667
 21
-2632.355901019236
 31
0.0
  0
LINE
  5
622
  8
__-1
  6
CONTINUOUS
 62
     0
 10
2616.416666666667
 20
-2632.355901019236
 30
0.0
 11
2637.533725637607
 21
-2632.355901019236
 31
0.0
  0
LINE
  5
623
  8
__-1
  6
CONTINUOUS
 62
     0
 10
2616.416666666667
 20
-2632.355901019236
 30
0.0
 11
2607.416666666667
 21
-2632.355901019236
 31
0.0
  0
LINE
  5
624
  8
__-1
  6
CONTINUOUS
 62
     0
 10
2619.416483561198
 20
-2632.355901019236
 30
0.0
 11
2622.416300455729
 21
-2632.355901019236
 31
0.0
  0
LINE
  5
625
  8
__-1
  6
CONTINUOUS
 62
     0
 10
2604.416849772135
 20
-2632.355901019236
 30
0.0
 11
2601.417032877604
 21
-2632.355901019236
 31
0.0
  0
INSERT
  5
626
  8
__-1
 62
     0
  2
_DOT
 10
2616.416666666667
 20
-2632.355901019236
 30
0.0
 41
2.99981689453125
 42
2.99981689453125
 43
2.99981689453125
 50
180.0
  0
INSERT
  5
627
  8
__-1
 62
     0
  2
_DOT
 10
2607.416666666667
 20
-2632.355901019236
 30
0.0
 41
2.99981689453125
 42
2.99981689453125
 43
2.99981689453125
  0
TEXT
  5
628
  8
__-1
  6
CONTINUOUS
 62
     0
 10
2622.581510029142
 20
-2629.855901019236
 30
0.0
 40
16.34353298611111
  1
9
  7
YUGOTHIC_BOLD
  0
POINT
  5
629
  8
DEFPOINTS
 62
     0
 10
2616.416666666667
 20
-2632.228299112997
 30
0.0
  0
POINT
  5
62A
  8
DEFPOINTS
 62
     0
 10
2607.416666666667
 20
-2632.228299112997
 30
0.0
  0
POINT
  5
94C
  8
DEFPOINTS
 62
     0
 10
2607.416666666667
 20
-2645.439234352569
 30
0.0
  0
ENDBLK
  5
1A3
  8
0
  0
BLOCK
  8
0
  2
CALLOUT-7
 70
     0
 10
0.0
 20
0.0
 30
0.0
  3
CALLOUT-7
  1

  0
LINE
  5
62B
  8
__
  6
CONTINUOUS
 62
    17
 10
0.0
 20
0.0
 30
0.0
 11
-44.8921724757713
 21
-91.59723754064083
 31
0.0
  0
LINE
  5
62C
  8
__
  6
CONTINUOUS
 62
    17
 10
20.0
 20
0.0
 30
0.0
 11
0.0
 21
0.0
 31
0.0
  0
TEXT
  5
62D
  8
__
 62
    17
 10
21.19
 20
-1.83444443
 30
0.0
 40
10.89568857161458
  1
φ6.5半穴 深さ8 
  7
YUGOTHIC_BOLD
 11
21.19
 21
9.061244141614583
 31
0.0
 73
     3
  0
TEXT
  5
62E
  8
__
 62
    17
 10
21.19
 20
-23.00111093
 30
0.0
 40
10.89568857161458
  1
ピン固定決め穴
  7
YUGOTHIC_BOLD
 11
21.19
 21
-12.10542235838541
 31
0.0
 73
     3
  0
ENDBLK
  5
1A6
  8
0
  0
BLOCK
  8
0
  2
CALLOUT-8
 70
     0
 10
0.0
 20
0.0
 30
0.0
  3
CALLOUT-8
  1

  0
LINE
  5
62F
  8
__
  6
CONTINUOUS
 62
    17
 10
0.0
 20
0.0
 30
0.0
 11
-17.5
 21
-39.0
 31
0.0
  0
LINE
  5
630
  8
__
  6
CONTINUOUS
 62
    17
 10
20.0
 20
0.0
 30
0.0
 11
0.0
 21
0.0
 31
0.0
  0
TEXT
  5
631
  8
__
 62
    17
 10
21.19
 20
-1.83444443
 30
0.0
 40
10.89568857161458
  1
ブラケット位置
  7
YUGOTHIC_BOLD
 11
21.19
 21
9.061244141614583
 31
0.0
 73
     3
  0
ENDBLK
  5
1A9
  8
0
  0
BLOCK
  8
0
  2
*D106
 70
     1
 10
0.0
 20
0.0
 30
0.0
  3
*D106
  1

  0
LINE
  5
632
  8
__-1
  6
CONTINUOUS
 62
     0
 10
2616.416666666667
 20
-3108.83323196354
 30
0.0
 11
2616.416666666667
 21
-3098.960833869778
 31
0.0
  0
LINE
  5
633
  8
__-1
  6
CONTINUOUS
 62
     0
 10
2607.416666666667
 20
-3108.83323196354
 30
0.0
 11
2607.416666666667
 21
-3098.960833869778
 31
0.0
  0
LINE
  5
634
  8
__-1
  6
CONTINUOUS
 62
     0
 10
2616.416666666667
 20
-3098.960833869778
 30
0.0
 11
2637.533725637607
 21
-3098.960833869778
 31
0.0
  0
LINE
  5
635
  8
__-1
  6
CONTINUOUS
 62
     0
 10
2616.416666666667
 20
-3098.960833869778
 30
0.0
 11
2607.416666666667
 21
-3098.960833869778
 31
0.0
  0
LINE
  5
636
  8
__-1
  6
CONTINUOUS
 62
     0
 10
2619.416483561198
 20
-3098.960833869778
 30
0.0
 11
2622.416300455729
 21
-3098.960833869778
 31
0.0
  0
LINE
  5
637
  8
__-1
  6
CONTINUOUS
 62
     0
 10
2604.416849772135
 20
-3098.960833869778
 30
0.0
 11
2601.417032877604
 21
-3098.960833869778
 31
0.0
  0
INSERT
  5
638
  8
__-1
 62
     0
  2
_DOT
 10
2616.416666666667
 20
-3098.960833869778
 30
0.0
 41
2.99981689453125
 42
2.99981689453125
 43
2.99981689453125
 50
180.0
  0
INSERT
  5
639
  8
__-1
 62
     0
  2
_DOT
 10
2607.416666666667
 20
-3098.960833869778
 30
0.0
 41
2.99981689453125
 42
2.99981689453125
 43
2.99981689453125
  0
TEXT
  5
63A
  8
__-1
  6
CONTINUOUS
 62
     0
 10
2622.581510029142
 20
-3096.460833869778
 30
0.0
 40
16.34353298611111
  1
9
  7
YUGOTHIC_BOLD
  0
POINT
  5
63B
  8
DEFPOINTS
 62
     0
 10
2616.416666666667
 20
-3098.83323196354
 30
0.0
  0
POINT
  5
63C
  8
DEFPOINTS
 62
     0
 10
2607.416666666667
 20
-3098.83323196354
 30
0.0
  0
POINT
  5
95C
  8
DEFPOINTS
 62
     0
 10
2607.416666666667
 20
-3112.044167203112
 30
0.0
  0
ENDBLK
  5
1AC
  8
0
  0
BLOCK
  8
0
  2
*D107
 70
     1
 10
0.0
 20
0.0
 30
0.0
  3
*D107
  1

  0
LINE
  5
63D
  8
__-1
  6
CONTINUOUS
 62
     0
 10
516.7024883753511
 20
-1168.387306171019
 30
0.0
 11
493.3448423787179
 21
-1168.387306171019
 31
0.0
  0
LINE
  5
63E
  8
__-1
  6
CONTINUOUS
 62
     0
 10
516.7024883753511
 20
-1150.387306171019
 30
0.0
 11
493.3448423787179
 21
-1150.387306171019
 31
0.0
  0
LINE
  5
63F
  8
__-1
  6
CONTINUOUS
 62
     0
 10
493.3448423787179
 20
-1168.387306171019
 30
0.0
 11
493.3448423787179
 21
-1150.387306171019
 31
0.0
  0
LINE
  5
640
  8
__-1
  6
CONTINUOUS
 62
     0
 10
493.3448423787179
 20
-1171.38712306555
 30
0.0
 11
493.3448423787179
 21
-1174.386939960081
 31
0.0
  0
LINE
  5
641
  8
__-1
  6
CONTINUOUS
 62
     0
 10
493.3448423787179
 20
-1147.387489276487
 30
0.0
 11
493.3448423787179
 21
-1144.387672381956
 31
0.0
  0
INSERT
  5
642
  8
__-1
 62
     0
  2
_DOT
 10
493.3448423787179
 20
-1168.387306171019
 30
0.0
 41
2.99981689453125
 42
2.99981689453125
 43
2.99981689453125
 50
90.0
  0
INSERT
  5
643
  8
__-1
 62
     0
  2
_DOT
 10
493.3448423787179
 20
-1150.387306171019
 30
0.0
 41
2.99981689453125
 42
2.99981689453125
 43
2.99981689453125
 50
270.0
  0
TEXT
  5
644
  8
__-1
  6
CONTINUOUS
 62
     0
 10
490.8448423787177
 20
-1176.119970894894
 30
0.0
 40
16.34353298611111
  1
18
 50
90.0
  7
YUGOTHIC_BOLD
  0
POINT
  5
645
  8
DEFPOINTS
 62
     0
 10
526.7024883753511
 20
-1168.387306171019
 30
0.0
  0
POINT
  5
646
  8
DEFPOINTS
 62
     0
 10
526.7024883753511
 20
-1150.387306171019
 30
0.0
  0
POINT
  5
647
  8
DEFPOINTS
 62
     0
 10
493.3448423787179
 20
-1150.387306171019
 30
0.0
  0
ENDBLK
  5
1AF
  8
0
  0
BLOCK
  8
0
  2
*D108
 70
     1
 10
0.0
 20
0.0
 30
0.0
  3
*D108
  1

  0
LINE
  5
648
  8
__-1
  6
CONTINUOUS
 62
     0
 10
2441.246574637113
 20
-3136.966565296873
 30
0.0
 11
2441.246574637113
 21
-3166.780964578459
 31
0.0
  0
LINE
  5
649
  8
__-1
  6
CONTINUOUS
 62
     0
 10
2423.246574637113
 20
-3136.966565296873
 30
0.0
 11
2423.246574637113
 21
-3166.780964578459
 31
0.0
  0
LINE
  5
64A
  8
__-1
  6
CONTINUOUS
 62
     0
 10
2438.246757742582
 20
-3166.780964578459
 30
0.0
 11
2426.246391531644
 21
-3166.780964578459
 31
0.0
  0
INSERT
  5
64B
  8
__-1
 62
     0
  2
_DOT
 10
2441.246574637113
 20
-3166.780964578459
 30
0.0
 41
2.99981689453125
 42
2.99981689453125
 43
2.99981689453125
  0
INSERT
  5
64C
  8
__-1
 62
     0
  2
_DOT
 10
2423.246574637113
 20
-3166.780964578459
 30
0.0
 41
2.99981689453125
 42
2.99981689453125
 43
2.99981689453125
 50
180.0
  0
TEXT
  5
64D
  8
__-1
  6
CONTINUOUS
 62
     0
 10
2415.549100167548
 20
-3164.280964578459
 30
0.0
 40
16.34353298611111
  1
18
  7
YUGOTHIC_BOLD
  0
POINT
  5
64E
  8
DEFPOINTS
 62
     0
 10
2441.246574637113
 20
-3126.966565296873
 30
0.0
  0
POINT
  5
64F
  8
DEFPOINTS
 62
     0
 10
2423.246574637113
 20
-3126.966565296873
 30
0.0
  0
POINT
  5
650
  8
DEFPOINTS
 62
     0
 10
2423.246574637113
 20
-3179.864297911792
 30
0.0
  0
ENDBLK
  5
1B2
  8
0
  0
BLOCK
  8
0
  2
*D109
 70
     1
 10
0.0
 20
0.0
 30
0.0
  3
*D109
  1

  0
LINE
  5
653
  8
__-1
  6
CONTINUOUS
 62
     0
 10
2413.246574637113
 20
-2991.966565296873
 30
0.0
 11
2388.890182024242
 21
-2991.966565296873
 31
0.0
  0
LINE
  5
654
  8
__-1
  6
CONTINUOUS
 62
     0
 10
2413.246574637113
 20
-2826.966565296872
 30
0.0
 11
2388.890182024242
 21
-2826.966565296872
 31
0.0
  0
LINE
  5
655
  8
__-1
  6
CONTINUOUS
 62
     0
 10
2388.890182024242
 20
-2988.966748402342
 30
0.0
 11
2388.890182024242
 21
-2829.966382191403
 31
0.0
  0
INSERT
  5
656
  8
__-1
 62
     0
  2
_DOT
 10
2388.890182024242
 20
-2991.966565296873
 30
0.0
 41
2.99981689453125
 42
2.99981689453125
 43
2.99981689453125
 50
270.0
  0
INSERT
  5
657
  8
__-1
 62
     0
  2
_DOT
 10
2388.890182024242
 20
-2826.966565296872
 30
0.0
 41
2.99981689453125
 42
2.99981689453125
 43
2.99981689453125
 50
90.0
  0
TEXT
  5
658
  8
__-1
  6
CONTINUOUS
 62
     0
 10
2386.390182024242
 20
-2933.981864776038
 30
0.0
 40
16.34353298611111
  1
165
 50
90.0
  7
YUGOTHIC_BOLD
  0
POINT
  5
659
  8
DEFPOINTS
 62
     0
 10
2423.246574637113
 20
-2991.966565296873
 30
0.0
  0
POINT
  5
65A
  8
DEFPOINTS
 62
     0
 10
2423.246574637113
 20
-2826.966565296872
 30
0.0
  0
POINT
  5
65B
  8
DEFPOINTS
 62
     0
 10
2388.890182024242
 20
-2826.966565296872
 30
0.0
  0
ENDBLK
  5
1B5
  8
0
  0
BLOCK
  8
0
  2
*D110
 70
     1
 10
0.0
 20
0.0
 30
0.0
  3
*D110
  1

  0
LINE
  5
65C
  8
__-1
  6
CONTINUOUS
 62
     0
 10
2441.246574637113
 20
-2978.716565296873
 30
0.0
 11
2441.246574637113
 21
-2960.701230957459
 31
0.0
  0
LINE
  5
65D
  8
__-1
  6
CONTINUOUS
 62
     0
 10
2433.246574637113
 20
-2978.716565296873
 30
0.0
 11
2433.246574637113
 21
-2960.701230957459
 31
0.0
  0
LINE
  5
65E
  8
__-1
  6
CONTINUOUS
 62
     0
 10
2441.246574637113
 20
-2960.701230957459
 30
0.0
 11
2463.141897083583
 21
-2960.701230957459
 31
0.0
  0
LINE
  5
65F
  8
__-1
  6
CONTINUOUS
 62
     0
 10
2441.246574637113
 20
-2960.701230957459
 30
0.0
 11
2433.246574637113
 21
-2960.701230957459
 31
0.0
  0
LINE
  5
660
  8
__-1
  6
CONTINUOUS
 62
     0
 10
2444.246391531644
 20
-2960.701230957459
 30
0.0
 11
2447.246208426176
 21
-2960.701230957459
 31
0.0
  0
LINE
  5
661
  8
__-1
  6
CONTINUOUS
 62
     0
 10
2430.246757742582
 20
-2960.701230957459
 30
0.0
 11
2427.246940848051
 21
-2960.701230957459
 31
0.0
  0
INSERT
  5
662
  8
__-1
 62
     0
  2
_DOT
 10
2441.246574637113
 20
-2960.701230957459
 30
0.0
 41
2.99981689453125
 42
2.99981689453125
 43
2.99981689453125
 50
180.0
  0
INSERT
  5
663
  8
__-1
 62
     0
  2
_DOT
 10
2433.246574637113
 20
-2960.701230957459
 30
0.0
 41
2.99981689453125
 42
2.99981689453125
 43
2.99981689453125
  0
TEXT
  5
664
  8
__-1
  6
CONTINUOUS
 62
     0
 10
2447.411417999588
 20
-2958.201230957459
 30
0.0
 40
16.34353298611111
  1
8
  7
YUGOTHIC_BOLD
  0
POINT
  5
665
  8
DEFPOINTS
 62
     0
 10
2441.246574637113
 20
-2988.716565296873
 30
0.0
  0
POINT
  5
986
  8
DEFPOINTS
 62
     0
 10
2433.246574637113
 20
-2988.716565296873
 30
0.0
  0
POINT
  5
987
  8
DEFPOINTS
 62
     0
 10
2433.246574637113
 20
-2973.784564290793
 30
0.0
  0
ENDBLK
  5
1B8
  8
0
  0
BLOCK
  8
0
  2
*D111
 70
     1
 10
0.0
 20
0.0
 30
0.0
  3
*D111
  1

  0
LINE
  5
666
  8
__-1
  6
CONTINUOUS
 62
     0
 10
2447.639213778139
 20
-1913.235356787973
 30
0.0
 11
2447.639213778139
 21
-1976.102023454639
 31
0.0
  0
LINE
  5
667
  8
__-1
  6
CONTINUOUS
 62
     0
 10
2429.639213778139
 20
-1913.235356787973
 30
0.0
 11
2429.639213778139
 21
-1976.102023454639
 31
0.0
  0
LINE
  5
668
  8
__-1
  6
CONTINUOUS
 62
     0
 10
2447.639213778139
 20
-1976.102023454639
 30
0.0
 11
2429.639213778139
 21
-1976.102023454639
 31
0.0
  0
LINE
  5
669
  8
__-1
  6
CONTINUOUS
 62
     0
 10
2450.63903067267
 20
-1976.102023454639
 30
0.0
 11
2453.638847567202
 21
-1976.102023454639
 31
0.0
  0
LINE
  5
66A
  8
__-1
  6
CONTINUOUS
 62
     0
 10
2426.639396883608
 20
-1976.102023454639
 30
0.0
 11
2423.639579989077
 21
-1976.102023454639
 31
0.0
  0
INSERT
  5
66B
  8
__-1
 62
     0
  2
_DOT
 10
2447.639213778139
 20
-1976.102023454639
 30
0.0
 41
2.99981689453125
 42
2.99981689453125
 43
2.99981689453125
 50
180.0
  0
INSERT
  5
66C
  8
__-1
 62
     0
  2
_DOT
 10
2429.639213778139
 20
-1976.102023454639
 30
0.0
 41
2.99981689453125
 42
2.99981689453125
 43
2.99981689453125
  0
TEXT
  5
66D
  8
__-1
  6
CONTINUOUS
 62
     0
 10
2421.906549054263
 20
-1973.602023454639
 30
0.0
 40
16.34353298611111
  1
18
  7
YUGOTHIC_BOLD
  0
POINT
  5
66E
  8
DEFPOINTS
 62
     0
 10
2447.639213778139
 20
-1903.235356787973
 30
0.0
  0
POINT
  5
66F
  8
DEFPOINTS
 62
     0
 10
2429.639213778139
 20
-1903.235356787973
 30
0.0
  0
POINT
  5
670
  8
DEFPOINTS
 62
     0
 10
2429.639213778139
 20
-1976.102023454639
 30
0.0
  0
ENDBLK
  5
1BB
  8
0
  0
BLOCK
  8
0
  2
*D112
 70
     1
 10
0.0
 20
0.0
 30
0.0
  3
*D112
  1

  0
LINE
  5
671
  8
__-1
  6
CONTINUOUS
 62
     0
 10
2419.639213778139
 20
-1903.235356787973
 30
0.0
 11
2394.579396328964
 21
-1903.235356787973
 31
0.0
  0
LINE
  5
672
  8
__-1
  6
CONTINUOUS
 62
     0
 10
2419.639213778139
 20
-1353.235356787973
 30
0.0
 11
2394.579396328964
 21
-1353.235356787973
 31
0.0
  0
LINE
  5
673
  8
__-1
  6
CONTINUOUS
 62
     0
 10
2394.579396328964
 20
-1900.235539893441
 30
0.0
 11
2394.579396328964
 21
-1356.235173682504
 31
0.0
  0
INSERT
  5
674
  8
__-1
 62
     0
  2
_DOT
 10
2394.579396328964
 20
-1903.235356787973
 30
0.0
 41
2.99981689453125
 42
2.99981689453125
 43
2.99981689453125
 50
270.0
  0
INSERT
  5
675
  8
__-1
 62
     0
  2
_DOT
 10
2394.579396328964
 20
-1353.235356787973
 30
0.0
 41
2.99981689453125
 42
2.99981689453125
 43
2.99981689453125
 50
90.0
  0
TEXT
  5
676
  8
__-1
  6
CONTINUOUS
 62
     0
 10
2392.079396328963
 20
-1651.583261053846
 30
0.0
 40
16.34353298611111
  1
550
 50
90.0
  7
YUGOTHIC_BOLD
  0
POINT
  5
677
  8
DEFPOINTS
 62
     0
 10
2429.639213778139
 20
-1903.235356787973
 30
0.0
  0
POINT
  5
678
  8
DEFPOINTS
 62
     0
 10
2429.639213778139
 20
-1353.235356787973
 30
0.0
  0
POINT
  5
679
  8
DEFPOINTS
 62
     0
 10
2394.579396328964
 20
-1353.235356787973
 30
0.0
  0
ENDBLK
  5
1BE
  8
0
  0
BLOCK
  8
0
  2
*D113
 70
     1
 10
0.0
 20
0.0
 30
0.0
  3
*D113
  1

  0
LINE
  5
67A
  8
__-1
  6
CONTINUOUS
 62
     0
 10
2677.545265288577
 20
480.4745624249276
 30
0.0
 11
2713.756487042379
 21
480.4745624249275
 31
0.0
  0
LINE
  5
67B
  8
__-1
  6
CONTINUOUS
 62
     0
 10
2677.545265288577
 20
761.4745624249277
 30
0.0
 11
2713.756487042379
 21
761.4745624249277
 31
0.0
  0
LINE
  5
67C
  8
__-1
  6
CONTINUOUS
 62
     0
 10
2713.756487042379
 20
483.4743793194588
 30
0.0
 11
2713.756487042379
 21
758.4747455303965
 31
0.0
  0
INSERT
  5
67D
  8
__-1
 62
     0
  2
_DOT
 10
2713.756487042379
 20
480.4745624249275
 30
0.0
 41
2.99981689453125
 42
2.99981689453125
 43
2.99981689453125
 50
270.0
  0
INSERT
  5
67E
  8
__-1
 62
     0
  2
_DOT
 10
2713.756487042379
 20
761.4745624249277
 30
0.0
 41
2.99981689453125
 42
2.99981689453125
 43
2.99981689453125
 50
90.0
  0
TEXT
  5
67F
  8
__-1
  6
CONTINUOUS
 62
     0
 10
2711.256487042379
 20
599.9614485856418
 30
0.0
 40
16.34353298611111
  1
281
 50
90.0
  7
YUGOTHIC_BOLD
  0
POINT
  5
680
  8
DEFPOINTS
 62
     0
 10
2667.545265288577
 20
480.4745624249276
 30
0.0
  0
POINT
  5
681
  8
DEFPOINTS
 62
     0
 10
2667.545265288577
 20
761.4745624249277
 30
0.0
  0
POINT
  5
682
  8
DEFPOINTS
 62
     0
 10
2713.756487042379
 20
761.4745624249277
 30
0.0
  0
ENDBLK
  5
1C1
  8
0
  0
BLOCK
  8
0
  2
*D114
 70
     1
 10
0.0
 20
0.0
 30
0.0
  3
*D114
  1

  0
LINE
  5
683
  8
__-1
  6
CONTINUOUS
 62
     0
 10
2677.545265288577
 20
479.4745624249276
 30
0.0
 11
2700.673153709046
 21
479.4745624249276
 31
0.0
  0
LINE
  5
684
  8
__-1
  6
CONTINUOUS
 62
     0
 10
2677.545265288577
 20
480.4745624249276
 30
0.0
 11
2700.673153709046
 21
480.4745624249276
 31
0.0
  0
LINE
  5
685
  8
__-1
  6
CONTINUOUS
 62
     0
 10
2700.673153709046
 20
479.4745624249276
 30
0.0
 11
2700.673153709046
 21
458.8645981297934
 31
0.0
  0
LINE
  5
686
  8
__-1
  6
CONTINUOUS
 62
     0
 10
2700.673153709046
 20
479.4745624249276
 30
0.0
 11
2700.673153709046
 21
480.4745624249276
 31
0.0
  0
LINE
  5
687
  8
__-1
  6
CONTINUOUS
 62
     0
 10
2700.673153709046
 20
476.4747455303963
 30
0.0
 11
2700.673153709046
 21
473.4749286358651
 31
0.0
  0
LINE
  5
688
  8
__-1
  6
CONTINUOUS
 62
     0
 10
2700.673153709046
 20
483.4743793194588
 30
0.0
 11
2700.673153709046
 21
486.4741962139901
 31
0.0
  0
INSERT
  5
689
  8
__-1
 62
     0
  2
_DOT
 10
2700.673153709046
 20
479.4745624249276
 30
0.0
 41
2.99981689453125
 42
2.99981689453125
 43
2.99981689453125
 50
90.0
  0
INSERT
  5
68A
  8
__-1
 62
     0
  2
_DOT
 10
2700.673153709046
 20
480.4745624249276
 30
0.0
 41
2.99981689453125
 42
2.99981689453125
 43
2.99981689453125
 50
270.0
  0
TEXT
  5
68B
  8
__-1
  6
CONTINUOUS
 62
     0
 10
2698.173153709046
 20
456.6950172766192
 30
0.0
 40
16.34353298611111
  1
1
 50
90.0
  7
YUGOTHIC_BOLD
  0
POINT
  5
68C
  8
DEFPOINTS
 62
     0
 10
2667.545265288577
 20
479.4745624249276
 30
0.0
  0
POINT
  5
68D
  8
DEFPOINTS
 62
     0
 10
2667.545265288577
 20
480.4745624249276
 30
0.0
  0
POINT
  5
9BD
  8
DEFPOINTS
 62
     0
 10
2713.756487042379
 20
480.4745624249276
 30
0.0
  0
ENDBLK
  5
1C4
  8
0
  0
BLOCK
  8
0
  2
*D115
 70
     1
 10
0.0
 20
0.0
 30
0.0
  3
*D115
  1

  0
LINE
  5
68E
  8
__-1
  6
CONTINUOUS
 62
     0
 10
2657.545265288577
 20
714.4745624249277
 30
0.0
 11
2601.745265288577
 21
714.4745624249277
 31
0.0
  0
LINE
  5
68F
  8
__-1
  6
CONTINUOUS
 62
     0
 10
2632.545265288577
 20
729.4745624249277
 30
0.0
 11
2601.745265288577
 21
729.4745624249277
 31
0.0
  0
LINE
  5
690
  8
__-1
  6
CONTINUOUS
 62
     0
 10
2601.745265288577
 20
714.4745624249277
 30
0.0
 11
2601.745265288577
 21
729.4745624249277
 31
0.0
  0
LINE
  5
691
  8
__-1
  6
CONTINUOUS
 62
     0
 10
2601.745265288577
 20
711.4747455303965
 30
0.0
 11
2601.745265288577
 21
708.4749286358652
 31
0.0
  0
LINE
  5
692
  8
__-1
  6
CONTINUOUS
 62
     0
 10
2601.745265288577
 20
732.474379319459
 30
0.0
 11
2601.745265288577
 21
735.4741962139902
 31
0.0
  0
INSERT
  5
693
  8
__-1
 62
     0
  2
_DOT
 10
2601.745265288577
 20
714.4745624249277
 30
0.0
 41
2.99981689453125
 42
2.99981689453125
 43
2.99981689453125
 50
90.0
  0
INSERT
  5
694
  8
__-1
 62
     0
  2
_DOT
 10
2601.745265288577
 20
729.4745624249277
 30
0.0
 41
2.99981689453125
 42
2.99981689453125
 43
2.99981689453125
 50
270.0
  0
TEXT
  5
695
  8
__-1
  6
CONTINUOUS
 62
     0
 10
2599.245265288577
 20
705.241897701052
 30
0.0
 40
16.34353298611111
  1
15
 50
90.0
  7
YUGOTHIC_BOLD
  0
POINT
  5
696
  8
DEFPOINTS
 62
     0
 10
2667.545265288577
 20
714.4745624249277
 30
0.0
  0
POINT
  5
697
  8
DEFPOINTS
 62
     0
 10
2642.545265288577
 20
729.4745624249277
 30
0.0
  0
POINT
  5
9BF
  8
DEFPOINTS
 62
     0
 10
2601.745265288577
 20
729.4745624249277
 30
0.0
  0
ENDBLK
  5
1C7
  8
0
  0
BLOCK
  8
0
  2
*D116
 70
     1
 10
0.0
 20
0.0
 30
0.0
  3
*D116
  1

  0
LINE
  5
698
  8
__-1
  6
CONTINUOUS
 62
     0
 10
2657.545265288577
 20
708.4745624249277
 30
0.0
 11
2601.745265288577
 21
708.4745624249277
 31
0.0
  0
LINE
  5
699
  8
__-1
  6
CONTINUOUS
 62
     0
 10
2657.545265288577
 20
714.4745624249277
 30
0.0
 11
2601.745265288577
 21
714.4745624249277
 31
0.0
  0
LINE
  5
69A
  8
__-1
  6
CONTINUOUS
 62
     0
 10
2601.745265288577
 20
708.4745624249277
 30
0.0
 11
2601.745265288577
 21
714.4745624249277
 31
0.0
  0
LINE
  5
69B
  8
__-1
  6
CONTINUOUS
 62
     0
 10
2601.745265288577
 20
705.4747455303965
 30
0.0
 11
2601.745265288577
 21
702.4749286358652
 31
0.0
  0
LINE
  5
69C
  8
__-1
  6
CONTINUOUS
 62
     0
 10
2601.745265288577
 20
717.474379319459
 30
0.0
 11
2601.745265288577
 21
720.4741962139902
 31
0.0
  0
INSERT
  5
69D
  8
__-1
 62
     0
  2
_DOT
 10
2601.745265288577
 20
708.4745624249277
 30
0.0
 41
2.99981689453125
 42
2.99981689453125
 43
2.99981689453125
 50
90.0
  0
INSERT
  5
69E
  8
__-1
 62
     0
  2
_DOT
 10
2601.745265288577
 20
714.4745624249277
 30
0.0
 41
2.99981689453125
 42
2.99981689453125
 43
2.99981689453125
 50
270.0
  0
TEXT
  5
69F
  8
__-1
  6
CONTINUOUS
 62
     0
 10
2599.245265288577
 20
703.302795931872
 30
0.0
 40
16.34353298611111
  1
6
 50
90.0
  7
YUGOTHIC_BOLD
  0
POINT
  5
6A0
  8
DEFPOINTS
 62
     0
 10
2667.545265288577
 20
708.4745624249277
 30
0.0
  0
POINT
  5
6A1
  8
DEFPOINTS
 62
     0
 10
2667.545265288577
 20
714.4745624249277
 30
0.0
  0
POINT
  5
6A2
  8
DEFPOINTS
 62
     0
 10
2601.745265288577
 20
714.4745624249277
 30
0.0
  0
ENDBLK
  5
1CA
  8
0
  0
BLOCK
  8
0
  2
*D117
 70
     1
 10
0.0
 20
0.0
 30
0.0
  3
*D117
  1

  0
LINE
  5
6A3
  8
__-1
  6
CONTINUOUS
 62
     0
 10
2632.545265288577
 20
479.4745624249276
 30
0.0
 11
2601.745265288577
 21
479.4745624249275
 31
0.0
  0
LINE
  5
6A4
  8
__-1
  6
CONTINUOUS
 62
     0
 10
2657.545265288577
 20
708.4745624249277
 30
0.0
 11
2601.745265288577
 21
708.4745624249277
 31
0.0
  0
LINE
  5
6A5
  8
__-1
  6
CONTINUOUS
 62
     0
 10
2601.745265288577
 20
482.4743793194588
 30
0.0
 11
2601.745265288577
 21
705.4747455303965
 31
0.0
  0
INSERT
  5
6A6
  8
__-1
 62
     0
  2
_DOT
 10
2601.745265288577
 20
479.4745624249275
 30
0.0
 41
2.99981689453125
 42
2.99981689453125
 43
2.99981689453125
 50
270.0
  0
INSERT
  5
6A7
  8
__-1
 62
     0
  2
_DOT
 10
2601.745265288577
 20
708.4745624249277
 30
0.0
 41
2.99981689453125
 42
2.99981689453125
 43
2.99981689453125
 50
90.0
  0
TEXT
  5
6A8
  8
__-1
  6
CONTINUOUS
 62
     0
 10
2599.245265288577
 20
571.0157898968191
 30
0.0
 40
16.34353298611111
  1
229
 50
90.0
  7
YUGOTHIC_BOLD
  0
POINT
  5
6A9
  8
DEFPOINTS
 62
     0
 10
2642.545265288577
 20
479.4745624249276
 30
0.0
  0
POINT
  5
6AA
  8
DEFPOINTS
 62
     0
 10
2667.545265288577
 20
708.4745624249277
 30
0.0
  0
POINT
  5
6AB
  8
DEFPOINTS
 62
     0
 10
2601.745265288577
 20
708.4745624249277
 30
0.0
  0
ENDBLK
  5
1CD
  8
0
  0
BLOCK
  8
0
  2
*D118
 70
     1
 10
0.0
 20
0.0
 30
0.0
  3
*D118
  1

  0
LINE
  5
6AC
  8
__-1
  6
CONTINUOUS
 62
     0
 10
-83.0
 20
-1423.027521981239
 30
0.0
 11
-125.9349234459826
 21
-1423.027521981239
 31
0.0
  0
LINE
  5
6AD
  8
__-1
  6
CONTINUOUS
 62
     0
 10
-82.99999999999997
 20
-1404.027521981239
 30
0.0
 11
-125.9349234459826
 21
-1404.027521981239
 31
0.0
  0
LINE
  5
6AE
  8
__-1
  6
CONTINUOUS
 62
     0
 10
-125.9349234459826
 20
-1420.027705086708
 30
0.0
 11
-125.9349234459826
 21
-1407.02733887577
 31
0.0
  0
INSERT
  5
6AF
  8
__-1
 62
     0
  2
_DOT
 10
-125.9349234459826
 20
-1423.027521981239
 30
0.0
 41
2.99981689453125
 42
2.99981689453125
 43
2.99981689453125
 50
270.0
  0
INSERT
  5
6B0
  8
__-1
 62
     0
  2
_DOT
 10
-125.9349234459826
 20
-1404.027521981239
 30
0.0
 41
2.99981689453125
 42
2.99981689453125
 43
2.99981689453125
 50
90.0
  0
TEXT
  5
6B1
  8
__-1
  6
CONTINUOUS
 62
     0
 10
-128.4349234459828
 20
-1426.207231727634
 30
0.0
 40
16.34353298611111
  1
19
 50
90.0
  7
YUGOTHIC_BOLD
  0
POINT
  5
6B2
  8
DEFPOINTS
 62
     0
 10
-73.0
 20
-1423.027521981239
 30
0.0
  0
POINT
  5
6B3
  8
DEFPOINTS
 62
     0
 10
-72.99999999999997
 20
-1404.027521981239
 30
0.0
  0
POINT
  5
6B4
  8
DEFPOINTS
 62
     0
 10
-112.8515901126493
 20
-1404.027521981239
 30
0.0
  0
ENDBLK
  5
1D0
  8
0
  0
BLOCK
  8
0
  2
*D119
 70
     1
 10
0.0
 20
0.0
 30
0.0
  3
*D119
  1

  0
LINE
  5
6B7
  8
__-1
  6
CONTINUOUS
 62
     0
 10
861.0
 20
-1413.027521981239
 30
0.0
 11
861.0
 21
-1392.5
 31
0.0
  0
LINE
  5
6B8
  8
__-1
  6
CONTINUOUS
 62
     0
 10
-73.0
 20
-1413.027521981239
 30
0.0
 11
-73.0
 21
-1392.5
 31
0.0
  0
LINE
  5
6B9
  8
__-1
  6
CONTINUOUS
 62
     0
 10
858.0001831054688
 20
-1392.5
 30
0.0
 11
-70.00018310546875
 21
-1392.5
 31
0.0
  0
INSERT
  5
6BA
  8
__-1
 62
     0
  2
_DOT
 10
861.0
 20
-1392.5
 30
0.0
 41
2.99981689453125
 42
2.99981689453125
 43
2.99981689453125
  0
INSERT
  5
6BB
  8
__-1
 62
     0
  2
_DOT
 10
-73.0
 20
-1392.5
 30
0.0
 41
2.99981689453125
 42
2.99981689453125
 43
2.99981689453125
 50
180.0
  0
TEXT
  5
6BC
  8
__-1
  6
CONTINUOUS
 62
     0
 10
370.2629639963624
 20
-1390.0
 30
0.0
 40
16.34353298611111
  1
934
  7
YUGOTHIC_BOLD
  0
POINT
  5
6BD
  8
DEFPOINTS
 62
     0
 10
861.0
 20
-1423.027521981239
 30
0.0
  0
POINT
  5
6BE
  8
DEFPOINTS
 62
     0
 10
-73.0
 20
-1423.027521981239
 30
0.0
  0
POINT
  5
6BF
  8
DEFPOINTS
 62
     0
 10
-73.0
 20
-1392.5
 30
0.0
  0
ENDBLK
  5
1D3
  8
0
  0
BLOCK
  8
0
  2
*D120
 70
     1
 10
0.0
 20
0.0
 30
0.0
  3
*D120
  1

  0
LINE
  5
6C0
  8
__-1
  6
CONTINUOUS
 62
     0
 10
834.7024883753511
 20
-1029.54560402269
 30
0.0
 11
819.9152961485943
 21
-1029.54560402269
 31
0.0
  0
LINE
  5
6C1
  8
__-1
  6
CONTINUOUS
 62
     0
 10
834.7024883753511
 20
-1009.54560402269
 30
0.0
 11
819.9152961485943
 21
-1009.54560402269
 31
0.0
  0
LINE
  5
6C2
  8
__-1
  6
CONTINUOUS
 62
     0
 10
819.9152961485943
 20
-1029.54560402269
 30
0.0
 11
819.9152961485943
 21
-1009.54560402269
 31
0.0
  0
LINE
  5
6C3
  8
__-1
  6
CONTINUOUS
 62
     0
 10
819.9152961485943
 20
-1032.545420917221
 30
0.0
 11
819.9152961485943
 21
-1035.545237811752
 31
0.0
  0
LINE
  5
6C4
  8
__-1
  6
CONTINUOUS
 62
     0
 10
819.9152961485943
 20
-1006.545787128159
 30
0.0
 11
819.9152961485943
 21
-1003.545970233627
 31
0.0
  0
INSERT
  5
6C5
  8
__-1
 62
     0
  2
_DOT
 10
819.9152961485943
 20
-1029.54560402269
 30
0.0
 41
2.99981689453125
 42
2.99981689453125
 43
2.99981689453125
 50
90.0
  0
INSERT
  5
6C6
  8
__-1
 62
     0
  2
_DOT
 10
819.9152961485943
 20
-1009.54560402269
 30
0.0
 41
2.99981689453125
 42
2.99981689453125
 43
2.99981689453125
 50
270.0
  0
TEXT
  5
6C7
  8
__-1
  6
CONTINUOUS
 62
     0
 10
817.4152961485943
 20
-1035.110873533272
 30
0.0
 40
16.34353298611111
  1
20
 50
90.0
  7
YUGOTHIC_BOLD
  0
POINT
  5
6C8
  8
DEFPOINTS
 62
     0
 10
844.7024883753511
 20
-1029.54560402269
 30
0.0
  0
POINT
  5
6C9
  8
DEFPOINTS
 62
     0
 10
844.7024883753511
 20
-1009.54560402269
 30
0.0
  0
POINT
  5
6CA
  8
DEFPOINTS
 62
     0
 10
819.9152961485943
 20
-1009.54560402269
 30
0.0
  0
ENDBLK
  5
1D6
  8
0
  0
BLOCK
  8
0
  2
*D121
 70
     1
 10
0.0
 20
0.0
 30
0.0
  3
*D121
  1

  0
LINE
  5
6CB
  8
__-1
  6
CONTINUOUS
 62
     0
 10
3482.916666666667
 20
-2350.361632446331
 30
0.0
 11
3482.916666666667
 21
-2333.889348712036
 31
0.0
  0
LINE
  5
6CC
  8
__-1
  6
CONTINUOUS
 62
     0
 10
2631.916666666667
 20
-2350.361632446331
 30
0.0
 11
2631.916666666667
 21
-2333.889348712036
 31
0.0
  0
LINE
  5
6CD
  8
__-1
  6
CONTINUOUS
 62
     0
 10
3479.916849772135
 20
-2333.889348712036
 30
0.0
 11
2634.916483561198
 21
-2333.889348712036
 31
0.0
  0
INSERT
  5
6CE
  8
__-1
 62
     0
  2
_DOT
 10
3482.916666666667
 20
-2333.889348712036
 30
0.0
 41
2.99981689453125
 42
2.99981689453125
 43
2.99981689453125
  0
INSERT
  5
6CF
  8
__-1
 62
     0
  2
_DOT
 10
2631.916666666667
 20
-2333.889348712036
 30
0.0
 41
2.99981689453125
 42
2.99981689453125
 43
2.99981689453125
 50
180.0
  0
TEXT
  5
6D0
  8
__-1
  6
CONTINUOUS
 62
     0
 10
3036.403552827381
 20
-2331.389348712036
 30
0.0
 40
16.34353298611111
  1
851
  7
YUGOTHIC_BOLD
  0
POINT
  5
6D1
  8
DEFPOINTS
 62
     0
 10
3482.916666666667
 20
-2360.361632446331
 30
0.0
  0
POINT
  5
6D2
  8
DEFPOINTS
 62
     0
 10
2631.916666666667
 20
-2360.361632446331
 30
0.0
  0
POINT
  5
6D3
  8
DEFPOINTS
 62
     0
 10
2631.916666666667
 20
-2333.889348712036
 30
0.0
  0
ENDBLK
  5
1DA
  8
0
  0
BLOCK
  8
0
  2
*D122
 70
     1
 10
0.0
 20
0.0
 30
0.0
  3
*D122
  1

  0
LINE
  5
6D4
  8
__-1
  6
CONTINUOUS
 62
     0
 10
2621.416666666667
 20
-2375.361632446331
 30
0.0
 11
2568.563301859436
 21
-2375.361632446331
 31
0.0
  0
LINE
  5
6D5
  8
__-1
  6
CONTINUOUS
 62
     0
 10
2621.916666666667
 20
-2360.361632446331
 30
0.0
 11
2568.563301859436
 21
-2360.361632446331
 31
0.0
  0
LINE
  5
6D6
  8
__-1
  6
CONTINUOUS
 62
     0
 10
2568.563301859436
 20
-2375.361632446331
 30
0.0
 11
2568.563301859436
 21
-2360.361632446331
 31
0.0
  0
LINE
  5
6D7
  8
__-1
  6
CONTINUOUS
 62
     0
 10
2568.563301859436
 20
-2378.361449340862
 30
0.0
 11
2568.563301859436
 21
-2381.361266235393
 31
0.0
  0
LINE
  5
6D8
  8
__-1
  6
CONTINUOUS
 62
     0
 10
2568.563301859436
 20
-2357.361815551799
 30
0.0
 11
2568.563301859436
 21
-2354.361998657268
 31
0.0
  0
INSERT
  5
6D9
  8
__-1
 62
     0
  2
_DOT
 10
2568.563301859436
 20
-2375.361632446331
 30
0.0
 41
2.99981689453125
 42
2.99981689453125
 43
2.99981689453125
 50
90.0
  0
INSERT
  5
6DA
  8
__-1
 62
     0
  2
_DOT
 10
2568.563301859436
 20
-2360.361632446331
 30
0.0
 41
2.99981689453125
 42
2.99981689453125
 43
2.99981689453125
 50
270.0
  0
TEXT
  5
6DB
  8
__-1
  6
CONTINUOUS
 62
     0
 10
2566.063301859436
 20
-2384.594297170206
 30
0.0
 40
16.34353298611111
  1
15
 50
90.0
  7
YUGOTHIC_BOLD
  0
POINT
  5
6DC
  8
DEFPOINTS
 62
     0
 10
2631.416666666667
 20
-2375.361632446331
 30
0.0
  0
POINT
  5
6DD
  8
DEFPOINTS
 62
     0
 10
2631.916666666667
 20
-2360.361632446331
 30
0.0
  0
POINT
  5
A11
  8
DEFPOINTS
 62
     0
 10
2568.563301859436
 20
-2360.361632446331
 30
0.0
  0
ENDBLK
  5
1DD
  8
0
  0
BLOCK
  8
0
  2
*D123
 70
     1
 10
0.0
 20
0.0
 30
0.0
  3
*D123
  1

  0
LINE
  5
6DE
  8
__-1
  6
CONTINUOUS
 62
     0
 10
2621.416666666667
 20
-2841.966565296873
 30
0.0
 11
2568.440152490164
 21
-2841.966565296873
 31
0.0
  0
LINE
  5
6DF
  8
__-1
  6
CONTINUOUS
 62
     0
 10
2621.916666666667
 20
-2826.966565296872
 30
0.0
 11
2568.440152490164
 21
-2826.966565296872
 31
0.0
  0
LINE
  5
6E0
  8
__-1
  6
CONTINUOUS
 62
     0
 10
2568.440152490164
 20
-2841.966565296873
 30
0.0
 11
2568.440152490164
 21
-2826.966565296872
 31
0.0
  0
LINE
  5
6E1
  8
__-1
  6
CONTINUOUS
 62
     0
 10
2568.440152490164
 20
-2844.966382191404
 30
0.0
 11
2568.440152490164
 21
-2847.966199085935
 31
0.0
  0
LINE
  5
6E2
  8
__-1
  6
CONTINUOUS
 62
     0
 10
2568.440152490164
 20
-2823.966748402341
 30
0.0
 11
2568.440152490164
 21
-2820.966931507809
 31
0.0
  0
INSERT
  5
6E3
  8
__-1
 62
     0
  2
_DOT
 10
2568.440152490164
 20
-2841.966565296873
 30
0.0
 41
2.99981689453125
 42
2.99981689453125
 43
2.99981689453125
 50
90.0
  0
INSERT
  5
6E4
  8
__-1
 62
     0
  2
_DOT
 10
2568.440152490164
 20
-2826.966565296872
 30
0.0
 41
2.99981689453125
 42
2.99981689453125
 43
2.99981689453125
 50
270.0
  0
TEXT
  5
6E5
  8
__-1
  6
CONTINUOUS
 62
     0
 10
2565.940152490164
 20
-2851.199230020748
 30
0.0
 40
16.34353298611111
  1
15
 50
90.0
  7
YUGOTHIC_BOLD
  0
POINT
  5
6E6
  8
DEFPOINTS
 62
     0
 10
2631.416666666667
 20
-2841.966565296873
 30
0.0
  0
POINT
  5
6E7
  8
DEFPOINTS
 62
     0
 10
2631.916666666667
 20
-2826.966565296872
 30
0.0
  0
POINT
  5
A26
  8
DEFPOINTS
 62
     0
 10
2568.440152490164
 20
-2826.966565296872
 30
0.0
  0
ENDBLK
  5
1E0
  8
0
  0
BLOCK
  8
0
  2
*D124
 70
     1
 10
0.0
 20
0.0
 30
0.0
  3
*D124
  1

  0
LINE
  5
6E8
  8
__-1
  6
CONTINUOUS
 62
     0
 10
2631.916666666667
 20
-2851.966565296873
 30
0.0
 11
2631.916666666667
 21
-2879.281619067603
 31
0.0
  0
LINE
  5
6E9
  8
__-1
  6
CONTINUOUS
 62
     0
 10
2607.916666666667
 20
-2851.966565296873
 30
0.0
 11
2607.916666666667
 21
-2879.281619067603
 31
0.0
  0
LINE
  5
6EA
  8
__-1
  6
CONTINUOUS
 62
     0
 10
2631.916666666667
 20
-2879.281619067603
 30
0.0
 11
2607.916666666667
 21
-2879.281619067603
 31
0.0
  0
LINE
  5
6EB
  8
__-1
  6
CONTINUOUS
 62
     0
 10
2634.916483561198
 20
-2879.281619067603
 30
0.0
 11
2637.916300455729
 21
-2879.281619067603
 31
0.0
  0
LINE
  5
6EC
  8
__-1
  6
CONTINUOUS
 62
     0
 10
2604.916849772135
 20
-2879.281619067603
 30
0.0
 11
2601.917032877604
 21
-2879.281619067603
 31
0.0
  0
INSERT
  5
6ED
  8
__-1
 62
     0
  2
_DOT
 10
2631.916666666667
 20
-2879.281619067603
 30
0.0
 41
2.99981689453125
 42
2.99981689453125
 43
2.99981689453125
 50
180.0
  0
INSERT
  5
6EE
  8
__-1
 62
     0
  2
_DOT
 10
2607.916666666667
 20
-2879.281619067603
 30
0.0
 41
2.99981689453125
 42
2.99981689453125
 43
2.99981689453125
  0
TEXT
  5
6EF
  8
__-1
  6
CONTINUOUS
 62
     0
 10
2603.96226541832
 20
-2876.781619067603
 30
0.0
 40
16.34353298611111
  1
24
  7
YUGOTHIC_BOLD
  0
POINT
  5
6F0
  8
DEFPOINTS
 62
     0
 10
2631.916666666667
 20
-2841.966565296873
 30
0.0
  0
POINT
  5
A28
  8
DEFPOINTS
 62
     0
 10
2607.916666666667
 20
-2841.966565296873
 30
0.0
  0
POINT
  5
A29
  8
DEFPOINTS
 62
     0
 10
2607.916666666667
 20
-2879.281619067603
 30
0.0
  0
ENDBLK
  5
1E3
  8
0
  0
BLOCK
  8
0
  2
*D125
 70
     1
 10
0.0
 20
0.0
 30
0.0
  3
*D125
  1

  0
LINE
  5
6F1
  8
__-1
  6
CONTINUOUS
 62
     0
 10
2631.916666666667
 20
-2385.361632446331
 30
0.0
 11
2631.916666666667
 21
-2415.802537208668
 31
0.0
  0
LINE
  5
6F2
  8
__-1
  6
CONTINUOUS
 62
     0
 10
2607.916666666667
 20
-2385.361632446331
 30
0.0
 11
2607.916666666667
 21
-2415.802537208668
 31
0.0
  0
LINE
  5
6F3
  8
__-1
  6
CONTINUOUS
 62
     0
 10
2631.916666666667
 20
-2415.802537208668
 30
0.0
 11
2607.916666666667
 21
-2415.802537208668
 31
0.0
  0
LINE
  5
6F4
  8
__-1
  6
CONTINUOUS
 62
     0
 10
2634.916483561198
 20
-2415.802537208668
 30
0.0
 11
2637.916300455729
 21
-2415.802537208668
 31
0.0
  0
LINE
  5
6F5
  8
__-1
  6
CONTINUOUS
 62
     0
 10
2604.916849772135
 20
-2415.802537208668
 30
0.0
 11
2601.917032877604
 21
-2415.802537208668
 31
0.0
  0
INSERT
  5
6F6
  8
__-1
 62
     0
  2
_DOT
 10
2631.916666666667
 20
-2415.802537208668
 30
0.0
 41
2.99981689453125
 42
2.99981689453125
 43
2.99981689453125
 50
180.0
  0
INSERT
  5
6F7
  8
__-1
 62
     0
  2
_DOT
 10
2607.916666666667
 20
-2415.802537208668
 30
0.0
 41
2.99981689453125
 42
2.99981689453125
 43
2.99981689453125
  0
TEXT
  5
6F8
  8
__-1
  6
CONTINUOUS
 62
     0
 10
2603.96226541832
 20
-2413.302537208668
 30
0.0
 40
16.34353298611111
  1
24
  7
YUGOTHIC_BOLD
  0
POINT
  5
6F9
  8
DEFPOINTS
 62
     0
 10
2631.916666666667
 20
-2375.361632446331
 30
0.0
  0
POINT
  5
A2B
  8
DEFPOINTS
 62
     0
 10
2607.916666666667
 20
-2375.361632446331
 30
0.0
  0
POINT
  5
A2C
  8
DEFPOINTS
 62
     0
 10
2607.916666666667
 20
-2415.802537208668
 30
0.0
  0
ENDBLK
  5
1E6
  8
0
  0
BLOCK
  8
0
  2
*D126
 70
     1
 10
0.0
 20
0.0
 30
0.0
  3
*D126
  1

  0
LINE
  5
6FA
  8
__-1
  6
CONTINUOUS
 62
     0
 10
2413.246574637113
 20
-2991.966565296873
 30
0.0
 11
2388.890182024242
 21
-2991.966565296873
 31
0.0
  0
LINE
  5
6FB
  8
__-1
  6
CONTINUOUS
 62
     0
 10
2428.246574637113
 20
-3126.966565296873
 30
0.0
 11
2388.890182024242
 21
-3126.966565296873
 31
0.0
  0
LINE
  5
6FC
  8
__-1
  6
CONTINUOUS
 62
     0
 10
2388.890182024242
 20
-2994.966382191404
 30
0.0
 11
2388.890182024242
 21
-3123.966748402342
 31
0.0
  0
INSERT
  5
6FD
  8
__-1
 62
     0
  2
_DOT
 10
2388.890182024242
 20
-2991.966565296873
 30
0.0
 41
2.99981689453125
 42
2.99981689453125
 43
2.99981689453125
 50
90.0
  0
INSERT
  5
6FE
  8
__-1
 62
     0
  2
_DOT
 10
2388.890182024242
 20
-3126.966565296873
 30
0.0
 41
2.99981689453125
 42
2.99981689453125
 43
2.99981689453125
 50
270.0
  0
TEXT
  5
6FF
  8
__-1
  6
CONTINUOUS
 62
     0
 10
2386.390182024242
 20
-3083.981864776039
 30
0.0
 40
16.34353298611111
  1
135
 50
90.0
  7
YUGOTHIC_BOLD
  0
POINT
  5
700
  8
DEFPOINTS
 62
     0
 10
2423.246574637113
 20
-2991.966565296873
 30
0.0
  0
POINT
  5
701
  8
DEFPOINTS
 62
     0
 10
2438.246574637113
 20
-3126.966565296873
 30
0.0
  0
POINT
  5
702
  8
DEFPOINTS
 62
     0
 10
2388.890182024242
 20
-3126.966565296873
 30
0.0
  0
ENDBLK
  5
1E9
  8
0
  0
BLOCK
  8
0
  2
*D127
 70
     1
 10
0.0
 20
0.0
 30
0.0
  3
*D127
  1

  0
LINE
  5
703
  8
__-1
  6
CONTINUOUS
 62
     0
 10
3182.916666666667
 20
-2816.966565296873
 30
0.0
 11
3182.916666666667
 21
-2808.481619067603
 31
0.0
  0
LINE
  5
704
  8
__-1
  6
CONTINUOUS
 62
     0
 10
2631.916666666667
 20
-2816.966565296873
 30
0.0
 11
2631.916666666667
 21
-2808.481619067603
 31
0.0
  0
LINE
  5
705
  8
__-1
  6
CONTINUOUS
 62
     0
 10
3179.916849772135
 20
-2808.481619067603
 30
0.0
 11
2634.916483561198
 21
-2808.481619067603
 31
0.0
  0
INSERT
  5
706
  8
__-1
 62
     0
  2
_DOT
 10
3182.916666666667
 20
-2808.481619067603
 30
0.0
 41
2.99981689453125
 42
2.99981689453125
 43
2.99981689453125
  0
INSERT
  5
707
  8
__-1
 62
     0
  2
_DOT
 10
2631.916666666667
 20
-2808.481619067603
 30
0.0
 41
2.99981689453125
 42
2.99981689453125
 43
2.99981689453125
 50
180.0
  0
TEXT
  5
708
  8
__-1
  6
CONTINUOUS
 62
     0
 10
2886.403552827381
 20
-2805.981619067603
 30
0.0
 40
16.34353298611111
  1
551
  7
YUGOTHIC_BOLD
  0
POINT
  5
709
  8
DEFPOINTS
 62
     0
 10
3182.916666666667
 20
-2826.966565296873
 30
0.0
  0
POINT
  5
70A
  8
DEFPOINTS
 62
     0
 10
2631.916666666667
 20
-2826.966565296873
 30
0.0
  0
POINT
  5
70B
  8
DEFPOINTS
 62
     0
 10
2631.916666666667
 20
-2808.481619067603
 30
0.0
  0
ENDBLK
  5
1EC
  8
0
  0
BLOCK
  8
0
  2
____-15-1
 70
     0
 10
0.0
 20
0.0
 30
0.0
  3
____-15-1
  1

  0
POLYLINE
  5
70C
  8
__
  6
CONTINUOUS
 62
    17
 66
     1
 10
0.0
 20
0.0
 30
0.0
 70
   129
  0
VERTEX
  5
70D
  8
__
  6
CONTINUOUS
 62
    17
 10
2537.265842038633
 20
-448.4448891683305
 30
0.0
  0
VERTEX
  5
70E
  8
__
  6
CONTINUOUS
 62
    17
 10
2552.265842038633
 20
-448.4448891683305
 30
0.0
  0
VERTEX
  5
70F
  8
__
  6
CONTINUOUS
 62
    17
 10
2552.265842038633
 20
-498.4448891683305
 30
0.0
  0
VERTEX
  5
710
  8
__
  6
CONTINUOUS
 62
    17
 10
2537.265842038633
 20
-498.4448891683305
 30
0.0
  0
SEQEND
  5
711
  8
__
  6
CONTINUOUS
 62
    17
  0
POLYLINE
  5
712
  8
__
  6
CONTINUOUS
 62
    17
 66
     1
 10
0.0
 20
0.0
 30
0.0
 70
   129
  0
VERTEX
  5
713
  8
__
  6
CONTINUOUS
 62
    17
 10
2552.265842038633
 20
-448.4448891683305
 30
0.0
  0
VERTEX
  5
714
  8
__
  6
CONTINUOUS
 62
    17
 10
2570.265842038633
 20
-448.4448891683305
 30
0.0
  0
VERTEX
  5
715
  8
__
  6
CONTINUOUS
 62
    17
 10
2570.265842038633
 20
-466.4448891683305
 30
0.0
  0
VERTEX
  5
716
  8
__
  6
CONTINUOUS
 62
    17
 10
2552.265842038633
 20
-466.4448891683305
 30
0.0
  0
SEQEND
  5
717
  8
__
  6
CONTINUOUS
 62
    17
  0
POLYLINE
  5
718
  8
__
  6
CONTINUOUS
 62
    17
 66
     1
 10
0.0
 20
0.0
 30
0.0
 70
   129
  0
VERTEX
  5
719
  8
__
  6
CONTINUOUS
 62
    17
 10
2570.265842038633
 20
-448.4448891683305
 30
0.0
  0
VERTEX
  5
71A
  8
__
  6
CONTINUOUS
 62
    17
 10
2585.265842038633
 20
-448.4448891683305
 30
0.0
  0
VERTEX
  5
71B
  8
__
  6
CONTINUOUS
 62
    17
 10
2585.265842038633
 20
-498.4448891683305
 30
0.0
  0
VERTEX
  5
71C
  8
__
  6
CONTINUOUS
 62
    17
 10
2570.265842038633
 20
-498.4448891683305
 30
0.0
  0
SEQEND
  5
71D
  8
__
  6
CONTINUOUS
 62
    17
  0
ENDBLK
  5
1EF
  8
0
  0
BLOCK
  8
0
  2
____-16-1
 70
     0
 10
0.0
 20
0.0
 30
0.0
  3
____-16-1
  1

  0
POLYLINE
  5
71E
  8
__
  6
CONTINUOUS
 62
    17
 66
     1
 10
0.0
 20
0.0
 30
0.0
 70
   129
  0
VERTEX
  5
71F
  8
__
  6
CONTINUOUS
 62
    17
 10
3137.265842038633
 20
-448.4448891683305
 30
0.0
  0
VERTEX
  5
720
  8
__
  6
CONTINUOUS
 62
    17
 10
3152.265842038633
 20
-448.4448891683305
 30
0.0
  0
VERTEX
  5
721
  8
__
  6
CONTINUOUS
 62
    17
 10
3152.265842038633
 20
-498.4448891683305
 30
0.0
  0
VERTEX
  5
722
  8
__
  6
CONTINUOUS
 62
    17
 10
3137.265842038633
 20
-498.4448891683305
 30
0.0
  0
SEQEND
  5
723
  8
__
  6
CONTINUOUS
 62
    17
  0
POLYLINE
  5
724
  8
__
  6
CONTINUOUS
 62
    17
 66
     1
 10
0.0
 20
0.0
 30
0.0
 70
   129
  0
VERTEX
  5
725
  8
__
  6
CONTINUOUS
 62
    17
 10
3152.265842038633
 20
-448.4448891683305
 30
0.0
  0
VERTEX
  5
726
  8
__
  6
CONTINUOUS
 62
    17
 10
3170.265842038633
 20
-448.4448891683305
 30
0.0
  0
VERTEX
  5
727
  8
__
  6
CONTINUOUS
 62
    17
 10
3170.265842038633
 20
-466.4448891683305
 30
0.0
  0
VERTEX
  5
728
  8
__
  6
CONTINUOUS
 62
    17
 10
3152.265842038633
 20
-466.4448891683305
 30
0.0
  0
SEQEND
  5
729
  8
__
  6
CONTINUOUS
 62
    17
  0
POLYLINE
  5
72A
  8
__
  6
CONTINUOUS
 62
    17
 66
     1
 10
0.0
 20
0.0
 30
0.0
 70
   129
  0
VERTEX
  5
72B
  8
__
  6
CONTINUOUS
 62
    17
 10
3170.265842038633
 20
-448.4448891683305
 30
0.0
  0
VERTEX
  5
72C
  8
__
  6
CONTINUOUS
 62
    17
 10
3185.265842038633
 20
-448.4448891683305
 30
0.0
  0
VERTEX
  5
72D
  8
__
  6
CONTINUOUS
 62
    17
 10
3185.265842038633
 20
-498.4448891683305
 30
0.0
  0
VERTEX
  5
72E
  8
__
  6
CONTINUOUS
 62
    17
 10
3170.265842038633
 20
-498.4448891683305
 30
0.0
  0
SEQEND
  5
72F
  8
__
  6
CONTINUOUS
 62
    17
  0
ENDBLK
  5
1F2
  8
0
  0
BLOCK
  8
0
  2
____-17-1
 70
     0
 10
0.0
 20
0.0
 30
0.0
  3
____-17-1
  1

  0
POLYLINE
  5
730
  8
__
  6
CONTINUOUS
 62
    17
 66
     1
 10
0.0
 20
0.0
 30
0.0
 70
   129
  0
VERTEX
  5
731
  8
__
  6
CONTINUOUS
 62
    17
 10
3737.265842038633
 20
-448.4448891683305
 30
0.0
  0
VERTEX
  5
732
  8
__
  6
CONTINUOUS
 62
    17
 10
3752.265842038633
 20
-448.4448891683305
 30
0.0
  0
VERTEX
  5
733
  8
__
  6
CONTINUOUS
 62
    17
 10
3752.265842038633
 20
-498.4448891683305
 30
0.0
  0
VERTEX
  5
734
  8
__
  6
CONTINUOUS
 62
    17
 10
3737.265842038633
 20
-498.4448891683305
 30
0.0
  0
SEQEND
  5
735
  8
__
  6
CONTINUOUS
 62
    17
  0
POLYLINE
  5
736
  8
__
  6
CONTINUOUS
 62
    17
 66
     1
 10
0.0
 20
0.0
 30
0.0
 70
   129
  0
VERTEX
  5
737
  8
__
  6
CONTINUOUS
 62
    17
 10
3752.265842038633
 20
-448.4448891683305
 30
0.0
  0
VERTEX
  5
738
  8
__
  6
CONTINUOUS
 62
    17
 10
3770.265842038633
 20
-448.4448891683305
 30
0.0
  0
VERTEX
  5
739
  8
__
  6
CONTINUOUS
 62
    17
 10
3770.265842038633
 20
-466.4448891683305
 30
0.0
  0
VERTEX
  5
73A
  8
__
  6
CONTINUOUS
 62
    17
 10
3752.265842038633
 20
-466.4448891683305
 30
0.0
  0
SEQEND
  5
73B
  8
__
  6
CONTINUOUS
 62
    17
  0
POLYLINE
  5
73C
  8
__
  6
CONTINUOUS
 62
    17
 66
     1
 10
0.0
 20
0.0
 30
0.0
 70
   129
  0
VERTEX
  5
73D
  8
__
  6
CONTINUOUS
 62
    17
 10
3770.265842038633
 20
-448.4448891683305
 30
0.0
  0
VERTEX
  5
73E
  8
__
  6
CONTINUOUS
 62
    17
 10
3785.265842038633
 20
-448.4448891683305
 30
0.0
  0
VERTEX
  5
73F
  8
__
  6
CONTINUOUS
 62
    17
 10
3785.265842038633
 20
-498.4448891683305
 30
0.0
  0
VERTEX
  5
740
  8
__
  6
CONTINUOUS
 62
    17
 10
3770.265842038633
 20
-498.4448891683305
 30
0.0
  0
SEQEND
  5
741
  8
__
  6
CONTINUOUS
 62
    17
  0
ENDBLK
  5
1F5
  8
0
  0
BLOCK
  8
0
  2
*D131
 70
     1
 10
0.0
 20
0.0
 30
0.0
  3
*D131
  1

  0
LINE
  5
742
  8
__-1
  6
CONTINUOUS
 62
     0
 10
2597.916666666667
 20
-523.0666666666666
 30
0.0
 11
2564.030140027887
 21
-523.0666666666666
 31
0.0
  0
LINE
  5
743
  8
__-1
  6
CONTINUOUS
 62
     0
 10
2613.916666666667
 20
-468.0666666666666
 30
0.0
 11
2564.030140027887
 21
-468.0666666666666
 31
0.0
  0
LINE
  5
744
  8
__-1
  6
CONTINUOUS
 62
     0
 10
2564.030140027887
 20
-520.0668497721354
 30
0.0
 11
2564.030140027887
 21
-471.0664835611979
 31
0.0
  0
INSERT
  5
745
  8
__-1
 62
     0
  2
_DOT
 10
2564.030140027887
 20
-523.0666666666666
 30
0.0
 41
2.99981689453125
 42
2.99981689453125
 43
2.99981689453125
 50
270.0
  0
INSERT
  5
746
  8
__-1
 62
     0
  2
_DOT
 10
2564.030140027887
 20
-468.0666666666666
 30
0.0
 41
2.99981689453125
 42
2.99981689453125
 43
2.99981689453125
 50
90.0
  0
TEXT
  5
747
  8
__-1
  6
CONTINUOUS
 62
     0
 10
2561.530140027887
 20
-511.1319361772489
 30
0.0
 40
16.34353298611111
  1
55
 50
90.0
  7
YUGOTHIC_BOLD
  0
POINT
  5
748
  8
DEFPOINTS
 62
     0
 10
2607.916666666667
 20
-523.0666666666666
 30
0.0
  0
POINT
  5
749
  8
DEFPOINTS
 62
     0
 10
2623.916666666667
 20
-468.0666666666666
 30
0.0
  0
POINT
  5
74A
  8
DEFPOINTS
 62
     0
 10
2564.030140027887
 20
-468.0666666666666
 30
0.0
  0
ENDBLK
  5
1F8
  8
0
  0
BLOCK
  8
0
  2
*D132
 70
     1
 10
0.0
 20
0.0
 30
0.0
  3
*D132
  1

  0
LINE
  5
74B
  8
__-1
  6
CONTINUOUS
 62
     0
 10
2597.916666666667
 20
-1400.235356787973
 30
0.0
 11
2563.060750484466
 21
-1400.235356787973
 31
0.0
  0
LINE
  5
74C
  8
__-1
  6
CONTINUOUS
 62
     0
 10
2597.916666666667
 20
-1345.235356787973
 30
0.0
 11
2563.060750484466
 21
-1345.235356787973
 31
0.0
  0
LINE
  5
74D
  8
__-1
  6
CONTINUOUS
 62
     0
 10
2563.060750484466
 20
-1397.235539893441
 30
0.0
 11
2563.060750484466
 21
-1348.235173682504
 31
0.0
  0
INSERT
  5
74E
  8
__-1
 62
     0
  2
_DOT
 10
2563.060750484466
 20
-1400.235356787973
 30
0.0
 41
2.99981689453125
 42
2.99981689453125
 43
2.99981689453125
 50
270.0
  0
INSERT
  5
74F
  8
__-1
 62
     0
  2
_DOT
 10
2563.060750484466
 20
-1345.235356787973
 30
0.0
 41
2.99981689453125
 42
2.99981689453125
 43
2.99981689453125
 50
90.0
  0
TEXT
  5
750
  8
__-1
  6
CONTINUOUS
 62
     0
 10
2560.560750484466
 20
-1388.300626298555
 30
0.0
 40
16.34353298611111
  1
55
 50
90.0
  7
YUGOTHIC_BOLD
  0
POINT
  5
751
  8
DEFPOINTS
 62
     0
 10
2607.916666666667
 20
-1400.235356787973
 30
0.0
  0
POINT
  5
752
  8
DEFPOINTS
 62
     0
 10
2607.916666666667
 20
-1345.235356787973
 30
0.0
  0
POINT
  5
753
  8
DEFPOINTS
 62
     0
 10
2563.060750484466
 20
-1345.235356787973
 30
0.0
  0
ENDBLK
  5
1FB
  8
0
  0
BLOCK
  8
0
  2
CALLOUT-9
 70
     0
 10
0.0
 20
0.0
 30
0.0
  3
CALLOUT-9
  1

  0
LINE
  5
754
  8
__
  6
CONTINUOUS
 62
    17
 10
0.0
 20
0.0
 30
0.0
 11
-8.117675346589778
 21
20.95472965625891
 31
0.0
  0
LINE
  5
755
  8
__
  6
CONTINUOUS
 62
    17
 10
31.75
 20
0.0
 30
0.0
 11
0.0
 21
0.0
 31
0.0
  0
TEXT
  5
756
  8
__
 62
    17
 10
32.94
 20
-1.834444444444445
 30
0.0
 40
10.62008101851851
  1
ブラケットずれ留め六角ナット
  7
____________
 11
32.94
 21
8.785636574074063
 31
0.0
 73
     3
  0
ENDBLK
  5
1FE
  8
0
  0
BLOCK
  8
0
  2
____-18-1
 70
     0
 10
0.0
 20
0.0
 30
0.0
  3
____-18-1
  1

  0
LINE
  5
757
  8
__
  6
CONTINUOUS
 62
    17
 10
761.3491753719663
 20
-1452.332952157923
 30
0.0
 11
761.3491753719663
 21
-1455.623492845405
 31
0.0
  0
LINE
  5
758
  8
__
  6
CONTINUOUS
 62
    17
 10
762.6315000253767
 20
-1455.623492845405
 30
0.0
 11
760.0668507185562
 21
-1455.623492845405
 31
0.0
  0
ENDBLK
  5
201
  8
0
  0
BLOCK
  8
0
  2
*D135
 70
     1
 10
0.0
 20
0.0
 30
0.0
  3
*D135
  1

  0
LINE
  5
759
  8
__-1
  6
CONTINUOUS
 62
     0
 10
833.0
 20
-1431.954729656259
 30
0.0
 11
833.0
 21
-1467.416666666667
 31
0.0
  0
LINE
  5
75A
  8
__-1
  6
CONTINUOUS
 62
     0
 10
861.0
 20
-1433.027521981239
 30
0.0
 11
861.0
 21
-1467.416666666667
 31
0.0
  0
LINE
  5
75B
  8
__-1
  6
CONTINUOUS
 62
     0
 10
833.0
 20
-1467.416666666667
 30
0.0
 11
861.0
 21
-1467.416666666667
 31
0.0
  0
LINE
  5
75C
  8
__-1
  6
CONTINUOUS
 62
     0
 10
830.0001831054688
 20
-1467.416666666667
 30
0.0
 11
827.0003662109375
 21
-1467.416666666667
 31
0.0
  0
LINE
  5
75D
  8
__-1
  6
CONTINUOUS
 62
     0
 10
863.9998168945312
 20
-1467.416666666667
 30
0.0
 11
866.9996337890625
 21
-1467.416666666667
 31
0.0
  0
INSERT
  5
75E
  8
__-1
 62
     0
  2
_DOT
 10
833.0
 20
-1467.416666666667
 30
0.0
 41
2.99981689453125
 42
2.99981689453125
 43
2.99981689453125
  0
INSERT
  5
75F
  8
__-1
 62
     0
  2
_DOT
 10
861.0
 20
-1467.416666666667
 30
0.0
 41
2.99981689453125
 42
2.99981689453125
 43
2.99981689453125
 50
180.0
  0
TEXT
  5
760
  8
__-1
  6
CONTINUOUS
 62
     0
 10
831.4347304894179
 20
-1464.916666666666
 30
0.0
 40
16.34353298611111
  1
28
  7
YUGOTHIC_BOLD
  0
POINT
  5
761
  8
DEFPOINTS
 62
     0
 10
833.0
 20
-1421.954729656259
 30
0.0
  0
POINT
  5
A40
  8
DEFPOINTS
 62
     0
 10
861.0
 20
-1423.027521981239
 30
0.0
  0
POINT
  5
A41
  8
DEFPOINTS
 62
     0
 10
861.0
 20
-1467.416666666667
 30
0.0
  0
ENDBLK
  5
204
  8
0
  0
BLOCK
  8
0
  2
*D136
 70
     1
 10
0.0
 20
0.0
 30
0.0
  3
*D136
  1

  0
LINE
  5
762
  8
__-1
  6
CONTINUOUS
 62
     0
 10
775.9524883753511
 20
-681.8046018592327
 30
0.0
 11
775.9524883753511
 21
-679.7111898162862
 31
0.0
  0
LINE
  5
763
  8
__-1
  6
CONTINUOUS
 62
     0
 10
771.4524883753509
 20
-681.8046018592327
 30
0.0
 11
771.4524883753509
 21
-679.7111898162862
 31
0.0
  0
LINE
  5
764
  8
__-1
  6
CONTINUOUS
 62
     0
 10
775.9524883753511
 20
-679.7111898162862
 30
0.0
 11
771.4524883753509
 21
-679.7111898162862
 31
0.0
  0
LINE
  5
765
  8
__-1
  6
CONTINUOUS
 62
     0
 10
778.9523052698823
 20
-679.7111898162862
 30
0.0
 11
781.9521221644136
 21
-679.7111898162862
 31
0.0
  0
LINE
  5
766
  8
__-1
  6
CONTINUOUS
 62
     0
 10
768.4526714808196
 20
-679.7111898162862
 30
0.0
 11
765.4528545862884
 21
-679.7111898162862
 31
0.0
  0
INSERT
  5
767
  8
__-1
 62
     0
  2
_DOT
 10
775.9524883753511
 20
-679.7111898162862
 30
0.0
 41
2.99981689453125
 42
2.99981689453125
 43
2.99981689453125
 50
180.0
  0
INSERT
  5
768
  8
__-1
 62
     0
  2
_DOT
 10
771.4524883753509
 20
-679.7111898162862
 30
0.0
 41
2.99981689453125
 42
2.99981689453125
 43
2.99981689453125
  0
TEXT
  5
769
  8
__-1
  6
CONTINUOUS
 62
     0
 10
754.2459014871234
 20
-677.2111898162862
 30
0.0
 40
16.34353298611111
  1
4.5
  7
YUGOTHIC_BOLD
  0
POINT
  5
76A
  8
DEFPOINTS
 62
     0
 10
775.9524883753511
 20
-691.8046018592327
 30
0.0
  0
POINT
  5
76B
  8
DEFPOINTS
 62
     0
 10
771.4524883753509
 20
-691.8046018592327
 30
0.0
  0
POINT
  5
76C
  8
DEFPOINTS
 62
     0
 10
771.4524883753509
 20
-679.7111898162862
 30
0.0
  0
ENDBLK
  5
207
  8
0
  0
BLOCK
  8
0
  2
*D137
 70
     1
 10
0.0
 20
0.0
 30
0.0
  3
*D137
  1

  0
LINE
  5
76D
  8
__-1
  6
CONTINUOUS
 62
     0
 10
777.9524883753511
 20
-772.4718950923153
 30
0.0
 11
777.9524883753511
 21
-789.4232664571567
 31
0.0
  0
LINE
  5
76E
  8
__-1
  6
CONTINUOUS
 62
     0
 10
769.4524883753513
 20
-771.513248475774
 30
0.0
 11
769.4524883753513
 21
-789.4232664571567
 31
0.0
  0
LINE
  5
76F
  8
__-1
  6
CONTINUOUS
 62
     0
 10
777.9524883753511
 20
-789.4232664571567
 30
0.0
 11
769.4524883753513
 21
-789.4232664571567
 31
0.0
  0
LINE
  5
770
  8
__-1
  6
CONTINUOUS
 62
     0
 10
780.9523052698823
 20
-789.4232664571567
 30
0.0
 11
783.9521221644136
 21
-789.4232664571567
 31
0.0
  0
LINE
  5
771
  8
__-1
  6
CONTINUOUS
 62
     0
 10
766.4526714808201
 20
-789.4232664571567
 30
0.0
 11
763.4528545862888
 21
-789.4232664571567
 31
0.0
  0
INSERT
  5
772
  8
__-1
 62
     0
  2
_DOT
 10
777.9524883753511
 20
-789.4232664571567
 30
0.0
 41
2.99981689453125
 42
2.99981689453125
 43
2.99981689453125
 50
180.0
  0
INSERT
  5
773
  8
__-1
 62
     0
  2
_DOT
 10
769.4524883753513
 20
-789.4232664571567
 30
0.0
 41
2.99981689453125
 42
2.99981689453125
 43
2.99981689453125
  0
TEXT
  5
774
  8
__-1
  6
CONTINUOUS
 62
     0
 10
754.2459014871237
 20
-786.9232664571567
 30
0.0
 40
16.34353298611111
  1
8.5
  7
YUGOTHIC_BOLD
  0
POINT
  5
775
  8
DEFPOINTS
 62
     0
 10
777.9524883753511
 20
-762.4718950923153
 30
0.0
  0
POINT
  5
776
  8
DEFPOINTS
 62
     0
 10
769.4524883753513
 20
-761.513248475774
 30
0.0
  0
POINT
  5
A51
  8
DEFPOINTS
 62
     0
 10
769.4524883753513
 20
-789.4232664571567
 30
0.0
  0
ENDBLK
  5
20A
  8
0
  0
BLOCK
  8
0
  2
*D138
 70
     1
 10
0.0
 20
0.0
 30
0.0
  3
*D138
  1

  0
LINE
  5
777
  8
__-1
  6
CONTINUOUS
 62
     0
 10
553.7024883753511
 20
-577.2152643907281
 30
0.0
 11
553.7024883753511
 21
-565.3511807218113
 31
0.0
  0
LINE
  5
778
  8
__-1
  6
CONTINUOUS
 62
     0
 10
773.7024883753511
 20
-576.6029580856598
 30
0.0
 11
773.7024883753511
 21
-565.3511807218113
 31
0.0
  0
LINE
  5
779
  8
__-1
  6
CONTINUOUS
 62
     0
 10
556.7023052698823
 20
-565.3511807218113
 30
0.0
 11
770.7026714808198
 21
-565.3511807218113
 31
0.0
  0
INSERT
  5
77A
  8
__-1
 62
     0
  2
_DOT
 10
553.7024883753511
 20
-565.3511807218113
 30
0.0
 41
2.99981689453125
 42
2.99981689453125
 43
2.99981689453125
 50
180.0
  0
INSERT
  5
77B
  8
__-1
 62
     0
  2
_DOT
 10
773.7024883753511
 20
-565.3511807218113
 30
0.0
 41
2.99981689453125
 42
2.99981689453125
 43
2.99981689453125
  0
TEXT
  5
77C
  8
__-1
  6
CONTINUOUS
 62
     0
 10
640.3545841094781
 20
-562.8511807218113
 30
0.0
 40
16.34353298611111
  1
220
  7
YUGOTHIC_BOLD
  0
POINT
  5
77D
  8
DEFPOINTS
 62
     0
 10
553.7024883753511
 20
-587.2152643907281
 30
0.0
  0
POINT
  5
77E
  8
DEFPOINTS
 62
     0
 10
773.7024883753511
 20
-586.6029580856598
 30
0.0
  0
POINT
  5
77F
  8
DEFPOINTS
 62
     0
 10
773.7024883753511
 20
-565.3511807218113
 30
0.0
  0
ENDBLK
  5
20D
  8
0
  0
BLOCK
  8
0
  2
____-19-1
 70
     0
 10
0.0
 20
0.0
 30
0.0
  3
____-19-1
  1

  0
POLYLINE
  5
780
  8
__
  6
CONTINUOUS
 62
    17
 66
     1
 10
0.0
 20
0.0
 30
0.0
 70
   129
  0
VERTEX
  5
781
  8
__
  6
CONTINUOUS
 62
    17
 10
2537.265842038633
 20
-1325.613579289637
 30
0.0
  0
VERTEX
  5
782
  8
__
  6
CONTINUOUS
 62
    17
 10
2552.265842038633
 20
-1325.613579289637
 30
0.0
  0
VERTEX
  5
783
  8
__
  6
CONTINUOUS
 62
    17
 10
2552.265842038633
 20
-1375.613579289637
 30
0.0
  0
VERTEX
  5
784
  8
__
  6
CONTINUOUS
 62
    17
 10
2537.265842038633
 20
-1375.613579289637
 30
0.0
  0
SEQEND
  5
785
  8
__
  6
CONTINUOUS
 62
    17
  0
POLYLINE
  5
786
  8
__
  6
CONTINUOUS
 62
    17
 66
     1
 10
0.0
 20
0.0
 30
0.0
 70
   129
  0
VERTEX
  5
787
  8
__
  6
CONTINUOUS
 62
    17
 10
2552.265842038633
 20
-1325.613579289637
 30
0.0
  0
VERTEX
  5
788
  8
__
  6
CONTINUOUS
 62
    17
 10
2570.265842038633
 20
-1325.613579289637
 30
0.0
  0
VERTEX
  5
789
  8
__
  6
CONTINUOUS
 62
    17
 10
2570.265842038633
 20
-1343.613579289637
 30
0.0
  0
VERTEX
  5
78A
  8
__
  6
CONTINUOUS
 62
    17
 10
2552.265842038633
 20
-1343.613579289637
 30
0.0
  0
SEQEND
  5
78B
  8
__
  6
CONTINUOUS
 62
    17
  0
POLYLINE
  5
78C
  8
__
  6
CONTINUOUS
 62
    17
 66
     1
 10
0.0
 20
0.0
 30
0.0
 70
   129
  0
VERTEX
  5
78D
  8
__
  6
CONTINUOUS
 62
    17
 10
2570.265842038633
 20
-1325.613579289637
 30
0.0
  0
VERTEX
  5
78E
  8
__
  6
CONTINUOUS
 62
    17
 10
2585.265842038633
 20
-1325.613579289637
 30
0.0
  0
VERTEX
  5
78F
  8
__
  6
CONTINUOUS
 62
    17
 10
2585.265842038633
 20
-1375.613579289637
 30
0.0
  0
VERTEX
  5
790
  8
__
  6
CONTINUOUS
 62
    17
 10
2570.265842038633
 20
-1375.613579289637
 30
0.0
  0
SEQEND
  5
791
  8
__
  6
CONTINUOUS
 62
    17
  0
ENDBLK
  5
210
  8
0
  0
BLOCK
  8
0
  2
____-20-1
 70
     0
 10
0.0
 20
0.0
 30
0.0
  3
____-20-1
  1

  0
POLYLINE
  5
792
  8
__
  6
CONTINUOUS
 62
    17
 66
     1
 10
0.0
 20
0.0
 30
0.0
 70
   129
  0
VERTEX
  5
793
  8
__
  6
CONTINUOUS
 62
    17
 10
3437.265842038633
 20
-1325.613579289637
 30
0.0
  0
VERTEX
  5
794
  8
__
  6
CONTINUOUS
 62
    17
 10
3452.265842038633
 20
-1325.613579289637
 30
0.0
  0
VERTEX
  5
795
  8
__
  6
CONTINUOUS
 62
    17
 10
3452.265842038633
 20
-1375.613579289637
 30
0.0
  0
VERTEX
  5
796
  8
__
  6
CONTINUOUS
 62
    17
 10
3437.265842038633
 20
-1375.613579289637
 30
0.0
  0
SEQEND
  5
797
  8
__
  6
CONTINUOUS
 62
    17
  0
POLYLINE
  5
798
  8
__
  6
CONTINUOUS
 62
    17
 66
     1
 10
0.0
 20
0.0
 30
0.0
 70
   129
  0
VERTEX
  5
799
  8
__
  6
CONTINUOUS
 62
    17
 10
3452.265842038633
 20
-1325.613579289637
 30
0.0
  0
VERTEX
  5
79A
  8
__
  6
CONTINUOUS
 62
    17
 10
3470.265842038633
 20
-1325.613579289637
 30
0.0
  0
VERTEX
  5
79B
  8
__
  6
CONTINUOUS
 62
    17
 10
3470.265842038633
 20
-1343.613579289637
 30
0.0
  0
VERTEX
  5
79C
  8
__
  6
CONTINUOUS
 62
    17
 10
3452.265842038633
 20
-1343.613579289637
 30
0.0
  0
SEQEND
  5
79D
  8
__
  6
CONTINUOUS
 62
    17
  0
POLYLINE
  5
79E
  8
__
  6
CONTINUOUS
 62
    17
 66
     1
 10
0.0
 20
0.0
 30
0.0
 70
   129
  0
VERTEX
  5
79F
  8
__
  6
CONTINUOUS
 62
    17
 10
3470.265842038633
 20
-1325.613579289637
 30
0.0
  0
VERTEX
  5
7A0
  8
__
  6
CONTINUOUS
 62
    17
 10
3485.265842038633
 20
-1325.613579289637
 30
0.0
  0
VERTEX
  5
7A1
  8
__
  6
CONTINUOUS
 62
    17
 10
3485.265842038633
 20
-1375.613579289637
 30
0.0
  0
VERTEX
  5
7A2
  8
__
  6
CONTINUOUS
 62
    17
 10
3470.265842038633
 20
-1375.613579289637
 30
0.0
  0
SEQEND
  5
7A3
  8
__
  6
CONTINUOUS
 62
    17
  0
ENDBLK
  5
213
  8
0
  0
BLOCK
  8
0
  2
*D141
 70
     1
 10
0.0
 20
0.0
 30
0.0
  3
*D141
  1

  0
LINE
  5
7A4
  8
__-1
  6
CONTINUOUS
 62
     0
 10
2413.246574637113
 20
-3126.966565296873
 30
0.0
 11
2354.546832652376
 21
-3126.966565296873
 31
0.0
  0
LINE
  5
7A5
  8
__-1
  6
CONTINUOUS
 62
     0
 10
2413.246574637113
 20
-2826.966565296873
 30
0.0
 11
2354.546832652376
 21
-2826.966565296873
 31
0.0
  0
LINE
  5
7A6
  8
__-1
  6
CONTINUOUS
 62
     0
 10
2354.546832652376
 20
-3123.966748402342
 30
0.0
 11
2354.546832652376
 21
-2829.966382191404
 31
0.0
  0
INSERT
  5
7A7
  8
__-1
 62
     0
  2
_DOT
 10
2354.546832652376
 20
-3126.966565296873
 30
0.0
 41
2.99981689453125
 42
2.99981689453125
 43
2.99981689453125
 50
270.0
  0
INSERT
  5
7A8
  8
__-1
 62
     0
  2
_DOT
 10
2354.546832652376
 20
-2826.966565296873
 30
0.0
 41
2.99981689453125
 42
2.99981689453125
 43
2.99981689453125
 50
90.0
  0
TEXT
  5
7A9
  8
__-1
  6
CONTINUOUS
 62
     0
 10
2352.046832652376
 20
-3000.314469562746
 30
0.0
 40
16.34353298611111
  1
300
 50
90.0
  7
YUGOTHIC_BOLD
  0
POINT
  5
7AA
  8
DEFPOINTS
 62
     0
 10
2423.246574637113
 20
-3126.966565296873
 30
0.0
  0
POINT
  5
7AB
  8
DEFPOINTS
 62
     0
 10
2423.246574637113
 20
-2826.966565296873
 30
0.0
  0
POINT
  5
7AC
  8
DEFPOINTS
 62
     0
 10
2354.546832652376
 20
-2826.966565296873
 30
0.0
  0
ENDBLK
  5
216
  8
0
  0
BLOCK
  8
0
  2
*D142
 70
     1
 10
0.0
 20
0.0
 30
0.0
  3
*D142
  1

  0
LINE
  5
7AD
  8
__-1
  6
CONTINUOUS
 62
     0
 10
2413.246574637113
 20
-2525.361632446331
 30
0.0
 11
2388.890182024242
 21
-2525.361632446331
 31
0.0
  0
LINE
  5
7AE
  8
__-1
  6
CONTINUOUS
 62
     0
 10
2413.246574637113
 20
-2660.361632446331
 30
0.0
 11
2388.890182024242
 21
-2660.361632446331
 31
0.0
  0
LINE
  5
7AF
  8
__-1
  6
CONTINUOUS
 62
     0
 10
2388.890182024242
 20
-2528.361449340862
 30
0.0
 11
2388.890182024242
 21
-2657.361815551799
 31
0.0
  0
INSERT
  5
7B0
  8
__-1
 62
     0
  2
_DOT
 10
2388.890182024242
 20
-2525.361632446331
 30
0.0
 41
2.99981689453125
 42
2.99981689453125
 43
2.99981689453125
 50
90.0
  0
INSERT
  5
7B1
  8
__-1
 62
     0
  2
_DOT
 10
2388.890182024242
 20
-2660.361632446331
 30
0.0
 41
2.99981689453125
 42
2.99981689453125
 43
2.99981689453125
 50
270.0
  0
TEXT
  5
7B2
  8
__-1
  6
CONTINUOUS
 62
     0
 10
2386.390182024242
 20
-2617.376931925497
 30
0.0
 40
16.34353298611111
  1
135
 50
90.0
  7
YUGOTHIC_BOLD
  0
POINT
  5
7B3
  8
DEFPOINTS
 62
     0
 10
2423.246574637113
 20
-2525.361632446331
 30
0.0
  0
POINT
  5
7B4
  8
DEFPOINTS
 62
     0
 10
2423.246574637113
 20
-2660.361632446331
 30
0.0
  0
POINT
  5
7B5
  8
DEFPOINTS
 62
     0
 10
2388.890182024242
 20
-2660.361632446331
 30
0.0
  0
ENDBLK
  5
219
  8
0
  0
BLOCK
  8
0
  2
*D143
 70
     1
 10
0.0
 20
0.0
 30
0.0
  3
*D143
  1

  0
LINE
  5
7B6
  8
__-1
  6
CONTINUOUS
 62
     0
 10
2413.246574637113
 20
-2660.361632446331
 30
0.0
 11
2354.546832652376
 21
-2660.361632446331
 31
0.0
  0
LINE
  5
7B7
  8
__-1
  6
CONTINUOUS
 62
     0
 10
2413.246574637113
 20
-2360.361632446331
 30
0.0
 11
2354.546832652376
 21
-2360.361632446331
 31
0.0
  0
LINE
  5
7B8
  8
__-1
  6
CONTINUOUS
 62
     0
 10
2354.546832652376
 20
-2657.361815551799
 30
0.0
 11
2354.546832652376
 21
-2363.361449340862
 31
0.0
  0
INSERT
  5
7B9
  8
__-1
 62
     0
  2
_DOT
 10
2354.546832652376
 20
-2660.361632446331
 30
0.0
 41
2.99981689453125
 42
2.99981689453125
 43
2.99981689453125
 50
270.0
  0
INSERT
  5
7BA
  8
__-1
 62
     0
  2
_DOT
 10
2354.546832652376
 20
-2360.361632446331
 30
0.0
 41
2.99981689453125
 42
2.99981689453125
 43
2.99981689453125
 50
90.0
  0
TEXT
  5
7BB
  8
__-1
  6
CONTINUOUS
 62
     0
 10
2352.046832652376
 20
-2533.709536712204
 30
0.0
 40
16.34353298611111
  1
300
 50
90.0
  7
YUGOTHIC_BOLD
  0
POINT
  5
7BC
  8
DEFPOINTS
 62
     0
 10
2423.246574637113
 20
-2660.361632446331
 30
0.0
  0
POINT
  5
7BD
  8
DEFPOINTS
 62
     0
 10
2423.246574637113
 20
-2360.361632446331
 30
0.0
  0
POINT
  5
7BE
  8
DEFPOINTS
 62
     0
 10
2354.546832652376
 20
-2360.361632446331
 30
0.0
  0
ENDBLK
  5
21C
  8
0
  0
BLOCK
  8
0
  2
____-21-1
 70
     0
 10
0.0
 20
0.0
 30
0.0
  3
____-21-1
  1

  0
POLYLINE
  5
7BF
  8
__
  6
CONTINUOUS
 62
    17
 66
     1
 10
0.0
 20
0.0
 30
0.0
 70
   129
  0
VERTEX
  5
7C0
  8
__
  6
CONTINUOUS
 62
    17
 10
-120.4332933150322
 20
-1453.405744482903
 30
0.0
  0
VERTEX
  5
7C1
  8
__
  6
CONTINUOUS
 62
    17
 10
-112.868355941035
 20
-1453.405744482903
 30
0.0
  0
VERTEX
  5
7C2
  8
__
  6
CONTINUOUS
 62
    17
 10
-112.868355941035
 20
-1455.623492845405
 30
0.0
  0
VERTEX
  5
7C3
  8
__
  6
CONTINUOUS
 62
    17
 10
-120.4332933150322
 20
-1455.623492845405
 30
0.0
  0
SEQEND
  5
7C4
  8
__
  6
CONTINUOUS
 62
    17
  0
POLYLINE
  5
7C5
  8
__
  6
CONTINUOUS
 62
    17
 66
     1
 10
0.0
 20
0.0
 30
0.0
 70
   129
  0
VERTEX
  5
7C6
  8
__
  6
CONTINUOUS
 62
    17
 10
-118.5420589715329
 20
-1453.405744482903
 30
0.0
  0
VERTEX
  5
7C7
  8
__
  6
CONTINUOUS
 62
    17
 10
-114.7595902845343
 20
-1453.405744482903
 30
0.0
  0
VERTEX
  5
7C8
  8
__
  6
CONTINUOUS
 62
    17
 10
-114.7595902845343
 20
-1455.623492845405
 30
0.0
  0
VERTEX
  5
7C9
  8
__
  6
CONTINUOUS
 62
    17
 10
-118.5420589715329
 20
-1455.623492845405
 30
0.0
  0
SEQEND
  5
7CA
  8
__
  6
CONTINUOUS
 62
    17
  0
ENDBLK
  5
21F
  8
0
  0
BLOCK
  8
0
  2
*D145
 70
     1
 10
0.0
 20
0.0
 30
0.0
  3
*D145
  1

  0
LINE
  5
7CB
  8
__-1
  6
CONTINUOUS
 62
     0
 10
-73.00000000000006
 20
-1431.954729656259
 30
0.0
 11
-73.00000000000006
 21
-1467.416666666667
 31
0.0
  0
LINE
  5
7CC
  8
__-1
  6
CONTINUOUS
 62
     0
 10
-45.00000000000006
 20
-1433.027521981239
 30
0.0
 11
-45.00000000000006
 21
-1467.416666666667
 31
0.0
  0
LINE
  5
7CD
  8
__-1
  6
CONTINUOUS
 62
     0
 10
-73.00000000000006
 20
-1467.416666666667
 30
0.0
 11
-45.00000000000006
 21
-1467.416666666667
 31
0.0
  0
LINE
  5
7CE
  8
__-1
  6
CONTINUOUS
 62
     0
 10
-75.9998168945313
 20
-1467.416666666667
 30
0.0
 11
-78.99963378906256
 21
-1467.416666666667
 31
0.0
  0
LINE
  5
7CF
  8
__-1
  6
CONTINUOUS
 62
     0
 10
-42.00018310546881
 20
-1467.416666666667
 30
0.0
 11
-39.00036621093756
 21
-1467.416666666667
 31
0.0
  0
INSERT
  5
7D0
  8
__-1
 62
     0
  2
_DOT
 10
-73.00000000000006
 20
-1467.416666666667
 30
0.0
 41
2.99981689453125
 42
2.99981689453125
 43
2.99981689453125
  0
INSERT
  5
7D1
  8
__-1
 62
     0
  2
_DOT
 10
-45.00000000000006
 20
-1467.416666666667
 30
0.0
 41
2.99981689453125
 42
2.99981689453125
 43
2.99981689453125
 50
180.0
  0
TEXT
  5
7D2
  8
__-1
  6
CONTINUOUS
 62
     0
 10
-74.56526951058207
 20
-1464.916666666666
 30
0.0
 40
16.34353298611111
  1
28
  7
YUGOTHIC_BOLD
  0
POINT
  5
7D3
  8
DEFPOINTS
 62
     0
 10
-73.00000000000006
 20
-1421.954729656259
 30
0.0
  0
POINT
  5
A68
  8
DEFPOINTS
 62
     0
 10
-45.00000000000006
 20
-1423.027521981239
 30
0.0
  0
POINT
  5
A69
  8
DEFPOINTS
 62
     0
 10
-45.00000000000006
 20
-1467.416666666667
 30
0.0
  0
ENDBLK
  5
222
  8
0
  0
BLOCK
  8
0
  2
____-22-1
 70
     0
 10
0.0
 20
0.0
 30
0.0
  3
____-22-1
  1

  0
POLYLINE
  5
7D4
  8
__
  6
CONTINUOUS
 62
    17
 66
     1
 10
0.0
 20
0.0
 30
0.0
 70
   129
  0
VERTEX
  5
7D5
  8
__
  6
CONTINUOUS
 62
    17
 10
757.5667066849678
 20
-1453.405744482903
 30
0.0
  0
VERTEX
  5
7D6
  8
__
  6
CONTINUOUS
 62
    17
 10
765.131644058965
 20
-1453.405744482903
 30
0.0
  0
VERTEX
  5
7D7
  8
__
  6
CONTINUOUS
 62
    17
 10
765.131644058965
 20
-1455.623492845405
 30
0.0
  0
VERTEX
  5
7D8
  8
__
  6
CONTINUOUS
 62
    17
 10
757.5667066849678
 20
-1455.623492845405
 30
0.0
  0
SEQEND
  5
7D9
  8
__
  6
CONTINUOUS
 62
    17
  0
POLYLINE
  5
7DA
  8
__
  6
CONTINUOUS
 62
    17
 66
     1
 10
0.0
 20
0.0
 30
0.0
 70
   129
  0
VERTEX
  5
7DB
  8
__
  6
CONTINUOUS
 62
    17
 10
759.4579410284671
 20
-1453.405744482903
 30
0.0
  0
VERTEX
  5
7DC
  8
__
  6
CONTINUOUS
 62
    17
 10
763.2404097154657
 20
-1453.405744482903
 30
0.0
  0
VERTEX
  5
7DD
  8
__
  6
CONTINUOUS
 62
    17
 10
763.2404097154657
 20
-1455.623492845405
 30
0.0
  0
VERTEX
  5
7DE
  8
__
  6
CONTINUOUS
 62
    17
 10
759.4579410284671
 20
-1455.623492845405
 30
0.0
  0
SEQEND
  5
7DF
  8
__
  6
CONTINUOUS
 62
    17
  0
ENDBLK
  5
225
  8
0
  0
BLOCK
  8
0
  2
_DOT
 70
     0
 10
0.0
 20
0.0
 30
0.0
  3
_DOT
  1

  0
POLYLINE
  5
24E
  8
0
  6
BYBLOCK
 62
     0
 66
     1
 10
0.0
 20
0.0
 30
0.0
 70
     1
 40
0.5
 41
0.5
  0
VERTEX
  5
A82
  8
0
  6
BYBLOCK
 62
     0
 10
-0.25
 20
0.0
 30
0.0
 42
1.0
  0
VERTEX
  5
A83
  8
0
  6
BYBLOCK
 62
     0
 10
0.25
 20
0.0
 30
0.0
 42
1.0
  0
SEQEND
  5
A84
  8
0
  6
BYBLOCK
 62
     0
  0
LINE
  5
24F
  8
0
  6
BYBLOCK
 62
     0
 10
-0.5
 20
0.0
 30
0.0
 11
-1.0
 21
0.0
 31
0.0
  0
ENDBLK
  5
24D
  8
0
  0
ENDSEC
  0
SECTION
  2
ENTITIES
  0
INSERT
  5
7E0
  8
__
 62
     1
  2
____-1
 10
71.6508246280336
 20
30.37822250166391
 30
0.0
  0
INSERT
  5
7E1
  8
__
 62
     1
  2
____-12-1
 10
71.6508246280336
 20
30.37822250166391
 30
0.0
  0
POLYLINE
  5
7E2
  8
__
  6
CONTINUOUS
 62
     1
 66
     1
 10
0.0
 20
0.0
 30
0.0
 70
   129
  0
VERTEX
  5
7E3
  8
__
  6
CONTINUOUS
 62
     1
 10
1464.0
 20
-437.6394669520109
 30
0.0
  0
VERTEX
  5
7E4
  8
__
  6
CONTINUOUS
 62
     1
 10
1479.0
 20
-437.6394669520109
 30
0.0
  0
VERTEX
  5
7E5
  8
__
  6
CONTINUOUS
 62
     1
 10
1479.0
 20
-487.6394669520109
 30
0.0
  0
VERTEX
  5
7E6
  8
__
  6
CONTINUOUS
 62
     1
 10
1464.0
 20
-487.6394669520109
 30
0.0
  0
SEQEND
  5
7E7
  8
__
  6
CONTINUOUS
 62
     1
  0
POLYLINE
  5
7E8
  8
__
  6
CONTINUOUS
 62
     1
 66
     1
 10
0.0
 20
0.0
 30
0.0
 70
   129
  0
VERTEX
  5
7E9
  8
__
  6
CONTINUOUS
 62
     1
 10
1479.0
 20
-437.6394669520109
 30
0.0
  0
VERTEX
  5
7EA
  8
__
  6
CONTINUOUS
 62
     1
 10
1497.0
 20
-437.6394669520109
 30
0.0
  0
VERTEX
  5
7EB
  8
__
  6
CONTINUOUS
 62
     1
 10
1497.0
 20
-455.6394669520109
 30
0.0
  0
VERTEX
  5
7EC
  8
__
  6
CONTINUOUS
 62
     1
 10
1479.0
 20
-455.6394669520109
 30
0.0
  0
SEQEND
  5
7ED
  8
__
  6
CONTINUOUS
 62
     1
  0
POLYLINE
  5
7EE
  8
__
  6
CONTINUOUS
 62
     1
 66
     1
 10
0.0
 20
0.0
 30
0.0
 70
   129
  0
VERTEX
  5
7EF
  8
__
  6
CONTINUOUS
 62
     1
 10
1497.0
 20
-437.6394669520109
 30
0.0
  0
VERTEX
  5
7F0
  8
__
  6
CONTINUOUS
 62
     1
 10
1512.0
 20
-437.6394669520109
 30
0.0
  0
VERTEX
  5
7F1
  8
__
  6
CONTINUOUS
 62
     1
 10
1512.0
 20
-487.6394669520109
 30
0.0
  0
VERTEX
  5
7F2
  8
__
  6
CONTINUOUS
 62
     1
 10
1497.0
 20
-487.6394669520109
 30
0.0
  0
SEQEND
  5
7F3
  8
__
  6
CONTINUOUS
 62
     1
  0
POLYLINE
  5
7F4
  8
__
  6
CONTINUOUS
 62
     1
 66
     1
 10
0.0
 20
0.0
 30
0.0
 70
   129
  0
VERTEX
  5
7F5
  8
__
  6
CONTINUOUS
 62
     1
 10
3453.545265288577
 20
234.9215890628139
 30
0.0
  0
VERTEX
  5
7F6
  8
__
  6
CONTINUOUS
 62
     1
 10
3703.545265288577
 20
234.9215890628139
 30
0.0
  0
VERTEX
  5
7F7
  8
__
  6
CONTINUOUS
 62
     1
 10
3703.545265288577
 20
219.9215890628139
 30
0.0
  0
VERTEX
  5
7F8
  8
__
  6
CONTINUOUS
 62
     1
 10
3453.545265288577
 20
219.9215890628139
 30
0.0
  0
SEQEND
  5
7F9
  8
__
  6
CONTINUOUS
 62
     1
  0
POLYLINE
  5
7FA
  8
__
  6
CONTINUOUS
 62
     1
 66
     1
 10
0.0
 20
0.0
 30
0.0
 70
   129
  0
VERTEX
  5
7FB
  8
__
  6
CONTINUOUS
 62
     1
 10
3453.545265288577
 20
39.92158906281394
 30
0.0
  0
VERTEX
  5
7FC
  8
__
  6
CONTINUOUS
 62
     1
 10
3703.545265288577
 20
39.92158906281394
 30
0.0
  0
VERTEX
  5
7FD
  8
__
  6
CONTINUOUS
 62
     1
 10
3703.545265288577
 20
24.92158906281394
 30
0.0
  0
VERTEX
  5
7FE
  8
__
  6
CONTINUOUS
 62
     1
 10
3453.545265288577
 20
24.92158906281394
 30
0.0
  0
SEQEND
  5
7FF
  8
__
  6
CONTINUOUS
 62
     1
  0
POLYLINE
  5
800
  8
__
  6
CONTINUOUS
 62
     1
 66
     1
 10
0.0
 20
0.0
 30
0.0
 70
   129
  0
VERTEX
  5
801
  8
__
  6
CONTINUOUS
 62
     1
 10
3453.545265288577
 20
39.92158906281394
 30
0.0
  0
VERTEX
  5
802
  8
__
  6
CONTINUOUS
 62
     1
 10
3453.545265288577
 20
219.921589062814
 30
0.0
  0
VERTEX
  5
803
  8
__
  6
CONTINUOUS
 62
     1
 10
3735.545265288577
 20
219.921589062814
 30
0.0
  0
VERTEX
  5
804
  8
__
  6
CONTINUOUS
 62
     1
 10
3735.545265288577
 20
39.92158906281394
 30
0.0
  0
SEQEND
  5
805
  8
__
  6
CONTINUOUS
 62
     1
  0
CIRCLE
  5
806
  8
__
  6
CONTINUOUS
 62
     1
 10
3719.545265288577
 20
179.9215890628139
 30
0.0
 40
3.000000000000185
  0
CIRCLE
  5
807
  8
__
  6
CONTINUOUS
 62
     1
 10
3719.545265288577
 20
79.92158906281395
 30
0.0
 40
3.000000000000185
  0
POLYLINE
  5
808
  8
__
  6
ISO-02___
 62
    17
 66
     1
 10
0.0
 20
0.0
 30
0.0
 70
   129
  0
VERTEX
  5
809
  8
__
  6
ISO-02___
 62
    17
 10
3687.545265288577
 20
32.42158906281394
 30
0.0
  0
VERTEX
  5
80A
  8
__
  6
ISO-02___
 62
    17
 10
3687.545265288577
 20
227.421589062814
 30
0.0
  0
VERTEX
  5
80B
  8
__
  6
ISO-02___
 62
    17
 10
3692.545265288577
 20
227.421589062814
 30
0.0
  0
VERTEX
  5
80C
  8
__
  6
ISO-02___
 62
    17
 10
3692.545265288577
 20
32.42158906281394
 30
0.0
  0
SEQEND
  5
80D
  8
__
  6
ISO-02___
 62
    17
  0
INSERT
  5
80E
  8
__
 62
     1
  2
____-13-1
 10
71.6508246280336
 20
30.37822250166391
 30
0.0
  0
INSERT
  5
80F
  8
__
 62
     1
  2
____-14-1
 10
71.6508246280336
 20
30.37822250166391
 30
0.0
  0
POLYLINE
  5
810
  8
__
  6
CONTINUOUS
 62
     1
 66
     1
 10
0.0
 20
0.0
 30
0.0
 70
   129
  0
VERTEX
  5
811
  8
__
  6
CONTINUOUS
 62
     1
 10
2642.545265288577
 20
234.9215890628139
 30
0.0
  0
VERTEX
  5
812
  8
__
  6
CONTINUOUS
 62
     1
 10
3274.545265288577
 20
234.9215890628139
 30
0.0
  0
VERTEX
  5
813
  8
__
  6
CONTINUOUS
 62
     1
 10
3274.545265288577
 20
219.9215890628139
 30
0.0
  0
VERTEX
  5
814
  8
__
  6
CONTINUOUS
 62
     1
 10
2642.545265288577
 20
219.9215890628139
 30
0.0
  0
SEQEND
  5
815
  8
__
  6
CONTINUOUS
 62
     1
  0
POLYLINE
  5
816
  8
__
  6
CONTINUOUS
 62
     1
 66
     1
 10
0.0
 20
0.0
 30
0.0
 70
   129
  0
VERTEX
  5
817
  8
__
  6
CONTINUOUS
 62
     1
 10
2642.545265288577
 20
39.92158906281394
 30
0.0
  0
VERTEX
  5
818
  8
__
  6
CONTINUOUS
 62
     1
 10
3274.545265288577
 20
39.92158906281394
 30
0.0
  0
VERTEX
  5
819
  8
__
  6
CONTINUOUS
 62
     1
 10
3274.545265288577
 20
24.92158906281394
 30
0.0
  0
VERTEX
  5
81A
  8
__
  6
CONTINUOUS
 62
     1
 10
2642.545265288577
 20
24.92158906281394
 30
0.0
  0
SEQEND
  5
81B
  8
__
  6
CONTINUOUS
 62
     1
  0
POLYLINE
  5
81C
  8
__
  6
CONTINUOUS
 62
     1
 66
     1
 10
0.0
 20
0.0
 30
0.0
 70
   129
  0
VERTEX
  5
81D
  8
__
  6
CONTINUOUS
 62
     1
 10
2664.545265288577
 20
39.92158906281394
 30
0.0
  0
VERTEX
  5
81E
  8
__
  6
CONTINUOUS
 62
     1
 10
2664.545265288577
 20
219.921589062814
 30
0.0
  0
VERTEX
  5
81F
  8
__
  6
CONTINUOUS
 62
     1
 10
3252.545265288577
 20
219.921589062814
 30
0.0
  0
VERTEX
  5
820
  8
__
  6
CONTINUOUS
 62
     1
 10
3252.545265288577
 20
39.92158906281394
 30
0.0
  0
SEQEND
  5
821
  8
__
  6
CONTINUOUS
 62
     1
  0
DIMENSION
  5
822
  8
__-1
  6
CONTINUOUS
 62
    17
  2
*D15
 10
1464.0
 20
-415.6394669520109
 30
0.0
 11
1471.5
 21
-404.9677004589554
 31
0.0
 70
    32
  3
TOOLBOX
 13
1479.0
 23
-437.6394669520109
 33
0.0
 14
1464.0
 24
-437.6394669520109
 34
0.0
  0
DIMENSION
  5
824
  8
__-1
  6
CONTINUOUS
 62
    17
  2
*D16
 10
1479.0
 20
-397.2644669520109
 30
0.0
 11
1489.102639197005
 21
-397.2644669520109
 31
0.0
 70
   160
  3
TOOLBOX
 13
1497.0
 23
-437.6394669520109
 33
0.0
 14
1479.0
 24
-437.6394669520109
 34
0.0
  0
DIMENSION
  5
825
  8
__-1
  6
CONTINUOUS
 62
    17
  2
*D17
 10
1497.0
 20
-397.2644669520109
 30
0.0
 11
1529.562900765232
 21
-397.2644669520109
 31
0.0
 70
   160
  3
TOOLBOX
 13
1512.0
 23
-437.6394669520109
 33
0.0
 14
1497.0
 24
-437.6394669520109
 34
0.0
  0
DIMENSION
  5
826
  8
__-1
  6
CONTINUOUS
 62
    17
  2
*D18
 10
1424.0
 20
-437.6394669520109
 30
0.0
 11
1413.328233506944
 21
-462.6394669520109
 31
0.0
 70
    32
  3
TOOLBOX
 13
1464.0
 23
-487.6394669520109
 33
0.0
 14
1464.0
 24
-437.6394669520109
 34
0.0
 50
-90.0
  0
DIMENSION
  5
827
  8
__-1
  6
CONTINUOUS
 62
    17
  2
*D19
 10
1424.0
 20
-555.0
 30
0.0
 11
1413.328233506944
 21
-1005.0
 31
0.0
 70
    32
  3
TOOLBOX
 13
1464.0
 23
-1455.0
 33
0.0
 14
1464.0
 24
-555.0
 34
0.0
 50
-90.0
  0
DIMENSION
  5
828
  8
__-1
  6
CONTINUOUS
 62
    17
  2
*D20
 10
1464.0
 20
-368.9399623734114
 30
0.0
 11
1488.0
 21
-358.2681958803558
 31
0.0
 70
    32
  3
TOOLBOX
 13
1512.0
 23
-437.6394669520109
 33
0.0
 14
1464.0
 24
-437.6394669520109
 34
0.0
  0
DIMENSION
  5
829
  8
__-1
  6
CONTINUOUS
 62
    17
  2
*D21
 10
283.7024883753512
 20
-691.8046018592327
 30
0.0
 11
273.0307218822957
 21
-701.8046018592327
 31
0.0
 70
    32
  3
TOOLBOX
 13
328.7024883753512
 23
-711.8046018592327
 33
0.0
 14
328.7024883753512
 24
-691.8046018592327
 34
0.0
 50
-90.0
  0
DIMENSION
  5
82A
  8
__-1
  6
CONTINUOUS
 62
    17
  2
*D22
 10
328.7024883753512
 20
-647.8046018592327
 30
0.0
 11
594.7024883753511
 21
-637.1328353661771
 31
0.0
 70
    32
  3
TOOLBOX
 13
860.7024883753511
 23
-691.8046018592327
 33
0.0
 14
328.7024883753512
 24
-691.8046018592327
 34
0.0
  0
DIMENSION
  5
82B
  8
__-1
  6
CONTINUOUS
 62
    17
  2
*D23
 10
911.7024883753513
 20
-691.8046018592327
 30
0.0
 11
901.0307218822958
 21
-731.8046018592327
 31
0.0
 70
    32
  3
TOOLBOX
 13
860.7024883753511
 23
-771.8046018592327
 33
0.0
 14
860.7024883753511
 24
-691.8046018592327
 34
0.0
 50
-90.0
  0
DIMENSION
  5
82C
  8
__-1
  6
CONTINUOUS
 62
    17
  2
*D24
 10
915.7024883753513
 20
-1009.54560402269
 30
0.0
 11
905.0307218822957
 21
-1034.54560402269
 31
0.0
 70
    32
  3
TOOLBOX
 13
860.7024883753511
 23
-1059.54560402269
 33
0.0
 14
860.7024883753511
 24
-1009.54560402269
 34
0.0
 50
-90.0
  0
DIMENSION
  5
82D
  8
__-1
  6
CONTINUOUS
 62
    17
  2
*D25
 10
532.7024883753512
 20
-1009.54560402269
 30
0.0
 11
522.0307218822957
 21
-1019.54560402269
 31
0.0
 70
    32
  3
TOOLBOX
 13
578.7024883753511
 23
-1029.54560402269
 33
0.0
 14
578.7024883753511
 24
-1009.54560402269
 34
0.0
 50
-90.0
  0
DIMENSION
  5
82E
  8
__-1
  6
CONTINUOUS
 62
    17
  2
*D26
 10
578.7024883753511
 20
-963.8427274309527
 30
0.0
 11
719.7024883753511
 21
-953.1709609378971
 31
0.0
 70
    32
  3
TOOLBOX
 13
860.7024883753511
 23
-1009.54560402269
 33
0.0
 14
578.7024883753511
 24
-1009.54560402269
 34
0.0
  0
DIMENSION
  5
82F
  8
__-1
  6
CONTINUOUS
 62
    17
  2
*D27
 10
2602.545265288577
 20
234.9215890628138
 30
0.0
 11
2591.873498795521
 21
227.4215890628139
 31
0.0
 70
    32
  3
TOOLBOX
 13
2649.545265288577
 23
219.9215890628139
 33
0.0
 14
2649.545265288577
 24
234.9215890628138
 34
0.0
 50
-90.0
  0
DIMENSION
  5
831
  8
__-1
  6
CONTINUOUS
 62
    17
  2
*D28
 10
2602.545265288577
 20
219.9215890628139
 30
0.0
 11
2591.873498795521
 21
129.9215890628139
 31
0.0
 70
    32
  3
TOOLBOX
 13
2649.545265288577
 23
39.92158906281394
 33
0.0
 14
2649.545265288577
 24
219.9215890628139
 34
0.0
 50
-90.0
  0
DIMENSION
  5
832
  8
__-1
  6
CONTINUOUS
 62
    17
  2
*D29
 10
2602.545265288577
 20
39.92158906281394
 30
0.0
 11
2591.873498795521
 21
32.42158906281394
 31
0.0
 70
    32
  3
TOOLBOX
 13
2649.545265288577
 23
24.92158906281394
 33
0.0
 14
2649.545265288577
 24
39.92158906281394
 34
0.0
 50
-90.0
  0
DIMENSION
  5
833
  8
__-1
  6
CONTINUOUS
 62
    17
  2
*D30
 10
2557.545265288577
 20
234.9215890628138
 30
0.0
 11
2546.873498795521
 21
129.9215890628139
 31
0.0
 70
    32
  3
TOOLBOX
 13
2678.545265288577
 23
24.92158906281394
 33
0.0
 14
2678.545265288577
 24
234.9215890628138
 34
0.0
 50
-90.0
  0
DIMENSION
  5
834
  8
__-1
  6
CONTINUOUS
 62
    17
  2
*D31
 10
2649.545265288577
 20
279.9215890628139
 30
0.0
 11
2658.545265288577
 21
290.5933555558694
 31
0.0
 70
    32
  3
TOOLBOX
 13
2667.545265288577
 23
219.9215890628139
 33
0.0
 14
2649.545265288577
 24
219.9215890628139
 34
0.0
  0
DIMENSION
  5
835
  8
__-1
  6
CONTINUOUS
 62
    17
  2
*D32
 10
2667.545265288577
 20
279.9215890628139
 30
0.0
 11
2958.545265288577
 21
290.5933555558694
 31
0.0
 70
    32
  3
TOOLBOX
 13
3249.545265288577
 23
219.9215890628139
 33
0.0
 14
2667.545265288577
 24
219.9215890628139
 34
0.0
  0
DIMENSION
  5
836
  8
__-1
  6
CONTINUOUS
 62
    17
  2
*D33
 10
3249.545265288577
 20
279.9215890628139
 30
0.0
 11
3258.545265288577
 21
290.5933555558694
 31
0.0
 70
    32
  3
TOOLBOX
 13
3267.545265288577
 23
219.9215890628139
 33
0.0
 14
3249.545265288577
 24
219.9215890628139
 34
0.0
  0
DIMENSION
  5
837
  8
__-1
  6
CONTINUOUS
 62
    17
  2
*D34
 10
2642.545265288577
 20
329.9215890628139
 30
0.0
 11
2958.545265288577
 21
340.5933555558694
 31
0.0
 70
    32
  3
TOOLBOX
 13
3274.545265288577
 23
219.9215890628139
 33
0.0
 14
2642.545265288577
 24
219.9215890628139
 34
0.0
  0
POLYLINE
  5
838
  8
__
  6
CONTINUOUS
 62
     1
 66
     1
 10
0.0
 20
0.0
 30
0.0
 70
   129
  0
VERTEX
  5
839
  8
__
  6
CONTINUOUS
 62
     1
 10
2649.545265288577
 20
39.92158906281394
 30
0.0
  0
VERTEX
  5
83A
  8
__
  6
CONTINUOUS
 62
     1
 10
2649.545265288577
 20
219.921589062814
 30
0.0
  0
VERTEX
  5
83B
  8
__
  6
CONTINUOUS
 62
     1
 10
2667.545265288577
 20
219.921589062814
 30
0.0
  0
VERTEX
  5
83C
  8
__
  6
CONTINUOUS
 62
     1
 10
2667.545265288577
 20
39.92158906281394
 30
0.0
  0
SEQEND
  5
83D
  8
__
  6
CONTINUOUS
 62
     1
  0
POLYLINE
  5
83E
  8
__
  6
CONTINUOUS
 62
     1
 66
     1
 10
0.0
 20
0.0
 30
0.0
 70
   129
  0
VERTEX
  5
83F
  8
__
  6
CONTINUOUS
 62
     1
 10
3249.545265288577
 20
39.92158906281394
 30
0.0
  0
VERTEX
  5
840
  8
__
  6
CONTINUOUS
 62
     1
 10
3249.545265288577
 20
219.921589062814
 30
0.0
  0
VERTEX
  5
841
  8
__
  6
CONTINUOUS
 62
     1
 10
3267.545265288577
 20
219.921589062814
 30
0.0
  0
VERTEX
  5
842
  8
__
  6
CONTINUOUS
 62
     1
 10
3267.545265288577
 20
39.92158906281394
 30
0.0
  0
SEQEND
  5
843
  8
__
  6
CONTINUOUS
 62
     1
  0
DIMENSION
  5
844
  8
__-1
  6
CONTINUOUS
 62
    17
  2
*D35
 10
3453.545265288577
 20
279.9215890628138
 30
0.0
 11
3578.545265288577
 21
290.5933555558694
 31
0.0
 70
    32
  3
TOOLBOX
 13
3703.545265288577
 23
234.9215890628138
 33
0.0
 14
3453.545265288577
 24
234.9215890628138
 34
0.0
  0
DIMENSION
  5
845
  8
__-1
  6
CONTINUOUS
 62
    17
  2
*D36
 10
3703.545265288577
 20
279.9215890628138
 30
0.0
 11
3719.545265288577
 21
290.5933555558694
 31
0.0
 70
    32
  3
TOOLBOX
 13
3735.545265288577
 23
219.9215890628139
 33
0.0
 14
3703.545265288577
 24
234.9215890628138
 34
0.0
  0
DIMENSION
  5
846
  8
__-1
  6
CONTINUOUS
 62
    17
  2
*D37
 10
3453.545265288577
 20
329.9215890628138
 30
0.0
 11
3594.545265288577
 21
340.5933555558694
 31
0.0
 70
    32
  3
TOOLBOX
 13
3735.545265288577
 23
219.9215890628139
 33
0.0
 14
3453.545265288577
 24
234.9215890628138
 34
0.0
  0
POLYLINE
  5
847
  8
__
  6
CONTINUOUS
 62
     1
 66
     1
 10
0.0
 20
0.0
 30
0.0
 70
   129
  0
VERTEX
  5
848
  8
__
  6
CONTINUOUS
 62
     1
 10
2631.916666666667
 20
-2375.361632446331
 30
0.0
  0
VERTEX
  5
849
  8
__
  6
CONTINUOUS
 62
     1
 10
2607.916666666667
 20
-2375.361632446331
 30
0.0
  0
VERTEX
  5
84A
  8
__
  6
CONTINUOUS
 62
     1
 10
2607.916666666667
 20
-2660.361632446331
 30
0.0
  0
VERTEX
  5
84B
  8
__
  6
CONTINUOUS
 62
     1
 10
3506.916666666667
 20
-2660.361632446331
 30
0.0
  0
VERTEX
  5
84C
  8
__
  6
CONTINUOUS
 62
     1
 10
3506.916666666667
 20
-2375.361632446331
 30
0.0
  0
VERTEX
  5
84D
  8
__
  6
CONTINUOUS
 62
     1
 10
3482.916666666667
 20
-2375.361632446331
 30
0.0
  0
VERTEX
  5
84E
  8
__
  6
CONTINUOUS
 62
     1
 10
3482.916666666667
 20
-2360.361632446331
 30
0.0
  0
VERTEX
  5
84F
  8
__
  6
CONTINUOUS
 62
     1
 10
2631.916666666667
 20
-2360.361632446331
 30
0.0
  0
SEQEND
  5
850
  8
__
  6
CONTINUOUS
 62
     1
  0
POLYLINE
  5
851
  8
__
  6
CONTINUOUS
 62
     1
 66
     1
 10
0.0
 20
0.0
 30
0.0
 70
   129
  0
VERTEX
  5
852
  8
__
  6
CONTINUOUS
 62
     1
 10
2631.916666666667
 20
-2841.966565296873
 30
0.0
  0
VERTEX
  5
853
  8
__
  6
CONTINUOUS
 62
     1
 10
2607.916666666667
 20
-2841.966565296873
 30
0.0
  0
VERTEX
  5
854
  8
__
  6
CONTINUOUS
 62
     1
 10
2607.916666666667
 20
-3126.966565296873
 30
0.0
  0
VERTEX
  5
855
  8
__
  6
CONTINUOUS
 62
     1
 10
3206.916666666667
 20
-3126.966565296873
 30
0.0
  0
VERTEX
  5
856
  8
__
  6
CONTINUOUS
 62
     1
 10
3206.916666666667
 20
-2841.966565296873
 30
0.0
  0
VERTEX
  5
857
  8
__
  6
CONTINUOUS
 62
     1
 10
3182.916666666667
 20
-2841.966565296873
 30
0.0
  0
VERTEX
  5
858
  8
__
  6
CONTINUOUS
 62
     1
 10
3182.916666666667
 20
-2826.966565296873
 30
0.0
  0
VERTEX
  5
859
  8
__
  6
CONTINUOUS
 62
     1
 10
2631.916666666667
 20
-2826.966565296873
 30
0.0
  0
SEQEND
  5
85A
  8
__
  6
CONTINUOUS
 62
     1
  0
DIMENSION
  5
85B
  8
__-1
  6
CONTINUOUS
 62
    17
  2
*D38
 10
2607.916666666667
 20
-3169.84757617769
 30
0.0
 11
2907.416666666667
 21
-3159.175809684635
 31
0.0
 70
    32
  3
TOOLBOX
 13
3206.916666666667
 23
-3126.966565296873
 33
0.0
 14
2607.916666666667
 24
-3126.966565296873
 34
0.0
  0
DIMENSION
  5
85C
  8
__-1
  6
CONTINUOUS
 62
    17
  2
*D39
 10
2607.916666666667
 20
-2713.25936506125
 30
0.0
 11
3057.416666666667
 21
-2702.587598568194
 31
0.0
 70
    32
  3
TOOLBOX
 13
3506.916666666667
 23
-2660.361632446331
 33
0.0
 14
2607.916666666667
 24
-2660.361632446331
 34
0.0
  0
DIMENSION
  5
85D
  8
__-1
  6
CONTINUOUS
 62
    17
  2
*D40
 10
1559.5
 20
-555.0
 30
0.0
 11
1548.828233506944
 21
-580.0
 31
0.0
 70
    32
  3
TOOLBOX
 13
1488.0
 23
-605.0
 33
0.0
 14
1488.0
 24
-555.0
 34
0.0
 50
-90.0
  0
DIMENSION
  5
85E
  8
__-1
  6
CONTINUOUS
 62
    17
  2
*D41
 10
1559.5
 20
-605.0
 30
0.0
 11
1548.828233506944
 21
-705.0
 31
0.0
 70
    32
  3
TOOLBOX
 13
1488.0
 23
-805.0
 33
0.0
 14
1488.0
 24
-605.0
 34
0.0
 50
-90.0
  0
DIMENSION
  5
85F
  8
__-1
  6
CONTINUOUS
 62
    17
  2
*D42
 10
1559.5
 20
-805.0
 30
0.0
 11
1548.828233506944
 21
-1005.0
 31
0.0
 70
    32
  3
TOOLBOX
 13
1488.0
 23
-1205.0
 33
0.0
 14
1488.0
 24
-805.0
 34
0.0
 50
-90.0
  0
DIMENSION
  5
860
  8
__-1
  6
CONTINUOUS
 62
    17
  2
*D43
 10
1559.5
 20
-1205.0
 30
0.0
 11
1548.828233506944
 21
-1305.0
 31
0.0
 70
    32
  3
TOOLBOX
 13
1488.0
 23
-1405.0
 33
0.0
 14
1488.0
 24
-1205.0
 34
0.0
 50
-90.0
  0
DIMENSION
  5
861
  8
__-1
  6
CONTINUOUS
 62
    17
  2
*D44
 10
1559.5
 20
-1405.0
 30
0.0
 11
1548.828233506944
 21
-1430.0
 31
0.0
 70
    32
  3
TOOLBOX
 13
1512.0
 23
-1455.0
 33
0.0
 14
1488.0
 24
-1405.0
 34
0.0
 50
-90.0
  0
DIMENSION
  5
862
  8
__-1
  6
CONTINUOUS
 62
    17
  2
*D45
 10
1748.515222826867
 20
-555.0
 30
0.0
 11
1737.843456333811
 21
-580.0
 31
0.0
 70
    32
  3
TOOLBOX
 13
1655.808984265047
 23
-605.0
 33
0.0
 14
1671.808984265047
 24
-555.0
 34
0.0
 50
-90.0
  0
DIMENSION
  5
863
  8
__-1
  6
CONTINUOUS
 62
    17
  2
*D46
 10
1748.515222826867
 20
-605.0
 30
0.0
 11
1737.843456333811
 21
-655.0
 31
0.0
 70
    32
  3
TOOLBOX
 13
1655.808984265047
 23
-705.0
 33
0.0
 14
1655.808984265047
 24
-605.0
 34
0.0
 50
-90.0
  0
DIMENSION
  5
864
  8
__-1
  6
CONTINUOUS
 62
    17
  2
*D47
 10
1748.515222826867
 20
-705.0
 30
0.0
 11
1737.843456333811
 21
-755.0
 31
0.0
 70
    32
  3
TOOLBOX
 13
1655.808984265047
 23
-805.0
 33
0.0
 14
1655.808984265047
 24
-705.0
 34
0.0
 50
-90.0
  0
DIMENSION
  5
865
  8
__-1
  6
CONTINUOUS
 62
    17
  2
*D48
 10
1748.515222826867
 20
-805.0
 30
0.0
 11
1737.843456333811
 21
-855.0
 31
0.0
 70
    32
  3
TOOLBOX
 13
1655.808984265047
 23
-905.0
 33
0.0
 14
1655.808984265047
 24
-805.0
 34
0.0
 50
-90.0
  0
DIMENSION
  5
866
  8
__-1
  6
CONTINUOUS
 62
    17
  2
*D49
 10
1748.515222826867
 20
-905.0
 30
0.0
 11
1737.843456333811
 21
-955.0
 31
0.0
 70
    32
  3
TOOLBOX
 13
1655.808984265047
 23
-1005.0
 33
0.0
 14
1655.808984265047
 24
-905.0
 34
0.0
 50
-90.0
  0
DIMENSION
  5
867
  8
__-1
  6
CONTINUOUS
 62
    17
  2
*D50
 10
1748.515222826867
 20
-1005.0
 30
0.0
 11
1737.843456333811
 21
-1055.0
 31
0.0
 70
    32
  3
TOOLBOX
 13
1655.808984265047
 23
-1105.0
 33
0.0
 14
1655.808984265047
 24
-1005.0
 34
0.0
 50
-90.0
  0
DIMENSION
  5
868
  8
__-1
  6
CONTINUOUS
 62
    17
  2
*D51
 10
1748.515222826867
 20
-1105.0
 30
0.0
 11
1737.843456333811
 21
-1155.0
 31
0.0
 70
    32
  3
TOOLBOX
 13
1655.808984265047
 23
-1205.0
 33
0.0
 14
1655.808984265047
 24
-1105.0
 34
0.0
 50
-90.0
  0
DIMENSION
  5
869
  8
__-1
  6
CONTINUOUS
 62
    17
  2
*D52
 10
1748.515222826867
 20
-1205.0
 30
0.0
 11
1737.843456333811
 21
-1255.0
 31
0.0
 70
    32
  3
TOOLBOX
 13
1655.808984265047
 23
-1305.0
 33
0.0
 14
1655.808984265047
 24
-1205.0
 34
0.0
 50
-90.0
  0
DIMENSION
  5
86A
  8
__-1
  6
CONTINUOUS
 62
    17
  2
*D53
 10
1748.515222826867
 20
-1305.0
 30
0.0
 11
1737.843456333811
 21
-1355.0
 31
0.0
 70
    32
  3
TOOLBOX
 13
1655.808984265047
 23
-1405.0
 33
0.0
 14
1655.808984265047
 24
-1305.0
 34
0.0
 50
-90.0
  0
DIMENSION
  5
86B
  8
__-1
  6
CONTINUOUS
 62
    17
  2
*D54
 10
1748.515222826867
 20
-1405.0
 30
0.0
 11
1737.843456333811
 21
-1430.0
 31
0.0
 70
    32
  3
TOOLBOX
 13
1655.808984265047
 23
-1455.0
 33
0.0
 14
1655.808984265047
 24
-1405.0
 34
0.0
 50
-90.0
  0
TEXT
  5
86C
  8
__
 62
     1
 10
1467.647654686208
 20
-1505.626666666667
 30
0.0
 40
16.34353298611111
  1
※ブラケット用の穴は100mmピッチ 
  7
YUGOTHIC_BOLD
 11
1467.647654686208
 21
-1489.283133680555
 31
0.0
 73
     3
  0
TEXT
  5
86D
  8
__
 62
     1
 10
1467.647654686208
 20
-1537.376666666667
 30
0.0
 40
16.34353298611111
  1
※壁取り付け用の穴は200mmピッ
  7
YUGOTHIC_BOLD
 11
1467.647654686208
 21
-1521.033133680555
 31
0.0
 73
     3
  0
LINE
  5
86E
  8
__
  6
ISO-10______
 62
    17
 10
1488.0
 20
-396.0
 30
0.0
 11
1488.0
 21
-1478.0
 31
0.0
  0
POLYLINE
  5
86F
  8
__
  6
CONTINUOUS
 62
     1
 66
     1
 10
0.0
 20
0.0
 30
0.0
 70
   129
  0
VERTEX
  5
870
  8
__
  6
CONTINUOUS
 62
     1
 10
2607.916666666667
 20
-1018.066666666667
 30
0.0
  0
VERTEX
  5
871
  8
__
  6
CONTINUOUS
 62
     1
 10
2607.916666666667
 20
-468.0666666666666
 30
0.0
  0
VERTEX
  5
872
  8
__
  6
CONTINUOUS
 62
     1
 10
3857.916666666667
 20
-468.0666666666666
 30
0.0
  0
VERTEX
  5
873
  8
__
  6
CONTINUOUS
 62
     1
 10
3857.916666666667
 20
-1018.066666666667
 30
0.0
  0
SEQEND
  5
874
  8
__
  6
CONTINUOUS
 62
     1
  0
DIMENSION
  5
875
  8
__-1
  6
CONTINUOUS
 62
    17
  2
*D55
 10
2564.030140027887
 20
-523.0666666666666
 30
0.0
 11
2553.358373534831
 21
-633.0666666666666
 31
0.0
 70
    32
  3
TOOLBOX
 13
2607.916666666667
 23
-743.0666666666666
 33
0.0
 14
2632.916666666667
 24
-523.0666666666666
 34
0.0
 50
-90.0
  0
DIMENSION
  5
876
  8
__-1
  6
CONTINUOUS
 62
    17
  2
*D56
 10
2607.916666666667
 20
-1090.933333333333
 30
0.0
 11
3232.916666666667
 21
-1080.261566840278
 31
0.0
 70
    32
  3
TOOLBOX
 13
3857.916666666667
 23
-1018.066666666667
 33
0.0
 14
2607.916666666667
 24
-1018.066666666667
 34
0.0
  0
TEXT
  5
877
  8
__
 62
     1
 10
2617.99244838301
 20
-350.8933819869192
 30
0.0
 40
19.06745515046297
  1
W1250 D550デスク天板　ラワン合板 ウレタン着色仕上げ（3分ツヤ）（裏面バッカー仕上げなし）
  7
YUGOTHIC_BOLD
 11
2617.99244838301
 21
-331.8259268364562
 31
0.0
 73
     3
  0
CIRCLE
  5
878
  8
__
  6
CONTINUOUS
 62
     1
 10
2632.916666666667
 20
-743.0666666666666
 30
0.0
 40
2.500000000000019
  0
POLYLINE
  5
879
  8
__
  6
ISO-02___
 62
    17
 66
     1
 10
0.0
 20
0.0
 30
0.0
 70
   129
  0
VERTEX
  5
87A
  8
__
  6
ISO-02___
 62
    17
 10
2623.916666666667
 20
-436.0666666666666
 30
0.0
  0
VERTEX
  5
87B
  8
__
  6
ISO-02___
 62
    17
 10
2641.916666666667
 20
-436.0666666666666
 30
0.0
  0
VERTEX
  5
87C
  8
__
  6
ISO-02___
 62
    17
 10
2641.916666666667
 20
-968.0666666666666
 30
0.0
  0
VERTEX
  5
87D
  8
__
  6
ISO-02___
 62
    17
 10
2623.916666666667
 20
-968.0666666666666
 30
0.0
  0
SEQEND
  5
87E
  8
__
  6
ISO-02___
 62
    17
  0
CIRCLE
  5
87F
  8
__
  6
CONTINUOUS
 62
     1
 10
3832.916666666667
 20
-743.0666666666666
 30
0.0
 40
2.500000000000019
  0
POLYLINE
  5
880
  8
__
  6
ISO-02___
 62
    17
 66
     1
 10
0.0
 20
0.0
 30
0.0
 70
   129
  0
VERTEX
  5
881
  8
__
  6
ISO-02___
 62
    17
 10
3823.916666666667
 20
-436.0666666666666
 30
0.0
  0
VERTEX
  5
882
  8
__
  6
ISO-02___
 62
    17
 10
3841.916666666667
 20
-436.0666666666666
 30
0.0
  0
VERTEX
  5
883
  8
__
  6
ISO-02___
 62
    17
 10
3841.916666666667
 20
-968.0666666666666
 30
0.0
  0
VERTEX
  5
884
  8
__
  6
ISO-02___
 62
    17
 10
3823.916666666667
 20
-968.0666666666666
 30
0.0
  0
SEQEND
  5
885
  8
__
  6
ISO-02___
 62
    17
  0
POLYLINE
  5
886
  8
__
  6
CONTINUOUS
 62
     1
 66
     1
 10
0.0
 20
0.0
 30
0.0
 70
   129
  0
VERTEX
  5
887
  8
__
  6
CONTINUOUS
 62
     1
 10
2607.916666666667
 20
-1895.235356787973
 30
0.0
  0
VERTEX
  5
888
  8
__
  6
CONTINUOUS
 62
     1
 10
2607.916666666667
 20
-1345.235356787973
 30
0.0
  0
VERTEX
  5
889
  8
__
  6
CONTINUOUS
 62
     1
 10
3557.916666666667
 20
-1345.235356787973
 30
0.0
  0
VERTEX
  5
88A
  8
__
  6
CONTINUOUS
 62
     1
 10
3557.916666666667
 20
-1895.235356787973
 30
0.0
  0
SEQEND
  5
88B
  8
__
  6
CONTINUOUS
 62
     1
  0
DIMENSION
  5
88C
  8
__-1
  6
CONTINUOUS
 62
    17
  2
*D57
 10
2563.060750484466
 20
-1400.235356787973
 30
0.0
 11
2552.38898399141
 21
-1510.235356787973
 31
0.0
 70
    32
  3
TOOLBOX
 13
2607.916666666667
 23
-1620.235356787973
 33
0.0
 14
2623.916666666667
 24
-1400.235356787973
 34
0.0
 50
-90.0
  0
DIMENSION
  5
88D
  8
__-1
  6
CONTINUOUS
 62
    17
  2
*D58
 10
2607.916666666667
 20
-1968.102023454639
 30
0.0
 11
3082.916666666667
 21
-1957.430256961584
 31
0.0
 70
    32
  3
TOOLBOX
 13
3557.916666666667
 23
-1895.235356787973
 33
0.0
 14
2607.916666666667
 24
-1895.235356787973
 34
0.0
  0
TEXT
  5
88E
  8
__
 62
     1
 10
2617.99244838301
 20
-1237.898282846958
 30
0.0
 40
19.06745515046297
  1
W950 D550デスク天板　ラワン合板 ウレタン塗装仕上げ（裏面バッカー仕上げなし）
  7
YUGOTHIC_BOLD
 11
2617.99244838301
 21
-1218.830827696495
 31
0.0
 73
     3
  0
CIRCLE
  5
88F
  8
__
  6
CONTINUOUS
 62
     1
 10
2632.916666666667
 20
-1620.235356787973
 30
0.0
 40
2.500000000000425
  0
POLYLINE
  5
890
  8
__
  6
ISO-02___
 62
    17
 66
     1
 10
0.0
 20
0.0
 30
0.0
 70
   129
  0
VERTEX
  5
891
  8
__
  6
ISO-02___
 62
    17
 10
2623.916666666667
 20
-1310.168690121306
 30
0.0
  0
VERTEX
  5
892
  8
__
  6
ISO-02___
 62
    17
 10
2641.916666666667
 20
-1310.168690121306
 30
0.0
  0
VERTEX
  5
893
  8
__
  6
ISO-02___
 62
    17
 10
2641.916666666667
 20
-1842.168690121306
 30
0.0
  0
VERTEX
  5
894
  8
__
  6
ISO-02___
 62
    17
 10
2623.916666666667
 20
-1842.168690121306
 30
0.0
  0
SEQEND
  5
895
  8
__
  6
ISO-02___
 62
    17
  0
CIRCLE
  5
896
  8
__
  6
CONTINUOUS
 62
     1
 10
3532.916666666667
 20
-1620.235356787973
 30
0.0
 40
2.499999999999612
  0
POLYLINE
  5
897
  8
__
  6
ISO-02___
 62
    17
 66
     1
 10
0.0
 20
0.0
 30
0.0
 70
   129
  0
VERTEX
  5
898
  8
__
  6
ISO-02___
 62
    17
 10
3523.916666666667
 20
-1313.235356787973
 30
0.0
  0
VERTEX
  5
899
  8
__
  6
ISO-02___
 62
    17
 10
3541.916666666667
 20
-1313.235356787973
 30
0.0
  0
VERTEX
  5
89A
  8
__
  6
ISO-02___
 62
    17
 10
3541.916666666667
 20
-1845.235356787973
 30
0.0
  0
VERTEX
  5
89B
  8
__
  6
ISO-02___
 62
    17
 10
3523.916666666667
 20
-1845.235356787973
 30
0.0
  0
SEQEND
  5
89C
  8
__
  6
ISO-02___
 62
    17
  0
INSERT
  5
89D
  8
__
 62
    17
  2
CALLOUT
 10
2667.916666666667
 20
-1542.235356787973
 30
0.0
  0
INSERT
  5
89E
  8
__
 62
    17
  2
CALLOUT-1
 10
2677.178888888889
 20
-1689.068690121306
 30
0.0
  0
DIMENSION
  5
89F
  8
__-1
  6
CONTINUOUS
 62
    17
  2
*D61
 10
2607.916666666667
 20
-1286.647856787973
 30
0.0
 11
2580.766749448246
 21
-1286.647856787973
 31
0.0
 70
   160
  3
TOOLBOX
 13
2632.916666666667
 23
-1620.235356787973
 33
0.0
 14
2607.916666666667
 24
-1620.235356787973
 34
0.0
  0
LINE
  5
8A0
  8
__
  6
ISO-10______
 62
    17
 10
2412.009034048565
 20
-743.0666666666666
 30
0.0
 11
4026.171329247519
 21
-743.0666666666666
 31
0.0
  0
INSERT
  5
8A1
  8
__
 62
    17
  2
CALLOUT-2
 10
2677.808839142438
 20
-643.4694291260258
 30
0.0
  0
INSERT
  5
8A2
  8
__
 62
    17
  2
CALLOUT-3
 10
2677.178888888889
 20
-803.9000000000001
 30
0.0
  0
DIMENSION
  5
8A3
  8
__-1
  6
CONTINUOUS
 62
    17
  2
*D64
 10
2607.916666666667
 20
-401.4791666666667
 30
0.0
 11
2580.766749448246
 21
-401.4791666666667
 31
0.0
 70
   160
  3
TOOLBOX
 13
2632.916666666667
 23
-735.0666666666666
 33
0.0
 14
2607.916666666667
 24
-735.0666666666666
 34
0.0
  0
CIRCLE
  5
8A4
  8
__
  6
CONTINUOUS
 62
     1
 10
3232.916666666667
 20
-743.0666666666666
 30
0.0
 40
2.500000000000019
  0
DIMENSION
  5
8A5
  8
__-1
  6
CONTINUOUS
 62
    17
  2
*D65
 10
3232.916666666667
 20
-401.4791666666667
 30
0.0
 11
4112.884543591075
 21
-401.4791666666667
 31
0.0
 70
   160
  3
TOOLBOX
 13
2632.916666666667
 23
-735.0666666666666
 33
0.0
 14
3232.916666666667
 24
-743.0666666666666
 34
0.0
  0
DIMENSION
  5
8A6
  8
__-1
  6
CONTINUOUS
 62
    17
  2
*D66
 10
3232.916666666667
 20
-425.0
 30
0.0
 11
3532.916666666667
 21
-414.3282335069445
 31
0.0
 70
    32
  3
TOOLBOX
 13
3832.916666666667
 23
-735.0666666666666
 33
0.0
 14
3232.916666666667
 24
-735.0666666666666
 34
0.0
  0
DIMENSION
  5
8A7
  8
__-1
  6
CONTINUOUS
 62
    17
  2
*D67
 10
3832.916666666667
 20
-425.0
 30
0.0
 11
3845.416666666667
 21
-414.3282335069445
 31
0.0
 70
    32
  3
TOOLBOX
 13
3857.916666666667
 23
-735.0666666666666
 33
0.0
 14
3832.916666666667
 24
-735.0666666666666
 34
0.0
  0
DIMENSION
  5
8A8
  8
__-1
  6
CONTINUOUS
 62
    17
  2
*D68
 10
2632.916666666667
 20
-1310.168690121306
 30
0.0
 11
3082.916666666667
 21
-1299.49692362825
 31
0.0
 70
    32
  3
TOOLBOX
 13
3532.916666666667
 23
-1620.235356787973
 33
0.0
 14
2632.916666666667
 24
-1620.235356787973
 34
0.0
  0
DIMENSION
  5
8A9
  8
__-1
  6
CONTINUOUS
 62
    17
  2
*D69
 10
3532.916666666667
 20
-1310.168690121306
 30
0.0
 11
3545.416666666667
 21
-1299.49692362825
 31
0.0
 70
    32
  3
TOOLBOX
 13
3557.916666666667
 23
-1620.235356787973
 33
0.0
 14
3532.916666666667
 24
-1620.235356787973
 34
0.0
  0
DIMENSION
  5
8AA
  8
__-1
  6
CONTINUOUS
 62
    17
  2
*D70
 10
2607.916666666667
 20
-905.5458333333332
 30
0.0
 11
2583.595417406823
 21
-905.5458333333332
 31
0.0
 70
   160
  3
TOOLBOX
 13
2623.916666666667
 23
-902.0666666666666
 33
0.0
 14
2607.916666666667
 24
-900.0666666666666
 34
0.0
  0
DIMENSION
  5
8AB
  8
__-1
  6
CONTINUOUS
 62
    17
  2
*D71
 10
2623.916666666667
 20
-905.5458333333332
 30
0.0
 11
2659.479567431899
 21
-905.5458333333332
 31
0.0
 70
   160
  3
TOOLBOX
 13
2641.916666666667
 23
-929.0666666666666
 33
0.0
 14
2623.916666666667
 24
-902.0666666666666
 34
0.0
  0
DIMENSION
  5
8AC
  8
__-1
  6
CONTINUOUS
 62
    17
  2
*D72
 10
2607.916666666667
 20
-1790.714523454639
 30
0.0
 11
2583.595417406823
 21
-1790.714523454639
 31
0.0
 70
   160
  3
TOOLBOX
 13
2623.916666666667
 23
-1787.235356787973
 33
0.0
 14
2607.916666666667
 24
-1785.235356787973
 34
0.0
  0
DIMENSION
  5
8AD
  8
__-1
  6
CONTINUOUS
 62
    17
  2
*D73
 10
2623.916666666667
 20
-1790.714523454639
 30
0.0
 11
2659.479567431899
 21
-1790.714523454639
 31
0.0
 70
   160
  3
TOOLBOX
 13
2641.916666666667
 23
-1814.235356787973
 33
0.0
 14
2623.916666666667
 24
-1787.235356787973
 34
0.0
  0
POLYLINE
  5
8AE
  8
__
  6
CONTINUOUS
 62
     1
 66
     1
 10
0.0
 20
0.0
 30
0.0
 70
   129
  0
VERTEX
  5
8AF
  8
__
  6
CONTINUOUS
 62
     1
 10
2429.639213778139
 20
-1018.066666666667
 30
0.0
  0
VERTEX
  5
8B0
  8
__
  6
CONTINUOUS
 62
     1
 10
2429.639213778139
 20
-468.0666666666666
 30
0.0
  0
VERTEX
  5
8B1
  8
__
  6
CONTINUOUS
 62
     1
 10
2447.639213778139
 20
-468.0666666666666
 30
0.0
  0
VERTEX
  5
8B2
  8
__
  6
CONTINUOUS
 62
     1
 10
2447.639213778139
 20
-1018.066666666667
 30
0.0
  0
SEQEND
  5
8B3
  8
__
  6
CONTINUOUS
 62
     1
  0
DIMENSION
  5
8B4
  8
__-1
  6
CONTINUOUS
 62
    17
  2
*D74
 10
2429.639213778139
 20
-1090.933333333333
 30
0.0
 11
2438.639213778139
 21
-1080.261566840278
 31
0.0
 70
    32
  3
TOOLBOX
 13
2447.639213778139
 23
-1018.066666666667
 33
0.0
 14
2429.639213778139
 24
-1018.066666666667
 34
0.0
  0
DIMENSION
  5
8B5
  8
__-1
  6
CONTINUOUS
 62
    17
  2
*D75
 10
2394.579396328964
 20
-468.0666666666666
 30
0.0
 11
2383.907629835908
 21
-743.0666666666666
 31
0.0
 70
    32
  3
TOOLBOX
 13
2429.639213778139
 23
-1018.066666666667
 33
0.0
 14
2429.639213778139
 24
-468.0666666666666
 34
0.0
 50
-90.0
  0
DIMENSION
  5
8B6
  8
__-1
  6
CONTINUOUS
 62
    17
  2
*D76
 10
2564.030140027887
 20
-1018.066666666667
 30
0.0
 11
2553.358373534831
 21
-880.5666666666666
 31
0.0
 70
    32
  3
TOOLBOX
 13
2607.916666666667
 23
-743.0666666666666
 33
0.0
 14
2607.916666666667
 24
-1018.066666666667
 34
0.0
 50
-90.0
  0
DIMENSION
  5
8B7
  8
__-1
  6
CONTINUOUS
 62
    17
  2
*D77
 10
2563.060750484466
 20
-1895.235356787973
 30
0.0
 11
2552.38898399141
 21
-1757.735356787973
 31
0.0
 70
    32
  3
TOOLBOX
 13
2607.916666666667
 23
-1620.235356787973
 33
0.0
 14
2607.916666666667
 24
-1895.235356787973
 34
0.0
 50
-90.0
  0
TEXT
  5
8B8
  8
__
 62
     1
 10
2617.99244838301
 20
-309.2504087895399
 30
0.0
 40
19.06745515046297
  1
W1250 D550デスク天板　ラワン合板 メラミン練付け（裏面バッカー仕上げ）
  7
YUGOTHIC_BOLD
 11
2617.99244838301
 21
-290.1829536390769
 31
0.0
 73
     3
  0
TEXT
  5
8B9
  8
__
 62
     1
 10
2617.99244838301
 20
-1196.840388022618
 30
0.0
 40
19.06745515046297
  1
W950 D550デスク天板　ラワン合板 メラミン練付け（裏面バッカー仕上げ）
  7
YUGOTHIC_BOLD
 11
2617.99244838301
 21
-1177.772932872155
 31
0.0
 73
     3
  0
POLYLINE
  5
8BA
  8
__
  6
ISO-02___
 62
    17
 66
     1
 10
0.0
 20
0.0
 30
0.0
 70
   129
  0
VERTEX
  5
8BB
  8
__
  6
ISO-02___
 62
    17
 10
2433.639213778139
 20
-740.5666666666666
 30
0.0
  0
VERTEX
  5
8BC
  8
__
  6
ISO-02___
 62
    17
 10
2447.639213778139
 20
-740.5666666666666
 30
0.0
  0
VERTEX
  5
8BD
  8
__
  6
ISO-02___
 62
    17
 10
2447.639213778139
 20
-745.5666666666666
 30
0.0
  0
VERTEX
  5
8BE
  8
__
  6
ISO-02___
 62
    17
 10
2433.639213778139
 20
-745.5666666666666
 30
0.0
  0
SEQEND
  5
8BF
  8
__
  6
ISO-02___
 62
    17
  0
POLYLINE
  5
8C0
  8
__
  6
CONTINUOUS
 62
     1
 66
     1
 10
0.0
 20
0.0
 30
0.0
 70
   129
  0
VERTEX
  5
8C1
  8
__
  6
CONTINUOUS
 62
     1
 10
328.7024883753512
 20
-586.6029580856598
 30
0.0
  0
VERTEX
  5
8C2
  8
__
  6
CONTINUOUS
 62
     1
 10
860.7024883753511
 20
-586.6029580856598
 30
0.0
  0
VERTEX
  5
8C3
  8
__
  6
CONTINUOUS
 62
     1
 10
860.7024883753511
 20
-604.6029580856598
 30
0.0
  0
VERTEX
  5
8C4
  8
__
  6
CONTINUOUS
 62
     1
 10
328.7024883753512
 20
-604.6029580856598
 30
0.0
  0
SEQEND
  5
8C5
  8
__
  6
CONTINUOUS
 62
     1
  0
CIRCLE
  5
8C6
  8
__
  6
CONTINUOUS
 62
     1
 10
553.7024883753511
 20
-595.6029580856598
 30
0.0
 40
2.250000000000086
  0
POLYLINE
  5
8C7
  8
__
  6
CONTINUOUS
 62
     1
 66
     1
 10
0.0
 20
0.0
 30
0.0
 70
   129
  0
VERTEX
  5
8C8
  8
__
  6
CONTINUOUS
 62
     1
 10
578.7024883753511
 20
-899.5691934122098
 30
0.0
  0
VERTEX
  5
8C9
  8
__
  6
CONTINUOUS
 62
     1
 10
860.7024883753511
 20
-899.5691934122098
 30
0.0
  0
VERTEX
  5
8CA
  8
__
  6
CONTINUOUS
 62
     1
 10
860.7024883753511
 20
-917.5691934122098
 30
0.0
  0
VERTEX
  5
8CB
  8
__
  6
CONTINUOUS
 62
     1
 10
578.7024883753511
 20
-917.5691934122098
 30
0.0
  0
SEQEND
  5
8CC
  8
__
  6
CONTINUOUS
 62
     1
  0
CIRCLE
  5
8CD
  8
__
  6
CONTINUOUS
 62
     1
 10
678.7024883753511
 20
-908.5691934122098
 30
0.0
 40
3.000000000000049
  0
POLYLINE
  5
8CE
  8
__
  6
ISO-02___
 62
    17
 66
     1
 10
0.0
 20
0.0
 30
0.0
 70
   129
  0
VERTEX
  5
8CF
  8
__
  6
ISO-02___
 62
    17
 10
675.7024883753511
 20
-1009.54560402269
 30
0.0
  0
VERTEX
  5
8D0
  8
__
  6
ISO-02___
 62
    17
 10
681.7024883753511
 20
-1009.54560402269
 30
0.0
  0
VERTEX
  5
8D1
  8
__
  6
ISO-02___
 62
    17
 10
681.7024883753511
 20
-1029.54560402269
 30
0.0
  0
VERTEX
  5
8D2
  8
__
  6
ISO-02___
 62
    17
 10
675.7024883753511
 20
-1029.54560402269
 30
0.0
  0
SEQEND
  5
8D3
  8
__
  6
ISO-02___
 62
    17
  0
LINE
  5
8D4
  8
__
  6
CONTINUOUS
 62
    17
 10
678.7024883753511
 20
-1036.24031043581
 30
0.0
 11
678.7024883753511
 21
-1002.101287983901
 31
0.0
  0
POLYLINE
  5
8D5
  8
__
  6
ISO-02___
 62
    17
 66
     1
 10
0.0
 20
0.0
 30
0.0
 70
   128
  0
VERTEX
  5
8D6
  8
__
  6
ISO-02___
 62
    17
 10
549.4524883753513
 20
-736.701218400586
 30
0.0
  0
VERTEX
  5
8D7
  8
__
  6
ISO-02___
 62
    17
 10
549.4524883753513
 20
-711.8046018592329
 30
0.0
  0
VERTEX
  5
8D8
  8
__
  6
ISO-02___
 62
    17
 10
551.4524883753509
 20
-711.8046018592329
 30
0.0
  0
VERTEX
  5
8D9
  8
__
  6
ISO-02___
 62
    17
 10
551.4524883753509
 20
-691.8046018592329
 30
0.0
  0
VERTEX
  5
8DA
  8
__
  6
ISO-02___
 62
    17
 10
555.9524883753511
 20
-691.8046018592329
 30
0.0
  0
VERTEX
  5
8DB
  8
__
  6
ISO-02___
 62
    17
 10
555.9524883753511
 20
-711.8046018592329
 30
0.0
  0
VERTEX
  5
8DC
  8
__
  6
ISO-02___
 62
    17
 10
557.9524883753511
 20
-711.8046018592329
 30
0.0
  0
VERTEX
  5
8DD
  8
__
  6
ISO-02___
 62
    17
 10
557.9524883753511
 20
-737.6598650171275
 30
0.0
  0
SEQEND
  5
8DE
  8
__
  6
ISO-02___
 62
    17
  0
LINE
  5
8DF
  8
__
  6
ISO-02___
 62
     1
 10
553.7024883753511
 20
-746.995345326935
 30
0.0
 11
553.7024883753511
 21
-684.7350906332783
 31
0.0
  0
CIRCLE
  5
8E0
  8
__
  6
ISO-02___
 62
    17
 10
553.7024883753511
 20
-595.6029580856598
 30
0.0
 40
4.250000000000053
  0
POLYLINE
  5
8E1
  8
__
  6
ISO-02___
 62
    17
 66
     1
 10
0.0
 20
0.0
 30
0.0
 70
   129
  0
VERTEX
  5
8E2
  8
__
  6
ISO-02___
 62
    17
 10
841.7024883753511
 20
-899.5691934122098
 30
0.0
  0
VERTEX
  5
8E3
  8
__
  6
ISO-02___
 62
    17
 10
847.7024883753511
 20
-899.5691934122098
 30
0.0
  0
VERTEX
  5
8E4
  8
__
  6
ISO-02___
 62
    17
 10
847.7024883753511
 20
-917.5691934122098
 30
0.0
  0
VERTEX
  5
8E5
  8
__
  6
ISO-02___
 62
    17
 10
841.7024883753511
 20
-917.5691934122098
 30
0.0
  0
SEQEND
  5
8E6
  8
__
  6
ISO-02___
 62
    17
  0
POLYLINE
  5
8E7
  8
__
  6
ISO-02___
 62
    17
 66
     1
 10
0.0
 20
0.0
 30
0.0
 70
   129
  0
VERTEX
  5
8E8
  8
__
  6
ISO-02___
 62
    17
 10
841.7024883753511
 20
-586.6029580856598
 30
0.0
  0
VERTEX
  5
8E9
  8
__
  6
ISO-02___
 62
    17
 10
847.7024883753511
 20
-586.6029580856598
 30
0.0
  0
VERTEX
  5
8EA
  8
__
  6
ISO-02___
 62
    17
 10
847.7024883753511
 20
-604.6029580856598
 30
0.0
  0
VERTEX
  5
8EB
  8
__
  6
ISO-02___
 62
    17
 10
841.7024883753511
 20
-604.6029580856598
 30
0.0
  0
SEQEND
  5
8EC
  8
__
  6
ISO-02___
 62
    17
  0
DIMENSION
  5
8ED
  8
__-1
  6
CONTINUOUS
 62
    17
  2
*D78
 10
551.4524883753509
 20
-679.7111898162864
 30
0.0
 11
553.702488375351
 21
-669.0394233232308
 31
0.0
 70
    32
  3
TOOLBOX
 13
555.9524883753511
 23
-691.8046018592329
 33
0.0
 14
551.4524883753509
 24
-691.8046018592329
 34
0.0
  0
DIMENSION
  5
8EE
  8
__-1
  6
CONTINUOUS
 62
    17
  2
*D79
 10
549.4524883753513
 20
-764.6112363819686
 30
0.0
 11
553.7024883753512
 21
-753.9394698889131
 31
0.0
 70
    32
  3
TOOLBOX
 13
557.9524883753511
 23
-737.6598650171275
 33
0.0
 14
549.4524883753513
 24
-736.701218400586
 34
0.0
  0
DIMENSION
  5
8F0
  8
__-1
  6
CONTINUOUS
 62
    17
  2
*D80
 10
773.7024883753511
 20
-565.3511807218113
 30
0.0
 11
817.2024883753511
 21
-554.6794142287557
 31
0.0
 70
    32
  3
TOOLBOX
 13
860.7024883753511
 23
-586.6029580856598
 33
0.0
 14
773.7024883753511
 24
-586.6029580856598
 34
0.0
  0
LINE
  5
8F1
  8
__
  6
ISO-02___
 62
     1
 10
553.7024883753511
 20
-618.3453917375564
 30
0.0
 11
553.7024883753511
 21
-556.0851370438997
 31
0.0
  0
DIMENSION
  5
8F2
  8
__-1
  6
CONTINUOUS
 62
    17
  2
*D81
 10
678.7024883753511
 20
-882.027347250647
 30
0.0
 11
769.7024883753511
 21
-871.3555807575915
 31
0.0
 70
    32
  3
TOOLBOX
 13
860.7024883753511
 23
-899.5691934122098
 33
0.0
 14
678.7024883753511
 24
-908.5691934122098
 34
0.0
  0
LINE
  5
8F3
  8
__
  6
CONTINUOUS
 62
    17
 10
678.7024883753511
 20
-924.4372927833375
 30
0.0
 11
678.7024883753511
 21
-890.2982703314284
 31
0.0
  0
DIMENSION
  5
8F4
  8
__-1
  6
CONTINUOUS
 62
    17
  2
*D82
 10
675.7024883753511
 20
-993.5611282551718
 30
0.0
 11
678.7024883753511
 21
-982.8893617621162
 31
0.0
 70
    32
  3
TOOLBOX
 13
681.7024883753511
 23
-1009.54560402269
 33
0.0
 14
675.7024883753511
 24
-1009.54560402269
 34
0.0
  0
DIMENSION
  5
8F6
  8
__-1
  6
CONTINUOUS
 62
    17
  2
*D83
 10
283.7024883753512
 20
-586.6029580856598
 30
0.0
 11
273.0307218822956
 21
-595.6029580856598
 31
0.0
 70
    32
  3
TOOLBOX
 13
328.7024883753512
 23
-604.6029580856598
 33
0.0
 14
328.7024883753512
 24
-586.6029580856598
 34
0.0
 50
-90.0
  0
DIMENSION
  5
8F7
  8
__-1
  6
CONTINUOUS
 62
    17
  2
*D84
 10
532.7024883753511
 20
-899.5691934122098
 30
0.0
 11
522.0307218822956
 21
-908.5691934122098
 31
0.0
 70
    32
  3
TOOLBOX
 13
578.7024883753511
 23
-917.5691934122098
 33
0.0
 14
578.7024883753511
 24
-899.5691934122098
 34
0.0
 50
-90.0
  0
DIMENSION
  5
8F8
  8
__-1
  6
CONTINUOUS
 62
    17
  2
*D85
 10
526.7024883753511
 20
-1212.64017289184
 30
0.0
 11
693.7024883753511
 21
-1201.968406398784
 31
0.0
 70
    32
  3
TOOLBOX
 13
860.7024883753511
 23
-1274.265629187825
 33
0.0
 14
526.7024883753511
 24
-1274.265629187825
 34
0.0
  0
DIMENSION
  5
8F9
  8
__-1
  6
CONTINUOUS
 62
    17
  2
*D86
 10
915.7024883753511
 20
-1249.265629187825
 30
0.0
 11
905.0307218822954
 21
-1274.265629187825
 31
0.0
 70
    32
  3
TOOLBOX
 13
860.7024883753511
 23
-1299.265629187825
 33
0.0
 14
860.7024883753511
 24
-1249.265629187825
 34
0.0
 50
-90.0
  0
LINE
  5
8FA
  8
__
  6
ISO-02___
 62
    17
 10
509.4532058866424
 20
-1274.265629187825
 30
0.0
 11
607.9024883753511
 21
-1274.265629187825
 31
0.0
  0
POLYLINE
  5
8FB
  8
__
  6
CONTINUOUS
 62
     1
 66
     1
 10
0.0
 20
0.0
 30
0.0
 70
   129
  0
VERTEX
  5
8FC
  8
__
  6
CONTINUOUS
 62
     1
 10
526.7024883753511
 20
-1249.265629187825
 30
0.0
  0
VERTEX
  5
8FD
  8
__
  6
CONTINUOUS
 62
     1
 10
526.7024883753511
 20
-1299.265629187826
 30
0.0
  0
VERTEX
  5
8FE
  8
__
  6
CONTINUOUS
 62
     1
 10
860.7024883753511
 20
-1299.265629187826
 30
0.0
  0
VERTEX
  5
8FF
  8
__
  6
CONTINUOUS
 62
     1
 10
860.7024883753511
 20
-1249.265629187825
 30
0.0
  0
SEQEND
  5
900
  8
__
  6
CONTINUOUS
 62
     1
  0
POLYLINE
  5
901
  8
__
  6
CONTINUOUS
 62
     1
 66
     1
 10
0.0
 20
0.0
 30
0.0
 70
   129
  0
VERTEX
  5
902
  8
__
  6
CONTINUOUS
 62
     1
 10
567.2024883753511
 20
-1274.265629187825
 30
0.0
  0
VERTEX
  5
903
  8
__
  6
CONTINUOUS
 62
     1
 10
567.2024883753511
 20
-1274.265629187825
 30
0.0
 42
-0.9999999999999999
 70
     2
 50
-0.0000000000000211
  0
VERTEX
  5
904
  8
__
  6
CONTINUOUS
 62
     1
 10
586.2024883753511
 20
-1274.265629187825
 30
0.0
  0
VERTEX
  5
905
  8
__
  6
CONTINUOUS
 62
     1
 10
586.2024883753511
 20
-1274.265629187825
 30
0.0
 42
-0.9999999999999999
 70
     2
 50
-0.000000000000014
  0
VERTEX
  5
906
  8
__
  6
CONTINUOUS
 62
     1
 10
567.2024883753511
 20
-1274.265629187825
 30
0.0
  0
SEQEND
  5
907
  8
__
  6
CONTINUOUS
 62
     1
  0
DIMENSION
  5
908
  8
__-1
  6
CONTINUOUS
 62
    17
  2
*D87
 10
496.219155042018
 20
-1249.265629187825
 30
0.0
 11
485.5473885489624
 21
-1261.765629187826
 31
0.0
 70
    32
  3
TOOLBOX
 13
526.7024883753511
 23
-1274.265629187826
 33
0.0
 14
526.7024883753511
 24
-1249.265629187825
 34
0.0
 50
-90.0
  0
DIMENSION
  5
90B
  8
__-1
  6
CONTINUOUS
 62
    17
  2
*D88
 10
496.219155042018
 20
-1274.265629187826
 30
0.0
 11
485.5473885489624
 21
-1286.765629187826
 31
0.0
 70
    32
  3
TOOLBOX
 13
531.386255846629
 23
-1299.265629187826
 33
0.0
 14
526.7024883753511
 24
-1274.265629187826
 34
0.0
 50
-90.0
  0
LINE
  5
90E
  8
__
  6
ISO-02___
 62
    17
 10
576.7024883753511
 20
-1283.762983448024
 30
0.0
 11
576.7024883753511
 21
-1264.768274927626
 31
0.0
  0
DIMENSION
  5
90F
  8
__-1
  6
CONTINUOUS
 62
    17
  2
*D89
 10
526.7024883753511
 20
-1241.561531499461
 30
0.0
 11
551.7024883753511
 21
-1230.889765006405
 31
0.0
 70
    32
  3
TOOLBOX
 13
576.7024883753511
 23
-1264.768274927626
 33
0.0
 14
526.7024883753511
 24
-1249.265629187825
 34
0.0
  0
CIRCLE
  5
910
  8
__
  6
CONTINUOUS
 62
     1
 10
844.7024883753511
 20
-1269.265629187825
 30
0.0
 40
3.250000000000067
  0
INSERT
  5
911
  8
__
 62
     1
  2
CALLOUT-4
 10
606.1185615110373
 20
-1343.82407174047
 30
0.0
  0
DIMENSION
  5
912
  8
__-1
  6
CONTINUOUS
 62
    17
  2
*D91
 10
3776.453606670593
 20
219.9215890628139
 30
0.0
 11
3765.781840177538
 21
199.9215890628139
 31
0.0
 70
    32
  3
TOOLBOX
 13
3722.545265288577
 23
179.9215890628139
 33
0.0
 14
3735.545265288577
 24
219.9215890628139
 34
0.0
 50
-90.0
  0
DIMENSION
  5
913
  8
__-1
  6
CONTINUOUS
 62
    17
  2
*D92
 10
3776.453606670593
 20
179.9215890628139
 30
0.0
 11
3765.781840177538
 21
129.9215890628139
 31
0.0
 70
    32
  3
TOOLBOX
 13
3722.545265288577
 23
79.92158906281395
 33
0.0
 14
3722.545265288577
 24
179.9215890628139
 34
0.0
 50
-90.0
  0
DIMENSION
  5
914
  8
__-1
  6
CONTINUOUS
 62
    17
  2
*D93
 10
3763.37027333726
 20
79.92158906281395
 30
0.0
 11
3763.37027333726
 21
21.19129308428784
 31
0.0
 70
   160
  3
TOOLBOX
 13
3735.545265288577
 23
39.92158906281394
 33
0.0
 14
3722.545265288577
 24
79.92158906281395
 34
0.0
 50
-90.0
  0
POLYLINE
  5
915
  8
__
  6
CONTINUOUS
 62
     1
 66
     1
 10
0.0
 20
0.0
 30
0.0
 70
   129
  0
VERTEX
  5
916
  8
__
  6
CONTINUOUS
 62
     1
 10
2423.246574637113
 20
-2660.361632446331
 30
0.0
  0
VERTEX
  5
917
  8
__
  6
CONTINUOUS
 62
     1
 10
2423.246574637113
 20
-2360.361632446331
 30
0.0
  0
VERTEX
  5
918
  8
__
  6
CONTINUOUS
 62
     1
 10
2441.246574637113
 20
-2360.361632446331
 30
0.0
  0
VERTEX
  5
919
  8
__
  6
CONTINUOUS
 62
     1
 10
2441.246574637113
 20
-2660.361632446331
 30
0.0
  0
SEQEND
  5
91A
  8
__
  6
CONTINUOUS
 62
     1
  0
POLYLINE
  5
91B
  8
__
  6
VW-01____
 62
    17
 66
     1
 10
0.0
 20
0.0
 30
0.0
 70
   129
  0
VERTEX
  5
91C
  8
__
  6
VW-01____
 62
    17
 10
2607.416666666667
 20
-2522.111632446331
 30
0.0
  0
VERTEX
  5
91D
  8
__
  6
VW-01____
 62
    17
 10
2607.416666666667
 20
-2528.611632446331
 30
0.0
  0
VERTEX
  5
91E
  8
__
  6
VW-01____
 62
    17
 10
2607.416666666667
 20
-2528.611632446331
 30
0.0
 42
0.9999999999999999
 70
     2
 50
3.119036963853517E+17
  0
VERTEX
  5
91F
  8
__
  6
VW-01____
 62
    17
 10
2607.416666666667
 20
-2522.111632446331
 30
0.0
  0
SEQEND
  5
920
  8
__
  6
VW-01____
 62
    17
  0
POLYLINE
  5
921
  8
__
  6
VW-01____
 62
    17
 66
     1
 10
0.0
 20
0.0
 30
0.0
 70
   129
  0
VERTEX
  5
922
  8
__
  6
VW-01____
 62
    17
 10
3507.416666666667
 20
-2522.111632446331
 30
0.0
  0
VERTEX
  5
923
  8
__
  6
VW-01____
 62
    17
 10
3507.416666666667
 20
-2528.611632446331
 30
0.0
  0
VERTEX
  5
924
  8
__
  6
VW-01____
 62
    17
 10
3507.416666666667
 20
-2528.611632446331
 30
0.0
 42
-0.9999999999999999
 70
     2
 50
3.119036963853517E+17
  0
VERTEX
  5
925
  8
__
  6
VW-01____
 62
    17
 10
3507.416666666667
 20
-2522.111632446331
 30
0.0
  0
SEQEND
  5
926
  8
__
  6
VW-01____
 62
    17
  0
POLYLINE
  5
927
  8
__
  6
VW-01____
 62
     1
 66
     1
 10
0.0
 20
0.0
 30
0.0
 70
   129
  0
VERTEX
  5
928
  8
__
  6
VW-01____
 62
     1
 10
2607.416666666667
 20
-2988.716565296873
 30
0.0
  0
VERTEX
  5
929
  8
__
  6
VW-01____
 62
     1
 10
2607.416666666667
 20
-2995.216565296873
 30
0.0
  0
VERTEX
  5
92A
  8
__
  6
VW-01____
 62
     1
 10
2607.416666666667
 20
-2995.216565296873
 30
0.0
 42
0.9999999999999999
 70
     2
 50
3.119036963853517E+17
  0
VERTEX
  5
92B
  8
__
  6
VW-01____
 62
     1
 10
2607.416666666667
 20
-2988.716565296873
 30
0.0
  0
SEQEND
  5
92C
  8
__
  6
VW-01____
 62
     1
  0
POLYLINE
  5
92D
  8
__
  6
VW-01____
 62
     1
 66
     1
 10
0.0
 20
0.0
 30
0.0
 70
   129
  0
VERTEX
  5
92E
  8
__
  6
VW-01____
 62
     1
 10
3207.416666666667
 20
-2985.466565296873
 30
0.0
  0
VERTEX
  5
92F
  8
__
  6
VW-01____
 62
     1
 10
3207.416666666667
 20
-2991.966565296873
 30
0.0
  0
VERTEX
  5
930
  8
__
  6
VW-01____
 62
     1
 10
3207.416666666667
 20
-2991.966565296873
 30
0.0
 42
-0.9999999999999999
 70
     2
 50
3.119036963853517E+17
  0
VERTEX
  5
931
  8
__
  6
VW-01____
 62
     1
 10
3207.416666666667
 20
-2985.466565296873
 30
0.0
  0
SEQEND
  5
932
  8
__
  6
VW-01____
 62
     1
  0
POLYLINE
  5
933
  8
__
  6
ISO-02___
 62
    17
 66
     1
 10
0.0
 20
0.0
 30
0.0
 70
   129
  0
VERTEX
  5
934
  8
__
  6
ISO-02___
 62
    17
 10
2433.246574637113
 20
-2528.611632446331
 30
0.0
  0
VERTEX
  5
935
  8
__
  6
ISO-02___
 62
    17
 10
2433.246574637113
 20
-2522.111632446331
 30
0.0
  0
VERTEX
  5
936
  8
__
  6
ISO-02___
 62
    17
 10
2441.246574637113
 20
-2522.111632446331
 30
0.0
  0
VERTEX
  5
937
  8
__
  6
ISO-02___
 62
    17
 10
2441.246574637113
 20
-2528.611632446331
 30
0.0
  0
SEQEND
  5
938
  8
__
  6
ISO-02___
 62
    17
  0
DIMENSION
  5
939
  8
__-1
  6
CONTINUOUS
 62
    17
  2
*D94
 10
2568.563301859436
 20
-2375.361632446331
 30
0.0
 11
2557.891535366381
 21
-2450.361632446331
 31
0.0
 70
    32
  3
TOOLBOX
 13
2607.416666666667
 23
-2525.361632446331
 33
0.0
 14
2607.416666666667
 24
-2375.361632446331
 34
0.0
 50
-89.99999999999991
  0
DIMENSION
  5
93A
  8
__-1
  6
CONTINUOUS
 62
    17
  2
*D95
 10
2568.563301859436
 20
-2525.361632446331
 30
0.0
 11
2557.891535366381
 21
-2592.861632446331
 31
0.0
 70
    32
  3
TOOLBOX
 13
2607.916666666667
 23
-2660.361632446331
 33
0.0
 14
2607.416666666667
 24
-2525.361632446331
 34
0.0
 50
-89.99999999999991
  0
DIMENSION
  5
93B
  8
__-1
  6
CONTINUOUS
 62
    17
  2
*D96
 10
2423.246574637113
 20
-2700.176031727916
 30
0.0
 11
2431.939504738324
 21
-2700.176031727916
 31
0.0
 70
   160
  3
TOOLBOX
 13
2441.246574637113
 23
-2660.361632446331
 33
0.0
 14
2423.246574637113
 24
-2660.361632446331
 34
0.0
  0
DIMENSION
  5
93C
  8
__-1
  6
CONTINUOUS
 62
    17
  2
*D97
 10
2388.890182024242
 20
-2360.361632446331
 30
0.0
 11
2378.218415531187
 21
-2442.861632446331
 31
0.0
 70
    32
  3
TOOLBOX
 13
2423.246574637113
 23
-2525.361632446331
 33
0.0
 14
2423.246574637113
 24
-2360.361632446331
 34
0.0
 50
-90.0
  0
DIMENSION
  5
93D
  8
__-1
  6
CONTINUOUS
 62
    17
  2
*D98
 10
2567.940152490164
 20
-2841.966565296873
 30
0.0
 11
2557.268385997108
 21
-2916.966565296873
 31
0.0
 70
    32
  3
TOOLBOX
 13
2607.416666666667
 23
-2991.966565296873
 33
0.0
 14
2607.416666666667
 24
-2841.966565296873
 34
0.0
 50
-90.0
  0
DIMENSION
  5
93E
  8
__-1
  6
CONTINUOUS
 62
    17
  2
*D99
 10
2567.940152490164
 20
-2991.966565296873
 30
0.0
 11
2557.268385997108
 21
-3059.466565296873
 31
0.0
 70
    32
  3
TOOLBOX
 13
2607.416666666667
 23
-3126.966565296873
 33
0.0
 14
2607.416666666667
 24
-2991.966565296873
 34
0.0
 50
-90.0
  0
LINE
  5
93F
  8
__
  6
ISO-10______
 62
    17
 10
2360.910370793686
 20
-2525.361632446331
 30
0.0
 11
3593.820155937914
 21
-2525.361632446331
 31
0.0
  0
INSERT
  5
940
  8
__
 62
    17
  2
CALLOUT-5
 10
2655.207686087323
 20
-2432.188044969659
 30
0.0
  0
DIMENSION
  5
941
  8
__-1
  6
CONTINUOUS
 62
    17
  2
*D101
 10
2433.246574637113
 20
-2494.096298106917
 30
0.0
 11
2455.19405275488
 21
-2494.096298106917
 31
0.0
 70
   160
  3
TOOLBOX
 13
2441.246574637113
 23
-2522.111632446331
 33
0.0
 14
2433.246574637113
 24
-2522.111632446331
 34
0.0
  0
POLYLINE
  5
944
  8
__
  6
ISO-02___
 62
    17
 66
     1
 10
0.0
 20
0.0
 30
0.0
 70
   129
  0
VERTEX
  5
945
  8
__
  6
ISO-02___
 62
    17
 10
2598.416666666667
 20
-2343.361632446331
 30
0.0
  0
VERTEX
  5
946
  8
__
  6
ISO-02___
 62
    17
 10
2616.416666666667
 20
-2343.361632446331
 30
0.0
  0
VERTEX
  5
947
  8
__
  6
ISO-02___
 62
    17
 10
2616.416666666667
 20
-2625.361632446331
 30
0.0
  0
VERTEX
  5
948
  8
__
  6
ISO-02___
 62
    17
 10
2598.416666666667
 20
-2625.361632446331
 30
0.0
  0
SEQEND
  5
949
  8
__
  6
ISO-02___
 62
    17
  0
INSERT
  5
94A
  8
__
 62
    17
  2
CALLOUT-6
 10
2633.916666666667
 20
-2584.65529794424
 30
0.0
  0
DIMENSION
  5
94B
  8
__-1
  6
CONTINUOUS
 62
    17
  2
*D103
 10
2607.416666666667
 20
-2632.355901019236
 30
0.0
 11
2629.975013046668
 21
-2632.355901019236
 31
0.0
 70
   160
  3
TOOLBOX
 13
2616.416666666667
 23
-2632.228299112997
 33
0.0
 14
2607.416666666667
 24
-2632.228299112997
 34
0.0
  0
POLYLINE
  5
94D
  8
__
  6
ISO-02___
 62
    17
 66
     1
 10
0.0
 20
0.0
 30
0.0
 70
   129
  0
VERTEX
  5
94E
  8
__
  6
ISO-02___
 62
    17
 10
3498.416666666667
 20
-2343.361632446331
 30
0.0
  0
VERTEX
  5
94F
  8
__
  6
ISO-02___
 62
    17
 10
3516.416666666667
 20
-2343.361632446331
 30
0.0
  0
VERTEX
  5
950
  8
__
  6
ISO-02___
 62
    17
 10
3516.416666666667
 20
-2625.361632446331
 30
0.0
  0
VERTEX
  5
951
  8
__
  6
ISO-02___
 62
    17
 10
3498.416666666667
 20
-2625.361632446331
 30
0.0
  0
SEQEND
  5
952
  8
__
  6
ISO-02___
 62
    17
  0
INSERT
  5
953
  8
__
 62
    17
  2
CALLOUT-7
 10
2655.207686087323
 20
-2898.792977820201
 30
0.0
  0
POLYLINE
  5
954
  8
__
  6
ISO-02___
 62
    17
 66
     1
 10
0.0
 20
0.0
 30
0.0
 70
   129
  0
VERTEX
  5
955
  8
__
  6
ISO-02___
 62
    17
 10
2598.416666666667
 20
-2809.966565296873
 30
0.0
  0
VERTEX
  5
956
  8
__
  6
ISO-02___
 62
    17
 10
2616.416666666667
 20
-2809.966565296873
 30
0.0
  0
VERTEX
  5
957
  8
__
  6
ISO-02___
 62
    17
 10
2616.416666666667
 20
-3091.966565296873
 30
0.0
  0
VERTEX
  5
958
  8
__
  6
ISO-02___
 62
    17
 10
2598.416666666667
 20
-3091.966565296873
 30
0.0
  0
SEQEND
  5
959
  8
__
  6
ISO-02___
 62
    17
  0
INSERT
  5
95A
  8
__
 62
    17
  2
CALLOUT-8
 10
2633.916666666667
 20
-3051.260230794782
 30
0.0
  0
DIMENSION
  5
95B
  8
__-1
  6
CONTINUOUS
 62
    17
  2
*D106
 10
2607.416666666667
 20
-3098.960833869778
 30
0.0
 11
2629.975013046668
 21
-3098.960833869778
 31
0.0
 70
   160
  3
TOOLBOX
 13
2616.416666666667
 23
-3098.83323196354
 33
0.0
 14
2607.416666666667
 24
-3098.83323196354
 34
0.0
  0
POLYLINE
  5
95D
  8
__
  6
ISO-02___
 62
    17
 66
     1
 10
0.0
 20
0.0
 30
0.0
 70
   129
  0
VERTEX
  5
95E
  8
__
  6
ISO-02___
 62
    17
 10
3198.416666666667
 20
-2809.966565296873
 30
0.0
  0
VERTEX
  5
95F
  8
__
  6
ISO-02___
 62
    17
 10
3216.416666666667
 20
-2809.966565296873
 30
0.0
  0
VERTEX
  5
960
  8
__
  6
ISO-02___
 62
    17
 10
3216.416666666667
 20
-3091.966565296873
 30
0.0
  0
VERTEX
  5
961
  8
__
  6
ISO-02___
 62
    17
 10
3198.416666666667
 20
-3091.966565296873
 30
0.0
  0
SEQEND
  5
962
  8
__
  6
ISO-02___
 62
    17
  0
POLYLINE
  5
963
  8
__
  6
CONTINUOUS
 62
     1
 66
     1
 10
0.0
 20
0.0
 30
0.0
 70
   129
  0
VERTEX
  5
964
  8
__
  6
CONTINUOUS
 62
     1
 10
526.7024883753511
 20
-1150.387306171019
 30
0.0
  0
VERTEX
  5
965
  8
__
  6
CONTINUOUS
 62
     1
 10
860.7024883753511
 20
-1150.387306171019
 30
0.0
  0
VERTEX
  5
966
  8
__
  6
CONTINUOUS
 62
     1
 10
860.7024883753511
 20
-1168.387306171019
 30
0.0
  0
VERTEX
  5
967
  8
__
  6
CONTINUOUS
 62
     1
 10
526.7024883753511
 20
-1168.387306171019
 30
0.0
  0
SEQEND
  5
968
  8
__
  6
CONTINUOUS
 62
     1
  0
POLYLINE
  5
969
  8
__
  6
ISO-02___
 62
    17
 66
     1
 10
0.0
 20
0.0
 30
0.0
 70
   129
  0
VERTEX
  5
96A
  8
__
  6
ISO-02___
 62
    17
 10
841.7024883753511
 20
-1150.387306171019
 30
0.0
  0
VERTEX
  5
96B
  8
__
  6
ISO-02___
 62
    17
 10
847.7024883753511
 20
-1150.387306171019
 30
0.0
  0
VERTEX
  5
96C
  8
__
  6
ISO-02___
 62
    17
 10
847.7024883753511
 20
-1168.387306171019
 30
0.0
  0
VERTEX
  5
96D
  8
__
  6
ISO-02___
 62
    17
 10
841.7024883753511
 20
-1168.387306171019
 30
0.0
  0
SEQEND
  5
96E
  8
__
  6
ISO-02___
 62
    17
  0
POLYLINE
  5
96F
  8
__
  6
ISO-02___
 62
    17
 66
     1
 10
0.0
 20
0.0
 30
0.0
 70
   129
  0
VERTEX
  5
970
  8
__
  6
ISO-02___
 62
    17
 10
566.9524883753511
 20
-1150.387306171019
 30
0.0
  0
VERTEX
  5
971
  8
__
  6
ISO-02___
 62
    17
 10
586.4524883753511
 20
-1150.387306171019
 30
0.0
  0
VERTEX
  5
972
  8
__
  6
ISO-02___
 62
    17
 10
586.4524883753511
 20
-1168.387306171019
 30
0.0
  0
VERTEX
  5
973
  8
__
  6
ISO-02___
 62
    17
 10
566.9524883753511
 20
-1168.387306171019
 30
0.0
  0
SEQEND
  5
974
  8
__
  6
ISO-02___
 62
    17
  0
DIMENSION
  5
975
  8
__-1
  6
CONTINUOUS
 62
    17
  2
*D107
 10
493.3448423787179
 20
-1150.387306171019
 30
0.0
 11
482.6730758856623
 21
-1159.387306171019
 31
0.0
 70
    32
  3
TOOLBOX
 13
526.7024883753511
 23
-1168.387306171019
 33
0.0
 14
526.7024883753511
 24
-1150.387306171019
 34
0.0
 50
-90.0
  0
LINE
  5
976
  8
__
  6
ISO-10______
 62
    17
 10
2360.910370793686
 20
-2991.966565296873
 30
0.0
 11
3593.820155937914
 21
-2991.966565296873
 31
0.0
  0
POLYLINE
  5
977
  8
__
  6
CONTINUOUS
 62
     1
 66
     1
 10
0.0
 20
0.0
 30
0.0
 70
   129
  0
VERTEX
  5
978
  8
__
  6
CONTINUOUS
 62
     1
 10
2423.246574637113
 20
-3126.966565296873
 30
0.0
  0
VERTEX
  5
979
  8
__
  6
CONTINUOUS
 62
     1
 10
2423.246574637113
 20
-2826.966565296873
 30
0.0
  0
VERTEX
  5
97A
  8
__
  6
CONTINUOUS
 62
     1
 10
2441.246574637113
 20
-2826.966565296873
 30
0.0
  0
VERTEX
  5
97B
  8
__
  6
CONTINUOUS
 62
     1
 10
2441.246574637113
 20
-3126.966565296873
 30
0.0
  0
SEQEND
  5
97C
  8
__
  6
CONTINUOUS
 62
     1
  0
POLYLINE
  5
97D
  8
__
  6
ISO-02___
 62
     1
 66
     1
 10
0.0
 20
0.0
 30
0.0
 70
   129
  0
VERTEX
  5
97E
  8
__
  6
ISO-02___
 62
     1
 10
2433.246574637113
 20
-2995.216565296873
 30
0.0
  0
VERTEX
  5
97F
  8
__
  6
ISO-02___
 62
     1
 10
2433.246574637113
 20
-2988.716565296873
 30
0.0
  0
VERTEX
  5
980
  8
__
  6
ISO-02___
 62
     1
 10
2441.246574637113
 20
-2988.716565296873
 30
0.0
  0
VERTEX
  5
981
  8
__
  6
ISO-02___
 62
     1
 10
2441.246574637113
 20
-2995.216565296873
 30
0.0
  0
SEQEND
  5
982
  8
__
  6
ISO-02___
 62
     1
  0
DIMENSION
  5
983
  8
__-1
  6
CONTINUOUS
 62
    17
  2
*D108
 10
2423.246574637113
 20
-3166.780964578459
 30
0.0
 11
2432.281764891424
 21
-3166.780964578459
 31
0.0
 70
   160
  3
TOOLBOX
 13
2441.246574637113
 23
-3126.966565296873
 33
0.0
 14
2423.246574637113
 24
-3126.966565296873
 34
0.0
  0
DIMENSION
  5
984
  8
__-1
  6
CONTINUOUS
 62
    17
  2
*D109
 10
2388.890182024242
 20
-2826.966565296872
 30
0.0
 11
2378.218415531187
 21
-2909.466565296872
 31
0.0
 70
    32
  3
TOOLBOX
 13
2423.246574637113
 23
-2991.966565296873
 33
0.0
 14
2423.246574637113
 24
-2826.966565296872
 34
0.0
 50
-90.0
  0
DIMENSION
  5
985
  8
__-1
  6
CONTINUOUS
 62
    17
  2
*D110
 10
2433.246574637113
 20
-2960.701230957459
 30
0.0
 11
2455.19405275488
 21
-2960.701230957459
 31
0.0
 70
   160
  3
TOOLBOX
 13
2441.246574637113
 23
-2988.716565296873
 33
0.0
 14
2433.246574637113
 24
-2988.716565296873
 34
0.0
  0
LINE
  5
988
  8
__
  6
ISO-10______
 62
    17
 10
2412.009034048565
 20
-1620.235356787973
 30
0.0
 11
4026.171329247519
 21
-1620.235356787973
 31
0.0
  0
POLYLINE
  5
989
  8
__
  6
CONTINUOUS
 62
     1
 66
     1
 10
0.0
 20
0.0
 30
0.0
 70
   129
  0
VERTEX
  5
98A
  8
__
  6
CONTINUOUS
 62
     1
 10
2429.639213778139
 20
-1903.235356787973
 30
0.0
  0
VERTEX
  5
98B
  8
__
  6
CONTINUOUS
 62
     1
 10
2429.639213778139
 20
-1353.235356787973
 30
0.0
  0
VERTEX
  5
98C
  8
__
  6
CONTINUOUS
 62
     1
 10
2447.639213778139
 20
-1353.235356787973
 30
0.0
  0
VERTEX
  5
98D
  8
__
  6
CONTINUOUS
 62
     1
 10
2447.639213778139
 20
-1903.235356787973
 30
0.0
  0
SEQEND
  5
98E
  8
__
  6
CONTINUOUS
 62
     1
  0
DIMENSION
  5
98F
  8
__-1
  6
CONTINUOUS
 62
    17
  2
*D111
 10
2429.639213778139
 20
-1976.102023454639
 30
0.0
 11
2438.639213778139
 21
-1965.430256961584
 31
0.0
 70
    32
  3
TOOLBOX
 13
2447.639213778139
 23
-1903.235356787973
 33
0.0
 14
2429.639213778139
 24
-1903.235356787973
 34
0.0
  0
DIMENSION
  5
990
  8
__-1
  6
CONTINUOUS
 62
    17
  2
*D112
 10
2394.579396328964
 20
-1353.235356787973
 30
0.0
 11
2383.907629835908
 21
-1628.235356787973
 31
0.0
 70
    32
  3
TOOLBOX
 13
2429.639213778139
 23
-1903.235356787973
 33
0.0
 14
2429.639213778139
 24
-1353.235356787973
 34
0.0
 50
-90.0
  0
POLYLINE
  5
991
  8
__
  6
ISO-02___
 62
    17
 66
     1
 10
0.0
 20
0.0
 30
0.0
 70
   129
  0
VERTEX
  5
992
  8
__
  6
ISO-02___
 62
    17
 10
2433.639213778139
 20
-1617.735356787973
 30
0.0
  0
VERTEX
  5
993
  8
__
  6
ISO-02___
 62
    17
 10
2447.639213778139
 20
-1617.735356787973
 30
0.0
  0
VERTEX
  5
994
  8
__
  6
ISO-02___
 62
    17
 10
2447.639213778139
 20
-1622.735356787973
 30
0.0
  0
VERTEX
  5
995
  8
__
  6
ISO-02___
 62
    17
 10
2433.639213778139
 20
-1622.735356787973
 30
0.0
  0
SEQEND
  5
996
  8
__
  6
ISO-02___
 62
    17
  0
POLYLINE
  5
997
  8
__
  6
CONTINUOUS
 62
     1
 66
     1
 10
0.0
 20
0.0
 30
0.0
 70
   129
  0
VERTEX
  5
998
  8
__
  6
CONTINUOUS
 62
     1
 10
2642.545265288577
 20
729.4745624249276
 30
0.0
  0
VERTEX
  5
999
  8
__
  6
CONTINUOUS
 62
     1
 10
3274.545265288577
 20
729.4745624249276
 30
0.0
  0
VERTEX
  5
99A
  8
__
  6
CONTINUOUS
 62
     1
 10
3274.545265288577
 20
479.4745624249276
 30
0.0
  0
VERTEX
  5
99B
  8
__
  6
CONTINUOUS
 62
     1
 10
2642.545265288577
 20
479.4745624249276
 30
0.0
  0
SEQEND
  5
99C
  8
__
  6
CONTINUOUS
 62
     1
  0
POLYLINE
  5
99D
  8
__
  6
ISO-02___
 62
    17
 66
     1
 10
0.0
 20
0.0
 30
0.0
 70
   129
  0
VERTEX
  5
99E
  8
__
  6
ISO-02___
 62
    17
 10
2649.545265288577
 20
480.4745624249276
 30
0.0
  0
VERTEX
  5
99F
  8
__
  6
ISO-02___
 62
    17
 10
2649.545265288577
 20
761.4745624249276
 30
0.0
  0
VERTEX
  5
9A0
  8
__
  6
ISO-02___
 62
    17
 10
2667.545265288577
 20
761.4745624249276
 30
0.0
  0
VERTEX
  5
9A1
  8
__
  6
ISO-02___
 62
    17
 10
2667.545265288577
 20
480.4745624249276
 30
0.0
  0
SEQEND
  5
9A2
  8
__
  6
ISO-02___
 62
    17
  0
POLYLINE
  5
9A3
  8
__
  6
ISO-02___
 62
    17
 66
     1
 10
0.0
 20
0.0
 30
0.0
 70
   129
  0
VERTEX
  5
9A4
  8
__
  6
ISO-02___
 62
    17
 10
3249.545265288577
 20
480.4745624249276
 30
0.0
  0
VERTEX
  5
9A5
  8
__
  6
ISO-02___
 62
    17
 10
3249.545265288577
 20
761.4745624249276
 30
0.0
  0
VERTEX
  5
9A6
  8
__
  6
ISO-02___
 62
    17
 10
3267.545265288577
 20
761.4745624249276
 30
0.0
  0
VERTEX
  5
9A7
  8
__
  6
ISO-02___
 62
    17
 10
3267.545265288577
 20
480.4745624249276
 30
0.0
  0
SEQEND
  5
9A8
  8
__
  6
ISO-02___
 62
    17
  0
POLYLINE
  5
9A9
  8
__
  6
CONTINUOUS
 62
     1
 66
     1
 10
0.0
 20
0.0
 30
0.0
 70
   129
  0
VERTEX
  5
9AA
  8
__
  6
CONTINUOUS
 62
     1
 10
2649.545265288577
 20
729.4745624249277
 30
0.0
  0
VERTEX
  5
9AB
  8
__
  6
CONTINUOUS
 62
     1
 10
2649.545265288577
 20
761.4745624249277
 30
0.0
  0
VERTEX
  5
9AC
  8
__
  6
CONTINUOUS
 62
     1
 10
2667.545265288577
 20
761.4745624249277
 30
0.0
  0
VERTEX
  5
9AD
  8
__
  6
CONTINUOUS
 62
     1
 10
2667.545265288577
 20
729.4745624249277
 30
0.0
  0
SEQEND
  5
9AE
  8
__
  6
CONTINUOUS
 62
     1
  0
POLYLINE
  5
9AF
  8
__
  6
ISO-02___
 62
    17
 66
     1
 10
0.0
 20
0.0
 30
0.0
 70
   129
  0
VERTEX
  5
9B0
  8
__
  6
ISO-02___
 62
    17
 10
2667.545265288577
 20
714.4745624249277
 30
0.0
  0
VERTEX
  5
9B1
  8
__
  6
ISO-02___
 62
    17
 10
3249.545265288577
 20
714.4745624249277
 30
0.0
  0
VERTEX
  5
9B2
  8
__
  6
ISO-02___
 62
    17
 10
3249.545265288577
 20
708.4745624249277
 30
0.0
  0
VERTEX
  5
9B3
  8
__
  6
ISO-02___
 62
    17
 10
2667.545265288577
 20
708.4745624249277
 30
0.0
  0
SEQEND
  5
9B4
  8
__
  6
ISO-02___
 62
    17
  0
POLYLINE
  5
9B5
  8
__
  6
CONTINUOUS
 62
     1
 66
     1
 10
0.0
 20
0.0
 30
0.0
 70
   129
  0
VERTEX
  5
9B6
  8
__
  6
CONTINUOUS
 62
     1
 10
3249.545265288577
 20
729.4745624249277
 30
0.0
  0
VERTEX
  5
9B7
  8
__
  6
CONTINUOUS
 62
     1
 10
3249.545265288577
 20
761.4745624249277
 30
0.0
  0
VERTEX
  5
9B8
  8
__
  6
CONTINUOUS
 62
     1
 10
3267.545265288577
 20
761.4745624249277
 30
0.0
  0
VERTEX
  5
9B9
  8
__
  6
CONTINUOUS
 62
     1
 10
3267.545265288577
 20
729.4745624249277
 30
0.0
  0
SEQEND
  5
9BA
  8
__
  6
CONTINUOUS
 62
     1
  0
DIMENSION
  5
9BB
  8
__-1
  6
CONTINUOUS
 62
    17
  2
*D113
 10
2713.756487042379
 20
761.4745624249277
 30
0.0
 11
2703.084720549324
 21
620.9745624249276
 31
0.0
 70
    32
  3
TOOLBOX
 13
2667.545265288577
 23
480.4745624249276
 33
0.0
 14
2667.545265288577
 24
761.4745624249277
 34
0.0
 50
-90.0
  0
DIMENSION
  5
9BC
  8
__-1
  6
CONTINUOUS
 62
    17
  2
*D114
 10
2700.673153709046
 20
480.4745624249276
 30
0.0
 11
2700.673153709046
 21
463.3102568186162
 31
0.0
 70
   160
  3
TOOLBOX
 13
2667.545265288577
 23
479.4745624249276
 33
0.0
 14
2667.545265288577
 24
480.4745624249276
 34
0.0
 50
-90.0
  0
DIMENSION
  5
9BE
  8
__-1
  6
CONTINUOUS
 62
    17
  2
*D115
 10
2601.745265288577
 20
729.4745624249277
 30
0.0
 11
2591.073498795521
 21
721.9745624249277
 31
0.0
 70
    32
  3
TOOLBOX
 13
2667.545265288577
 23
714.4745624249277
 33
0.0
 14
2642.545265288577
 24
729.4745624249277
 34
0.0
 50
-90.0
  0
DIMENSION
  5
9C0
  8
__-1
  6
CONTINUOUS
 62
    17
  2
*D116
 10
2601.745265288577
 20
714.4745624249277
 30
0.0
 11
2591.073498795521
 21
711.4745624249277
 31
0.0
 70
    32
  3
TOOLBOX
 13
2667.545265288577
 23
708.4745624249277
 33
0.0
 14
2667.545265288577
 24
714.4745624249277
 34
0.0
 50
-90.0
  0
DIMENSION
  5
9C1
  8
__-1
  6
CONTINUOUS
 62
    17
  2
*D117
 10
2601.745265288577
 20
708.4745624249277
 30
0.0
 11
2591.073498795521
 21
593.9745624249276
 31
0.0
 70
    32
  3
TOOLBOX
 13
2642.545265288577
 23
479.4745624249276
 33
0.0
 14
2667.545265288577
 24
708.4745624249277
 34
0.0
 50
-90.0
  0
POLYLINE
  5
9C2
  8
__
  6
CONTINUOUS
 62
     1
 66
     1
 10
0.0
 20
0.0
 30
0.0
 70
   129
  0
VERTEX
  5
9C3
  8
__
  6
CONTINUOUS
 62
     1
 10
-73.0
 20
-1404.027521981239
 30
0.0
  0
VERTEX
  5
9C4
  8
__
  6
CONTINUOUS
 62
     1
 10
861.0
 20
-1404.027521981239
 30
0.0
  0
VERTEX
  5
9C5
  8
__
  6
CONTINUOUS
 62
     1
 10
861.0
 20
-1423.027521981239
 30
0.0
  0
VERTEX
  5
9C6
  8
__
  6
CONTINUOUS
 62
     1
 10
-73.0
 20
-1423.027521981239
 30
0.0
  0
SEQEND
  5
9C7
  8
__
  6
CONTINUOUS
 62
     1
  0
DIMENSION
  5
9C8
  8
__-1
  6
CONTINUOUS
 62
    17
  2
*D118
 10
-125.9349234459826
 20
-1404.027521981239
 30
0.0
 11
-125.9349234459826
 21
-1409.863698741523
 31
0.0
 70
   160
  3
TOOLBOX
 13
-73.0
 23
-1423.027521981239
 33
0.0
 14
-72.99999999999997
 24
-1404.027521981239
 34
0.0
 50
-90.0
  0
DIMENSION
  5
9C9
  8
__-1
  6
CONTINUOUS
 62
    17
  2
*D119
 10
-73.0
 20
-1392.5
 30
0.0
 11
394.0
 21
-1381.828233506944
 31
0.0
 70
    32
  3
TOOLBOX
 13
861.0
 23
-1423.027521981239
 33
0.0
 14
-73.0
 24
-1423.027521981239
 34
0.0
  0
TEXT
  5
9CA
  8
__
 62
     1
 10
2577.546832652376
 20
-2294.666092448187
 30
0.0
 40
10.89568865740741
  1
W900 D300棚板　ラワン合板 ウレタン着色仕上げ（3分ツヤ）
  7
YUGOTHIC_BOLD
 11
2577.546832652376
 21
-2283.77040379078
 31
0.0
 73
     3
  0
TEXT
  5
9CB
  8
__
 62
     1
 10
2582.061048965059
 20
-2759.987334777862
 30
0.0
 40
10.89568865740741
  1
W900 D300棚板　ラワン合板 ウレタン着色仕上げ（3分ツヤ）
  7
YUGOTHIC_BOLD
 11
2582.061048965059
 21
-2749.091646120454
 31
0.0
 73
     3
  0
TEXT
  5
9CC
  8
__
 62
     1
 10
2643.545265288577
 20
791.5038112850367
 30
0.0
 40
10.89568865740741
  1
W600 ボックス　ラワン合板 ウレタン着色仕上げ（3分ツヤ）
  7
YUGOTHIC_BOLD
 11
2643.545265288577
 21
802.3994999424441
 31
0.0
 73
     3
  0
TEXT
  5
9CD
  8
__
 62
     1
 10
1325.536826701943
 20
-319.7933333333337
 30
0.0
 40
16.34353298611111
  1
棚柱L900　ラワン合板 ウレタン着色仕上げ（3分ツヤ）
  7
YUGOTHIC_BOLD
 11
1325.536826701943
 21
-303.4498003472227
 31
0.0
 73
     3
  0
TEXT
  5
9CE
  8
__
 62
     1
 10
389.982054093104
 20
-526.9221574330792
 30
0.0
 40
12.25764973958333
  1
デスク用ブラケット　ラワン合板 ウレタン着色仕上げ（3分ツヤ）
  7
YUGOTHIC_BOLD
 11
389.982054093104
 21
-514.6645076934958
 31
0.0
 73
     3
  0
TEXT
  5
9CF
  8
__
 62
     1
 10
405.3808234717661
 20
-841.218987188764
 30
0.0
 40
12.25764973958333
  1
棚板用ブラケット　ラワン合板 ウレタン着色仕上げ（3分ツヤ）
  7
YUGOTHIC_BOLD
 11
405.3808234717661
 21
-828.9613374491806
 31
0.0
 73
     3
  0
TEXT
  5
9D0
  8
__
 62
     1
 10
389.5058234717661
 20
-1113.078885358839
 30
0.0
 40
12.25764973958333
  1
パイプ用ブラケット　ラワン合板 ウレタン着色仕上げ（3分ツヤ）
  7
YUGOTHIC_BOLD
 11
389.5058234717661
 21
-1100.821235619256
 31
0.0
 73
     3
  0
TEXT
  5
9D1
  8
__
 62
     1
 10
745.5344794776256
 20
-1380.534829948801
 30
0.0
 40
12.25764973958333
  1
パイプφ19 真鍮
  7
YUGOTHIC_BOLD
 11
745.5344794776256
 21
-1368.277180209218
 31
0.0
 73
     3
  0
DIMENSION
  5
9D2
  8
__-1
  6
CONTINUOUS
 62
    17
  2
*D120
 10
819.9152961485943
 20
-1009.54560402269
 30
0.0
 11
809.2435296555386
 21
-1019.54560402269
 31
0.0
 70
    32
  3
TOOLBOX
 13
844.7024883753511
 23
-1029.54560402269
 33
0.0
 14
844.7024883753511
 24
-1009.54560402269
 34
0.0
 50
-90.0
  0
POLYLINE
  5
9D3
  8
__
  6
ISO-02___
 62
    17
 66
     1
 10
0.0
 20
0.0
 30
0.0
 70
   129
  0
VERTEX
  5
9D4
  8
__
  6
ISO-02___
 62
    17
 10
3223.916666666667
 20
-436.0666666666666
 30
0.0
  0
VERTEX
  5
9D5
  8
__
  6
ISO-02___
 62
    17
 10
3241.916666666667
 20
-436.0666666666666
 30
0.0
  0
VERTEX
  5
9D6
  8
__
  6
ISO-02___
 62
    17
 10
3241.916666666667
 20
-968.0666666666666
 30
0.0
  0
VERTEX
  5
9D7
  8
__
  6
ISO-02___
 62
    17
 10
3223.916666666667
 20
-968.0666666666666
 30
0.0
  0
SEQEND
  5
9D8
  8
__
  6
ISO-02___
 62
    17
  0
POLYLINE
  5
9D9
  8
__
  6
ISO-02___
 62
    17
 66
     1
 10
0.0
 20
0.0
 30
0.0
 70
   129
  0
VERTEX
  5
9DA
  8
__
  6
ISO-02___
 62
    17
 10
2583.416666666667
 20
-2325.361632446331
 30
0.0
  0
VERTEX
  5
9DB
  8
__
  6
ISO-02___
 62
    17
 10
2598.416666666667
 20
-2325.361632446331
 30
0.0
  0
VERTEX
  5
9DC
  8
__
  6
ISO-02___
 62
    17
 10
2598.416666666667
 20
-2375.361632446331
 30
0.0
  0
VERTEX
  5
9DD
  8
__
  6
ISO-02___
 62
    17
 10
2583.416666666667
 20
-2375.361632446331
 30
0.0
  0
SEQEND
  5
9DE
  8
__
  6
ISO-02___
 62
    17
  0
POLYLINE
  5
9DF
  8
__
  6
ISO-02___
 62
    17
 66
     1
 10
0.0
 20
0.0
 30
0.0
 70
   129
  0
VERTEX
  5
9E0
  8
__
  6
ISO-02___
 62
    17
 10
2598.416666666667
 20
-2325.361632446331
 30
0.0
  0
VERTEX
  5
9E1
  8
__
  6
ISO-02___
 62
    17
 10
2616.416666666667
 20
-2325.361632446331
 30
0.0
  0
VERTEX
  5
9E2
  8
__
  6
ISO-02___
 62
    17
 10
2616.416666666667
 20
-2343.361632446331
 30
0.0
  0
VERTEX
  5
9E3
  8
__
  6
ISO-02___
 62
    17
 10
2598.416666666667
 20
-2343.361632446331
 30
0.0
  0
SEQEND
  5
9E4
  8
__
  6
ISO-02___
 62
    17
  0
POLYLINE
  5
9E5
  8
__
  6
ISO-02___
 62
    17
 66
     1
 10
0.0
 20
0.0
 30
0.0
 70
   129
  0
VERTEX
  5
9E6
  8
__
  6
ISO-02___
 62
    17
 10
2616.416666666667
 20
-2325.361632446331
 30
0.0
  0
VERTEX
  5
9E7
  8
__
  6
ISO-02___
 62
    17
 10
2631.416666666667
 20
-2325.361632446331
 30
0.0
  0
VERTEX
  5
9E8
  8
__
  6
ISO-02___
 62
    17
 10
2631.416666666667
 20
-2375.361632446331
 30
0.0
  0
VERTEX
  5
9E9
  8
__
  6
ISO-02___
 62
    17
 10
2616.416666666667
 20
-2375.361632446331
 30
0.0
  0
SEQEND
  5
9EA
  8
__
  6
ISO-02___
 62
    17
  0
POLYLINE
  5
9EB
  8
__
  6
CONTINUOUS
 62
    17
 66
     1
 10
0.0
 20
0.0
 30
0.0
 70
   129
  0
VERTEX
  5
9EC
  8
__
  6
CONTINUOUS
 62
    17
 10
2583.416666666667
 20
-2791.966565296873
 30
0.0
  0
VERTEX
  5
9ED
  8
__
  6
CONTINUOUS
 62
    17
 10
2598.416666666667
 20
-2791.966565296873
 30
0.0
  0
VERTEX
  5
9EE
  8
__
  6
CONTINUOUS
 62
    17
 10
2598.416666666667
 20
-2841.966565296873
 30
0.0
  0
VERTEX
  5
9EF
  8
__
  6
CONTINUOUS
 62
    17
 10
2583.416666666667
 20
-2841.966565296873
 30
0.0
  0
SEQEND
  5
9F0
  8
__
  6
CONTINUOUS
 62
    17
  0
POLYLINE
  5
9F1
  8
__
  6
CONTINUOUS
 62
    17
 66
     1
 10
0.0
 20
0.0
 30
0.0
 70
   129
  0
VERTEX
  5
9F2
  8
__
  6
CONTINUOUS
 62
    17
 10
2598.416666666667
 20
-2791.966565296873
 30
0.0
  0
VERTEX
  5
9F3
  8
__
  6
CONTINUOUS
 62
    17
 10
2616.416666666667
 20
-2791.966565296873
 30
0.0
  0
VERTEX
  5
9F4
  8
__
  6
CONTINUOUS
 62
    17
 10
2616.416666666667
 20
-2809.966565296873
 30
0.0
  0
VERTEX
  5
9F5
  8
__
  6
CONTINUOUS
 62
    17
 10
2598.416666666667
 20
-2809.966565296873
 30
0.0
  0
SEQEND
  5
9F6
  8
__
  6
CONTINUOUS
 62
    17
  0
POLYLINE
  5
9F7
  8
__
  6
CONTINUOUS
 62
    17
 66
     1
 10
0.0
 20
0.0
 30
0.0
 70
   129
  0
VERTEX
  5
9F8
  8
__
  6
CONTINUOUS
 62
    17
 10
2616.416666666667
 20
-2791.966565296873
 30
0.0
  0
VERTEX
  5
9F9
  8
__
  6
CONTINUOUS
 62
    17
 10
2631.416666666667
 20
-2791.966565296873
 30
0.0
  0
VERTEX
  5
9FA
  8
__
  6
CONTINUOUS
 62
    17
 10
2631.416666666667
 20
-2841.966565296873
 30
0.0
  0
VERTEX
  5
9FB
  8
__
  6
CONTINUOUS
 62
    17
 10
2616.416666666667
 20
-2841.966565296873
 30
0.0
  0
SEQEND
  5
9FC
  8
__
  6
CONTINUOUS
 62
    17
  0
POLYLINE
  5
9FD
  8
__
  6
ISO-02___
 62
    17
 66
     1
 10
0.0
 20
0.0
 30
0.0
 70
   129
  0
VERTEX
  5
9FE
  8
__
  6
ISO-02___
 62
    17
 10
3516.416666666667
 20
-2325.361632446331
 30
0.0
  0
VERTEX
  5
9FF
  8
__
  6
ISO-02___
 62
    17
 10
3531.416666666667
 20
-2325.361632446331
 30
0.0
  0
VERTEX
  5
A00
  8
__
  6
ISO-02___
 62
    17
 10
3531.416666666667
 20
-2375.361632446331
 30
0.0
  0
VERTEX
  5
A01
  8
__
  6
ISO-02___
 62
    17
 10
3516.416666666667
 20
-2375.361632446331
 30
0.0
  0
SEQEND
  5
A02
  8
__
  6
ISO-02___
 62
    17
  0
POLYLINE
  5
A03
  8
__
  6
ISO-02___
 62
    17
 66
     1
 10
0.0
 20
0.0
 30
0.0
 70
   129
  0
VERTEX
  5
A04
  8
__
  6
ISO-02___
 62
    17
 10
3498.416666666667
 20
-2325.361632446331
 30
0.0
  0
VERTEX
  5
A05
  8
__
  6
ISO-02___
 62
    17
 10
3516.416666666667
 20
-2325.361632446331
 30
0.0
  0
VERTEX
  5
A06
  8
__
  6
ISO-02___
 62
    17
 10
3516.416666666667
 20
-2343.361632446331
 30
0.0
  0
VERTEX
  5
A07
  8
__
  6
ISO-02___
 62
    17
 10
3498.416666666667
 20
-2343.361632446331
 30
0.0
  0
SEQEND
  5
A08
  8
__
  6
ISO-02___
 62
    17
  0
POLYLINE
  5
A09
  8
__
  6
ISO-02___
 62
    17
 66
     1
 10
0.0
 20
0.0
 30
0.0
 70
   129
  0
VERTEX
  5
A0A
  8
__
  6
ISO-02___
 62
    17
 10
3483.416666666667
 20
-2325.361632446331
 30
0.0
  0
VERTEX
  5
A0B
  8
__
  6
ISO-02___
 62
    17
 10
3498.416666666667
 20
-2325.361632446331
 30
0.0
  0
VERTEX
  5
A0C
  8
__
  6
ISO-02___
 62
    17
 10
3498.416666666667
 20
-2375.361632446331
 30
0.0
  0
VERTEX
  5
A0D
  8
__
  6
ISO-02___
 62
    17
 10
3483.416666666667
 20
-2375.361632446331
 30
0.0
  0
SEQEND
  5
A0E
  8
__
  6
ISO-02___
 62
    17
  0
DIMENSION
  5
A0F
  8
__-1
  6
CONTINUOUS
 62
    17
  2
*D121
 10
2631.916666666667
 20
-2333.889348712036
 30
0.0
 11
3057.416666666667
 21
-2323.217582218981
 31
0.0
 70
    32
  3
TOOLBOX
 13
3482.916666666667
 23
-2360.361632446331
 33
0.0
 14
2631.916666666667
 24
-2360.361632446331
 34
0.0
  0
DIMENSION
  5
A10
  8
__-1
  6
CONTINUOUS
 62
    17
  2
*D122
 10
2568.563301859436
 20
-2360.361632446331
 30
0.0
 11
2557.891535366381
 21
-2367.861632446331
 31
0.0
 70
    32
  3
TOOLBOX
 13
2631.416666666667
 23
-2375.361632446331
 33
0.0
 14
2631.916666666667
 24
-2360.361632446331
 34
0.0
 50
-90.0
  0
LINE
  5
A12
  8
__
  6
CONTINUOUS
 62
     1
 10
2438.246574637113
 20
-2375.361632446331
 30
0.0
 11
2423.246574637113
 21
-2375.361632446331
 31
0.0
  0
POLYLINE
  5
A13
  8
__
  6
CONTINUOUS
 62
    17
 66
     1
 10
0.0
 20
0.0
 30
0.0
 70
   129
  0
VERTEX
  5
A14
  8
__
  6
CONTINUOUS
 62
    17
 10
3216.416666666667
 20
-2791.966565296873
 30
0.0
  0
VERTEX
  5
A15
  8
__
  6
CONTINUOUS
 62
    17
 10
3231.416666666667
 20
-2791.966565296873
 30
0.0
  0
VERTEX
  5
A16
  8
__
  6
CONTINUOUS
 62
    17
 10
3231.416666666667
 20
-2841.966565296873
 30
0.0
  0
VERTEX
  5
A17
  8
__
  6
CONTINUOUS
 62
    17
 10
3216.416666666667
 20
-2841.966565296873
 30
0.0
  0
SEQEND
  5
A18
  8
__
  6
CONTINUOUS
 62
    17
  0
POLYLINE
  5
A19
  8
__
  6
CONTINUOUS
 62
    17
 66
     1
 10
0.0
 20
0.0
 30
0.0
 70
   129
  0
VERTEX
  5
A1A
  8
__
  6
CONTINUOUS
 62
    17
 10
3198.416666666667
 20
-2791.966565296873
 30
0.0
  0
VERTEX
  5
A1B
  8
__
  6
CONTINUOUS
 62
    17
 10
3216.416666666667
 20
-2791.966565296873
 30
0.0
  0
VERTEX
  5
A1C
  8
__
  6
CONTINUOUS
 62
    17
 10
3216.416666666667
 20
-2809.966565296873
 30
0.0
  0
VERTEX
  5
A1D
  8
__
  6
CONTINUOUS
 62
    17
 10
3198.416666666667
 20
-2809.966565296873
 30
0.0
  0
SEQEND
  5
A1E
  8
__
  6
CONTINUOUS
 62
    17
  0
POLYLINE
  5
A1F
  8
__
  6
CONTINUOUS
 62
    17
 66
     1
 10
0.0
 20
0.0
 30
0.0
 70
   129
  0
VERTEX
  5
A20
  8
__
  6
CONTINUOUS
 62
    17
 10
3183.416666666667
 20
-2791.966565296873
 30
0.0
  0
VERTEX
  5
A21
  8
__
  6
CONTINUOUS
 62
    17
 10
3198.416666666667
 20
-2791.966565296873
 30
0.0
  0
VERTEX
  5
A22
  8
__
  6
CONTINUOUS
 62
    17
 10
3198.416666666667
 20
-2841.966565296873
 30
0.0
  0
VERTEX
  5
A23
  8
__
  6
CONTINUOUS
 62
    17
 10
3183.416666666667
 20
-2841.966565296873
 30
0.0
  0
SEQEND
  5
A24
  8
__
  6
CONTINUOUS
 62
    17
  0
DIMENSION
  5
A25
  8
__-1
  6
CONTINUOUS
 62
    17
  2
*D123
 10
2568.440152490164
 20
-2826.966565296872
 30
0.0
 11
2557.768385997108
 21
-2834.466565296872
 31
0.0
 70
    32
  3
TOOLBOX
 13
2631.416666666667
 23
-2841.966565296873
 33
0.0
 14
2631.916666666667
 24
-2826.966565296872
 34
0.0
 50
-90.0
  0
DIMENSION
  5
A27
  8
__-1
  6
CONTINUOUS
 62
    17
  2
*D124
 10
2607.916666666667
 20
-2879.281619067603
 30
0.0
 11
2619.916666666667
 21
-2868.609852574547
 31
0.0
 70
    32
  3
TOOLBOX
 13
2631.916666666667
 23
-2841.966565296873
 33
0.0
 14
2607.916666666667
 24
-2841.966565296873
 34
0.0
  0
DIMENSION
  5
A2A
  8
__-1
  6
CONTINUOUS
 62
    17
  2
*D125
 10
2607.916666666667
 20
-2415.802537208668
 30
0.0
 11
2619.916666666667
 21
-2405.130770715612
 31
0.0
 70
    32
  3
TOOLBOX
 13
2631.916666666667
 23
-2375.361632446331
 33
0.0
 14
2607.916666666667
 24
-2375.361632446331
 34
0.0
  0
LINE
  5
A2D
  8
__
  6
CONTINUOUS
 62
     1
 10
2423.246574637113
 20
-2841.966565296873
 30
0.0
 11
2438.246574637113
 21
-2841.966565296873
 31
0.0
  0
DIMENSION
  5
A2E
  8
__-1
  6
CONTINUOUS
 62
    17
  2
*D126
 10
2388.890182024242
 20
-3126.966565296873
 30
0.0
 11
2378.218415531187
 21
-3059.466565296873
 31
0.0
 70
    32
  3
TOOLBOX
 13
2423.246574637113
 23
-2991.966565296873
 33
0.0
 14
2438.246574637113
 24
-3126.966565296873
 34
0.0
 50
-90.0
  0
DIMENSION
  5
A2F
  8
__-1
  6
CONTINUOUS
 62
    17
  2
*D127
 10
2631.916666666667
 20
-2808.481619067603
 30
0.0
 11
2907.416666666667
 21
-2797.809852574547
 31
0.0
 70
    32
  3
TOOLBOX
 13
3182.916666666667
 23
-2826.966565296873
 33
0.0
 14
2631.916666666667
 24
-2826.966565296873
 34
0.0
  0
INSERT
  5
A30
  8
__
 62
    17
  2
____-15-1
 10
71.6508246280336
 20
30.37822250166391
 30
0.0
  0
INSERT
  5
A31
  8
__
 62
    17
  2
____-16-1
 10
71.6508246280336
 20
30.37822250166391
 30
0.0
  0
INSERT
  5
A32
  8
__
 62
    17
  2
____-17-1
 10
71.6508246280336
 20
30.37822250166391
 30
0.0
  0
DIMENSION
  5
A33
  8
__-1
  6
CONTINUOUS
 62
    17
  2
*D131
 10
2564.030140027887
 20
-468.0666666666666
 30
0.0
 11
2553.358373534831
 21
-495.5666666666666
 31
0.0
 70
    32
  3
TOOLBOX
 13
2607.916666666667
 23
-523.0666666666666
 33
0.0
 14
2623.916666666667
 24
-468.0666666666666
 34
0.0
 50
-90.0
  0
CIRCLE
  5
A34
  8
__
  6
CONTINUOUS
 62
     1
 10
2632.916666666667
 20
-523.0666666666666
 30
0.0
 40
2.500000000000019
  0
LINE
  5
A35
  8
__
  6
CONTINUOUS
 62
    17
 10
2677.808839142438
 20
-643.4694291260258
 30
0.0
 11
2632.916666666667
 21
-520.0666666666666
 31
0.0
  0
CIRCLE
  5
A36
  8
__
  6
CONTINUOUS
 62
     1
 10
3232.916666666667
 20
-523.0666666666666
 30
0.0
 40
2.500000000000019
  0
CIRCLE
  5
A37
  8
__
  6
CONTINUOUS
 62
     1
 10
3832.916666666667
 20
-523.0666666666666
 30
0.0
 40
2.500000000000019
  0
DIMENSION
  5
A38
  8
__-1
  6
CONTINUOUS
 62
    17
  2
*D132
 10
2563.060750484466
 20
-1345.235356787973
 30
0.0
 11
2552.38898399141
 21
-1372.735356787973
 31
0.0
 70
    32
  3
TOOLBOX
 13
2607.916666666667
 23
-1400.235356787973
 33
0.0
 14
2607.916666666667
 24
-1345.235356787973
 34
0.0
 50
-90.0
  0
LINE
  5
A39
  8
__
  6
ISO-10______
 62
    17
 10
2398.854565122221
 20
-523.0666666666666
 30
0.0
 11
4013.016860321175
 21
-523.0666666666666
 31
0.0
  0
CIRCLE
  5
A3A
  8
__
  6
CONTINUOUS
 62
     1
 10
2632.916666666667
 20
-1400.235356787973
 30
0.0
 40
2.500000000000425
  0
CIRCLE
  5
A3B
  8
__
  6
CONTINUOUS
 62
     1
 10
3532.916666666667
 20
-1400.235356787973
 30
0.0
 40
2.500000000000425
  0
LINE
  5
A3C
  8
__
  6
ISO-10______
 62
    17
 10
2412.009034048565
 20
-1400.235356787973
 30
0.0
 11
4026.171329247519
 21
-1400.235356787973
 31
0.0
  0
INSERT
  5
A3D
  8
__
 62
    17
  2
CALLOUT-9
 10
-35.60000000000001
 20
-1446.2
 30
0.0
  0
INSERT
  5
A3E
  8
__
 62
    17
  2
____-18-1
 10
71.6508246280336
 20
30.37822250166391
 30
0.0
  0
DIMENSION
  5
A3F
  8
__-1
  6
CONTINUOUS
 62
    17
  2
*D135
 10
861.0
 20
-1467.416666666667
 30
0.0
 11
847.0
 21
-1456.744900173611
 31
0.0
 70
    32
  3
TOOLBOX
 13
833.0
 23
-1421.954729656259
 33
0.0
 14
861.0
 24
-1423.027521981239
 34
0.0
  0
CIRCLE
  5
A42
  8
__
  6
CONTINUOUS
 62
     1
 10
773.7024883753511
 20
-595.6029580856598
 30
0.0
 40
2.250000000000086
  0
POLYLINE
  5
A43
  8
__
  6
ISO-02___
 62
    17
 66
     1
 10
0.0
 20
0.0
 30
0.0
 70
   128
  0
VERTEX
  5
A44
  8
__
  6
ISO-02___
 62
    17
 10
769.4524883753513
 20
-761.513248475774
 30
0.0
  0
VERTEX
  5
A45
  8
__
  6
ISO-02___
 62
    17
 10
769.4524883753513
 20
-711.8046018592327
 30
0.0
  0
VERTEX
  5
A46
  8
__
  6
ISO-02___
 62
    17
 10
771.4524883753509
 20
-711.8046018592327
 30
0.0
  0
VERTEX
  5
A47
  8
__
  6
ISO-02___
 62
    17
 10
771.4524883753509
 20
-691.8046018592327
 30
0.0
  0
VERTEX
  5
A48
  8
__
  6
ISO-02___
 62
    17
 10
775.9524883753511
 20
-691.8046018592327
 30
0.0
  0
VERTEX
  5
A49
  8
__
  6
ISO-02___
 62
    17
 10
775.9524883753511
 20
-711.8046018592327
 30
0.0
  0
VERTEX
  5
A4A
  8
__
  6
ISO-02___
 62
    17
 10
777.9524883753511
 20
-711.8046018592327
 30
0.0
  0
VERTEX
  5
A4B
  8
__
  6
ISO-02___
 62
    17
 10
777.9524883753511
 20
-762.4718950923153
 30
0.0
  0
SEQEND
  5
A4C
  8
__
  6
ISO-02___
 62
    17
  0
LINE
  5
A4D
  8
__
  6
ISO-02___
 62
     1
 10
773.7024883753511
 20
-760.1388031887855
 30
0.0
 11
773.7024883753511
 21
-684.7350906332783
 31
0.0
  0
CIRCLE
  5
A4E
  8
__
  6
ISO-02___
 62
    17
 10
773.7024883753511
 20
-595.6029580856598
 30
0.0
 40
4.250000000000053
  0
DIMENSION
  5
A4F
  8
__-1
  6
CONTINUOUS
 62
    17
  2
*D136
 10
771.4524883753509
 20
-679.7111898162862
 30
0.0
 11
773.702488375351
 21
-669.0394233232306
 31
0.0
 70
    32
  3
TOOLBOX
 13
775.9524883753511
 23
-691.8046018592327
 33
0.0
 14
771.4524883753509
 24
-691.8046018592327
 34
0.0
  0
DIMENSION
  5
A50
  8
__-1
  6
CONTINUOUS
 62
    17
  2
*D137
 10
769.4524883753513
 20
-789.4232664571567
 30
0.0
 11
773.7024883753512
 21
-778.7514999641012
 31
0.0
 70
    32
  3
TOOLBOX
 13
777.9524883753511
 23
-762.4718950923153
 33
0.0
 14
769.4524883753513
 24
-761.513248475774
 34
0.0
  0
LINE
  5
A52
  8
__
  6
ISO-02___
 62
     1
 10
773.7024883753511
 20
-618.3453917375564
 30
0.0
 11
773.7024883753511
 21
-556.0851370438997
 31
0.0
  0
DIMENSION
  5
A53
  8
__-1
  6
CONTINUOUS
 62
    17
  2
*D138
 10
773.7024883753511
 20
-565.3511807218113
 30
0.0
 11
663.7024883753511
 21
-554.6794142287557
 31
0.0
 70
    32
  3
TOOLBOX
 13
553.7024883753511
 23
-587.2152643907281
 33
0.0
 14
773.7024883753511
 24
-586.6029580856598
 34
0.0
  0
LINE
  5
A54
  8
__
  6
CONTINUOUS
 62
    17
 10
2667.916666666667
 20
-1542.235356787973
 30
0.0
 11
2633.514958139078
 21
-1402.662710761756
 31
0.0
  0
INSERT
  5
A55
  8
__
 62
    17
  2
____-19-1
 10
71.6508246280336
 20
30.37822250166391
 30
0.0
  0
INSERT
  5
A56
  8
__
 62
    17
  2
____-20-1
 10
71.6508246280336
 20
30.37822250166391
 30
0.0
  0
DIMENSION
  5
A57
  8
__-1
  6
CONTINUOUS
 62
    17
  2
*D141
 10
2354.546832652376
 20
-2826.966565296873
 30
0.0
 11
2343.87506615932
 21
-2976.966565296873
 31
0.0
 70
    32
  3
TOOLBOX
 13
2423.246574637113
 23
-3126.966565296873
 33
0.0
 14
2423.246574637113
 24
-2826.966565296873
 34
0.0
 50
-90.0
  0
DIMENSION
  5
A58
  8
__-1
  6
CONTINUOUS
 62
    17
  2
*D142
 10
2388.890182024242
 20
-2660.361632446331
 30
0.0
 11
2378.218415531187
 21
-2592.861632446331
 31
0.0
 70
    32
  3
TOOLBOX
 13
2423.246574637113
 23
-2525.361632446331
 33
0.0
 14
2423.246574637113
 24
-2660.361632446331
 34
0.0
 50
-90.0
  0
DIMENSION
  5
A59
  8
__-1
  6
CONTINUOUS
 62
    17
  2
*D143
 10
2354.546832652376
 20
-2360.361632446331
 30
0.0
 11
2343.87506615932
 21
-2510.361632446331
 31
0.0
 70
    32
  3
TOOLBOX
 13
2423.246574637113
 23
-2660.361632446331
 33
0.0
 14
2423.246574637113
 24
-2360.361632446331
 34
0.0
 50
-90.0
  0
INSERT
  5
A5A
  8
__
 62
    17
  2
____-21-1
 10
71.6508246280336
 20
30.37822250166391
 30
0.0
  0
POLYLINE
  5
A5B
  8
__
  6
ISO-07___
 62
    17
 66
     1
 10
0.0
 20
0.0
 30
0.0
 70
   129
  0
VERTEX
  5
A5C
  8
__
  6
ISO-07___
 62
    17
 10
-47.0
 20
-1423.027521981239
 30
0.0
  0
VERTEX
  5
A5D
  8
__
  6
ISO-07___
 62
    17
 10
-43.0
 20
-1423.027521981239
 30
0.0
  0
VERTEX
  5
A5E
  8
__
  6
ISO-07___
 62
    17
 10
-43.0
 20
-1425.66
 30
0.0
  0
VERTEX
  5
A5F
  8
__
  6
ISO-07___
 62
    17
 10
-47.0
 20
-1425.66
 30
0.0
  0
SEQEND
  5
A60
  8
__
  6
ISO-07___
 62
    17
  0
POLYLINE
  5
A61
  8
__
  6
ISO-02___
 62
    17
 66
     1
 10
0.0
 20
0.0
 30
0.0
 70
   129
  0
VERTEX
  5
A62
  8
__
  6
ISO-02___
 62
    17
 10
-47.0
 20
-1422.027521981239
 30
0.0
  0
VERTEX
  5
A63
  8
__
  6
ISO-02___
 62
    17
 10
-43.0
 20
-1422.027521981239
 30
0.0
  0
VERTEX
  5
A64
  8
__
  6
ISO-02___
 62
    17
 10
-43.0
 20
-1423.027521981239
 30
0.0
  0
VERTEX
  5
A65
  8
__
  6
ISO-02___
 62
    17
 10
-47.0
 20
-1423.027521981239
 30
0.0
  0
SEQEND
  5
A66
  8
__
  6
ISO-02___
 62
    17
  0
DIMENSION
  5
A67
  8
__-1
  6
CONTINUOUS
 62
    17
  2
*D145
 10
-45.00000000000006
 20
-1467.416666666667
 30
0.0
 11
-59.00000000000006
 21
-1456.744900173611
 31
0.0
 70
    32
  3
TOOLBOX
 13
-73.00000000000006
 23
-1421.954729656259
 33
0.0
 14
-45.00000000000006
 24
-1423.027521981239
 34
0.0
  0
INSERT
  5
A6A
  8
__
 62
    17
  2
____-22-1
 10
71.6508246280336
 20
30.37822250166391
 30
0.0
  0
POLYLINE
  5
A6B
  8
__
  6
ISO-07___
 62
    17
 66
     1
 10
0.0
 20
0.0
 30
0.0
 70
   129
  0
VERTEX
  5
A6C
  8
__
  6
ISO-07___
 62
    17
 10
831.0
 20
-1423.027521981239
 30
0.0
  0
VERTEX
  5
A6D
  8
__
  6
ISO-07___
 62
    17
 10
835.0
 20
-1423.027521981239
 30
0.0
  0
VERTEX
  5
A6E
  8
__
  6
ISO-07___
 62
    17
 10
835.0
 20
-1425.66
 30
0.0
  0
VERTEX
  5
A6F
  8
__
  6
ISO-07___
 62
    17
 10
831.0
 20
-1425.66
 30
0.0
  0
SEQEND
  5
A70
  8
__
  6
ISO-07___
 62
    17
  0
POLYLINE
  5
A71
  8
__
  6
ISO-02___
 62
    17
 66
     1
 10
0.0
 20
0.0
 30
0.0
 70
   129
  0
VERTEX
  5
A72
  8
__
  6
ISO-02___
 62
    17
 10
831.0
 20
-1422.027521981239
 30
0.0
  0
VERTEX
  5
A73
  8
__
  6
ISO-02___
 62
    17
 10
835.0
 20
-1422.027521981239
 30
0.0
  0
VERTEX
  5
A74
  8
__
  6
ISO-02___
 62
    17
 10
835.0
 20
-1423.027521981239
 30
0.0
  0
VERTEX
  5
A75
  8
__
  6
ISO-02___
 62
    17
 10
831.0
 20
-1423.027521981239
 30
0.0
  0
SEQEND
  5
A76
  8
__
  6
ISO-02___
 62
    17
  0
VIEWPORT
  5
A77
 67
     1
  8
0
 10
128.5
 20
97.5
 30
0.0
 40
314.226
 41
222.18
 68
     1
 69
     1
1001
ACAD
1000
MVIEW
1002
{
1070
    16
1010
0.0
1020
0.0
1030
0.0
1010
0.0
1020
0.0
1030
1.0
1040
0.0
1040
222.18
1040
128.5
1040
97.5
1040
50.0
1040
0.0
1040
0.0
1070
     0
1070
   100
1070
     0
1070
     3
1070
     0
1070
     0
1070
     0
1070
     0
1040
0.0
1040
0.0
1040
0.0
1040
10.0
1040
10.0
1040
10.0
1040
10.0
1070
     0
1002
{
1002
}
1002
}
  0
ENDSEC
  0
EOF
