  0
SECTION
  2
HEADER
  9
$ACADVER
  1
AC1009
  9
$DWGCODEPAGE
  3
dos932
  9
$INSBASE
 10
0.0
 20
0.0
 30
0.0
  9
$EXTMIN
 10
642.7612835393954
 20
-830.7756832250869
 30
0.0
  9
$EXTMAX
 10
1045.689768180592
 20
-355.9891675944514
 30
0.0
  9
$LIMMIN
 10
0.0
 20
0.0
  9
$LIMMAX
 10
12.0
 20
9.0
  9
$ORTHOMODE
 70
     0
  9
$REGENMODE
 70
     1
  9
$FILLMODE
 70
     1
  9
$QTEXTMODE
 70
     0
  9
$MIRRTEXT
 70
     1
  9
$DRAGMODE
 70
     2
  9
$LTSCALE
 40
2.0
  9
$OSMODE
 70
    37
  9
$ATTMODE
 70
     1
  9
$TEXTSIZE
 40
0.2
  9
$TRACEWID
 40
1.0
  9
$TEXTSTYLE
  7
STANDARD
  9
$CLAYER
  8
0_18__
  9
$CELTYPE
  6
BYLAYER
  9
$CECOLOR
 62
   256
  9
$DIMSCALE
 40
1.0
  9
$DIMASZ
 40
0.899169921875
  9
$DIMEXO
 40
2.999999988824129
  9
$DIMDLI
 40
12.0000000026077
  9
$DIMRND
 40
0.0
  9
$DIMDLE
 40
0.0
  9
$DIMEXE
 40
0.0
  9
$DIMTP
 40
0.0
  9
$DIMTM
 40
0.0
  9
$DIMTXT
 40
4.248032407407408
  9
$DIMCEN
 40
0.0
  9
$DIMTSZ
 40
0.0
  9
$DIMTOL
 70
     0
  9
$DIMLIM
 70
     0
  9
$DIMTIH
 70
     0
  9
$DIMTOH
 70
     0
  9
$DIMSE1
 70
     0
  9
$DIMSE2
 70
     0
  9
$DIMTAD
 70
     1
  9
$DIMZIN
 70
     8
  9
$DIMBLK
  1
DOT
  9
$DIMASO
 70
     1
  9
$DIMSHO
 70
     1
  9
$DIMPOST
  1
<>
  9
$DIMAPOST
  1
[]
  9
$DIMALT
 70
     0
  9
$DIMALTD
 70
     0
  9
$DIMALTF
 40
1.0
  9
$DIMLFAC
 40
1.0
  9
$DIMTOFL
 70
     1
  9
$DIMTVP
 40
0.0
  9
$DIMTIX
 70
     1
  9
$DIMSOXD
 70
     0
  9
$DIMSAH
 70
     0
  9
$DIMBLK1
  1
DOT
  9
$DIMBLK2
  1
DOT
  9
$DIMSTYLE
  2
TOOLBOX
  9
$DIMCLRD
 70
     0
  9
$DIMCLRE
 70
     0
  9
$DIMCLRT
 70
     0
  9
$DIMTFAC
 40
0.8
  9
$DIMGAP
 40
0.0199999999254942
  9
$LUNITS
 70
     2
  9
$LUPREC
 70
     2
  9
$SKETCHINC
 40
0.1
  9
$FILLETRAD
 40
0.5
  9
$AUNITS
 70
     0
  9
$AUPREC
 70
     2
  9
$MENU
  1
.
  9
$ELEVATION
 40
0.0
  9
$PELEVATION
 40
0.0
  9
$THICKNESS
 40
0.0
  9
$LIMCHECK
 70
     0
  9
$CHAMFERA
 40
0.0
  9
$CHAMFERB
 40
0.0
  9
$SKPOLY
 70
     0
  9
$TDCREATE
 40
2459836.669373241
  9
$TDUPDATE
 40
2459836.669398357
  9
$TDINDWG
 40
0.0000000116
  9
$TDUSRTIMER
 40
0.0000000116
  9
$USRTIMER
 70
     1
  9
$ANGBASE
 50
0.0
  9
$ANGDIR
 70
     0
  9
$PDMODE
 70
     1
  9
$PDSIZE
 40
-2.0
  9
$PLINEWID
 40
0.0
  9
$COORDS
 70
     1
  9
$SPLFRAME
 70
     0
  9
$SPLINETYPE
 70
     6
  9
$SPLINESEGS
 70
     8
  9
$ATTDIA
 70
     0
  9
$ATTREQ
 70
     1
  9
$HANDLING
 70
     1
  9
$HANDSEED
  5
910
  9
$SURFTAB1
 70
     6
  9
$SURFTAB2
 70
     6
  9
$SURFTYPE
 70
     6
  9
$SURFU
 70
     6
  9
$SURFV
 70
     6
  9
$UCSNAME
  2

  9
$UCSORG
 10
0.0
 20
0.0
 30
0.0
  9
$UCSXDIR
 10
1.0
 20
0.0
 30
0.0
  9
$UCSYDIR
 10
0.0
 20
1.0
 30
0.0
  9
$PUCSNAME
  2

  9
$PUCSORG
 10
0.0
 20
0.0
 30
0.0
  9
$PUCSXDIR
 10
1.0
 20
0.0
 30
0.0
  9
$PUCSYDIR
 10
0.0
 20
1.0
 30
0.0
  9
$USERI1
 70
     0
  9
$USERI2
 70
     0
  9
$USERI3
 70
     0
  9
$USERI4
 70
     0
  9
$USERI5
 70
     0
  9
$USERR1
 40
0.0
  9
$USERR2
 40
0.0
  9
$USERR3
 40
0.0
  9
$USERR4
 40
0.0
  9
$USERR5
 40
0.0
  9
$WORLDVIEW
 70
     1
  9
$SHADEDGE
 70
     3
  9
$SHADEDIF
 70
    70
  9
$TILEMODE
 70
     1
  9
$MAXACTVP
 70
    64
  9
$PLIMCHECK
 70
     0
  9
$PEXTMIN
 10
1.000000000000000E+20
 20
1.000000000000000E+20
 30
1.000000000000000E+20
  9
$PEXTMAX
 10
-1.000000000000000E+20
 20
-1.000000000000000E+20
 30
-1.000000000000000E+20
  9
$PLIMMIN
 10
-20.0
 20
-7.5
  9
$PLIMMAX
 10
277.0
 20
202.5
  9
$UNITMODE
 70
     0
  9
$VISRETAIN
 70
     1
  9
$PLINEGEN
 70
     0
  9
$PSLTSCALE
 70
     1
  0
ENDSEC
  0
SECTION
  2
TABLES
  0
TABLE
  2
VPORT
 70
     1
  0
VPORT
  2
*ACTIVE
 70
     0
 10
0.0
 20
0.0
 11
1.0
 21
1.0
 12
844.2255258599936
 22
-593.3824254097692
 13
0.0
 23
0.0
 14
0.5
 24
0.5
 15
0.5
 25
0.5
 16
0.0
 26
0.0
 36
1.0
 17
0.0
 27
0.0
 37
0.0
 40
474.7865156306356
 41
0.8486519127570551
 42
2000.0
 43
0.0
 44
0.0
 50
0.0
 51
0.0
 71
     0
 72
   100
 73
     1
 74
     3
 75
     0
 76
     0
 77
     0
 78
     0
  0
ENDTAB
  0
TABLE
  2
LTYPE
 70
    14
  0
LTYPE
  2
CONTINUOUS
 70
     0
  3
Solid line
 72
    65
 73
     0
 40
0.0
  0
LTYPE
  2
CENTER-2
 70
     0
  3

 72
    65
 73
     4
 40
50.8
 49
31.75
 49
-6.35
 49
6.35
 49
-6.35
  0
LTYPE
  2
ISO-04______
 70
     0
  3

 72
    65
 73
     4
 40
7.747000000000001
 49
6.095999999999999
 49
-0.7620000000000007
 49
0.1270000000000001
 49
-0.7620000000000007
  0
LTYPE
  2
00
 70
     0
  3

 72
    65
 73
     4
 40
50.8
 49
31.75
 49
-6.35
 49
6.35
 49
-6.35
  0
LTYPE
  2
DASHED
 70
     0
  3

 72
    65
 73
     2
 40
39.99999999999999
 49
24.0
 49
-16.0
  0
LTYPE
  2
1
 70
     0
  3

 72
    65
 73
     2
 40
101.60254
 49
101.6
 49
-0.0025399999999941
  0
LTYPE
  2
______-8
 70
     0
  3

 72
    65
 73
     2
 40
11.43
 49
7.619999999999999
 49
-3.809999999999999
  0
LTYPE
  2
______-7
 70
     0
  3

 72
    65
 73
     4
 40
34.28999999999999
 49
22.86
 49
-3.809999999999997
 49
3.809999999999997
 49
-3.809999999999997
  0
LTYPE
  2
______-6
 70
     0
  3

 72
    65
 73
     4
 40
7.747000000000001
 49
6.095999999999999
 49
-0.7620000000000007
 49
0.1270000000000001
 49
-0.7620000000000007
  0
LTYPE
  2
______-5
 70
     0
  3

 72
    65
 73
     2
 40
0.4
 49
0.24
 49
-0.16
  0
LTYPE
  2
______-4
 70
     0
  3

 72
    65
 73
     6
 40
2.7
 49
1.8
 49
-0.2
 49
0.2
 49
-0.1000000000000002
 49
0.2
 49
-0.2
  0
LTYPE
  2
______-3
 70
     0
  3

 72
    65
 73
     4
 40
2.4
 49
1.8
 49
-0.2
 49
0.2
 49
-0.2
  0
LTYPE
  2
______-2
 70
     0
  3

 72
    65
 73
     2
 40
38.09999999999999
 49
25.4
 49
-12.7
  0
LTYPE
  2
______-1
 70
     0
  3

 72
    65
 73
     2
 40
101.60254
 49
101.6
 49
-0.0025399999999941
  0
ENDTAB
  0
TABLE
  2
LAYER
 70
    13
  0
LAYER
  2
0
 70
     0
 62
     7
  6
CONTINUOUS
  0
LAYER
  2
__
 70
     0
 62
     7
  6
CONTINUOUS
  0
LAYER
  2
__-1
 70
     0
 62
     7
  6
CONTINUOUS
  0
LAYER
  2
TOOLBOX__
 70
     0
 62
     7
  6
CONTINUOUS
  0
LAYER
  2
INAX_SHAPE1
 70
     0
 62
     7
  6
CONTINUOUS
  0
LAYER
  2
0_18__
 70
     0
 62
     7
  6
CONTINUOUS
  0
LAYER
  2
0_13___
 70
     0
 62
     7
  6
CONTINUOUS
  0
LAYER
  2
0_03____
 70
     0
 62
     7
  6
CONTINUOUS
  0
LAYER
  2
DEFPOINTS
 70
     0
 62
     7
  6
CONTINUOUS
  0
ENDTAB
  0
TABLE
  2
STYLE
 70
     3
  0
STYLE
  2
STANDARD
 70
     0
 40
0.0
 41
1.0
 50
0.0
 71
     0
 42
0.2
  3
txt
  4
BIGFONT.SHX
  0
STYLE
  2
____________
 70
     0
 40
0.0
 41
1.0
 50
0.0
 71
     0
 42
0.2
  3
?????? ?????
  4

  0
STYLE
  2
YUGOTHIC_MEDIUM
 70
     0
 40
0.0
 41
1.0
 50
0.0
 71
     0
 42
0.2
  3

  4
YuGothic Medium
  0
ENDTAB
  0
TABLE
  2
VIEW
 70
     0
  0
ENDTAB
  0
TABLE
  2
UCS
 70
     0
  0
ENDTAB
  0
TABLE
  2
APPID
 70
     3
  0
APPID
  2
ACAD
 70
     0
  0
APPID
  2
ACCMTRANSPARENCY
 70
     0
  0
APPID
  2
ACAECLAYERSTANDARD
 70
     0
  0
ENDTAB
  0
TABLE
  2
DIMSTYLE
 70
     2
  0
DIMSTYLE
  2
STANDARD
 70
     0
  3

  4

  5

  6

  7

 40
1.0
 41
0.18
 42
0.0625
 43
0.38
 44
0.18
 45
0.0
 46
0.0
 47
0.0
 48
0.0
140
0.18
141
0.09
142
0.0
143
25.4
144
1.0
145
0.0
146
1.0
147
0.09
 71
     0
 72
     0
 73
     1
 74
     1
 75
     0
 76
     0
 77
     0
 78
     0
170
     0
171
     2
172
     0
173
     0
174
     0
175
     0
176
     0
177
     0
178
     0
  0
DIMSTYLE
  2
TOOLBOX
 70
     0
  3
<>
  4
[]
  5
DOT
  6
DOT
  7
DOT
 40
1.0
 41
0.899169921875
 42
2.999999988824129
 43
12.0000000026077
 44
0.0
 45
0.0
 46
0.0
 47
0.0
 48
0.0
140
4.248032407407408
141
0.0
142
0.0
143
1.0
144
1.0
145
0.0
146
0.8
147
0.0199999999254942
 71
     0
 72
     0
 73
     0
 74
     0
 75
     0
 76
     0
 77
     1
 78
     8
170
     0
171
     0
172
     1
173
     0
174
     1
175
     0
176
     0
177
     0
178
     0
  0
ENDTAB
  0
ENDSEC
  0
SECTION
  2
BLOCKS
  0
BLOCK
  8
0
  2
$MODEL_SPACE
 70
     0
 10
0.0
 20
0.0
 30
0.0
  3
$MODEL_SPACE
  1

  0
ENDBLK
  5
21
  8
0
  0
BLOCK
 67
     1
  8
0
  2
$PAPER_SPACE
 70
     0
 10
0.0
 20
0.0
 30
0.0
  3
$PAPER_SPACE
  1

  0
ENDBLK
  5
1D
 67
     1
  8
0
  0
BLOCK
  8
0
  2
____
 70
     0
 10
0.0
 20
0.0
 30
0.0
  3
____
  1

  0
POLYLINE
  5
B1
  8
TOOLBOX__
 62
     3
 66
     1
 10
0.0
 20
0.0
 30
0.0
 70
   129
  0
VERTEX
  5
B2
  8
TOOLBOX__
 62
     3
 10
-4261.322698124186
 20
-117.8829148661262
 30
0.0
  0
VERTEX
  5
B3
  8
TOOLBOX__
 62
     3
 10
-4262.285679452165
 20
-119.07352795714
 30
0.0
  0
VERTEX
  5
B4
  8
TOOLBOX__
 62
     3
 10
-4268.034775154465
 20
-125.229817373299
 30
0.0
  0
VERTEX
  5
B5
  8
TOOLBOX__
 62
     3
 10
-4273.787693181299
 20
-130.5849751138655
 30
0.0
  0
VERTEX
  5
B6
  8
TOOLBOX__
 62
     3
 10
-4279.544433532666
 20
-135.1390011788396
 30
0.0
  0
VERTEX
  5
B7
  8
TOOLBOX__
 62
     3
 10
-4285.304996208566
 20
-138.8918955682211
 30
0.0
  0
VERTEX
  5
B8
  8
TOOLBOX__
 62
     3
 10
-4291.069381209
 20
-141.8436582820102
 30
0.0
  0
VERTEX
  5
B9
  8
TOOLBOX__
 62
     3
 10
-4296.837588533968
 20
-143.9942893202067
 30
0.0
  0
VERTEX
  5
BA
  8
TOOLBOX__
 62
     3
 10
-4302.609618183469
 20
-145.3437886828107
 30
0.0
  0
VERTEX
  5
BB
  8
TOOLBOX__
 62
     3
 10
-4308.385470157504
 20
-145.8921563698223
 30
0.0
  0
VERTEX
  5
BC
  8
TOOLBOX__
 62
     3
 10
-4314.16297497315
 20
-146.021494592312
 30
0.0
  0
VERTEX
  5
BD
  8
TOOLBOX__
 62
     3
 10
-4319.939963147484
 20
-146.1139055613507
 30
0.0
  0
VERTEX
  5
BE
  8
TOOLBOX__
 62
     3
 10
-4325.716434680508
 20
-146.1693892769384
 30
0.0
  0
VERTEX
  5
BF
  8
TOOLBOX__
 62
     3
 10
-4331.492389572219
 20
-146.1879457390751
 30
0.0
  0
VERTEX
  5
C0
  8
TOOLBOX__
 62
     3
 10
-4337.267827822619
 20
-146.1695749477607
 30
0.0
  0
VERTEX
  5
C1
  8
TOOLBOX__
 62
     3
 10
-4343.042749431707
 20
-146.1142769029952
 30
0.0
  0
VERTEX
  5
C2
  8
TOOLBOX__
 62
     3
 10
-4348.817154399484
 20
-146.0220516047788
 30
0.0
  0
VERTEX
  5
C3
  8
TOOLBOX__
 62
     3
 10
-4354.59104272595
 20
-145.8928990531113
 30
0.0
  0
VERTEX
  5
C4
  8
TOOLBOX__
 62
     3
 10
-4360.363230356958
 20
-145.3446822236428
 30
0.0
  0
VERTEX
  5
C5
  8
TOOLBOX__
 62
     3
 10
-4366.132533238367
 20
-143.9952640920235
 30
0.0
  0
VERTEX
  5
C6
  8
TOOLBOX__
 62
     3
 10
-4371.898951370174
 20
-141.8446446582533
 30
0.0
  0
VERTEX
  5
C7
  8
TOOLBOX__
 62
     3
 10
-4377.662484752378
 20
-138.8928239223324
 30
0.0
  0
VERTEX
  5
C8
  8
TOOLBOX__
 62
     3
 10
-4383.423133384981
 20
-135.1398018842605
 30
0.0
  0
VERTEX
  5
C9
  8
TOOLBOX__
 62
     3
 10
-4389.180897267983
 20
-130.5855785440378
 30
0.0
  0
VERTEX
  5
CA
  8
TOOLBOX__
 62
     3
 10
-4394.935776401383
 20
-125.2301539016643
 30
0.0
  0
VERTEX
  5
CB
  8
TOOLBOX__
 62
     3
 10
-4400.687770785182
 20
-119.07352795714
 30
0.0
  0
VERTEX
  5
CC
  8
TOOLBOX__
 62
     3
 10
-4400.687770785182
 20
-119.07352795714
 30
0.0
  0
VERTEX
  5
CD
  8
TOOLBOX__
 62
     3
 10
-4401.6467932999
 20
-117.8829148661262
 30
0.0
  0
VERTEX
  5
CE
  8
TOOLBOX__
 62
     3
 10
-4402.612248886195
 20
-116.6952708850677
 30
0.0
  0
VERTEX
  5
CF
  8
TOOLBOX__
 62
     3
 10
-4407.600256085108
 20
-109.6324049524347
 30
0.0
  0
VERTEX
  5
D0
  8
TOOLBOX__
 62
     3
 10
-4411.954473368981
 20
-102.2361726344172
 30
0.0
  0
VERTEX
  5
D1
  8
TOOLBOX__
 62
     3
 10
-4415.674900737815
 20
-94.50657393101534
 30
0.0
  0
VERTEX
  5
D2
  8
TOOLBOX__
 62
     3
 10
-4418.761538191608
 20
-86.44360884222897
 30
0.0
  0
VERTEX
  5
D3
  8
TOOLBOX__
 62
     3
 10
-4421.214385730362
 20
-78.04727736805813
 30
0.0
  0
VERTEX
  5
D4
  8
TOOLBOX__
 62
     3
 10
-4423.033443354075
 20
-69.31757950850283
 30
0.0
  0
VERTEX
  5
D5
  8
TOOLBOX__
 62
     3
 10
-4424.218711062748
 20
-60.25451526356306
 30
0.0
  0
VERTEX
  5
D6
  8
TOOLBOX__
 62
     3
 10
-4424.770188856382
 20
-50.85808463323883
 30
0.0
  0
VERTEX
  5
D7
  8
TOOLBOX__
 62
     3
 10
-4424.629231025948
 20
-41.41421454268198
 30
0.0
  0
VERTEX
  5
D8
  8
TOOLBOX__
 62
     3
 10
-4423.737191862417
 20
-32.20883191704434
 30
0.0
  0
VERTEX
  5
D9
  8
TOOLBOX__
 62
     3
 10
-4422.094071365789
 20
-23.24193675632591
 30
0.0
  0
VERTEX
  5
DA
  8
TOOLBOX__
 62
     3
 10
-4419.699869536063
 20
-14.51352906052671
 30
0.0
  0
VERTEX
  5
DB
  8
TOOLBOX__
 62
     3
 10
-4416.554586373242
 20
-6.023608829646719
 30
0.0
  0
VERTEX
  5
DC
  8
TOOLBOX__
 62
     3
 10
-4412.658221877323
 20
2.227823936314053
 30
0.0
  0
VERTEX
  5
DD
  8
TOOLBOX__
 62
     3
 10
-4408.010776048307
 20
10.24076923735561
 30
0.0
  0
VERTEX
  5
DE
  8
TOOLBOX__
 62
     3
 10
-4402.612248886195
 20
18.01522707347794
 30
0.0
  0
VERTEX
  5
DF
  8
TOOLBOX__
 62
     3
 10
-4402.612248886195
 20
18.01522707347794
 30
0.0
  0
VERTEX
  5
E0
  8
TOOLBOX__
 62
     3
 10
-4401.6467932999
 20
19.21870630762896
 30
0.0
  0
VERTEX
  5
E1
  8
TOOLBOX__
 62
     3
 10
-4400.687770785182
 20
20.42119583844942
 30
0.0
  0
VERTEX
  5
E2
  8
TOOLBOX__
 62
     3
 10
-4394.947803108895
 20
26.64895909317437
 30
0.0
  0
VERTEX
  5
E3
  8
TOOLBOX__
 62
     3
 10
-4389.202462398693
 20
32.06661879882517
 30
0.0
  0
VERTEX
  5
E4
  8
TOOLBOX__
 62
     3
 10
-4383.451748654577
 20
36.67417495540184
 30
0.0
  0
VERTEX
  5
E5
  8
TOOLBOX__
 62
     3
 10
-4377.695661876547
 20
40.47162756290436
 30
0.0
  0
VERTEX
  5
E6
  8
TOOLBOX__
 62
     3
 10
-4371.934202064603
 20
43.45897662133274
 30
0.0
  0
VERTEX
  5
E7
  8
TOOLBOX__
 62
     3
 10
-4366.167369218744
 20
45.63622213068697
 30
0.0
  0
VERTEX
  5
E8
  8
TOOLBOX__
 62
     3
 10
-4360.395163338972
 20
47.00336409096707
 30
0.0
  0
VERTEX
  5
E9
  8
TOOLBOX__
 62
     3
 10
-4354.617584425285
 20
47.56040250217302
 30
0.0
  0
VERTEX
  5
EA
  8
TOOLBOX__
 62
     3
 10
-4348.837930155727
 20
47.69336323740819
 30
0.0
  0
VERTEX
  5
EB
  8
TOOLBOX__
 62
     3
 10
-4343.05949820834
 20
47.78827216977595
 30
0.0
  0
VERTEX
  5
EC
  8
TOOLBOX__
 62
     3
 10
-4337.282288583125
 20
47.84512929927629
 30
0.0
  0
VERTEX
  5
ED
  8
TOOLBOX__
 62
     3
 10
-4331.50630128008
 20
47.86393462590922
 30
0.0
  0
VERTEX
  5
EE
  8
TOOLBOX__
 62
     3
 10
-4325.731536299207
 20
47.84468814967474
 30
0.0
  0
VERTEX
  5
EF
  8
TOOLBOX__
 62
     3
 10
-4319.957993640505
 20
47.78738987057284
 30
0.0
  0
VERTEX
  5
F0
  8
TOOLBOX__
 62
     3
 10
-4314.185673303975
 20
47.69203978860352
 30
0.0
  0
VERTEX
  5
F1
  8
TOOLBOX__
 62
     3
 10
-4308.414575289617
 20
47.55863790376679
 30
0.0
  0
VERTEX
  5
F2
  8
TOOLBOX__
 62
     3
 10
-4302.644635295543
 20
47.00124105850958
 30
0.0
  0
VERTEX
  5
F3
  8
TOOLBOX__
 62
     3
 10
-4296.875789019866
 20
45.6339060952788
 30
0.0
  0
VERTEX
  5
F4
  8
TOOLBOX__
 62
     3
 10
-4291.108036462587
 20
43.45663301407447
 30
0.0
  0
VERTEX
  5
F5
  8
TOOLBOX__
 62
     3
 10
-4285.341377623707
 20
40.46942181489658
 30
0.0
  0
VERTEX
  5
F6
  8
TOOLBOX__
 62
     3
 10
-4279.575812503224
 20
36.67227249774513
 30
0.0
  0
VERTEX
  5
F7
  8
TOOLBOX__
 62
     3
 10
-4273.81134110114
 20
32.06518506262012
 30
0.0
  0
VERTEX
  5
F8
  8
TOOLBOX__
 62
     3
 10
-4268.047963417454
 20
26.64815950952155
 30
0.0
  0
VERTEX
  5
F9
  8
TOOLBOX__
 62
     3
 10
-4262.285679452165
 20
20.42119583844942
 30
0.0
  0
VERTEX
  5
FA
  8
TOOLBOX__
 62
     3
 10
-4262.285679452165
 20
20.42119583844942
 30
0.0
  0
VERTEX
  5
FB
  8
TOOLBOX__
 62
     3
 10
-4261.322698124186
 20
19.21870630762896
 30
0.0
  0
VERTEX
  5
FC
  8
TOOLBOX__
 62
     3
 10
-4260.360211647956
 20
18.01522707347794
 30
0.0
  0
VERTEX
  5
FD
  8
TOOLBOX__
 62
     3
 10
-4254.965617602949
 20
10.24352096488624
 30
0.0
  0
VERTEX
  5
FE
  8
TOOLBOX__
 62
     3
 10
-4250.32114132173
 20
2.235222207621177
 30
0.0
  0
VERTEX
  5
FF
  8
TOOLBOX__
 62
     3
 10
-4246.426782804298
 20
-6.009669198317255
 30
0.0
  0
VERTEX
  5
100
  8
TOOLBOX__
 62
     3
 10
-4243.282542050654
 20
-14.49115325292905
 30
0.0
  0
VERTEX
  5
101
  8
TOOLBOX__
 62
     3
 10
-4240.888419060798
 20
-23.20922995621422
 30
0.0
  0
VERTEX
  5
102
  8
TOOLBOX__
 62
     3
 10
-4239.244413834729
 20
-32.16389930817274
 30
0.0
  0
VERTEX
  5
103
  8
TOOLBOX__
 62
     3
 10
-4238.350526372448
 20
-41.35516130880464
 30
0.0
  0
VERTEX
  5
104
  8
TOOLBOX__
 62
     3
 10
-4238.206756673955
 20
-50.7830159581099
 30
0.0
  0
VERTEX
  5
105
  8
TOOLBOX__
 62
     3
 10
-4238.7552824434
 20
-60.16577704328031
 30
0.0
  0
VERTEX
  5
106
  8
TOOLBOX__
 62
     3
 10
-4239.938281384931
 20
-69.22175835150767
 30
0.0
  0
VERTEX
  5
107
  8
TOOLBOX__
 62
     3
 10
-4241.755753498549
 20
-77.95095988279198
 30
0.0
  0
VERTEX
  5
108
  8
TOOLBOX__
 62
     3
 10
-4244.207698784256
 20
-86.35338163713323
 30
0.0
  0
VERTEX
  5
109
  8
TOOLBOX__
 62
     3
 10
-4247.29411724205
 20
-94.42902361453142
 30
0.0
  0
VERTEX
  5
10A
  8
TOOLBOX__
 62
     3
 10
-4251.015008871931
 20
-102.1778858149866
 30
0.0
  0
VERTEX
  5
10B
  8
TOOLBOX__
 62
     3
 10
-4255.3703736739
 20
-109.5999682384986
 30
0.0
  0
VERTEX
  5
10C
  8
TOOLBOX__
 62
     3
 10
-4260.360211647956
 20
-116.6952708850677
 30
0.0
  0
VERTEX
  5
10D
  8
TOOLBOX__
 62
     3
 10
-4260.360211647956
 20
-116.6952708850677
 30
0.0
  0
VERTEX
  5
10E
  8
TOOLBOX__
 62
     3
 10
-4261.322698124186
 20
-117.8829148661262
 30
0.0
  0
SEQEND
  5
10F
  8
TOOLBOX__
 62
     3
  0
POLYLINE
  5
110
  8
TOOLBOX__
 62
     3
 66
     1
 10
0.0
 20
0.0
 30
0.0
 70
   129
  0
VERTEX
  5
111
  8
TOOLBOX__
 62
     3
 10
-3987.269890680989
 20
20.37467978252425
 30
0.0
  0
VERTEX
  5
112
  8
TOOLBOX__
 62
     3
 10
-3986.337050317648
 20
19.19027483050195
 30
0.0
  0
VERTEX
  5
113
  8
TOOLBOX__
 62
     3
 10
-3981.5600118188
 20
12.09329245950147
 30
0.0
  0
VERTEX
  5
114
  8
TOOLBOX__
 62
     3
 10
-3977.449162017407
 20
4.603722201744631
 30
0.0
  0
VERTEX
  5
115
  8
TOOLBOX__
 62
     3
 10
-3974.004500913469
 20
-3.278435942768567
 30
0.0
  0
VERTEX
  5
116
  8
TOOLBOX__
 62
     3
 10
-3971.226028506986
 20
-11.55318197403813
 30
0.0
  0
VERTEX
  5
117
  8
TOOLBOX__
 62
     3
 10
-3969.113744797958
 20
-20.22051589206404
 30
0.0
  0
VERTEX
  5
118
  8
TOOLBOX__
 62
     3
 10
-3967.667649786385
 20
-29.28043769684632
 30
0.0
  0
VERTEX
  5
119
  8
TOOLBOX__
 62
     3
 10
-3966.887743472268
 20
-38.73294738838496
 30
0.0
  0
VERTEX
  5
11A
  8
TOOLBOX__
 62
     3
 10
-3966.774025855606
 20
-48.57804496667995
 30
0.0
  0
VERTEX
  5
11B
  8
TOOLBOX__
 62
     3
 10
-3967.267533675654
 20
-58.4161104453633
 30
0.0
  0
VERTEX
  5
11C
  8
TOOLBOX__
 62
     3
 10
-3968.309303671667
 20
-67.84752383806699
 30
0.0
  0
VERTEX
  5
11D
  8
TOOLBOX__
 62
     3
 10
-3969.899335843646
 20
-76.87228514479102
 30
0.0
  0
VERTEX
  5
11E
  8
TOOLBOX__
 62
     3
 10
-3972.037630191589
 20
-85.4903943655354
 30
0.0
  0
VERTEX
  5
11F
  8
TOOLBOX__
 62
     3
 10
-3974.724186715498
 20
-93.70185150030011
 30
0.0
  0
VERTEX
  5
120
  8
TOOLBOX__
 62
     3
 10
-3977.959005415371
 20
-101.5066565490852
 30
0.0
  0
VERTEX
  5
121
  8
TOOLBOX__
 62
     3
 10
-3981.74208629121
 20
-108.9048095118906
 30
0.0
  0
VERTEX
  5
122
  8
TOOLBOX__
 62
     3
 10
-3986.073429343014
 20
-115.8963103887163
 30
0.0
  0
VERTEX
  5
123
  8
TOOLBOX__
 62
     3
 10
-3986.073429343014
 20
-115.8963103887163
 30
0.0
  0
VERTEX
  5
124
  8
TOOLBOX__
 62
     3
 10
-3986.992773752041
 20
-117.1703284774903
 30
0.0
  0
VERTEX
  5
125
  8
TOOLBOX__
 62
     3
 10
-3987.908339293837
 20
-118.4400278608755
 30
0.0
  0
VERTEX
  5
126
  8
TOOLBOX__
 62
     3
 10
-3991.91494274189
 20
-123.3102479410232
 30
0.0
  0
VERTEX
  5
127
  8
TOOLBOX__
 62
     3
 10
-3995.87693849196
 20
-127.6269651082134
 30
0.0
  0
VERTEX
  5
128
  8
TOOLBOX__
 62
     3
 10
-3999.794326544048
 20
-131.390179362446
 30
0.0
  0
VERTEX
  5
129
  8
TOOLBOX__
 62
     3
 10
-4003.667106898154
 20
-134.599890703721
 30
0.0
  0
VERTEX
  5
12A
  8
TOOLBOX__
 62
     3
 10
-4007.495279554278
 20
-137.2560991320385
 30
0.0
  0
VERTEX
  5
12B
  8
TOOLBOX__
 62
     3
 10
-4011.278844512419
 20
-139.3588046473983
 30
0.0
  0
VERTEX
  5
12C
  8
TOOLBOX__
 62
     3
 10
-4015.017801772578
 20
-140.9080072498006
 30
0.0
  0
VERTEX
  5
12D
  8
TOOLBOX__
 62
     3
 10
-4018.712151334756
 20
-141.9037069392452
 30
0.0
  0
VERTEX
  5
12E
  8
TOOLBOX__
 62
     3
 10
-4022.23575446506
 20
-142.5801794853004
 30
0.0
  0
VERTEX
  5
12F
  8
TOOLBOX__
 62
     3
 10
-4025.462472429603
 20
-143.1717006575341
 30
0.0
  0
VERTEX
  5
130
  8
TOOLBOX__
 62
     3
 10
-4028.392305228383
 20
-143.6782704559463
 30
0.0
  0
VERTEX
  5
131
  8
TOOLBOX__
 62
     3
 10
-4031.025252861401
 20
-144.099888880537
 30
0.0
  0
VERTEX
  5
132
  8
TOOLBOX__
 62
     3
 10
-4033.361315328656
 20
-144.4365559313063
 30
0.0
  0
VERTEX
  5
133
  8
TOOLBOX__
 62
     3
 10
-4035.400492630149
 20
-144.6882716082541
 30
0.0
  0
VERTEX
  5
134
  8
TOOLBOX__
 62
     3
 10
-4037.142784765879
 20
-144.8550359113805
 30
0.0
  0
VERTEX
  5
135
  8
TOOLBOX__
 62
     3
 10
-4038.588191735847
 20
-144.9368488406853
 30
0.0
  0
VERTEX
  5
136
  8
TOOLBOX__
 62
     3
 10
-4039.832049959276
 20
-144.972969856614
 30
0.0
  0
VERTEX
  5
137
  8
TOOLBOX__
 62
     3
 10
-4040.969695855389
 20
-145.0026584196117
 30
0.0
  0
VERTEX
  5
138
  8
TOOLBOX__
 62
     3
 10
-4042.001129424185
 20
-145.0259145296785
 30
0.0
  0
VERTEX
  5
139
  8
TOOLBOX__
 62
     3
 10
-4042.926350665665
 20
-145.0427381868144
 30
0.0
  0
VERTEX
  5
13A
  8
TOOLBOX__
 62
     3
 10
-4043.745359579829
 20
-145.0531293910193
 30
0.0
  0
VERTEX
  5
13B
  8
TOOLBOX__
 62
     3
 10
-4044.458156166676
 20
-145.0570881422933
 30
0.0
  0
VERTEX
  5
13C
  8
TOOLBOX__
 62
     3
 10
-4045.064740426208
 20
-145.0546144406364
 30
0.0
  0
VERTEX
  5
13D
  8
TOOLBOX__
 62
     3
 10
-4045.565112358423
 20
-145.0457082860485
 30
0.0
  0
VERTEX
  5
13E
  8
TOOLBOX__
 62
     3
 10
-4046.138266769425
 20
-145.0257130715695
 30
0.0
  0
VERTEX
  5
13F
  8
TOOLBOX__
 62
     3
 10
-4046.963198465318
 20
-144.9899721902394
 30
0.0
  0
VERTEX
  5
140
  8
TOOLBOX__
 62
     3
 10
-4048.039907446101
 20
-144.9384856420582
 30
0.0
  0
VERTEX
  5
141
  8
TOOLBOX__
 62
     3
 10
-4049.368393711775
 20
-144.8712534270257
 30
0.0
  0
VERTEX
  5
142
  8
TOOLBOX__
 62
     3
 10
-4050.948657262339
 20
-144.7882755451422
 30
0.0
  0
VERTEX
  5
143
  8
TOOLBOX__
 62
     3
 10
-4052.780698097794
 20
-144.6895519964074
 30
0.0
  0
VERTEX
  5
144
  8
TOOLBOX__
 62
     3
 10
-4054.864516218139
 20
-144.5750827808215
 30
0.0
  0
VERTEX
  5
145
  8
TOOLBOX__
 62
     3
 10
-4057.200111623375
 20
-144.4448678983845
 30
0.0
  0
VERTEX
  5
146
  8
TOOLBOX__
 62
     3
 10
-4059.697810451612
 20
-144.1994491913769
 30
0.0
  0
VERTEX
  5
147
  8
TOOLBOX__
 62
     3
 10
-4062.267938840961
 20
-143.7393685020793
 30
0.0
  0
VERTEX
  5
148
  8
TOOLBOX__
 62
     3
 10
-4064.910496791421
 20
-143.0646258304918
 30
0.0
  0
VERTEX
  5
149
  8
TOOLBOX__
 62
     3
 10
-4067.625484302993
 20
-142.1752211766143
 30
0.0
  0
VERTEX
  5
14A
  8
TOOLBOX__
 62
     3
 10
-4070.412901375677
 20
-141.0711545404469
 30
0.0
  0
VERTEX
  5
14B
  8
TOOLBOX__
 62
     3
 10
-4073.272748009473
 20
-139.7524259219895
 30
0.0
  0
VERTEX
  5
14C
  8
TOOLBOX__
 62
     3
 10
-4076.20502420438
 20
-138.2190353212421
 30
0.0
  0
VERTEX
  5
14D
  8
TOOLBOX__
 62
     3
 10
-4079.209729960399
 20
-136.4709827382048
 30
0.0
  0
VERTEX
  5
14E
  8
TOOLBOX__
 62
     3
 10
-4079.209729960399
 20
-136.4709827382048
 30
0.0
  0
VERTEX
  5
14F
  8
TOOLBOX__
 62
     3
 10
-4079.834862564901
 20
-136.061785402906
 30
0.0
  0
VERTEX
  5
150
  8
TOOLBOX__
 62
     3
 10
-4080.213828962515
 20
-135.8177785486205
 30
0.0
  0
VERTEX
  5
151
  8
TOOLBOX__
 62
     3
 10
-4081.796599380332
 20
-134.7038623665651
 30
0.0
  0
VERTEX
  5
152
  8
TOOLBOX__
 62
     3
 10
-4083.306497868077
 20
-133.5674621283825
 30
0.0
  0
VERTEX
  5
153
  8
TOOLBOX__
 62
     3
 10
-4084.743524425749
 20
-132.4085778340728
 30
0.0
  0
VERTEX
  5
154
  8
TOOLBOX__
 62
     3
 10
-4086.107679053348
 20
-131.2272094836358
 30
0.0
  0
VERTEX
  5
155
  8
TOOLBOX__
 62
     3
 10
-4087.398961750875
 20
-130.0233570770716
 30
0.0
  0
VERTEX
  5
156
  8
TOOLBOX__
 62
     3
 10
-4088.617372518329
 20
-128.7970206143801
 30
0.0
  0
VERTEX
  5
157
  8
TOOLBOX__
 62
     3
 10
-4089.76291135571
 20
-127.5482000955615
 30
0.0
  0
VERTEX
  5
158
  8
TOOLBOX__
 62
     3
 10
-4090.835578263019
 20
-126.2768955206157
 30
0.0
  0
VERTEX
  5
159
  8
TOOLBOX__
 62
     3
 10
-4091.830962605508
 20
-125.0407236489505
 30
0.0
  0
VERTEX
  5
15A
  8
TOOLBOX__
 62
     3
 10
-4092.74465374843
 20
-123.897301239974
 30
0.0
  0
VERTEX
  5
15B
  8
TOOLBOX__
 62
     3
 10
-4093.576651691787
 20
-122.8466282936861
 30
0.0
  0
VERTEX
  5
15C
  8
TOOLBOX__
 62
     3
 10
-4094.326956435577
 20
-121.8887048100869
 30
0.0
  0
VERTEX
  5
15D
  8
TOOLBOX__
 62
     3
 10
-4094.995567979802
 20
-121.0235307891763
 30
0.0
  0
VERTEX
  5
15E
  8
TOOLBOX__
 62
     3
 10
-4095.582486324459
 20
-120.2511062309543
 30
0.0
  0
VERTEX
  5
15F
  8
TOOLBOX__
 62
     3
 10
-4096.08771146955
 20
-119.5714311354209
 30
0.0
  0
VERTEX
  5
160
  8
TOOLBOX__
 62
     3
 10
-4096.511243415076
 20
-118.9845055025762
 30
0.0
  0
VERTEX
  5
161
  8
TOOLBOX__
 62
     3
 10
-4096.866791199331
 20
-118.4973828901222
 30
0.0
  0
VERTEX
  5
162
  8
TOOLBOX__
 62
     3
 10
-4097.168063860609
 20
-118.117116855761
 30
0.0
  0
VERTEX
  5
163
  8
TOOLBOX__
 62
     3
 10
-4097.41506139891
 20
-117.8437073994925
 30
0.0
  0
VERTEX
  5
164
  8
TOOLBOX__
 62
     3
 10
-4097.607783814236
 20
-117.6771545213169
 30
0.0
  0
VERTEX
  5
165
  8
TOOLBOX__
 62
     3
 10
-4097.746231106585
 20
-117.617458221234
 30
0.0
  0
VERTEX
  5
166
  8
TOOLBOX__
 62
     3
 10
-4097.830403275959
 20
-117.6646184992439
 30
0.0
  0
VERTEX
  5
167
  8
TOOLBOX__
 62
     3
 10
-4097.860300322356
 20
-117.8186353553467
 30
0.0
  0
VERTEX
  5
168
  8
TOOLBOX__
 62
     3
 10
-4097.835922245777
 20
-118.0795087895422
 30
0.0
  0
VERTEX
  5
169
  8
TOOLBOX__
 62
     3
 10
-4097.788461885611
 20
-118.4482284706941
 30
0.0
  0
VERTEX
  5
16A
  8
TOOLBOX__
 62
     3
 10
-4097.749112081248
 20
-118.925784067666
 30
0.0
  0
VERTEX
  5
16B
  8
TOOLBOX__
 62
     3
 10
-4097.71787283269
 20
-119.5121755804579
 30
0.0
  0
VERTEX
  5
16C
  8
TOOLBOX__
 62
     3
 10
-4097.694744139934
 20
-120.2074030090698
 30
0.0
  0
VERTEX
  5
16D
  8
TOOLBOX__
 62
     3
 10
-4097.679726002982
 20
-121.0114663535018
 30
0.0
  0
VERTEX
  5
16E
  8
TOOLBOX__
 62
     3
 10
-4097.672818421833
 20
-121.9243656137537
 30
0.0
  0
VERTEX
  5
16F
  8
TOOLBOX__
 62
     3
 10
-4097.674021396487
 20
-122.9461007898257
 30
0.0
  0
VERTEX
  5
170
  8
TOOLBOX__
 62
     3
 10
-4097.683334926944
 20
-124.0766718817176
 30
0.0
  0
VERTEX
  5
171
  8
TOOLBOX__
 62
     3
 10
-4097.695866511497
 20
-125.2359801494177
 30
0.0
  0
VERTEX
  5
172
  8
TOOLBOX__
 62
     3
 10
-4097.70672364844
 20
-126.343926852914
 30
0.0
  0
VERTEX
  5
173
  8
TOOLBOX__
 62
     3
 10
-4097.715906337771
 20
-127.4005119922066
 30
0.0
  0
VERTEX
  5
174
  8
TOOLBOX__
 62
     3
 10
-4097.723414579492
 20
-128.4057355672953
 30
0.0
  0
VERTEX
  5
175
  8
TOOLBOX__
 62
     3
 10
-4097.729248373602
 20
-129.3595975781803
 30
0.0
  0
VERTEX
  5
176
  8
TOOLBOX__
 62
     3
 10
-4097.733407720101
 20
-130.2620980248615
 30
0.0
  0
VERTEX
  5
177
  8
TOOLBOX__
 62
     3
 10
-4097.735892618989
 20
-131.113236907339
 30
0.0
  0
VERTEX
  5
178
  8
TOOLBOX__
 62
     3
 10
-4097.736703070266
 20
-131.9130142256126
 30
0.0
  0
VERTEX
  5
179
  8
TOOLBOX__
 62
     3
 10
-4097.736678146983
 20
-132.6741571202567
 30
0.0
  0
VERTEX
  5
17A
  8
TOOLBOX__
 62
     3
 10
-4097.736656922189
 20
-133.4093927318454
 30
0.0
  0
VERTEX
  5
17B
  8
TOOLBOX__
 62
     3
 10
-4097.736639395886
 20
-134.1187210603787
 30
0.0
  0
VERTEX
  5
17C
  8
TOOLBOX__
 62
     3
 10
-4097.736625568071
 20
-134.8021421058565
 30
0.0
  0
VERTEX
  5
17D
  8
TOOLBOX__
 62
     3
 10
-4097.736615438746
 20
-135.459655868279
 30
0.0
  0
VERTEX
  5
17E
  8
TOOLBOX__
 62
     3
 10
-4097.73660900791
 20
-136.0912623476461
 30
0.0
  0
VERTEX
  5
17F
  8
TOOLBOX__
 62
     3
 10
-4097.736606275565
 20
-136.6969615439577
 30
0.0
  0
VERTEX
  5
180
  8
TOOLBOX__
 62
     3
 10
-4097.73660724171
 20
-137.276753457214
 30
0.0
  0
VERTEX
  5
181
  8
TOOLBOX__
 62
     3
 10
-4097.736609844724
 20
-137.8195683397451
 30
0.0
  0
VERTEX
  5
182
  8
TOOLBOX__
 62
     3
 10
-4097.736612022989
 20
-138.3143364438813
 30
0.0
  0
VERTEX
  5
183
  8
TOOLBOX__
 62
     3
 10
-4097.736613776504
 20
-138.7610577696226
 30
0.0
  0
VERTEX
  5
184
  8
TOOLBOX__
 62
     3
 10
-4097.736615105269
 20
-139.159732316969
 30
0.0
  0
VERTEX
  5
185
  8
TOOLBOX__
 62
     3
 10
-4097.736616009286
 20
-139.5103600859205
 30
0.0
  0
VERTEX
  5
186
  8
TOOLBOX__
 62
     3
 10
-4097.736616488552
 20
-139.812941076477
 30
0.0
  0
VERTEX
  5
187
  8
TOOLBOX__
 62
     3
 10
-4097.736616543069
 20
-140.0674752886387
 30
0.0
  0
VERTEX
  5
188
  8
TOOLBOX__
 62
     3
 10
-4097.736616172835
 20
-140.2739627224055
 30
0.0
  0
VERTEX
  5
189
  8
TOOLBOX__
 62
     3
 10
-4097.736616172835
 20
-140.2739627224055
 30
0.0
  0
VERTEX
  5
18A
  8
TOOLBOX__
 62
     3
 10
-4144.751482569736
 20
-140.2739627224055
 30
0.0
  0
VERTEX
  5
18B
  8
TOOLBOX__
 62
     3
 10
-4144.751482569736
 20
70.35073850559456
 30
0.0
  0
VERTEX
  5
18C
  8
TOOLBOX__
 62
     3
 10
-4097.063617916836
 20
106.1859162274941
 30
0.0
  0
VERTEX
  5
18D
  8
TOOLBOX__
 62
     3
 10
-4097.063527836927
 20
105.3725222794098
 30
0.0
  0
VERTEX
  5
18E
  8
TOOLBOX__
 62
     3
 10
-4097.063490528326
 20
104.3784613264694
 30
0.0
  0
VERTEX
  5
18F
  8
TOOLBOX__
 62
     3
 10
-4097.063505991035
 20
103.203733368673
 30
0.0
  0
VERTEX
  5
190
  8
TOOLBOX__
 62
     3
 10
-4097.063574225051
 20
101.8483384060205
 30
0.0
  0
VERTEX
  5
191
  8
TOOLBOX__
 62
     3
 10
-4097.063695230376
 20
100.312276438512
 30
0.0
  0
VERTEX
  5
192
  8
TOOLBOX__
 62
     3
 10
-4097.063869007008
 20
98.59554746614742
 30
0.0
  0
VERTEX
  5
193
  8
TOOLBOX__
 62
     3
 10
-4097.06409555495
 20
96.69815148892681
 30
0.0
  0
VERTEX
  5
194
  8
TOOLBOX__
 62
     3
 10
-4097.064374874199
 20
94.62008850685015
 30
0.0
  0
VERTEX
  5
195
  8
TOOLBOX__
 62
     3
 10
-4097.064582167001
 20
92.4023395922396
 30
0.0
  0
VERTEX
  5
196
  8
TOOLBOX__
 62
     3
 10
-4097.064592635604
 20
90.0858858174173
 30
0.0
  0
VERTEX
  5
197
  8
TOOLBOX__
 62
     3
 10
-4097.064406280006
 20
87.67072718238327
 30
0.0
  0
VERTEX
  5
198
  8
TOOLBOX__
 62
     3
 10
-4097.064023100205
 20
85.1568636871375
 30
0.0
  0
VERTEX
  5
199
  8
TOOLBOX__
 62
     3
 10
-4097.063443096205
 20
82.54429533167999
 30
0.0
  0
VERTEX
  5
19A
  8
TOOLBOX__
 62
     3
 10
-4097.062666268002
 20
79.83302211601074
 30
0.0
  0
VERTEX
  5
19B
  8
TOOLBOX__
 62
     3
 10
-4097.0616926156
 20
77.02304404012975
 30
0.0
  0
VERTEX
  5
19C
  8
TOOLBOX__
 62
     3
 10
-4097.060522138996
 20
74.11436110403702
 30
0.0
  0
VERTEX
  5
19D
  8
TOOLBOX__
 62
     3
 10
-4097.059658466969
 20
71.15624536930835
 30
0.0
  0
VERTEX
  5
19E
  8
TOOLBOX__
 62
     3
 10
-4097.059605228298
 20
68.19796889751956
 30
0.0
  0
VERTEX
  5
19F
  8
TOOLBOX__
 62
     3
 10
-4097.060362422983
 20
65.23953168867064
 30
0.0
  0
VERTEX
  5
1A0
  8
TOOLBOX__
 62
     3
 10
-4097.061930051023
 20
62.28093374276159
 30
0.0
  0
VERTEX
  5
1A1
  8
TOOLBOX__
 62
     3
 10
-4097.064308112418
 20
59.32217505979241
 30
0.0
  0
VERTEX
  5
1A2
  8
TOOLBOX__
 62
     3
 10
-4097.067496607169
 20
56.36325563976311
 30
0.0
  0
VERTEX
  5
1A3
  8
TOOLBOX__
 62
     3
 10
-4097.071495535276
 20
53.40417548267368
 30
0.0
  0
VERTEX
  5
1A4
  8
TOOLBOX__
 62
     3
 10
-4097.076304896738
 20
50.44493458852412
 30
0.0
  0
VERTEX
  5
1A5
  8
TOOLBOX__
 62
     3
 10
-4097.079807592379
 20
47.53540615271982
 30
0.0
  0
VERTEX
  5
1A6
  8
TOOLBOX__
 62
     3
 10
-4097.079886523019
 20
44.72546337066615
 30
0.0
  0
VERTEX
  5
1A7
  8
TOOLBOX__
 62
     3
 10
-4097.07654168866
 20
42.01510624236312
 30
0.0
  0
VERTEX
  5
1A8
  8
TOOLBOX__
 62
     3
 10
-4097.069773089301
 20
39.40433476781072
 30
0.0
  0
VERTEX
  5
1A9
  8
TOOLBOX__
 62
     3
 10
-4097.059580724942
 20
36.89314894700897
 30
0.0
  0
VERTEX
  5
1AA
  8
TOOLBOX__
 62
     3
 10
-4097.045964595583
 20
34.48154877995785
 30
0.0
  0
VERTEX
  5
1AB
  8
TOOLBOX__
 62
     3
 10
-4097.028924701225
 20
32.16953426665737
 30
0.0
  0
VERTEX
  5
1AC
  8
TOOLBOX__
 62
     3
 10
-4097.008461041867
 20
29.95710540710752
 30
0.0
  0
VERTEX
  5
1AD
  8
TOOLBOX__
 62
     3
 10
-4096.991092107432
 20
27.90202099212789
 30
0.0
  0
VERTEX
  5
1AE
  8
TOOLBOX__
 62
     3
 10
-4096.983336387841
 20
26.06203981253805
 30
0.0
  0
VERTEX
  5
1AF
  8
TOOLBOX__
 62
     3
 10
-4096.985193883094
 20
24.43716186833799
 30
0.0
  0
VERTEX
  5
1B0
  8
TOOLBOX__
 62
     3
 10
-4096.996664593192
 20
23.02738715952773
 30
0.0
  0
VERTEX
  5
1B1
  8
TOOLBOX__
 62
     3
 10
-4097.017748518134
 20
21.83271568610726
 30
0.0
  0
VERTEX
  5
1B2
  8
TOOLBOX__
 62
     3
 10
-4097.048445657922
 20
20.85314744807658
 30
0.0
  0
VERTEX
  5
1B3
  8
TOOLBOX__
 62
     3
 10
-4097.088756012553
 20
20.08868244543569
 30
0.0
  0
VERTEX
  5
1B4
  8
TOOLBOX__
 62
     3
 10
-4097.138679582029
 20
19.53932067818459
 30
0.0
  0
VERTEX
  5
1B5
  8
TOOLBOX__
 62
     3
 10
-4097.168025873611
 20
19.15746528125317
 30
0.0
  0
VERTEX
  5
1B6
  8
TOOLBOX__
 62
     3
 10
-4097.146604394557
 20
18.89551938957129
 30
0.0
  0
VERTEX
  5
1B7
  8
TOOLBOX__
 62
     3
 10
-4097.074415144868
 20
18.75348300313897
 30
0.0
  0
VERTEX
  5
1B8
  8
TOOLBOX__
 62
     3
 10
-4096.951458124544
 20
18.7313561219562
 30
0.0
  0
VERTEX
  5
1B9
  8
TOOLBOX__
 62
     3
 10
-4096.777733333587
 20
18.82913874602298
 30
0.0
  0
VERTEX
  5
1BA
  8
TOOLBOX__
 62
     3
 10
-4096.553240771994
 20
19.04683087533931
 30
0.0
  0
VERTEX
  5
1BB
  8
TOOLBOX__
 62
     3
 10
-4096.277980439766
 20
19.3844325099052
 30
0.0
  0
VERTEX
  5
1BC
  8
TOOLBOX__
 62
     3
 10
-4095.951952336904
 20
19.84194364972063
 30
0.0
  0
VERTEX
  5
1BD
  8
TOOLBOX__
 62
     3
 10
-4095.555004784183
 20
20.40806080340886
 30
0.0
  0
VERTEX
  5
1BE
  8
TOOLBOX__
 62
     3
 10
-4095.066986102382
 20
21.07148047959311
 30
0.0
  0
VERTEX
  5
1BF
  8
TOOLBOX__
 62
     3
 10
-4094.4878962915
 20
21.83220267827338
 30
0.0
  0
VERTEX
  5
1C0
  8
TOOLBOX__
 62
     3
 10
-4093.817735351537
 20
22.69022739944967
 30
0.0
  0
VERTEX
  5
1C1
  8
TOOLBOX__
 62
     3
 10
-4093.056503282492
 20
23.64555464312198
 30
0.0
  0
VERTEX
  5
1C2
  8
TOOLBOX__
 62
     3
 10
-4092.204200084367
 20
24.69818440929032
 30
0.0
  0
VERTEX
  5
1C3
  8
TOOLBOX__
 62
     3
 10
-4091.260825757161
 20
25.84811669795468
 30
0.0
  0
VERTEX
  5
1C4
  8
TOOLBOX__
 62
     3
 10
-4090.226380300874
 20
27.09535150911506
 30
0.0
  0
VERTEX
  5
1C5
  8
TOOLBOX__
 62
     3
 10
-4089.081957743475
 20
28.39345187574708
 30
0.0
  0
VERTEX
  5
1C6
  8
TOOLBOX__
 62
     3
 10
-4087.808652112934
 20
29.69598083082633
 30
0.0
  0
VERTEX
  5
1C7
  8
TOOLBOX__
 62
     3
 10
-4086.406463409253
 20
31.00293837435282
 30
0.0
  0
VERTEX
  5
1C8
  8
TOOLBOX__
 62
     3
 10
-4084.875391632429
 20
32.31432450632656
 30
0.0
  0
VERTEX
  5
1C9
  8
TOOLBOX__
 62
     3
 10
-4083.215436782464
 20
33.63013922674753
 30
0.0
  0
VERTEX
  5
1CA
  8
TOOLBOX__
 62
     3
 10
-4081.426598859357
 20
34.95038253561574
 30
0.0
  0
VERTEX
  5
1CB
  8
TOOLBOX__
 62
     3
 10
-4079.508877863108
 20
36.2750544329312
 30
0.0
  0
VERTEX
  5
1CC
  8
TOOLBOX__
 62
     3
 10
-4077.462273793717
 20
37.60415491869389
 30
0.0
  0
VERTEX
  5
1CD
  8
TOOLBOX__
 62
     3
 10
-4077.462273793717
 20
37.60415491869389
 30
0.0
  0
VERTEX
  5
1CE
  8
TOOLBOX__
 62
     3
 10
-4076.960764130752
 20
37.90430494299108
 30
0.0
  0
VERTEX
  5
1CF
  8
TOOLBOX__
 62
     3
 10
-4076.372340521986
 20
38.28543069328043
 30
0.0
  0
VERTEX
  5
1D0
  8
TOOLBOX__
 62
     3
 10
-4073.833922760525
 20
39.75030949942402
 30
0.0
  0
VERTEX
  5
1D1
  8
TOOLBOX__
 62
     3
 10
-4071.350395716977
 20
41.04883910932767
 30
0.0
  0
VERTEX
  5
1D2
  8
TOOLBOX__
 62
     3
 10
-4068.921759391344
 20
42.18101952299139
 30
0.0
  0
VERTEX
  5
1D3
  8
TOOLBOX__
 62
     3
 10
-4066.548013783626
 20
43.14685074041518
 30
0.0
  0
VERTEX
  5
1D4
  8
TOOLBOX__
 62
     3
 10
-4064.229158893821
 20
43.94633276159902
 30
0.0
  0
VERTEX
  5
1D5
  8
TOOLBOX__
 62
     3
 10
-4061.965194721931
 20
44.57946558654294
 30
0.0
  0
VERTEX
  5
1D6
  8
TOOLBOX__
 62
     3
 10
-4059.756121267956
 20
45.04624921524692
 30
0.0
  0
VERTEX
  5
1D7
  8
TOOLBOX__
 62
     3
 10
-4057.601938531894
 20
45.34668364771096
 30
0.0
  0
VERTEX
  5
1D8
  8
TOOLBOX__
 62
     3
 10
-4055.571931184699
 20
45.55140129266101
 30
0.0
  0
VERTEX
  5
1D9
  8
TOOLBOX__
 62
     3
 10
-4053.735383897322
 20
45.73103455882301
 30
0.0
  0
VERTEX
  5
1DA
  8
TOOLBOX__
 62
     3
 10
-4052.092296669763
 20
45.88558344619696
 30
0.0
  0
VERTEX
  5
1DB
  8
TOOLBOX__
 62
     3
 10
-4050.642669502021
 20
46.01504795478286
 30
0.0
  0
VERTEX
  5
1DC
  8
TOOLBOX__
 62
     3
 10
-4049.386502394098
 20
46.1194280845807
 30
0.0
  0
VERTEX
  5
1DD
  8
TOOLBOX__
 62
     3
 10
-4048.323795345993
 20
46.1987238355905
 30
0.0
  0
VERTEX
  5
1DE
  8
TOOLBOX__
 62
     3
 10
-4047.454548357706
 20
46.25293520781224
 30
0.0
  0
VERTEX
  5
1DF
  8
TOOLBOX__
 62
     3
 10
-4046.778761429237
 20
46.28206220124594
 30
0.0
  0
VERTEX
  5
1E0
  8
TOOLBOX__
 62
     3
 10
-4046.155624088925
 20
46.29524677365535
 30
0.0
  0
VERTEX
  5
1E1
  8
TOOLBOX__
 62
     3
 10
-4045.444325865106
 20
46.30163088280426
 30
0.0
  0
VERTEX
  5
1E2
  8
TOOLBOX__
 62
     3
 10
-4044.644866757782
 20
46.30121452869267
 30
0.0
  0
VERTEX
  5
1E3
  8
TOOLBOX__
 62
     3
 10
-4043.757246766954
 20
46.29399771132057
 30
0.0
  0
VERTEX
  5
1E4
  8
TOOLBOX__
 62
     3
 10
-4042.78146589262
 20
46.27998043068797
 30
0.0
  0
VERTEX
  5
1E5
  8
TOOLBOX__
 62
     3
 10
-4041.717524134779
 20
46.25916268679487
 30
0.0
  0
VERTEX
  5
1E6
  8
TOOLBOX__
 62
     3
 10
-4040.565421493433
 20
46.23154447964126
 30
0.0
  0
VERTEX
  5
1E7
  8
TOOLBOX__
 62
     3
 10
-4039.325157968582
 20
46.19712580922715
 30
0.0
  0
VERTEX
  5
1E8
  8
TOOLBOX__
 62
     3
 10
-4037.889170298341
 20
46.11971647958711
 30
0.0
  0
VERTEX
  5
1E9
  8
TOOLBOX__
 62
     3
 10
-4036.149895220826
 20
45.96312629475574
 30
0.0
  0
VERTEX
  5
1EA
  8
TOOLBOX__
 62
     3
 10
-4034.107332736036
 20
45.72735525473303
 30
0.0
  0
VERTEX
  5
1EB
  8
TOOLBOX__
 62
     3
 10
-4031.761482843972
 20
45.41240335951898
 30
0.0
  0
VERTEX
  5
1EC
  8
TOOLBOX__
 62
     3
 10
-4029.112345544634
 20
45.01827060911359
 30
0.0
  0
VERTEX
  5
1ED
  8
TOOLBOX__
 62
     3
 10
-4026.159920838021
 20
44.54495700351686
 30
0.0
  0
VERTEX
  5
1EE
  8
TOOLBOX__
 62
     3
 10
-4022.904208724134
 20
43.99246254272879
 30
0.0
  0
VERTEX
  5
1EF
  8
TOOLBOX__
 62
     3
 10
-4019.345209202973
 20
43.36078722674938
 30
0.0
  0
VERTEX
  5
1F0
  8
TOOLBOX__
 62
     3
 10
-4015.61171081033
 20
42.43267688002308
 30
0.0
  0
VERTEX
  5
1F1
  8
TOOLBOX__
 62
     3
 10
-4011.832502081999
 20
40.99087732699434
 30
0.0
  0
VERTEX
  5
1F2
  8
TOOLBOX__
 62
     3
 10
-4008.00758301798
 20
39.03538856766315
 30
0.0
  0
VERTEX
  5
1F3
  8
TOOLBOX__
 62
     3
 10
-4004.136953618272
 20
36.56621060202951
 30
0.0
  0
VERTEX
  5
1F4
  8
TOOLBOX__
 62
     3
 10
-4000.220613882876
 20
33.58334343009344
 30
0.0
  0
VERTEX
  5
1F5
  8
TOOLBOX__
 62
     3
 10
-3996.258563811791
 20
30.08678705185491
 30
0.0
  0
VERTEX
  5
1F6
  8
TOOLBOX__
 62
     3
 10
-3992.250803405017
 20
26.07654146731394
 30
0.0
  0
VERTEX
  5
1F7
  8
TOOLBOX__
 62
     3
 10
-3988.197332662556
 20
21.55260667647053
 30
0.0
  0
VERTEX
  5
1F8
  8
TOOLBOX__
 62
     3
 10
-3988.197332662556
 20
21.55260667647053
 30
0.0
  0
VERTEX
  5
1F9
  8
TOOLBOX__
 62
     3
 10
-3987.269890680989
 20
20.37467978252425
 30
0.0
  0
SEQEND
  5
1FA
  8
TOOLBOX__
 62
     3
  0
POLYLINE
  5
1FB
  8
TOOLBOX__
 62
     3
 66
     1
 10
0.0
 20
0.0
 30
0.0
 70
   129
  0
VERTEX
  5
1FC
  8
TOOLBOX__
 62
     3
 10
-3798.545344463724
 20
-117.8829148661262
 30
0.0
  0
VERTEX
  5
1FD
  8
TOOLBOX__
 62
     3
 10
-3799.505851533442
 20
-119.07352795714
 30
0.0
  0
VERTEX
  5
1FE
  8
TOOLBOX__
 62
     3
 10
-3805.230287397791
 20
-125.2306406149538
 30
0.0
  0
VERTEX
  5
1FF
  8
TOOLBOX__
 62
     3
 10
-3811.032948850341
 20
-130.5881484055886
 30
0.0
  0
VERTEX
  5
200
  8
TOOLBOX__
 62
     3
 10
-3816.913835891093
 20
-135.1460513290444
 30
0.0
  0
VERTEX
  5
201
  8
TOOLBOX__
 62
     3
 10
-3822.872948520047
 20
-138.904349385321
 30
0.0
  0
VERTEX
  5
202
  8
TOOLBOX__
 62
     3
 10
-3828.910286737201
 20
-141.8630425744185
 30
0.0
  0
VERTEX
  5
203
  8
TOOLBOX__
 62
     3
 10
-3835.025850542557
 20
-144.022130896337
 30
0.0
  0
VERTEX
  5
204
  8
TOOLBOX__
 62
     3
 10
-3841.219639936115
 20
-145.3816143510764
 30
0.0
  0
VERTEX
  5
205
  8
TOOLBOX__
 62
     3
 10
-3847.491654917874
 20
-145.9414929386367
 30
0.0
  0
VERTEX
  5
206
  8
TOOLBOX__
 62
     3
 10
-3853.752887947337
 20
-146.063783754208
 30
0.0
  0
VERTEX
  5
207
  8
TOOLBOX__
 62
     3
 10
-3859.914331484004
 20
-146.1105038929805
 30
0.0
  0
VERTEX
  5
208
  8
TOOLBOX__
 62
     3
 10
-3865.975985527877
 20
-146.0816533549543
 30
0.0
  0
VERTEX
  5
209
  8
TOOLBOX__
 62
     3
 10
-3871.937850078954
 20
-145.9772321401292
 30
0.0
  0
VERTEX
  5
20A
  8
TOOLBOX__
 62
     3
 10
-3877.799925137237
 20
-145.7972402485053
 30
0.0
  0
VERTEX
  5
20B
  8
TOOLBOX__
 62
     3
 10
-3883.562210702725
 20
-145.5416776800827
 30
0.0
  0
VERTEX
  5
20C
  8
TOOLBOX__
 62
     3
 10
-3889.224706775418
 20
-145.2105444348612
 30
0.0
  0
VERTEX
  5
20D
  8
TOOLBOX__
 62
     3
 10
-3894.787413355316
 20
-144.8038405128409
 30
0.0
  0
VERTEX
  5
20E
  8
TOOLBOX__
 62
     3
 10
-3900.284549504782
 20
-144.0128762762909
 30
0.0
  0
VERTEX
  5
20F
  8
TOOLBOX__
 62
     3
 10
-3905.750334286178
 20
-142.5289620874801
 30
0.0
  0
VERTEX
  5
210
  8
TOOLBOX__
 62
     3
 10
-3911.184767699506
 20
-140.3520979464085
 30
0.0
  0
VERTEX
  5
211
  8
TOOLBOX__
 62
     3
 10
-3916.587849744764
 20
-137.4822838530763
 30
0.0
  0
VERTEX
  5
212
  8
TOOLBOX__
 62
     3
 10
-3921.959580421953
 20
-133.9195198074833
 30
0.0
  0
VERTEX
  5
213
  8
TOOLBOX__
 62
     3
 10
-3927.299959731072
 20
-129.6638058096296
 30
0.0
  0
VERTEX
  5
214
  8
TOOLBOX__
 62
     3
 10
-3932.608987672122
 20
-124.7151418595151
 30
0.0
  0
VERTEX
  5
215
  8
TOOLBOX__
 62
     3
 10
-3937.886664245103
 20
-119.07352795714
 30
0.0
  0
VERTEX
  5
216
  8
TOOLBOX__
 62
     3
 10
-3937.886664245103
 20
-119.07352795714
 30
0.0
  0
VERTEX
  5
217
  8
TOOLBOX__
 62
     3
 10
-3938.845686759822
 20
-117.8829148661262
 30
0.0
  0
VERTEX
  5
218
  8
TOOLBOX__
 62
     3
 10
-3939.811637197745
 20
-116.6952708850677
 30
0.0
  0
VERTEX
  5
219
  8
TOOLBOX__
 62
     3
 10
-3944.799406590616
 20
-109.6324049524347
 30
0.0
  0
VERTEX
  5
21A
  8
TOOLBOX__
 62
     3
 10
-3949.153520937509
 20
-102.2361726344172
 30
0.0
  0
VERTEX
  5
21B
  8
TOOLBOX__
 62
     3
 10
-3952.873980238422
 20
-94.50657393101534
 30
0.0
  0
VERTEX
  5
21C
  8
TOOLBOX__
 62
     3
 10
-3955.960784493355
 20
-86.44360884222897
 30
0.0
  0
VERTEX
  5
21D
  8
TOOLBOX__
 62
     3
 10
-3958.41393370231
 20
-78.04727736805813
 30
0.0
  0
VERTEX
  5
21E
  8
TOOLBOX__
 62
     3
 10
-3960.233427865285
 20
-69.31757950850283
 30
0.0
  0
VERTEX
  5
21F
  8
TOOLBOX__
 62
     3
 10
-3961.419266982281
 20
-60.25451526356306
 30
0.0
  0
VERTEX
  5
220
  8
TOOLBOX__
 62
     3
 10
-3961.971451053298
 20
-50.85808463323883
 30
0.0
  0
VERTEX
  5
221
  8
TOOLBOX__
 62
     3
 10
-3961.831140941328
 20
-41.41421454268198
 30
0.0
  0
VERTEX
  5
222
  8
TOOLBOX__
 62
     3
 10
-3960.939497509366
 20
-32.20883191704434
 30
0.0
  0
VERTEX
  5
223
  8
TOOLBOX__
 62
     3
 10
-3959.296520757412
 20
-23.24193675632591
 30
0.0
  0
VERTEX
  5
224
  8
TOOLBOX__
 62
     3
 10
-3956.902210685464
 20
-14.51352906052671
 30
0.0
  0
VERTEX
  5
225
  8
TOOLBOX__
 62
     3
 10
-3953.756567293523
 20
-6.023608829646719
 30
0.0
  0
VERTEX
  5
226
  8
TOOLBOX__
 62
     3
 10
-3949.85959058159
 20
2.227823936314053
 30
0.0
  0
VERTEX
  5
227
  8
TOOLBOX__
 62
     3
 10
-3945.211280549664
 20
10.24076923735561
 30
0.0
  0
VERTEX
  5
228
  8
TOOLBOX__
 62
     3
 10
-3939.811637197745
 20
18.01522707347794
 30
0.0
  0
VERTEX
  5
229
  8
TOOLBOX__
 62
     3
 10
-3939.811637197745
 20
18.01522707347794
 30
0.0
  0
VERTEX
  5
22A
  8
TOOLBOX__
 62
     3
 10
-3938.845686759822
 20
19.21870630762896
 30
0.0
  0
VERTEX
  5
22B
  8
TOOLBOX__
 62
     3
 10
-3937.886664245103
 20
20.42119583844942
 30
0.0
  0
VERTEX
  5
22C
  8
TOOLBOX__
 62
     3
 10
-3932.605058511988
 20
26.12548743419299
 30
0.0
  0
VERTEX
  5
22D
  8
TOOLBOX__
 62
     3
 10
-3927.290027168054
 20
31.12973059361309
 30
0.0
  0
VERTEX
  5
22E
  8
TOOLBOX__
 62
     3
 10
-3921.941570213301
 20
35.43392531670972
 30
0.0
  0
VERTEX
  5
22F
  8
TOOLBOX__
 62
     3
 10
-3916.559687647729
 20
39.03807160348288
 30
0.0
  0
VERTEX
  5
230
  8
TOOLBOX__
 62
     3
 10
-3911.144379471339
 20
41.94216945393256
 30
0.0
  0
VERTEX
  5
231
  8
TOOLBOX__
 62
     3
 10
-3905.695645684129
 20
44.14621886805878
 30
0.0
  0
VERTEX
  5
232
  8
TOOLBOX__
 62
     3
 10
-3900.213486286101
 20
45.65021984586153
 30
0.0
  0
VERTEX
  5
233
  8
TOOLBOX__
 62
     3
 10
-3894.697901277254
 20
46.4541723873408
 30
0.0
  0
VERTEX
  5
234
  8
TOOLBOX__
 62
     3
 10
-3889.120340374545
 20
46.86941666425338
 30
0.0
  0
VERTEX
  5
235
  8
TOOLBOX__
 62
     3
 10
-3883.452253294933
 20
47.20729284835602
 30
0.0
  0
VERTEX
  5
236
  8
TOOLBOX__
 62
     3
 10
-3877.693640038417
 20
47.46780093964873
 30
0.0
  0
VERTEX
  5
237
  8
TOOLBOX__
 62
     3
 10
-3871.844500604998
 20
47.6509409381315
 30
0.0
  0
VERTEX
  5
238
  8
TOOLBOX__
 62
     3
 10
-3865.904834994675
 20
47.75671284380434
 30
0.0
  0
VERTEX
  5
239
  8
TOOLBOX__
 62
     3
 10
-3859.874643207449
 20
47.78511665666724
 30
0.0
  0
VERTEX
  5
23A
  8
TOOLBOX__
 62
     3
 10
-3853.753925243318
 20
47.73615237672021
 30
0.0
  0
VERTEX
  5
23B
  8
TOOLBOX__
 62
     3
 10
-3847.542681102284
 20
47.60982000396325
 30
0.0
  0
VERTEX
  5
23C
  8
TOOLBOX__
 62
     3
 10
-3841.317661814472
 20
47.04060838461041
 30
0.0
  0
VERTEX
  5
23D
  8
TOOLBOX__
 62
     3
 10
-3835.155618410004
 20
45.66300636487574
 30
0.0
  0
VERTEX
  5
23E
  8
TOOLBOX__
 62
     3
 10
-3829.05655088888
 20
43.47701394475925
 30
0.0
  0
VERTEX
  5
23F
  8
TOOLBOX__
 62
     3
 10
-3823.020459251103
 20
40.48263112426093
 30
0.0
  0
VERTEX
  5
240
  8
TOOLBOX__
 62
     3
 10
-3817.04734349667
 20
36.67985790338079
 30
0.0
  0
VERTEX
  5
241
  8
TOOLBOX__
 62
     3
 10
-3811.137203625583
 20
32.06869428211883
 30
0.0
  0
VERTEX
  5
242
  8
TOOLBOX__
 62
     3
 10
-3805.29003963784
 20
26.64914026047504
 30
0.0
  0
VERTEX
  5
243
  8
TOOLBOX__
 62
     3
 10
-3799.505851533442
 20
20.42119583844942
 30
0.0
  0
VERTEX
  5
244
  8
TOOLBOX__
 62
     3
 10
-3799.505851533442
 20
20.42119583844942
 30
0.0
  0
VERTEX
  5
245
  8
TOOLBOX__
 62
     3
 10
-3798.545344463724
 20
19.21870630762896
 30
0.0
  0
VERTEX
  5
246
  8
TOOLBOX__
 62
     3
 10
-3797.582857987429
 20
18.01522707347794
 30
0.0
  0
VERTEX
  5
247
  8
TOOLBOX__
 62
     3
 10
-3792.19205176822
 20
10.24352096488624
 30
0.0
  0
VERTEX
  5
248
  8
TOOLBOX__
 62
     3
 10
-3787.550779016204
 20
2.235222207621177
 30
0.0
  0
VERTEX
  5
249
  8
TOOLBOX__
 62
     3
 10
-3783.659039731381
 20
-6.009669198317255
 30
0.0
  0
VERTEX
  5
24A
  8
TOOLBOX__
 62
     3
 10
-3780.51683391375
 20
-14.49115325292905
 30
0.0
  0
VERTEX
  5
24B
  8
TOOLBOX__
 62
     3
 10
-3778.124161563312
 20
-23.20922995621422
 30
0.0
  0
VERTEX
  5
24C
  8
TOOLBOX__
 62
     3
 10
-3776.481022680066
 20
-32.16389930817274
 30
0.0
  0
VERTEX
  5
24D
  8
TOOLBOX__
 62
     3
 10
-3775.587417264014
 20
-41.35516130880464
 30
0.0
  0
VERTEX
  5
24E
  8
TOOLBOX__
 62
     3
 10
-3775.443345315154
 20
-50.7830159581099
 30
0.0
  0
VERTEX
  5
24F
  8
TOOLBOX__
 62
     3
 10
-3775.991133137303
 20
-60.16577704328031
 30
0.0
  0
VERTEX
  5
250
  8
TOOLBOX__
 62
     3
 10
-3777.173107034276
 20
-69.22175835150767
 30
0.0
  0
VERTEX
  5
251
  8
TOOLBOX__
 62
     3
 10
-3778.989267006074
 20
-77.95095988279198
 30
0.0
  0
VERTEX
  5
252
  8
TOOLBOX__
 62
     3
 10
-3781.439613052696
 20
-86.35338163713323
 30
0.0
  0
VERTEX
  5
253
  8
TOOLBOX__
 62
     3
 10
-3784.524145174142
 20
-94.42902361453142
 30
0.0
  0
VERTEX
  5
254
  8
TOOLBOX__
 62
     3
 10
-3788.242863370413
 20
-102.1778858149866
 30
0.0
  0
VERTEX
  5
255
  8
TOOLBOX__
 62
     3
 10
-3792.595767641509
 20
-109.5999682384986
 30
0.0
  0
VERTEX
  5
256
  8
TOOLBOX__
 62
     3
 10
-3797.582857987429
 20
-116.6952708850677
 30
0.0
  0
VERTEX
  5
257
  8
TOOLBOX__
 62
     3
 10
-3797.582857987429
 20
-116.6952708850677
 30
0.0
  0
VERTEX
  5
258
  8
TOOLBOX__
 62
     3
 10
-3798.545344463724
 20
-117.8829148661262
 30
0.0
  0
SEQEND
  5
259
  8
TOOLBOX__
 62
     3
  0
POLYLINE
  5
25A
  8
TOOLBOX__
 62
     3
 66
     1
 10
0.0
 20
0.0
 30
0.0
 70
   129
  0
VERTEX
  5
25B
  8
TOOLBOX__
 62
     3
 10
-4453.728940682762
 20
-117.8829148661262
 30
0.0
  0
VERTEX
  5
25C
  8
TOOLBOX__
 62
     3
 10
-4454.688458049106
 20
-119.07352795714
 30
0.0
  0
VERTEX
  5
25D
  8
TOOLBOX__
 62
     3
 10
-4460.414766021895
 20
-125.2298258544804
 30
0.0
  0
VERTEX
  5
25E
  8
TOOLBOX__
 62
     3
 10
-4466.149621480929
 20
-130.5849903215011
 30
0.0
  0
VERTEX
  5
25F
  8
TOOLBOX__
 62
     3
 10
-4471.893024426207
 20
-135.1390213582021
 30
0.0
  0
VERTEX
  5
260
  8
TOOLBOX__
 62
     3
 10
-4477.644974857731
 20
-138.8919189645835
 30
0.0
  0
VERTEX
  5
261
  8
TOOLBOX__
 62
     3
 10
-4483.405472775498
 20
-141.8436831406452
 30
0.0
  0
VERTEX
  5
262
  8
TOOLBOX__
 62
     3
 10
-4489.17451817951
 20
-143.9943138863872
 30
0.0
  0
VERTEX
  5
263
  8
TOOLBOX__
 62
     3
 10
-4494.952111069768
 20
-145.3438112018095
 30
0.0
  0
VERTEX
  5
264
  8
TOOLBOX__
 62
     3
 10
-4500.73825144627
 20
-145.8921750869122
 30
0.0
  0
VERTEX
  5
265
  8
TOOLBOX__
 62
     3
 10
-4506.526700752106
 20
-146.021510753687
 30
0.0
  0
VERTEX
  5
266
  8
TOOLBOX__
 62
     3
 10
-4512.311220430367
 20
-146.1139234141257
 30
0.0
  0
VERTEX
  5
267
  8
TOOLBOX__
 62
     3
 10
-4518.091810481053
 20
-146.1694130682284
 30
0.0
  0
VERTEX
  5
268
  8
TOOLBOX__
 62
     3
 10
-4523.868470904163
 20
-146.187979715995
 30
0.0
  0
VERTEX
  5
269
  8
TOOLBOX__
 62
     3
 10
-4529.641201699697
 20
-146.1696233574255
 30
0.0
  0
VERTEX
  5
26A
  8
TOOLBOX__
 62
     3
 10
-4535.410002867657
 20
-146.11434399252
 30
0.0
  0
VERTEX
  5
26B
  8
TOOLBOX__
 62
     3
 10
-4541.174874408041
 20
-146.0221416212785
 30
0.0
  0
VERTEX
  5
26C
  8
TOOLBOX__
 62
     3
 10
-4546.935816320849
 20
-145.8930162437009
 30
0.0
  0
VERTEX
  5
26D
  8
TOOLBOX__
 62
     3
 10
-4552.695323512915
 20
-145.344823218571
 30
0.0
  0
VERTEX
  5
26E
  8
TOOLBOX__
 62
     3
 10
-4558.455890891071
 20
-143.9954179046724
 30
0.0
  0
VERTEX
  5
26F
  8
TOOLBOX__
 62
     3
 10
-4564.217518455317
 20
-141.8448003020052
 30
0.0
  0
VERTEX
  5
270
  8
TOOLBOX__
 62
     3
 10
-4569.980206205652
 20
-138.8929704105694
 30
0.0
  0
VERTEX
  5
271
  8
TOOLBOX__
 62
     3
 10
-4575.743954142078
 20
-135.139928230365
 30
0.0
  0
VERTEX
  5
272
  8
TOOLBOX__
 62
     3
 10
-4581.508762264594
 20
-130.5856737613919
 30
0.0
  0
VERTEX
  5
273
  8
TOOLBOX__
 62
     3
 10
-4587.2746305732
 20
-125.2302070036503
 30
0.0
  0
VERTEX
  5
274
  8
TOOLBOX__
 62
     3
 10
-4593.041559067897
 20
-119.07352795714
 30
0.0
  0
VERTEX
  5
275
  8
TOOLBOX__
 62
     3
 10
-4593.041559067897
 20
-119.07352795714
 30
0.0
  0
VERTEX
  5
276
  8
TOOLBOX__
 62
     3
 10
-4594.005530099188
 20
-117.8829148661262
 30
0.0
  0
VERTEX
  5
277
  8
TOOLBOX__
 62
     3
 10
-4594.969501130479
 20
-116.6952708850677
 30
0.0
  0
VERTEX
  5
278
  8
TOOLBOX__
 62
     3
 10
-4599.967560505393
 20
-109.6324049524347
 30
0.0
  0
VERTEX
  5
279
  8
TOOLBOX__
 62
     3
 10
-4604.329889010934
 20
-102.2361726344172
 30
0.0
  0
VERTEX
  5
27A
  8
TOOLBOX__
 62
     3
 10
-4608.056486647104
 20
-94.50657393101534
 30
0.0
  0
VERTEX
  5
27B
  8
TOOLBOX__
 62
     3
 10
-4611.147353413902
 20
-86.44360884222897
 30
0.0
  0
VERTEX
  5
27C
  8
TOOLBOX__
 62
     3
 10
-4613.602489311329
 20
-78.04727736805813
 30
0.0
  0
VERTEX
  5
27D
  8
TOOLBOX__
 62
     3
 10
-4615.421894339384
 20
-69.31757950850283
 30
0.0
  0
VERTEX
  5
27E
  8
TOOLBOX__
 62
     3
 10
-4616.605568498068
 20
-60.25451526356306
 30
0.0
  0
VERTEX
  5
27F
  8
TOOLBOX__
 62
     3
 10
-4617.153511787381
 20
-50.85808463323883
 30
0.0
  0
VERTEX
  5
280
  8
TOOLBOX__
 62
     3
 10
-4617.008204743665
 20
-41.41421454268198
 30
0.0
  0
VERTEX
  5
281
  8
TOOLBOX__
 62
     3
 10
-4616.112127903264
 20
-32.20883191704434
 30
0.0
  0
VERTEX
  5
282
  8
TOOLBOX__
 62
     3
 10
-4614.465281266178
 20
-23.24193675632591
 30
0.0
  0
VERTEX
  5
283
  8
TOOLBOX__
 62
     3
 10
-4612.067664832408
 20
-14.51352906052671
 30
0.0
  0
VERTEX
  5
284
  8
TOOLBOX__
 62
     3
 10
-4608.919278601953
 20
-6.023608829646719
 30
0.0
  0
VERTEX
  5
285
  8
TOOLBOX__
 62
     3
 10
-4605.020122574813
 20
2.227823936314053
 30
0.0
  0
VERTEX
  5
286
  8
TOOLBOX__
 62
     3
 10
-4600.370196750989
 20
10.24076923735561
 30
0.0
  0
VERTEX
  5
287
  8
TOOLBOX__
 62
     3
 10
-4594.969501130479
 20
18.01522707347794
 30
0.0
  0
VERTEX
  5
288
  8
TOOLBOX__
 62
     3
 10
-4594.969501130479
 20
18.01522707347794
 30
0.0
  0
VERTEX
  5
289
  8
TOOLBOX__
 62
     3
 10
-4594.005530099188
 20
19.21870630762896
 30
0.0
  0
VERTEX
  5
28A
  8
TOOLBOX__
 62
     3
 10
-4593.041559067897
 20
20.42119583844942
 30
0.0
  0
VERTEX
  5
28B
  8
TOOLBOX__
 62
     3
 10
-4587.286284699208
 20
26.64890012658896
 30
0.0
  0
VERTEX
  5
28C
  8
TOOLBOX__
 62
     3
 10
-4581.529659318125
 20
32.06651306563754
 30
0.0
  0
VERTEX
  5
28D
  8
TOOLBOX__
 62
     3
 10
-4575.771682924648
 20
36.67403465559516
 30
0.0
  0
VERTEX
  5
28E
  8
TOOLBOX__
 62
     3
 10
-4570.012355518777
 20
40.47146489646184
 30
0.0
  0
VERTEX
  5
28F
  8
TOOLBOX__
 62
     3
 10
-4564.25167710051
 20
43.45880378823756
 30
0.0
  0
VERTEX
  5
290
  8
TOOLBOX__
 62
     3
 10
-4558.48964766985
 20
45.63605133092233
 30
0.0
  0
VERTEX
  5
291
  8
TOOLBOX__
 62
     3
 10
-4552.726267226797
 20
47.00320752451614
 30
0.0
  0
VERTEX
  5
292
  8
TOOLBOX__
 62
     3
 10
-4546.961535771348
 20
47.560272369019
 30
0.0
  0
VERTEX
  5
293
  8
TOOLBOX__
 62
     3
 10
-4541.195090945354
 20
47.6932667501828
 30
0.0
  0
VERTEX
  5
294
  8
TOOLBOX__
 62
     3
 10
-4535.42657039066
 20
47.78821155375942
 30
0.0
  0
VERTEX
  5
295
  8
TOOLBOX__
 62
     3
 10
-4529.65597410727
 20
47.84510677974887
 30
0.0
  0
VERTEX
  5
296
  8
TOOLBOX__
 62
     3
 10
-4523.883302095181
 20
47.86395242815115
 30
0.0
  0
VERTEX
  5
297
  8
TOOLBOX__
 62
     3
 10
-4518.108554354393
 20
47.84474849896625
 30
0.0
  0
VERTEX
  5
298
  8
TOOLBOX__
 62
     3
 10
-4512.331730884907
 20
47.78749499219418
 30
0.0
  0
VERTEX
  5
299
  8
TOOLBOX__
 62
     3
 10
-4506.552831686724
 20
47.69219190783494
 30
0.0
  0
VERTEX
  5
29A
  8
TOOLBOX__
 62
     3
 10
-4500.771856759842
 20
47.55883924588852
 30
0.0
  0
VERTEX
  5
29B
  8
TOOLBOX__
 62
     3
 10
-4494.99254246266
 20
47.00148329824978
 30
0.0
  0
VERTEX
  5
29C
  8
TOOLBOX__
 62
     3
 10
-4489.218625153575
 20
45.63417035681357
 30
0.0
  0
VERTEX
  5
29D
  8
TOOLBOX__
 62
     3
 10
-4483.450104832587
 20
43.45690042157989
 30
0.0
  0
VERTEX
  5
29E
  8
TOOLBOX__
 62
     3
 10
-4477.686981499696
 20
40.46967349254874
 30
0.0
  0
VERTEX
  5
29F
  8
TOOLBOX__
 62
     3
 10
-4471.929255154902
 20
36.67248956972011
 30
0.0
  0
VERTEX
  5
2A0
  8
TOOLBOX__
 62
     3
 10
-4466.176925798207
 20
32.06534865309402
 30
0.0
  0
VERTEX
  5
2A1
  8
TOOLBOX__
 62
     3
 10
-4460.429993429608
 20
26.64825074267046
 30
0.0
  0
VERTEX
  5
2A2
  8
TOOLBOX__
 62
     3
 10
-4454.688458049106
 20
20.42119583844942
 30
0.0
  0
VERTEX
  5
2A3
  8
TOOLBOX__
 62
     3
 10
-4454.688458049106
 20
20.42119583844942
 30
0.0
  0
VERTEX
  5
2A4
  8
TOOLBOX__
 62
     3
 10
-4453.728940682762
 20
19.21870630762896
 30
0.0
  0
VERTEX
  5
2A5
  8
TOOLBOX__
 62
     3
 10
-4452.762000541465
 20
18.01522707347794
 30
0.0
  0
VERTEX
  5
2A6
  8
TOOLBOX__
 62
     3
 10
-4447.361885635344
 20
10.2434135644921
 30
0.0
  0
VERTEX
  5
2A7
  8
TOOLBOX__
 62
     3
 10
-4442.712442494312
 20
2.235008959572838
 30
0.0
  0
VERTEX
  5
2A8
  8
TOOLBOX__
 62
     3
 10
-4438.813671118371
 20
-6.009986741279846
 30
0.0
  0
VERTEX
  5
2A9
  8
TOOLBOX__
 62
     3
 10
-4435.665571507518
 20
-14.49157353806595
 30
0.0
  0
VERTEX
  5
2AA
  8
TOOLBOX__
 62
     3
 10
-4433.268143661755
 20
-23.20975143078547
 30
0.0
  0
VERTEX
  5
2AB
  8
TOOLBOX__
 62
     3
 10
-4431.621387581082
 20
-32.16452041943842
 30
0.0
  0
VERTEX
  5
2AC
  8
TOOLBOX__
 62
     3
 10
-4430.725303265499
 20
-41.35588050402478
 30
0.0
  0
VERTEX
  5
2AD
  8
TOOLBOX__
 62
     3
 10
-4430.579890715004
 20
-50.78383168454457
 30
0.0
  0
VERTEX
  5
2AE
  8
TOOLBOX__
 62
     3
 10
-4431.127669096586
 20
-60.16666380947842
 30
0.0
  0
VERTEX
  5
2AF
  8
TOOLBOX__
 62
     3
 10
-4432.311157577233
 20
-69.222666727307
 30
0.0
  0
VERTEX
  5
2B0
  8
TOOLBOX__
 62
     3
 10
-4434.130356156944
 20
-77.9518404380303
 30
0.0
  0
VERTEX
  5
2B1
  8
TOOLBOX__
 62
     3
 10
-4436.585264835719
 20
-86.35418494164833
 30
0.0
  0
VERTEX
  5
2B2
  8
TOOLBOX__
 62
     3
 10
-4439.67588361356
 20
-94.42970023816108
 30
0.0
  0
VERTEX
  5
2B3
  8
TOOLBOX__
 62
     3
 10
-4443.402212490464
 20
-102.1783863275685
 30
0.0
  0
VERTEX
  5
2B4
  8
TOOLBOX__
 62
     3
 10
-4447.764251466432
 20
-109.6002432098707
 30
0.0
  0
VERTEX
  5
2B5
  8
TOOLBOX__
 62
     3
 10
-4452.762000541465
 20
-116.6952708850677
 30
0.0
  0
VERTEX
  5
2B6
  8
TOOLBOX__
 62
     3
 10
-4452.762000541465
 20
-116.6952708850677
 30
0.0
  0
VERTEX
  5
2B7
  8
TOOLBOX__
 62
     3
 10
-4453.728940682762
 20
-117.8829148661262
 30
0.0
  0
SEQEND
  5
2B8
  8
TOOLBOX__
 62
     3
  0
POLYLINE
  5
2B9
  8
TOOLBOX__
 62
     3
 66
     1
 10
0.0
 20
0.0
 30
0.0
 70
   129
  0
VERTEX
  5
2BA
  8
TOOLBOX__
 62
     3
 10
-4721.740599075682
 20
6.661350614534967
 30
0.0
  0
VERTEX
  5
2BB
  8
TOOLBOX__
 62
     3
 10
-4721.740599075682
 20
40.64380372598134
 30
0.0
  0
VERTEX
  5
2BC
  8
TOOLBOX__
 62
     3
 10
-4696.253759242107
 20
40.64380372598134
 30
0.0
  0
VERTEX
  5
2BD
  8
TOOLBOX__
 62
     3
 10
-4696.253759242107
 20
55.54477687502913
 30
0.0
  0
VERTEX
  5
2BE
  8
TOOLBOX__
 62
     3
 10
-4649.001364048909
 20
91.52247187465582
 30
0.0
  0
VERTEX
  5
2BF
  8
TOOLBOX__
 62
     3
 10
-4649.001364048909
 20
40.64380372598134
 30
0.0
  0
VERTEX
  5
2C0
  8
TOOLBOX__
 62
     3
 10
-4619.429028920447
 20
40.64380372598134
 30
0.0
  0
VERTEX
  5
2C1
  8
TOOLBOX__
 62
     3
 10
-4619.429028920447
 20
6.661350614534967
 30
0.0
  0
VERTEX
  5
2C2
  8
TOOLBOX__
 62
     3
 10
-4649.001364048909
 20
6.661350614534967
 30
0.0
  0
VERTEX
  5
2C3
  8
TOOLBOX__
 62
     3
 10
-4649.00136416949
 20
5.910129009969552
 30
0.0
  0
VERTEX
  5
2C4
  8
TOOLBOX__
 62
     3
 10
-4649.001364219428
 20
4.986227882957905
 30
0.0
  0
VERTEX
  5
2C5
  8
TOOLBOX__
 62
     3
 10
-4649.001364198724
 20
3.889647233500028
 30
0.0
  0
VERTEX
  5
2C6
  8
TOOLBOX__
 62
     3
 10
-4649.00136410738
 20
2.62038706159592
 30
0.0
  0
VERTEX
  5
2C7
  8
TOOLBOX__
 62
     3
 10
-4649.001363945394
 20
1.178447367245582
 30
0.0
  0
VERTEX
  5
2C8
  8
TOOLBOX__
 62
     3
 10
-4649.001363712767
 20
-0.4361718495509876
 30
0.0
  0
VERTEX
  5
2C9
  8
TOOLBOX__
 62
     3
 10
-4649.001363409498
 20
-2.223470588793788
 30
0.0
  0
VERTEX
  5
2CA
  8
TOOLBOX__
 62
     3
 10
-4649.001363035588
 20
-4.183448850482819
 30
0.0
  0
VERTEX
  5
2CB
  8
TOOLBOX__
 62
     3
 10
-4649.001362758097
 20
-6.282048174240941
 30
0.0
  0
VERTEX
  5
2CC
  8
TOOLBOX__
 62
     3
 10
-4649.001362744088
 20
-8.485210099691017
 30
0.0
  0
VERTEX
  5
2CD
  8
TOOLBOX__
 62
     3
 10
-4649.001362993557
 20
-10.79293462683304
 30
0.0
  0
VERTEX
  5
2CE
  8
TOOLBOX__
 62
     3
 10
-4649.001363506509
 20
-13.20522175566703
 30
0.0
  0
VERTEX
  5
2CF
  8
TOOLBOX__
 62
     3
 10
-4649.001364282941
 20
-15.72207148619296
 30
0.0
  0
VERTEX
  5
2D0
  8
TOOLBOX__
 62
     3
 10
-4649.001365322854
 20
-18.34348381841085
 30
0.0
  0
VERTEX
  5
2D1
  8
TOOLBOX__
 62
     3
 10
-4649.001366626248
 20
-21.06945875232068
 30
0.0
  0
VERTEX
  5
2D2
  8
TOOLBOX__
 62
     3
 10
-4649.001368193121
 20
-23.89999628792248
 30
0.0
  0
VERTEX
  5
2D3
  8
TOOLBOX__
 62
     3
 10
-4649.001369349286
 20
-26.7933434569201
 30
0.0
  0
VERTEX
  5
2D4
  8
TOOLBOX__
 62
     3
 10
-4649.001369420549
 20
-29.70774729101743
 30
0.0
  0
VERTEX
  5
2D5
  8
TOOLBOX__
 62
     3
 10
-4649.001368406913
 20
-32.64320779021446
 30
0.0
  0
VERTEX
  5
2D6
  8
TOOLBOX__
 62
     3
 10
-4649.001366308374
 20
-35.5997249545112
 30
0.0
  0
VERTEX
  5
2D7
  8
TOOLBOX__
 62
     3
 10
-4649.001363124935
 20
-38.57729878390765
 30
0.0
  0
VERTEX
  5
2D8
  8
TOOLBOX__
 62
     3
 10
-4649.001358856594
 20
-41.57592927840381
 30
0.0
  0
VERTEX
  5
2D9
  8
TOOLBOX__
 62
     3
 10
-4649.001353503354
 20
-44.59561643799967
 30
0.0
  0
VERTEX
  5
2DA
  8
TOOLBOX__
 62
     3
 10
-4649.001347065212
 20
-47.63636026269523
 30
0.0
  0
VERTEX
  5
2DB
  8
TOOLBOX__
 62
     3
 10
-4649.001342376266
 20
-50.65596757768617
 30
0.0
  0
VERTEX
  5
2DC
  8
TOOLBOX__
 62
     3
 10
-4649.001342270611
 20
-53.61224520816813
 30
0.0
  0
VERTEX
  5
2DD
  8
TOOLBOX__
 62
     3
 10
-4649.001346748247
 20
-56.50519315414112
 30
0.0
  0
VERTEX
  5
2DE
  8
TOOLBOX__
 62
     3
 10
-4649.001355809174
 20
-59.33481141560515
 30
0.0
  0
VERTEX
  5
2DF
  8
TOOLBOX__
 62
     3
 10
-4649.001369453393
 20
-62.10109999256019
 30
0.0
  0
VERTEX
  5
2E0
  8
TOOLBOX__
 62
     3
 10
-4649.001387680903
 20
-64.80405888500627
 30
0.0
  0
VERTEX
  5
2E1
  8
TOOLBOX__
 62
     3
 10
-4649.001410491704
 20
-67.44368809294338
 30
0.0
  0
VERTEX
  5
2E2
  8
TOOLBOX__
 62
     3
 10
-4649.001437885796
 20
-70.01998761637151
 30
0.0
  0
VERTEX
  5
2E3
  8
TOOLBOX__
 62
     3
 10
-4649.001461137072
 20
-72.47011362850412
 30
0.0
  0
VERTEX
  5
2E4
  8
TOOLBOX__
 62
     3
 10
-4649.00147151942
 20
-74.73122230255467
 30
0.0
  0
VERTEX
  5
2E5
  8
TOOLBOX__
 62
     3
 10
-4649.001469032843
 20
-76.80331363852315
 30
0.0
  0
VERTEX
  5
2E6
  8
TOOLBOX__
 62
     3
 10
-4649.001453677341
 20
-78.68638763640956
 30
0.0
  0
VERTEX
  5
2E7
  8
TOOLBOX__
 62
     3
 10
-4649.001425452913
 20
-80.38044429621391
 30
0.0
  0
VERTEX
  5
2E8
  8
TOOLBOX__
 62
     3
 10
-4649.001384359559
 20
-81.88548361793619
 30
0.0
  0
VERTEX
  5
2E9
  8
TOOLBOX__
 62
     3
 10
-4649.001330397279
 20
-83.2015056015764
 30
0.0
  0
VERTEX
  5
2EA
  8
TOOLBOX__
 62
     3
 10
-4649.001263566073
 20
-84.32851024713455
 30
0.0
  0
VERTEX
  5
2EB
  8
TOOLBOX__
 62
     3
 10
-4649.001215874016
 20
-85.30664459989177
 30
0.0
  0
VERTEX
  5
2EC
  8
TOOLBOX__
 62
     3
 10
-4649.001219329178
 20
-86.17605570512922
 30
0.0
  0
VERTEX
  5
2ED
  8
TOOLBOX__
 62
     3
 10
-4649.001273931561
 20
-86.93674356284689
 30
0.0
  0
VERTEX
  5
2EE
  8
TOOLBOX__
 62
     3
 10
-4649.001379681164
 20
-87.58870817304478
 30
0.0
  0
VERTEX
  5
2EF
  8
TOOLBOX__
 62
     3
 10
-4649.001536577987
 20
-88.1319495357229
 30
0.0
  0
VERTEX
  5
2F0
  8
TOOLBOX__
 62
     3
 10
-4649.001744622032
 20
-88.56646765088124
 30
0.0
  0
VERTEX
  5
2F1
  8
TOOLBOX__
 62
     3
 10
-4649.002003813296
 20
-88.8922625185198
 30
0.0
  0
VERTEX
  5
2F2
  8
TOOLBOX__
 62
     3
 10
-4649.002314151781
 20
-89.10933413863859
 30
0.0
  0
VERTEX
  5
2F3
  8
TOOLBOX__
 62
     3
 10
-4649.002039054416
 20
-89.34877906103063
 30
0.0
  0
VERTEX
  5
2F4
  8
TOOLBOX__
 62
     3
 10
-4649.00054193813
 20
-89.74169383548895
 30
0.0
  0
VERTEX
  5
2F5
  8
TOOLBOX__
 62
     3
 10
-4648.997822802921
 20
-90.28807846201354
 30
0.0
  0
VERTEX
  5
2F6
  8
TOOLBOX__
 62
     3
 10
-4648.993881648792
 20
-90.98793294060442
 30
0.0
  0
VERTEX
  5
2F7
  8
TOOLBOX__
 62
     3
 10
-4648.988718475741
 20
-91.84125727126158
 30
0.0
  0
VERTEX
  5
2F8
  8
TOOLBOX__
 62
     3
 10
-4648.982333283768
 20
-92.84805145398502
 30
0.0
  0
VERTEX
  5
2F9
  8
TOOLBOX__
 62
     3
 10
-4648.974726072874
 20
-94.00831548877474
 30
0.0
  0
VERTEX
  5
2FA
  8
TOOLBOX__
 62
     3
 10
-4648.965896843058
 20
-95.32204937563074
 30
0.0
  0
VERTEX
  5
2FB
  8
TOOLBOX__
 62
     3
 10
-4648.915811403442
 20
-96.66971513643838
 30
0.0
  0
VERTEX
  5
2FC
  8
TOOLBOX__
 62
     3
 10
-4648.784435563149
 20
-97.93177479308304
 30
0.0
  0
VERTEX
  5
2FD
  8
TOOLBOX__
 62
     3
 10
-4648.571769322178
 20
-99.1082283455647
 30
0.0
  0
VERTEX
  5
2FE
  8
TOOLBOX__
 62
     3
 10
-4648.277812680528
 20
-100.1990757938834
 30
0.0
  0
VERTEX
  5
2FF
  8
TOOLBOX__
 62
     3
 10
-4647.902565638201
 20
-101.204317138039
 30
0.0
  0
VERTEX
  5
300
  8
TOOLBOX__
 62
     3
 10
-4647.446028195196
 20
-102.1239523780317
 30
0.0
  0
VERTEX
  5
301
  8
TOOLBOX__
 62
     3
 10
-4646.908200351513
 20
-102.9579815138614
 30
0.0
  0
VERTEX
  5
302
  8
TOOLBOX__
 62
     3
 10
-4646.289082107152
 20
-103.7064045455281
 30
0.0
  0
VERTEX
  5
303
  8
TOOLBOX__
 62
     3
 10
-4646.289082107152
 20
-103.7064045455281
 30
0.0
  0
VERTEX
  5
304
  8
TOOLBOX__
 62
     3
 10
-4646.166853747462
 20
-103.8212101303561
 30
0.0
  0
VERTEX
  5
305
  8
TOOLBOX__
 62
     3
 10
-4646.050068755976
 20
-103.936015715195
 30
0.0
  0
VERTEX
  5
306
  8
TOOLBOX__
 62
     3
 10
-4645.24646724095
 20
-104.4797692004634
 30
0.0
  0
VERTEX
  5
307
  8
TOOLBOX__
 62
     3
 10
-4644.353254753223
 20
-104.9563079606897
 30
0.0
  0
VERTEX
  5
308
  8
TOOLBOX__
 62
     3
 10
-4643.370431292797
 20
-105.3656319958741
 30
0.0
  0
VERTEX
  5
309
  8
TOOLBOX__
 62
     3
 10
-4642.297996859669
 20
-105.7077413060165
 30
0.0
  0
VERTEX
  5
30A
  8
TOOLBOX__
 62
     3
 10
-4641.135951453842
 20
-105.9826358911169
 30
0.0
  0
VERTEX
  5
30B
  8
TOOLBOX__
 62
     3
 10
-4639.884295075315
 20
-106.1903157511753
 30
0.0
  0
VERTEX
  5
30C
  8
TOOLBOX__
 62
     3
 10
-4638.543027724088
 20
-106.3307808861917
 30
0.0
  0
VERTEX
  5
30D
  8
TOOLBOX__
 62
     3
 10
-4637.11214940016
 20
-106.4040312961661
 30
0.0
  0
VERTEX
  5
30E
  8
TOOLBOX__
 62
     3
 10
-4635.70686941608
 20
-106.4413242663445
 30
0.0
  0
VERTEX
  5
30F
  8
TOOLBOX__
 62
     3
 10
-4634.442397084395
 20
-106.4739170819728
 30
0.0
  0
VERTEX
  5
310
  8
TOOLBOX__
 62
     3
 10
-4633.318732405105
 20
-106.5018097430511
 30
0.0
  0
VERTEX
  5
311
  8
TOOLBOX__
 62
     3
 10
-4632.335875378211
 20
-106.5250022495793
 30
0.0
  0
VERTEX
  5
312
  8
TOOLBOX__
 62
     3
 10
-4631.493826003712
 20
-106.5434946015575
 30
0.0
  0
VERTEX
  5
313
  8
TOOLBOX__
 62
     3
 10
-4630.792584281608
 20
-106.5572867989856
 30
0.0
  0
VERTEX
  5
314
  8
TOOLBOX__
 62
     3
 10
-4630.232150211899
 20
-106.5663788418637
 30
0.0
  0
VERTEX
  5
315
  8
TOOLBOX__
 62
     3
 10
-4629.812523794586
 20
-106.5707707301917
 30
0.0
  0
VERTEX
  5
316
  8
TOOLBOX__
 62
     3
 10
-4629.485563378974
 20
-106.5726629282461
 30
0.0
  0
VERTEX
  5
317
  8
TOOLBOX__
 62
     3
 10
-4629.20312731437
 20
-106.5742559003032
 30
0.0
  0
VERTEX
  5
318
  8
TOOLBOX__
 62
     3
 10
-4628.965215600774
 20
-106.5755496463631
 30
0.0
  0
VERTEX
  5
319
  8
TOOLBOX__
 62
     3
 10
-4628.771828238187
 20
-106.5765441664257
 30
0.0
  0
VERTEX
  5
31A
  8
TOOLBOX__
 62
     3
 10
-4628.622965226608
 20
-106.5772394604911
 30
0.0
  0
VERTEX
  5
31B
  8
TOOLBOX__
 62
     3
 10
-4628.518626566038
 20
-106.5776355285592
 30
0.0
  0
VERTEX
  5
31C
  8
TOOLBOX__
 62
     3
 10
-4628.458812256474
 20
-106.5777323706301
 30
0.0
  0
VERTEX
  5
31D
  8
TOOLBOX__
 62
     3
 10
-4628.443522297919
 20
-106.5775299867037
 30
0.0
  0
VERTEX
  5
31E
  8
TOOLBOX__
 62
     3
 10
-4628.433263734349
 20
-106.5772639397518
 30
0.0
  0
VERTEX
  5
31F
  8
TOOLBOX__
 62
     3
 10
-4628.388543609739
 20
-106.5771697927462
 30
0.0
  0
VERTEX
  5
320
  8
TOOLBOX__
 62
     3
 10
-4628.309361924089
 20
-106.5772475456869
 30
0.0
  0
VERTEX
  5
321
  8
TOOLBOX__
 62
     3
 10
-4628.1957186774
 20
-106.5774971985738
 30
0.0
  0
VERTEX
  5
322
  8
TOOLBOX__
 62
     3
 10
-4628.047613869671
 20
-106.5779187514071
 30
0.0
  0
VERTEX
  5
323
  8
TOOLBOX__
 62
     3
 10
-4627.865047500904
 20
-106.5785122041866
 30
0.0
  0
VERTEX
  5
324
  8
TOOLBOX__
 62
     3
 10
-4627.648019571096
 20
-106.5792775569124
 30
0.0
  0
VERTEX
  5
325
  8
TOOLBOX__
 62
     3
 10
-4627.39653008025
 20
-106.5802148095845
 30
0.0
  0
VERTEX
  5
326
  8
TOOLBOX__
 62
     3
 10
-4627.113300362007
 20
-106.5798929495244
 30
0.0
  0
VERTEX
  5
327
  8
TOOLBOX__
 62
     3
 10
-4626.801051750009
 20
-106.5768809640535
 30
0.0
  0
VERTEX
  5
328
  8
TOOLBOX__
 62
     3
 10
-4626.459784244256
 20
-106.571178853172
 30
0.0
  0
VERTEX
  5
329
  8
TOOLBOX__
 62
     3
 10
-4626.089497844749
 20
-106.5627866168797
 30
0.0
  0
VERTEX
  5
32A
  8
TOOLBOX__
 62
     3
 10
-4625.690192551487
 20
-106.5517042551768
 30
0.0
  0
VERTEX
  5
32B
  8
TOOLBOX__
 62
     3
 10
-4625.261868364471
 20
-106.5379317680631
 30
0.0
  0
VERTEX
  5
32C
  8
TOOLBOX__
 62
     3
 10
-4624.804525283699
 20
-106.5214691555387
 30
0.0
  0
VERTEX
  5
32D
  8
TOOLBOX__
 62
     3
 10
-4624.318163309174
 20
-106.5023164176037
 30
0.0
  0
VERTEX
  5
32E
  8
TOOLBOX__
 62
     3
 10
-4624.318163309174
 20
-106.5023164176037
 30
0.0
  0
VERTEX
  5
32F
  8
TOOLBOX__
 62
     3
 10
-4624.219192977405
 20
-106.4973679010163
 30
0.0
  0
VERTEX
  5
330
  8
TOOLBOX__
 62
     3
 10
-4624.114284425752
 20
-106.495388494377
 30
0.0
  0
VERTEX
  5
331
  8
TOOLBOX__
 62
     3
 10
-4623.635757336581
 20
-106.4835057194254
 30
0.0
  0
VERTEX
  5
332
  8
TOOLBOX__
 62
     3
 10
-4623.186042556415
 20
-106.4710218487012
 30
0.0
  0
VERTEX
  5
333
  8
TOOLBOX__
 62
     3
 10
-4622.765140085252
 20
-106.4579368822045
 30
0.0
  0
VERTEX
  5
334
  8
TOOLBOX__
 62
     3
 10
-4622.373049923094
 20
-106.4442508199354
 30
0.0
  0
VERTEX
  5
335
  8
TOOLBOX__
 62
     3
 10
-4622.00977206994
 20
-106.4299636618938
 30
0.0
  0
VERTEX
  5
336
  8
TOOLBOX__
 62
     3
 10
-4621.675306525789
 20
-106.4150754080797
 30
0.0
  0
VERTEX
  5
337
  8
TOOLBOX__
 62
     3
 10
-4621.369653290642
 20
-106.3995860584931
 30
0.0
  0
VERTEX
  5
338
  8
TOOLBOX__
 62
     3
 10
-4621.092812364499
 20
-106.3834956131341
 30
0.0
  0
VERTEX
  5
339
  8
TOOLBOX__
 62
     3
 10
-4620.84150189882
 20
-106.3641219620779
 30
0.0
  0
VERTEX
  5
33A
  8
TOOLBOX__
 62
     3
 10
-4620.612440045064
 20
-106.3387829954002
 30
0.0
  0
VERTEX
  5
33B
  8
TOOLBOX__
 62
     3
 10
-4620.405626803233
 20
-106.3074787131007
 30
0.0
  0
VERTEX
  5
33C
  8
TOOLBOX__
 62
     3
 10
-4620.221062173326
 20
-106.2702091151796
 30
0.0
  0
VERTEX
  5
33D
  8
TOOLBOX__
 62
     3
 10
-4620.058746155342
 20
-106.2269742016368
 30
0.0
  0
VERTEX
  5
33E
  8
TOOLBOX__
 62
     3
 10
-4619.918678749282
 20
-106.1777739724723
 30
0.0
  0
VERTEX
  5
33F
  8
TOOLBOX__
 62
     3
 10
-4619.800859955146
 20
-106.1226084276862
 30
0.0
  0
VERTEX
  5
340
  8
TOOLBOX__
 62
     3
 10
-4619.705289772934
 20
-106.0614775672784
 30
0.0
  0
VERTEX
  5
341
  8
TOOLBOX__
 62
     3
 10
-4619.626582239265
 20
-106.0326301711422
 30
0.0
  0
VERTEX
  5
342
  8
TOOLBOX__
 62
     3
 10
-4619.559351390763
 20
-106.0743150191709
 30
0.0
  0
VERTEX
  5
343
  8
TOOLBOX__
 62
     3
 10
-4619.503597227425
 20
-106.1865321113643
 30
0.0
  0
VERTEX
  5
344
  8
TOOLBOX__
 62
     3
 10
-4619.459319749254
 20
-106.3692814477226
 30
0.0
  0
VERTEX
  5
345
  8
TOOLBOX__
 62
     3
 10
-4619.426518956247
 20
-106.6225630282458
 30
0.0
  0
VERTEX
  5
346
  8
TOOLBOX__
 62
     3
 10
-4619.405194848406
 20
-106.9463768529338
 30
0.0
  0
VERTEX
  5
347
  8
TOOLBOX__
 62
     3
 10
-4619.39534742573
 20
-107.3407229217866
 30
0.0
  0
VERTEX
  5
348
  8
TOOLBOX__
 62
     3
 10
-4619.396976688218
 20
-107.8056012348043
 30
0.0
  0
VERTEX
  5
349
  8
TOOLBOX__
 62
     3
 10
-4619.403905955006
 20
-108.3334422563411
 30
0.0
  0
VERTEX
  5
34A
  8
TOOLBOX__
 62
     3
 10
-4619.409958545226
 20
-108.9166764507515
 30
0.0
  0
VERTEX
  5
34B
  8
TOOLBOX__
 62
     3
 10
-4619.415134458879
 20
-109.5553038180355
 30
0.0
  0
VERTEX
  5
34C
  8
TOOLBOX__
 62
     3
 10
-4619.419433695964
 20
-110.249324358193
 30
0.0
  0
VERTEX
  5
34D
  8
TOOLBOX__
 62
     3
 10
-4619.422856256482
 20
-110.9987380712241
 30
0.0
  0
VERTEX
  5
34E
  8
TOOLBOX__
 62
     3
 10
-4619.425402140433
 20
-111.8035449571287
 30
0.0
  0
VERTEX
  5
34F
  8
TOOLBOX__
 62
     3
 10
-4619.427071347816
 20
-112.6637450159068
 30
0.0
  0
VERTEX
  5
350
  8
TOOLBOX__
 62
     3
 10
-4619.427863878633
 20
-113.5793382475586
 30
0.0
  0
VERTEX
  5
351
  8
TOOLBOX__
 62
     3
 10
-4619.428193762793
 20
-114.5342197181308
 30
0.0
  0
VERTEX
  5
352
  8
TOOLBOX__
 62
     3
 10
-4619.428475030208
 20
-115.5122844936707
 30
0.0
  0
VERTEX
  5
353
  8
TOOLBOX__
 62
     3
 10
-4619.428707680878
 20
-116.5135325741781
 30
0.0
  0
VERTEX
  5
354
  8
TOOLBOX__
 62
     3
 10
-4619.428891714802
 20
-117.5379639596531
 30
0.0
  0
VERTEX
  5
355
  8
TOOLBOX__
 62
     3
 10
-4619.429027131982
 20
-118.5855786500957
 30
0.0
  0
VERTEX
  5
356
  8
TOOLBOX__
 62
     3
 10
-4619.429113932418
 20
-119.6563766455058
 30
0.0
  0
VERTEX
  5
357
  8
TOOLBOX__
 62
     3
 10
-4619.429152116109
 20
-120.7503579458835
 30
0.0
  0
VERTEX
  5
358
  8
TOOLBOX__
 62
     3
 10
-4619.429141683055
 20
-121.8675225512288
 30
0.0
  0
VERTEX
  5
359
  8
TOOLBOX__
 62
     3
 10
-4619.429109338587
 20
-122.9924080233247
 30
0.0
  0
VERTEX
  5
35A
  8
TOOLBOX__
 62
     3
 10
-4619.429081788036
 20
-124.1095519239542
 30
0.0
  0
VERTEX
  5
35B
  8
TOOLBOX__
 62
     3
 10
-4619.429059031403
 20
-125.2189542531173
 30
0.0
  0
VERTEX
  5
35C
  8
TOOLBOX__
 62
     3
 10
-4619.429041068686
 20
-126.320615010814
 30
0.0
  0
VERTEX
  5
35D
  8
TOOLBOX__
 62
     3
 10
-4619.429027899887
 20
-127.4145341970443
 30
0.0
  0
VERTEX
  5
35E
  8
TOOLBOX__
 62
     3
 10
-4619.429019525005
 20
-128.5007118118082
 30
0.0
  0
VERTEX
  5
35F
  8
TOOLBOX__
 62
     3
 10
-4619.42901594404
 20
-129.5791478551057
 30
0.0
  0
VERTEX
  5
360
  8
TOOLBOX__
 62
     3
 10
-4619.429017156992
 20
-130.6498423269368
 30
0.0
  0
VERTEX
  5
361
  8
TOOLBOX__
 62
     3
 10
-4619.429020517949
 20
-131.6972701178843
 30
0.0
  0
VERTEX
  5
362
  8
TOOLBOX__
 62
     3
 10
-4619.429023380997
 20
-132.7059061185309
 30
0.0
  0
VERTEX
  5
363
  8
TOOLBOX__
 62
     3
 10
-4619.429025746136
 20
-133.6757503288768
 30
0.0
  0
VERTEX
  5
364
  8
TOOLBOX__
 62
     3
 10
-4619.429027613366
 20
-134.6068027489218
 30
0.0
  0
VERTEX
  5
365
  8
TOOLBOX__
 62
     3
 10
-4619.429028982688
 20
-135.4990633786661
 30
0.0
  0
VERTEX
  5
366
  8
TOOLBOX__
 62
     3
 10
-4619.429029854101
 20
-136.3525322181094
 30
0.0
  0
VERTEX
  5
367
  8
TOOLBOX__
 62
     3
 10
-4619.429030227606
 20
-137.167209267252
 30
0.0
  0
VERTEX
  5
368
  8
TOOLBOX__
 62
     3
 10
-4619.429030103202
 20
-137.9430945260938
 30
0.0
  0
VERTEX
  5
369
  8
TOOLBOX__
 62
     3
 10
-4619.429029758032
 20
-138.6671748211474
 30
0.0
  0
VERTEX
  5
36A
  8
TOOLBOX__
 62
     3
 10
-4619.429029469242
 20
-139.3264369789257
 30
0.0
  0
VERTEX
  5
36B
  8
TOOLBOX__
 62
     3
 10
-4619.42902923683
 20
-139.9208809994286
 30
0.0
  0
VERTEX
  5
36C
  8
TOOLBOX__
 62
     3
 10
-4619.429029060796
 20
-140.4505068826561
 30
0.0
  0
VERTEX
  5
36D
  8
TOOLBOX__
 62
     3
 10
-4619.42902894114
 20
-140.9153146286082
 30
0.0
  0
VERTEX
  5
36E
  8
TOOLBOX__
 62
     3
 10
-4619.429028877865
 20
-141.315304237285
 30
0.0
  0
VERTEX
  5
36F
  8
TOOLBOX__
 62
     3
 10
-4619.429028870966
 20
-141.6504757086863
 30
0.0
  0
VERTEX
  5
370
  8
TOOLBOX__
 62
     3
 10
-4619.429028920447
 20
-141.9208290428123
 30
0.0
  0
VERTEX
  5
371
  8
TOOLBOX__
 62
     3
 10
-4619.429028920447
 20
-141.9208290428123
 30
0.0
  0
VERTEX
  5
372
  8
TOOLBOX__
 62
     3
 10
-4619.709210778192
 20
-141.9318088838768
 30
0.0
  0
VERTEX
  5
373
  8
TOOLBOX__
 62
     3
 10
-4620.053144095382
 20
-141.9452870271616
 30
0.0
  0
VERTEX
  5
374
  8
TOOLBOX__
 62
     3
 10
-4620.460828872019
 20
-141.9612634726668
 30
0.0
  0
VERTEX
  5
375
  8
TOOLBOX__
 62
     3
 10
-4620.932265108104
 20
-141.9797382203924
 30
0.0
  0
VERTEX
  5
376
  8
TOOLBOX__
 62
     3
 10
-4621.467452803635
 20
-142.0007112703383
 30
0.0
  0
VERTEX
  5
377
  8
TOOLBOX__
 62
     3
 10
-4622.066391958612
 20
-142.0241826225047
 30
0.0
  0
VERTEX
  5
378
  8
TOOLBOX__
 62
     3
 10
-4622.729082573036
 20
-142.0501522768914
 30
0.0
  0
VERTEX
  5
379
  8
TOOLBOX__
 62
     3
 10
-4623.455524646908
 20
-142.0786202334984
 30
0.0
  0
VERTEX
  5
37A
  8
TOOLBOX__
 62
     3
 10
-4624.211155344479
 20
-142.108231977453
 30
0.0
  0
VERTEX
  5
37B
  8
TOOLBOX__
 62
     3
 10
-4624.961411830003
 20
-142.137632993882
 30
0.0
  0
VERTEX
  5
37C
  8
TOOLBOX__
 62
     3
 10
-4625.70629410348
 20
-142.1668232827855
 30
0.0
  0
VERTEX
  5
37D
  8
TOOLBOX__
 62
     3
 10
-4626.44580216491
 20
-142.1958028441636
 30
0.0
  0
VERTEX
  5
37E
  8
TOOLBOX__
 62
     3
 10
-4627.179936014292
 20
-142.2245716780162
 30
0.0
  0
VERTEX
  5
37F
  8
TOOLBOX__
 62
     3
 10
-4627.908695651628
 20
-142.2531297843433
 30
0.0
  0
VERTEX
  5
380
  8
TOOLBOX__
 62
     3
 10
-4628.632081076918
 20
-142.2814771631449
 30
0.0
  0
VERTEX
  5
381
  8
TOOLBOX__
 62
     3
 10
-4629.35009229016
 20
-142.309613814421
 30
0.0
  0
VERTEX
  5
382
  8
TOOLBOX__
 62
     3
 10
-4630.073528607471
 20
-142.3379807160023
 30
0.0
  0
VERTEX
  5
383
  8
TOOLBOX__
 62
     3
 10
-4630.813189344963
 20
-142.3670188457193
 30
0.0
  0
VERTEX
  5
384
  8
TOOLBOX__
 62
     3
 10
-4631.569074502637
 20
-142.396728203572
 30
0.0
  0
VERTEX
  5
385
  8
TOOLBOX__
 62
     3
 10
-4632.341184080493
 20
-142.4271087895604
 30
0.0
  0
VERTEX
  5
386
  8
TOOLBOX__
 62
     3
 10
-4633.129518078531
 20
-142.4581606036846
 30
0.0
  0
VERTEX
  5
387
  8
TOOLBOX__
 62
     3
 10
-4633.934076496751
 20
-142.4898836459445
 30
0.0
  0
VERTEX
  5
388
  8
TOOLBOX__
 62
     3
 10
-4634.754859335154
 20
-142.5222779163401
 30
0.0
  0
VERTEX
  5
389
  8
TOOLBOX__
 62
     3
 10
-4635.591866593739
 20
-142.5553434148715
 30
0.0
  0
VERTEX
  5
38A
  8
TOOLBOX__
 62
     3
 10
-4636.406947795049
 20
-142.5875069895253
 30
0.0
  0
VERTEX
  5
38B
  8
TOOLBOX__
 62
     3
 10
-4637.161952461626
 20
-142.6171954882885
 30
0.0
  0
VERTEX
  5
38C
  8
TOOLBOX__
 62
     3
 10
-4637.856880593472
 20
-142.644408911161
 30
0.0
  0
VERTEX
  5
38D
  8
TOOLBOX__
 62
     3
 10
-4638.491732190585
 20
-142.6691472581429
 30
0.0
  0
VERTEX
  5
38E
  8
TOOLBOX__
 62
     3
 10
-4639.066507252966
 20
-142.691410529234
 30
0.0
  0
VERTEX
  5
38F
  8
TOOLBOX__
 62
     3
 10
-4639.581205780616
 20
-142.7111987244344
 30
0.0
  0
VERTEX
  5
390
  8
TOOLBOX__
 62
     3
 10
-4640.035827773533
 20
-142.7285118437442
 30
0.0
  0
VERTEX
  5
391
  8
TOOLBOX__
 62
     3
 10
-4640.430373231718
 20
-142.7433498871633
 30
0.0
  0
VERTEX
  5
392
  8
TOOLBOX__
 62
     3
 10
-4640.76624441077
 20
-142.7560427459347
 30
0.0
  0
VERTEX
  5
393
  8
TOOLBOX__
 62
     3
 10
-4641.044843566284
 20
-142.7669203113015
 30
0.0
  0
VERTEX
  5
394
  8
TOOLBOX__
 62
     3
 10
-4641.266170698262
 20
-142.7759825832638
 30
0.0
  0
VERTEX
  5
395
  8
TOOLBOX__
 62
     3
 10
-4641.430225806702
 20
-142.7832295618214
 30
0.0
  0
VERTEX
  5
396
  8
TOOLBOX__
 62
     3
 10
-4641.537008891606
 20
-142.7886612469744
 30
0.0
  0
VERTEX
  5
397
  8
TOOLBOX__
 62
     3
 10
-4641.586519952973
 20
-142.7922776387228
 30
0.0
  0
VERTEX
  5
398
  8
TOOLBOX__
 62
     3
 10
-4641.578758990803
 20
-142.7940787370666
 30
0.0
  0
VERTEX
  5
399
  8
TOOLBOX__
 62
     3
 10
-4641.513726005098
 20
-142.7940645420058
 30
0.0
  0
VERTEX
  5
39A
  8
TOOLBOX__
 62
     3
 10
-4641.477466729986
 20
-142.7942193277669
 30
0.0
  0
VERTEX
  5
39B
  8
TOOLBOX__
 62
     3
 10
-4641.556026899598
 20
-142.7965273685762
 30
0.0
  0
VERTEX
  5
39C
  8
TOOLBOX__
 62
     3
 10
-4641.749406513934
 20
-142.8009886644339
 30
0.0
  0
VERTEX
  5
39D
  8
TOOLBOX__
 62
     3
 10
-4642.057605572996
 20
-142.8076032153399
 30
0.0
  0
VERTEX
  5
39E
  8
TOOLBOX__
 62
     3
 10
-4642.480624076781
 20
-142.8163710212942
 30
0.0
  0
VERTEX
  5
39F
  8
TOOLBOX__
 62
     3
 10
-4643.018462025291
 20
-142.8272920822968
 30
0.0
  0
VERTEX
  5
3A0
  8
TOOLBOX__
 62
     3
 10
-4643.671119418525
 20
-142.8403663983478
 30
0.0
  0
VERTEX
  5
3A1
  8
TOOLBOX__
 62
     3
 10
-4644.438596256483
 20
-142.855593969447
 30
0.0
  0
VERTEX
  5
3A2
  8
TOOLBOX__
 62
     3
 10
-4645.431209633875
 20
-142.8660568438031
 30
0.0
  0
VERTEX
  5
3A3
  8
TOOLBOX__
 62
     3
 10
-4646.759276645412
 20
-142.8648370696247
 30
0.0
  0
VERTEX
  5
3A4
  8
TOOLBOX__
 62
     3
 10
-4648.422797291092
 20
-142.8519346469118
 30
0.0
  0
VERTEX
  5
3A5
  8
TOOLBOX__
 62
     3
 10
-4650.421771570918
 20
-142.8273495756644
 30
0.0
  0
VERTEX
  5
3A6
  8
TOOLBOX__
 62
     3
 10
-4652.756199484887
 20
-142.7910818558824
 30
0.0
  0
VERTEX
  5
3A7
  8
TOOLBOX__
 62
     3
 10
-4655.426081033
 20
-142.7431314875658
 30
0.0
  0
VERTEX
  5
3A8
  8
TOOLBOX__
 62
     3
 10
-4658.431416215257
 20
-142.6834984707148
 30
0.0
  0
VERTEX
  5
3A9
  8
TOOLBOX__
 62
     3
 10
-4661.772205031659
 20
-142.6121828053292
 30
0.0
  0
VERTEX
  5
3AA
  8
TOOLBOX__
 62
     3
 10
-4665.247784471047
 20
-142.3722680420248
 30
0.0
  0
VERTEX
  5
3AB
  8
TOOLBOX__
 62
     3
 10
-4668.657491522265
 20
-141.8068377314172
 30
0.0
  0
VERTEX
  5
3AC
  8
TOOLBOX__
 62
     3
 10
-4672.001326185311
 20
-140.9158918735065
 30
0.0
  0
VERTEX
  5
3AD
  8
TOOLBOX__
 62
     3
 10
-4675.279288460188
 20
-139.6994304682926
 30
0.0
  0
VERTEX
  5
3AE
  8
TOOLBOX__
 62
     3
 10
-4678.491378346893
 20
-138.1574535157755
 30
0.0
  0
VERTEX
  5
3AF
  8
TOOLBOX__
 62
     3
 10
-4681.637595845428
 20
-136.2899610159553
 30
0.0
  0
VERTEX
  5
3B0
  8
TOOLBOX__
 62
     3
 10
-4684.717940955792
 20
-134.096952968832
 30
0.0
  0
VERTEX
  5
3B1
  8
TOOLBOX__
 62
     3
 10
-4687.732413677986
 20
-131.5784293744055
 30
0.0
  0
VERTEX
  5
3B2
  8
TOOLBOX__
 62
     3
 10
-4687.732413677986
 20
-131.5784293744055
 30
0.0
  0
VERTEX
  5
3B3
  8
TOOLBOX__
 62
     3
 10
-4688.249038809736
 20
-131.0420101762884
 30
0.0
  0
VERTEX
  5
3B4
  8
TOOLBOX__
 62
     3
 10
-4688.586032789364
 20
-130.6975934217862
 30
0.0
  0
VERTEX
  5
3B5
  8
TOOLBOX__
 62
     3
 10
-4690.029595548554
 20
-128.9983764606041
 30
0.0
  0
VERTEX
  5
3B6
  8
TOOLBOX__
 62
     3
 10
-4691.305576426503
 20
-127.2948750968519
 30
0.0
  0
VERTEX
  5
3B7
  8
TOOLBOX__
 62
     3
 10
-4692.413975423207
 20
-125.5870893305296
 30
0.0
  0
VERTEX
  5
3B8
  8
TOOLBOX__
 62
     3
 10
-4693.354792538668
 20
-123.8750191616373
 30
0.0
  0
VERTEX
  5
3B9
  8
TOOLBOX__
 62
     3
 10
-4694.128027772886
 20
-122.1586645901749
 30
0.0
  0
VERTEX
  5
3BA
  8
TOOLBOX__
 62
     3
 10
-4694.733681125861
 20
-120.4380256161423
 30
0.0
  0
VERTEX
  5
3BB
  8
TOOLBOX__
 62
     3
 10
-4695.171752597593
 20
-118.7131022395398
 30
0.0
  0
VERTEX
  5
3BC
  8
TOOLBOX__
 62
     3
 10
-4695.442242188083
 20
-116.9838944603671
 30
0.0
  0
VERTEX
  5
3BD
  8
TOOLBOX__
 62
     3
 10
-4695.617831007625
 20
-115.3252219954447
 30
0.0
  0
VERTEX
  5
3BE
  8
TOOLBOX__
 62
     3
 10
-4695.771200166516
 20
-113.811904561593
 30
0.0
  0
VERTEX
  5
3BF
  8
TOOLBOX__
 62
     3
 10
-4695.902349664756
 20
-112.443942158812
 30
0.0
  0
VERTEX
  5
3C0
  8
TOOLBOX__
 62
     3
 10
-4696.011279502345
 20
-111.2213347871016
 30
0.0
  0
VERTEX
  5
3C1
  8
TOOLBOX__
 62
     3
 10
-4696.097989679283
 20
-110.1440824464619
 30
0.0
  0
VERTEX
  5
3C2
  8
TOOLBOX__
 62
     3
 10
-4696.16248019557
 20
-109.2121851368928
 30
0.0
  0
VERTEX
  5
3C3
  8
TOOLBOX__
 62
     3
 10
-4696.204751051205
 20
-108.4256428583944
 30
0.0
  0
VERTEX
  5
3C4
  8
TOOLBOX__
 62
     3
 10
-4696.22480224619
 20
-107.7844556109667
 30
0.0
  0
VERTEX
  5
3C5
  8
TOOLBOX__
 62
     3
 10
-4696.23312245829
 20
-107.240729245754
 30
0.0
  0
VERTEX
  5
3C6
  8
TOOLBOX__
 62
     3
 10
-4696.240200365273
 20
-106.7465696139005
 30
0.0
  0
VERTEX
  5
3C7
  8
TOOLBOX__
 62
     3
 10
-4696.246035967139
 20
-106.3019767154064
 30
0.0
  0
VERTEX
  5
3C8
  8
TOOLBOX__
 62
     3
 10
-4696.250629263886
 20
-105.9069505502716
 30
0.0
  0
VERTEX
  5
3C9
  8
TOOLBOX__
 62
     3
 10
-4696.253980255517
 20
-105.5614911184961
 30
0.0
  0
VERTEX
  5
3CA
  8
TOOLBOX__
 62
     3
 10
-4696.256088942029
 20
-105.26559842008
 30
0.0
  0
VERTEX
  5
3CB
  8
TOOLBOX__
 62
     3
 10
-4696.256955323424
 20
-105.0192724550231
 30
0.0
  0
VERTEX
  5
3CC
  8
TOOLBOX__
 62
     3
 10
-4696.256579399702
 20
-104.8225132233256
 30
0.0
  0
VERTEX
  5
3CD
  8
TOOLBOX__
 62
     3
 10
-4696.255655786753
 20
-104.585164959083
 30
0.0
  0
VERTEX
  5
3CE
  8
TOOLBOX__
 62
     3
 10
-4696.254879100467
 20
-104.217071896391
 30
0.0
  0
VERTEX
  5
3CF
  8
TOOLBOX__
 62
     3
 10
-4696.254249340846
 20
-103.7182340352495
 30
0.0
  0
VERTEX
  5
3D0
  8
TOOLBOX__
 62
     3
 10
-4696.253766507889
 20
-103.0886513756586
 30
0.0
  0
VERTEX
  5
3D1
  8
TOOLBOX__
 62
     3
 10
-4696.253430601595
 20
-102.3283239176183
 30
0.0
  0
VERTEX
  5
3D2
  8
TOOLBOX__
 62
     3
 10
-4696.253241621966
 20
-101.4372516611286
 30
0.0
  0
VERTEX
  5
3D3
  8
TOOLBOX__
 62
     3
 10
-4696.253199569001
 20
-100.4154346061894
 30
0.0
  0
VERTEX
  5
3D4
  8
TOOLBOX__
 62
     3
 10
-4696.253304442698
 20
-99.26287275280083
 30
0.0
  0
VERTEX
  5
3D5
  8
TOOLBOX__
 62
     3
 10
-4696.25346941681
 20
-97.93568110939293
 30
0.0
  0
VERTEX
  5
3D6
  8
TOOLBOX__
 62
     3
 10
-4696.253607665083
 20
-96.38997468439584
 30
0.0
  0
VERTEX
  5
3D7
  8
TOOLBOX__
 62
     3
 10
-4696.253719187518
 20
-94.62575347780955
 30
0.0
  0
VERTEX
  5
3D8
  8
TOOLBOX__
 62
     3
 10
-4696.253803984116
 20
-92.64301748963408
 30
0.0
  0
VERTEX
  5
3D9
  8
TOOLBOX__
 62
     3
 10
-4696.253862054875
 20
-90.4417667198694
 30
0.0
  0
VERTEX
  5
3DA
  8
TOOLBOX__
 62
     3
 10
-4696.253893399797
 20
-88.02200116851554
 30
0.0
  0
VERTEX
  5
3DB
  8
TOOLBOX__
 62
     3
 10
-4696.25389801888
 20
-85.38372083557249
 30
0.0
  0
VERTEX
  5
3DC
  8
TOOLBOX__
 62
     3
 10
-4696.253875912125
 20
-82.52692572104024
 30
0.0
  0
VERTEX
  5
3DD
  8
TOOLBOX__
 62
     3
 10
-4696.253842857606
 20
-79.58115235059526
 30
0.0
  0
VERTEX
  5
3DE
  8
TOOLBOX__
 62
     3
 10
-4696.253814633395
 20
-76.675937249914
 30
0.0
  0
VERTEX
  5
3DF
  8
TOOLBOX__
 62
     3
 10
-4696.253791239491
 20
-73.81128041899646
 30
0.0
  0
VERTEX
  5
3E0
  8
TOOLBOX__
 62
     3
 10
-4696.253772675895
 20
-70.98718185784264
 30
0.0
  0
VERTEX
  5
3E1
  8
TOOLBOX__
 62
     3
 10
-4696.253758942607
 20
-68.20364156645255
 30
0.0
  0
VERTEX
  5
3E2
  8
TOOLBOX__
 62
     3
 10
-4696.253750039628
 20
-65.46065954482617
 30
0.0
  0
VERTEX
  5
3E3
  8
TOOLBOX__
 62
     3
 10
-4696.253745966957
 20
-62.75823579296352
 30
0.0
  0
VERTEX
  5
3E4
  8
TOOLBOX__
 62
     3
 10
-4696.253746724593
 20
-60.09637031086459
 30
0.0
  0
VERTEX
  5
3E5
  8
TOOLBOX__
 62
     3
 10
-4696.253749697487
 20
-57.45391493108704
 30
0.0
  0
VERTEX
  5
3E6
  8
TOOLBOX__
 62
     3
 10
-4696.253752270592
 20
-54.80972148618855
 30
0.0
  0
VERTEX
  5
3E7
  8
TOOLBOX__
 62
     3
 10
-4696.253754443904
 20
-52.16378997616911
 30
0.0
  0
VERTEX
  5
3E8
  8
TOOLBOX__
 62
     3
 10
-4696.253756217426
 20
-49.51612040102873
 30
0.0
  0
VERTEX
  5
3E9
  8
TOOLBOX__
 62
     3
 10
-4696.253757591156
 20
-46.8667127607674
 30
0.0
  0
VERTEX
  5
3EA
  8
TOOLBOX__
 62
     3
 10
-4696.253758565095
 20
-44.21556705538512
 30
0.0
  0
VERTEX
  5
3EB
  8
TOOLBOX__
 62
     3
 10
-4696.253759139243
 20
-41.5626832848819
 30
0.0
  0
VERTEX
  5
3EC
  8
TOOLBOX__
 62
     3
 10
-4696.2537593136
 20
-38.90806144925773
 30
0.0
  0
VERTEX
  5
3ED
  8
TOOLBOX__
 62
     3
 10
-4696.253759289888
 20
-36.2327849147193
 30
0.0
  0
VERTEX
  5
3EE
  8
TOOLBOX__
 62
     3
 10
-4696.253759269829
 20
-33.51793704747331
 30
0.0
  0
VERTEX
  5
3EF
  8
TOOLBOX__
 62
     3
 10
-4696.253759253423
 20
-30.76351784751975
 30
0.0
  0
VERTEX
  5
3F0
  8
TOOLBOX__
 62
     3
 10
-4696.25375924067
 20
-27.96952731485862
 30
0.0
  0
VERTEX
  5
3F1
  8
TOOLBOX__
 62
     3
 10
-4696.253759231569
 20
-25.13596544948993
 30
0.0
  0
VERTEX
  5
3F2
  8
TOOLBOX__
 62
     3
 10
-4696.253759226122
 20
-22.26283225141367
 30
0.0
  0
VERTEX
  5
3F3
  8
TOOLBOX__
 62
     3
 10
-4696.253759224328
 20
-19.35012772062984
 30
0.0
  0
VERTEX
  5
3F4
  8
TOOLBOX__
 62
     3
 10
-4696.253759226187
 20
-16.39785185713845
 30
0.0
  0
VERTEX
  5
3F5
  8
TOOLBOX__
 62
     3
 10
-4696.25375922965
 20
-13.53772022006137
 30
0.0
  0
VERTEX
  5
3F6
  8
TOOLBOX__
 62
     3
 10
-4696.253759232672
 20
-10.90144836852051
 30
0.0
  0
VERTEX
  5
3F7
  8
TOOLBOX__
 62
     3
 10
-4696.253759235248
 20
-8.489036302515842
 30
0.0
  0
VERTEX
  5
3F8
  8
TOOLBOX__
 62
     3
 10
-4696.253759237383
 20
-6.300484022047385
 30
0.0
  0
VERTEX
  5
3F9
  8
TOOLBOX__
 62
     3
 10
-4696.253759239073
 20
-4.335791527115134
 30
0.0
  0
VERTEX
  5
3FA
  8
TOOLBOX__
 62
     3
 10
-4696.253759240321
 20
-2.594958817719089
 30
0.0
  0
VERTEX
  5
3FB
  8
TOOLBOX__
 62
     3
 10
-4696.253759241124
 20
-1.07798589385925
 30
0.0
  0
VERTEX
  5
3FC
  8
TOOLBOX__
 62
     3
 10
-4696.253759241486
 20
0.2151272444643837
 30
0.0
  0
VERTEX
  5
3FD
  8
TOOLBOX__
 62
     3
 10
-4696.253759241619
 20
1.349384824482826
 30
0.0
  0
VERTEX
  5
3FE
  8
TOOLBOX__
 62
     3
 10
-4696.253759241735
 20
2.389791073427091
 30
0.0
  0
VERTEX
  5
3FF
  8
TOOLBOX__
 62
     3
 10
-4696.253759241836
 20
3.336345991297179
 30
0.0
  0
VERTEX
  5
400
  8
TOOLBOX__
 62
     3
 10
-4696.253759241921
 20
4.189049578093091
 30
0.0
  0
VERTEX
  5
401
  8
TOOLBOX__
 62
     3
 10
-4696.25375924199
 20
4.947901833814825
 30
0.0
  0
VERTEX
  5
402
  8
TOOLBOX__
 62
     3
 10
-4696.253759242045
 20
5.612902758462383
 30
0.0
  0
VERTEX
  5
403
  8
TOOLBOX__
 62
     3
 10
-4696.253759242084
 20
6.184052352035764
 30
0.0
  0
VERTEX
  5
404
  8
TOOLBOX__
 62
     3
 10
-4696.253759242107
 20
6.661350614534967
 30
0.0
  0
VERTEX
  5
405
  8
TOOLBOX__
 62
     3
 10
-4696.253759242107
 20
6.661350614534967
 30
0.0
  0
VERTEX
  5
406
  8
TOOLBOX__
 62
     3
 10
-4721.740599075682
 20
6.661350614534967
 30
0.0
  0
SEQEND
  5
407
  8
TOOLBOX__
 62
     3
  0
POLYLINE
  5
408
  8
TOOLBOX__
 62
     3
 66
     1
 10
0.0
 20
0.0
 30
0.0
 70
   129
  0
VERTEX
  5
409
  8
TOOLBOX__
 62
     3
 10
-4172.510681220418
 20
-140.2739627224055
 30
0.0
  0
VERTEX
  5
40A
  8
TOOLBOX__
 62
     3
 10
-4220.253969259178
 20
-140.2739627224055
 30
0.0
  0
VERTEX
  5
40B
  8
TOOLBOX__
 62
     3
 10
-4220.253969259178
 20
70.68327882029371
 30
0.0
  0
VERTEX
  5
40C
  8
TOOLBOX__
 62
     3
 10
-4172.510681220418
 20
106.5817975545197
 30
0.0
  0
SEQEND
  5
40D
  8
TOOLBOX__
 62
     3
  0
POLYLINE
  5
40E
  8
TOOLBOX__
 62
     3
 66
     1
 10
0.0
 20
0.0
 30
0.0
 70
   129
  0
VERTEX
  5
40F
  8
TOOLBOX__
 62
     3
 10
-3776.58184844063
 20
-140.2739627224055
 30
0.0
  0
VERTEX
  5
410
  8
TOOLBOX__
 62
     3
 10
-3714.254292314545
 20
-47.7960847304148
 30
0.0
  0
VERTEX
  5
411
  8
TOOLBOX__
 62
     3
 10
-3773.961114055808
 20
41.97396498476701
 30
0.0
  0
VERTEX
  5
412
  8
TOOLBOX__
 62
     3
 10
-3715.505277307864
 20
41.97396498476701
 30
0.0
  0
VERTEX
  5
413
  8
TOOLBOX__
 62
     3
 10
-3684.959074115024
 20
-10.93161555826191
 30
0.0
  0
VERTEX
  5
414
  8
TOOLBOX__
 62
     3
 10
-3655.204633576184
 20
41.97396498476701
 30
0.0
  0
VERTEX
  5
415
  8
TOOLBOX__
 62
     3
 10
-3598.387745522166
 20
41.97396498476701
 30
0.0
  0
VERTEX
  5
416
  8
TOOLBOX__
 62
     3
 10
-3658.340013686186
 20
-47.02015732945256
 30
0.0
  0
VERTEX
  5
417
  8
TOOLBOX__
 62
     3
 10
-3596.059963319323
 20
-140.2739627224055
 30
0.0
  0
VERTEX
  5
418
  8
TOOLBOX__
 62
     3
 10
-3655.489668131588
 20
-140.2739627224055
 30
0.0
  0
VERTEX
  5
419
  8
TOOLBOX__
 62
     3
 10
-3686.938480750148
 20
-85.42064605044106
 30
0.0
  0
VERTEX
  5
41A
  8
TOOLBOX__
 62
     3
 10
-3718.640657417865
 20
-140.2739627224055
 30
0.0
  0
SEQEND
  5
41B
  8
TOOLBOX__
 62
     3
  0
ENDBLK
  5
70
  8
0
  0
BLOCK
  8
0
  2
_A4
 70
     0
 10
0.0
 20
0.0
 30
0.0
  3
_A4
  1

  0
LINE
  5
41C
  8
__
  6
CONTINUOUS
 62
     3
 10
5036.606058014953
 20
146.5817975545197
 30
0.0
 11
-5036.606058014953
 21
146.5817975545197
 31
0.0
  0
INSERT
  5
41D
  8
__
 62
    17
  2
____
 10
0.0
 20
0.0
 30
0.0
  0
TEXT
  5
41E
  8
__
 62
     4
 10
3933.326895127157
 20
3.412572073498254
 30
0.0
 40
75.24088541666666
  1
SCALE:
  7
____________
 11
3933.326895127157
 21
78.65345749016491
 31
0.0
 73
     3
  0
TEXT
  5
41F
  8
__
 62
     4
 10
-1674.923202351823
 20
1.467908665613308
 30
0.0
 40
75.24088541666666
  1
NAME:
  7
____________
 11
-1674.923202351823
 21
76.70879408227997
 31
0.0
 73
     3
  0
TEXT
  5
420
  8
__
 62
     4
 10
2573.689926061106
 20
1.39290866563077
 30
0.0
 40
75.24088541666666
  1
DATE:
  7
____________
 11
2573.689926061106
 21
76.63379408229743
 31
0.0
 73
     3
  0
TEXT
  5
421
  8
__
 62
     4
 10
1269.015793245973
 20
-6.679633102304265
 30
0.0
 40
75.24088541666666
  1
ID:
  7
____________
 11
1269.015793245973
 21
68.56125231436239
 31
0.0
 73
     3
  0
ENDBLK
  5
74
  8
0
  0
BLOCK
  8
0
  2
____-1
 70
     0
 10
0.0
 20
0.0
 30
0.0
  3
____-1
  1

  0
INSERT
  5
422
  8
INAX_SHAPE1
 62
     1
  2
_A4
 10
-5269.361853500159
 20
15127.18971692733
 30
0.0
  0
ENDBLK
  5
77
  8
0
  0
BLOCK
  8
0
  2
*D4
 70
     1
 10
0.0
 20
0.0
 30
0.0
  3
*D4
  1

  0
LINE
  5
423
  8
__-1
 62
     0
 10
780.0576141698662
 20
-424.8469436260434
 30
0.0
 11
727.3805661586905
 21
-424.8469436260434
 31
0.0
  0
LINE
  5
424
  8
__-1
 62
     0
 10
780.0576141698662
 20
-654.8469416260434
 30
0.0
 11
727.3805661586905
 21
-654.8469416260434
 31
0.0
  0
LINE
  5
425
  8
__-1
 62
     0
 10
727.3805661586905
 20
-425.7461135479184
 30
0.0
 11
727.3805661586905
 21
-653.9477717041684
 31
0.0
  0
INSERT
  5
426
  8
__-1
 62
     0
  2
_DOT
 10
727.3805661586905
 20
-424.8469436260434
 30
0.0
 41
0.899169921875
 42
0.899169921875
 43
0.899169921875
 50
90.0
  0
INSERT
  5
427
  8
__-1
 62
     0
  2
_DOT
 10
727.3805661586905
 20
-654.8469416260434
 30
0.0
 41
0.899169921875
 42
0.899169921875
 43
0.899169921875
 50
270.0
  0
TEXT
  5
428
  8
__-1
  6
CONTINUOUS
 62
     0
 10
727.360566158765
 20
-545.915560350911
 30
0.0
 40
4.248032407407408
  1
230
 50
90.0
  7
YUGOTHIC_MEDIUM
  0
POINT
  5
429
  8
DEFPOINTS
 62
     0
 10
783.0576141586903
 20
-424.8469436260434
 30
0.0
  0
POINT
  5
42A
  8
DEFPOINTS
 62
     0
 10
783.0576141586903
 20
-654.8469416260434
 30
0.0
  0
POINT
  5
42B
  8
DEFPOINTS
 62
     0
 10
727.3805661586905
 20
-654.8469416260434
 30
0.0
  0
ENDBLK
  5
7B
  8
0
  0
BLOCK
  8
0
  2
*D5
 70
     1
 10
0.0
 20
0.0
 30
0.0
  3
*D5
  1

  0
LINE
  5
42C
  8
__-1
 62
     0
 10
775.2805661698661
 20
-454.8469436260434
 30
0.0
 11
757.3805661586905
 21
-454.8469436260434
 31
0.0
  0
LINE
  5
42D
  8
__-1
 62
     0
 10
777.057614181042
 20
-654.8469416260434
 30
0.0
 11
757.3805661586905
 21
-654.8469416260434
 31
0.0
  0
LINE
  5
42E
  8
__-1
 62
     0
 10
757.3805661586905
 20
-455.7461135479184
 30
0.0
 11
757.3805661586905
 21
-653.9477717041684
 31
0.0
  0
INSERT
  5
42F
  8
__-1
 62
     0
  2
_DOT
 10
757.3805661586905
 20
-454.8469436260434
 30
0.0
 41
0.899169921875
 42
0.899169921875
 43
0.899169921875
 50
90.0
  0
INSERT
  5
430
  8
__-1
 62
     0
  2
_DOT
 10
757.3805661586905
 20
-654.8469416260434
 30
0.0
 41
0.899169921875
 42
0.899169921875
 43
0.899169921875
 50
270.0
  0
TEXT
  5
431
  8
__-1
  6
CONTINUOUS
 62
     0
 10
757.360566158765
 20
-560.915560350911
 30
0.0
 40
4.248032407407408
  1
200
 50
90.0
  7
YUGOTHIC_MEDIUM
  0
POINT
  5
432
  8
DEFPOINTS
 62
     0
 10
778.2805661586902
 20
-454.8469436260434
 30
0.0
  0
POINT
  5
433
  8
DEFPOINTS
 62
     0
 10
780.0576141698662
 20
-654.8469416260434
 30
0.0
  0
POINT
  5
434
  8
DEFPOINTS
 62
     0
 10
757.3805661586905
 20
-654.8469416260434
 30
0.0
  0
ENDBLK
  5
7E
  8
0
  0
BLOCK
  8
0
  2
*D6
 70
     1
 10
0.0
 20
0.0
 30
0.0
  3
*D6
  1

  0
LINE
  5
435
  8
__-1
 62
     0
 10
771.7010742455554
 20
-424.8469436260434
 30
0.0
 11
757.3805661586905
 21
-424.8469436260434
 31
0.0
  0
LINE
  5
436
  8
__-1
 62
     0
 10
754.3805661698664
 20
-454.8469436260434
 30
0.0
 11
757.3805661586905
 21
-454.8469436260434
 31
0.0
  0
LINE
  5
437
  8
__-1
 62
     0
 10
757.3805661586905
 20
-425.7461135479184
 30
0.0
 11
757.3805661586905
 21
-453.9477737041684
 31
0.0
  0
INSERT
  5
438
  8
__-1
 62
     0
  2
_DOT
 10
757.3805661586905
 20
-424.8469436260434
 30
0.0
 41
0.899169921875
 42
0.899169921875
 43
0.899169921875
 50
90.0
  0
INSERT
  5
439
  8
__-1
 62
     0
  2
_DOT
 10
757.3805661586905
 20
-454.8469436260434
 30
0.0
 41
0.899169921875
 42
0.899169921875
 43
0.899169921875
 50
270.0
  0
TEXT
  5
43A
  8
__-1
  6
CONTINUOUS
 62
     0
 10
757.360566158765
 20
-443.8926887759553
 30
0.0
 40
4.248032407407408
  1
30
 50
90.0
  7
YUGOTHIC_MEDIUM
  0
POINT
  5
43B
  8
DEFPOINTS
 62
     0
 10
774.7010742343796
 20
-424.8469436260434
 30
0.0
  0
POINT
  5
43C
  8
DEFPOINTS
 62
     0
 10
757.3805661586905
 20
-454.8469436260434
 30
0.0
  0
POINT
  5
43D
  8
DEFPOINTS
 62
     0
 10
757.3805661586905
 20
-454.8469436260434
 30
0.0
  0
ENDBLK
  5
81
  8
0
  0
BLOCK
  8
0
  2
*D7
 70
     1
 10
0.0
 20
0.0
 30
0.0
  3
*D7
  1

  0
LINE
  5
43E
  8
__-1
 62
     0
 10
850.38056615869
 20
-421.8469436372193
 30
0.0
 11
850.38056615869
 21
-364.4758342610435
 31
0.0
  0
LINE
  5
43F
  8
__-1
 62
     0
 10
791.2805661586901
 20
-419.0518637251961
 30
0.0
 11
791.2805661586901
 21
-364.4758342610435
 31
0.0
  0
LINE
  5
440
  8
__-1
 62
     0
 10
849.481396236815
 20
-364.4758342610435
 30
0.0
 11
792.1797360805651
 21
-364.4758342610435
 31
0.0
  0
INSERT
  5
441
  8
__-1
 62
     0
  2
_DOT
 10
850.38056615869
 20
-364.4758342610435
 30
0.0
 41
0.899169921875
 42
0.899169921875
 43
0.899169921875
  0
INSERT
  5
442
  8
__-1
 62
     0
  2
_DOT
 10
791.2805661586901
 20
-364.4758342610435
 30
0.0
 41
0.899169921875
 42
0.899169921875
 43
0.899169921875
 50
180.0
  0
TEXT
  5
443
  8
__-1
  6
CONTINUOUS
 62
     0
 10
814.3573739188312
 20
-364.455834261118
 30
0.0
 40
4.248032407407408
  1
59.1
  7
YUGOTHIC_MEDIUM
  0
POINT
  5
444
  8
DEFPOINTS
 62
     0
 10
850.38056615869
 20
-424.8469436260434
 30
0.0
  0
POINT
  5
445
  8
DEFPOINTS
 62
     0
 10
791.2805661586901
 20
-422.0518637140202
 30
0.0
  0
POINT
  5
446
  8
DEFPOINTS
 62
     0
 10
791.2805661586901
 20
-364.4758342610435
 30
0.0
  0
ENDBLK
  5
84
  8
0
  0
BLOCK
  8
0
  2
*D8
 70
     1
 10
0.0
 20
0.0
 30
0.0
  3
*D8
  1

  0
LINE
  5
447
  8
__-1
 62
     0
 10
856.88056615869
 20
-414.0000000111759
 30
0.0
 11
856.88056615869
 21
-394.8469436260434
 31
0.0
  0
LINE
  5
448
  8
__-1
 62
     0
 10
843.88056615869
 20
-414.0000000111759
 30
0.0
 11
843.88056615869
 21
-394.8469436260434
 31
0.0
  0
LINE
  5
449
  8
__-1
 62
     0
 10
855.981396236815
 20
-394.8469436260434
 30
0.0
 11
844.779736080565
 21
-394.8469436260434
 31
0.0
  0
INSERT
  5
44A
  8
__-1
 62
     0
  2
_DOT
 10
856.88056615869
 20
-394.8469436260434
 30
0.0
 41
0.899169921875
 42
0.899169921875
 43
0.899169921875
  0
INSERT
  5
44B
  8
__-1
 62
     0
  2
_DOT
 10
843.88056615869
 20
-394.8469436260434
 30
0.0
 41
0.899169921875
 42
0.899169921875
 43
0.899169921875
 50
180.0
  0
TEXT
  5
44C
  8
__-1
  6
CONTINUOUS
 62
     0
 10
846.0313901225348
 20
-394.8269436261179
 30
0.0
 40
4.248032407407408
  1
13
  7
YUGOTHIC_MEDIUM
  0
POINT
  5
44D
  8
DEFPOINTS
 62
     0
 10
856.88056615869
 20
-417.0
 30
0.0
  0
POINT
  5
44E
  8
DEFPOINTS
 62
     0
 10
843.88056615869
 20
-417.0
 30
0.0
  0
POINT
  5
44F
  8
DEFPOINTS
 62
     0
 10
843.88056615869
 20
-394.8469436260434
 30
0.0
  0
ENDBLK
  5
87
  8
0
  0
BLOCK
  8
0
  2
*D9
 70
     1
 10
0.0
 20
0.0
 30
0.0
  3
*D9
  1

  0
LINE
  5
450
  8
__-1
 62
     0
 10
880.38056615869
 20
-650.9999999888241
 30
0.0
 11
880.38056615869
 21
-698.0
 31
0.0
  0
LINE
  5
451
  8
__-1
 62
     0
 10
820.3805581586901
 20
-650.9999999888241
 30
0.0
 11
820.3805581586901
 21
-698.0
 31
0.0
  0
LINE
  5
452
  8
__-1
 62
     0
 10
879.481396236815
 20
-698.0
 30
0.0
 11
821.2797280805651
 21
-698.0
 31
0.0
  0
INSERT
  5
453
  8
__-1
 62
     0
  2
_DOT
 10
880.38056615869
 20
-698.0
 30
0.0
 41
0.899169921875
 42
0.899169921875
 43
0.899169921875
  0
INSERT
  5
454
  8
__-1
 62
     0
  2
_DOT
 10
820.3805581586901
 20
-698.0
 30
0.0
 41
0.899169921875
 42
0.899169921875
 43
0.899169921875
 50
180.0
  0
TEXT
  5
455
  8
__-1
  6
CONTINUOUS
 62
     0
 10
846.2336733800305
 20
-697.9800000000745
 30
0.0
 40
4.248032407407408
  1
60
  7
YUGOTHIC_MEDIUM
  0
POINT
  5
456
  8
DEFPOINTS
 62
     0
 10
880.38056615869
 20
-648.0
 30
0.0
  0
POINT
  5
457
  8
DEFPOINTS
 62
     0
 10
820.3805581586901
 20
-648.0
 30
0.0
  0
POINT
  5
458
  8
DEFPOINTS
 62
     0
 10
820.3805581586901
 20
-698.0
 30
0.0
  0
ENDBLK
  5
8A
  8
0
  0
BLOCK
  8
0
  2
*D10
 70
     1
 10
0.0
 20
0.0
 30
0.0
  3
*D10
  1

  0
LINE
  5
459
  8
__-1
 62
     0
 10
864.9805661586901
 20
-496.8513976148676
 30
0.0
 11
864.9805661586901
 21
-529.7466666667411
 31
0.0
  0
LINE
  5
45A
  8
__-1
 62
     0
 10
835.78056615869
 20
-496.8513976148676
 30
0.0
 11
835.78056615869
 21
-529.7466666667411
 31
0.0
  0
LINE
  5
45B
  8
__-1
 62
     0
 10
864.9805661586901
 20
-529.7466666667411
 30
0.0
 11
891.6494134123292
 21
-529.7466666667411
 31
0.0
  0
LINE
  5
45C
  8
__-1
 62
     0
 10
864.0813962368151
 20
-529.7466666667411
 30
0.0
 11
836.679736080565
 21
-529.7466666667411
 31
0.0
  0
INSERT
  5
45D
  8
__-1
 62
     0
  2
_DOT
 10
864.9805661586901
 20
-529.7466666667411
 30
0.0
 41
0.899169921875
 42
0.899169921875
 43
0.899169921875
  0
INSERT
  5
45E
  8
__-1
 62
     0
  2
_DOT
 10
835.78056615869
 20
-529.7466666667411
 30
0.0
 41
0.899169921875
 42
0.899169921875
 43
0.899169921875
 50
180.0
  0
TEXT
  5
45F
  8
__-1
  6
CONTINUOUS
 62
     0
 10
878.076167160199
 20
-529.7266666668156
 30
0.0
 40
4.248032407407408
  1
29.2
  7
YUGOTHIC_MEDIUM
  0
POINT
  5
460
  8
DEFPOINTS
 62
     0
 10
864.9805661586901
 20
-493.8513976260434
 30
0.0
  0
POINT
  5
461
  8
DEFPOINTS
 62
     0
 10
835.78056615869
 20
-493.8513976260434
 30
0.0
  0
POINT
  5
462
  8
DEFPOINTS
 62
     0
 10
835.78056615869
 20
-534.0
 30
0.0
  0
ENDBLK
  5
8D
  8
0
  0
BLOCK
  8
0
  2
_DOT
 70
     0
 10
0.0
 20
0.0
 30
0.0
  3
_DOT
  1

  0
POLYLINE
  5
AF
  8
0
  6
BYBLOCK
 62
     0
 66
     1
 10
0.0
 20
0.0
 30
0.0
 70
     1
 40
0.5
 41
0.5
  0
VERTEX
  5
90D
  8
0
  6
BYBLOCK
 62
     0
 10
-0.25
 20
0.0
 30
0.0
 42
1.0
  0
VERTEX
  5
90E
  8
0
  6
BYBLOCK
 62
     0
 10
0.25
 20
0.0
 30
0.0
 42
1.0
  0
SEQEND
  5
90F
  8
0
  6
BYBLOCK
 62
     0
  0
LINE
  5
B0
  8
0
  6
BYBLOCK
 62
     0
 10
-0.5
 20
0.0
 30
0.0
 11
-1.0
 21
0.0
 31
0.0
  0
ENDBLK
  5
AE
  8
0
  0
ENDSEC
  0
SECTION
  2
ENTITIES
  0
INSERT
  5
463
  8
__
 62
     7
  2
____-1
 10
1055.0
 20
-1430.0
 30
0.0
 41
0.04
 42
0.04
 43
0.04
  0
TEXT
  5
464
  8
__
 62
     4
 10
964.0
 20
-828.0004382302783
 30
0.0
 40
4.012847222222222
  1
2021.09.15
  7
____________
 11
964.0
 21
-825.9940146191672
 31
0.0
 73
     2
  0
TEXT
  5
465
  8
__
 62
     4
 10
1020.8
 20
-828.0004382302783
 30
0.0
 40
4.012847222222222
  1
1:2(A4)
  7
____________
 11
1020.8
 21
-825.9940146191672
 31
0.0
 73
     2
  0
TEXT
  5
466
  8
__
 62
     4
 10
795.2
 20
-827.122903508056
 30
0.0
 40
4.012847222222222
  1
FK-4：混合専用止水栓 床給水タイプ
  7
____________
 11
795.2
 21
-823.1100562858337
 31
0.0
 73
     3
  0
TEXT
  5
467
  8
__
 62
     4
 10
901.257844833235
 20
-827.122903508056
 30
0.0
 40
4.012847222222222
  1
KB-PT012-19
  7
____________
 11
901.257844833235
 21
-823.1100562858337
 31
0.0
 73
     3
  0
LINE
  5
468
  8
0_18__
  6
CONTINUOUS
 62
     1
 10
828.78872415869
 20
-442.0969436260434
 30
0.0
 11
828.78872415869
 21
-467.5969436260434
 31
0.0
  0
LINE
  5
469
  8
0_18__
  6
CONTINUOUS
 62
     1
 10
834.07171015869
 20
-467.5969436260434
 30
0.0
 11
828.78872415869
 21
-467.5969436260434
 31
0.0
  0
LINE
  5
46A
  8
0_18__
  6
CONTINUOUS
 62
     1
 10
828.78872415869
 20
-442.0969436260434
 30
0.0
 11
831.8601141586901
 21
-442.0969436260434
 31
0.0
  0
ARC
  5
46B
  8
0_18__
  6
CONTINUOUS
 62
     1
 10
834.07171015869
 20
-471.5969436260434
 30
0.0
 40
3.999999999999957
 50
334.8000270000018
 51
90.00000000000001
  0
ARC
  5
46C
  8
0_18__
  6
CONTINUOUS
 62
     1
 10
831.64521615869
 20
-434.0969436260434
 30
0.0
 40
8.0
 50
270.0
 51
339.7980350000003
  0
LINE
  5
46D
  8
0_18__
  6
CONTINUOUS
 62
     1
 10
861.43555815869
 20
-436.8595876260433
 30
0.0
 11
839.1530661586901
 21
-436.8595876260433
 31
0.0
  0
LINE
  5
46E
  8
0_18__
  6
CONTINUOUS
 62
     1
 10
837.4435941586901
 20
-489.8469436260434
 30
0.0
 11
863.31753815869
 21
-489.8469436260434
 31
0.0
  0
ARC
  5
46F
  8
0_18__
  6
CONTINUOUS
 62
     1
 10
1010.51900215869
 20
-424.4383736260434
 30
0.0
 40
149.6
 50
184.7627229999999
 51
190.328746
  0
ARC
  5
470
  8
0_18__
  6
CONTINUOUS
 62
     1
 10
843.6673361586901
 20
-454.8469436260434
 30
0.0
 40
19.99999999999991
 50
349.6712539999996
 51
10.32874600000036
  0
ARC
  5
471
  8
0_18__
  6
CONTINUOUS
 62
     1
 10
1010.51900215869
 20
-485.2555136260435
 30
0.0
 40
149.6
 50
169.671254
 51
173.1547559999999
  0
ARC
  5
472
  8
0_18__
  6
CONTINUOUS
 62
     1
 10
871.91411415869
 20
-468.6168656260434
 30
0.0
 40
10.00000000000002
 50
173.1547560000008
 51
206.0990569999993
  0
POLYLINE
  5
473
  8
0_18__
  6
CONTINUOUS
 62
     1
 66
     1
 10
0.0
 20
0.0
 30
0.0
 70
   129
  0
VERTEX
  5
474
  8
0_18__
  6
CONTINUOUS
 62
     1
 10
861.6388964078877
 20
-488.2482302614187
 30
0.0
  0
VERTEX
  5
475
  8
0_18__
  6
CONTINUOUS
 62
     1
 10
861.6981526101902
 20
-488.2458527806875
 30
0.0
  0
VERTEX
  5
476
  8
0_18__
  6
CONTINUOUS
 62
     1
 10
861.7602620756554
 20
-488.2388343004313
 30
0.0
  0
VERTEX
  5
477
  8
0_18__
  6
CONTINUOUS
 62
     1
 10
861.8252248042836
 20
-488.2271748206499
 30
0.0
  0
VERTEX
  5
478
  8
0_18__
  6
CONTINUOUS
 62
     1
 10
861.8930407960747
 20
-488.2108743413435
 30
0.0
  0
VERTEX
  5
479
  8
0_18__
  6
CONTINUOUS
 62
     1
 10
861.9637100510287
 20
-488.1899328625118
 30
0.0
  0
VERTEX
  5
47A
  8
0_18__
  6
CONTINUOUS
 62
     1
 10
862.0372325691455
 20
-488.1643503841551
 30
0.0
  0
VERTEX
  5
47B
  8
0_18__
  6
CONTINUOUS
 62
     1
 10
862.1136083504252
 20
-488.1341269062732
 30
0.0
  0
VERTEX
  5
47C
  8
0_18__
  6
CONTINUOUS
 62
     1
 10
862.1928373948678
 20
-488.0992624288663
 30
0.0
  0
VERTEX
  5
47D
  8
0_18__
  6
CONTINUOUS
 62
     1
 10
862.274107491354
 20
-488.0572102383072
 30
0.0
  0
VERTEX
  5
47E
  8
0_18__
  6
CONTINUOUS
 62
     1
 10
862.3566064287648
 20
-488.0054236209692
 30
0.0
  0
VERTEX
  5
47F
  8
0_18__
  6
CONTINUOUS
 62
     1
 10
862.4403342071002
 20
-487.9439025768521
 30
0.0
  0
VERTEX
  5
480
  8
0_18__
  6
CONTINUOUS
 62
     1
 10
862.52529082636
 20
-487.8726471059559
 30
0.0
  0
VERTEX
  5
481
  8
0_18__
  6
CONTINUOUS
 62
     1
 10
862.6114762865444
 20
-487.7916572082808
 30
0.0
  0
VERTEX
  5
482
  8
0_18__
  6
CONTINUOUS
 62
     1
 10
862.6988905876533
 20
-487.7009328838267
 30
0.0
  0
VERTEX
  5
483
  8
0_18__
  6
CONTINUOUS
 62
     1
 10
862.7875337296869
 20
-487.6004741325935
 30
0.0
  0
VERTEX
  5
484
  8
0_18__
  6
CONTINUOUS
 62
     1
 10
862.8774057126448
 20
-487.4902809545813
 30
0.0
  0
VERTEX
  5
485
  8
0_18__
  6
CONTINUOUS
 62
     1
 10
862.9669211733687
 20
-487.370592601441
 30
0.0
  0
VERTEX
  5
486
  8
0_18__
  6
CONTINUOUS
 62
     1
 10
863.0544947487004
 20
-487.2416483248235
 30
0.0
  0
VERTEX
  5
487
  8
0_18__
  6
CONTINUOUS
 62
     1
 10
863.1401264386398
 20
-487.1034481247286
 30
0.0
  0
VERTEX
  5
488
  8
0_18__
  6
CONTINUOUS
 62
     1
 10
863.2238162431865
 20
-486.9559920011565
 30
0.0
  0
VERTEX
  5
489
  8
0_18__
  6
CONTINUOUS
 62
     1
 10
863.3055641623412
 20
-486.7992799541071
 30
0.0
  0
VERTEX
  5
48A
  8
0_18__
  6
CONTINUOUS
 62
     1
 10
863.3853701961032
 20
-486.6333119835805
 30
0.0
  0
VERTEX
  5
48B
  8
0_18__
  6
CONTINUOUS
 62
     1
 10
863.463234344473
 20
-486.4580880895767
 30
0.0
  0
VERTEX
  5
48C
  8
0_18__
  6
CONTINUOUS
 62
     1
 10
863.5391566074502
 20
-486.2736082720954
 30
0.0
  0
VERTEX
  5
48D
  8
0_18__
  6
CONTINUOUS
 62
     1
 10
863.6121950207205
 20
-486.0821003644232
 30
0.0
  0
VERTEX
  5
48E
  8
0_18__
  6
CONTINUOUS
 62
     1
 10
863.6814076199689
 20
-485.8857921998463
 30
0.0
  0
VERTEX
  5
48F
  8
0_18__
  6
CONTINUOUS
 62
     1
 10
863.7467944051956
 20
-485.6846837783644
 30
0.0
  0
VERTEX
  5
490
  8
0_18__
  6
CONTINUOUS
 62
     1
 10
863.8083553764004
 20
-485.4787750999778
 30
0.0
  0
VERTEX
  5
491
  8
0_18__
  6
CONTINUOUS
 62
     1
 10
863.8660905335835
 20
-485.2680661646865
 30
0.0
  0
VERTEX
  5
492
  8
0_18__
  6
CONTINUOUS
 62
     1
 10
863.9199998767448
 20
-485.0525569724904
 30
0.0
  0
VERTEX
  5
493
  8
0_18__
  6
CONTINUOUS
 62
     1
 10
863.9700834058842
 20
-484.8322475233895
 30
0.0
  0
VERTEX
  5
494
  8
0_18__
  6
CONTINUOUS
 62
     1
 10
864.0163411210019
 20
-484.6071378173835
 30
0.0
  0
VERTEX
  5
495
  8
0_18__
  6
CONTINUOUS
 62
     1
 10
864.0587814716112
 20
-484.3793967244208
 30
0.0
  0
VERTEX
  5
496
  8
0_18__
  6
CONTINUOUS
 62
     1
 10
864.0974129072254
 20
-484.1511931144487
 30
0.0
  0
VERTEX
  5
497
  8
0_18__
  6
CONTINUOUS
 62
     1
 10
864.1322354278444
 20
-483.9225269874676
 30
0.0
  0
VERTEX
  5
498
  8
0_18__
  6
CONTINUOUS
 62
     1
 10
864.1632490334683
 20
-483.6933983434772
 30
0.0
  0
VERTEX
  5
499
  8
0_18__
  6
CONTINUOUS
 62
     1
 10
864.1904537240972
 20
-483.4638071824775
 30
0.0
  0
VERTEX
  5
49A
  8
0_18__
  6
CONTINUOUS
 62
     1
 10
864.2138494997309
 20
-483.2337535044687
 30
0.0
  0
VERTEX
  5
49B
  8
0_18__
  6
CONTINUOUS
 62
     1
 10
864.2334363603695
 20
-483.0032373094507
 30
0.0
  0
VERTEX
  5
49C
  8
0_18__
  6
CONTINUOUS
 62
     1
 10
864.2492143060131
 20
-482.7722585974234
 30
0.0
  0
VERTEX
  5
49D
  8
0_18__
  6
CONTINUOUS
 62
     1
 10
864.2613536836687
 20
-482.5410477960227
 30
0.0
  0
VERTEX
  5
49E
  8
0_18__
  6
CONTINUOUS
 62
     1
 10
864.2700248403439
 20
-482.3098353328842
 30
0.0
  0
VERTEX
  5
49F
  8
0_18__
  6
CONTINUOUS
 62
     1
 10
864.2752277760385
 20
-482.0786212080079
 30
0.0
  0
VERTEX
  5
4A0
  8
0_18__
  6
CONTINUOUS
 62
     1
 10
864.2769624907526
 20
-481.8474054213938
 30
0.0
  0
VERTEX
  5
4A1
  8
0_18__
  6
CONTINUOUS
 62
     1
 10
864.2752289844859
 20
-481.6161879730419
 30
0.0
  0
VERTEX
  5
4A2
  8
0_18__
  6
CONTINUOUS
 62
     1
 10
864.2700272572389
 20
-481.3849688629523
 30
0.0
  0
VERTEX
  5
4A3
  8
0_18__
  6
CONTINUOUS
 62
     1
 10
864.2613573090113
 20
-481.1537480911248
 30
0.0
  0
VERTEX
  5
4A4
  8
0_18__
  6
CONTINUOUS
 62
     1
 10
864.249219139803
 20
-480.9225256575596
 30
0.0
  0
VERTEX
  5
4A5
  8
0_18__
  6
CONTINUOUS
 62
     1
 10
864.2337866760868
 20
-480.6933143922812
 30
0.0
  0
VERTEX
  5
4A6
  8
0_18__
  6
CONTINUOUS
 62
     1
 10
864.215233844335
 20
-480.4681271253139
 30
0.0
  0
VERTEX
  5
4A7
  8
0_18__
  6
CONTINUOUS
 62
     1
 10
864.1935606445477
 20
-480.2469638566581
 30
0.0
  0
VERTEX
  5
4A8
  8
0_18__
  6
CONTINUOUS
 62
     1
 10
864.1687670767247
 20
-480.0298245863135
 30
0.0
  0
VERTEX
  5
4A9
  8
0_18__
  6
CONTINUOUS
 62
     1
 10
864.1408531408663
 20
-479.8167093142802
 30
0.0
  0
VERTEX
  5
4AA
  8
0_18__
  6
CONTINUOUS
 62
     1
 10
864.1098188369722
 20
-479.6076180405581
 30
0.0
  0
VERTEX
  5
4AB
  8
0_18__
  6
CONTINUOUS
 62
     1
 10
864.0756641650426
 20
-479.4025507651475
 30
0.0
  0
VERTEX
  5
4AC
  8
0_18__
  6
CONTINUOUS
 62
     1
 10
864.0383891250774
 20
-479.201507488048
 30
0.0
  0
VERTEX
  5
4AD
  8
0_18__
  6
CONTINUOUS
 62
     1
 10
863.9990550749421
 20
-479.0063528760213
 30
0.0
  0
VERTEX
  5
4AE
  8
0_18__
  6
CONTINUOUS
 62
     1
 10
863.9587233725017
 20
-478.8189515958288
 30
0.0
  0
VERTEX
  5
4AF
  8
0_18__
  6
CONTINUOUS
 62
     1
 10
863.9173940177565
 20
-478.6393036474703
 30
0.0
  0
VERTEX
  5
4B0
  8
0_18__
  6
CONTINUOUS
 62
     1
 10
863.8750670107063
 20
-478.467409030946
 30
0.0
  0
VERTEX
  5
4B1
  8
0_18__
  6
CONTINUOUS
 62
     1
 10
863.8317423513511
 20
-478.3032677462559
 30
0.0
  0
VERTEX
  5
4B2
  8
0_18__
  6
CONTINUOUS
 62
     1
 10
863.7874200396909
 20
-478.1468797933999
 30
0.0
  0
VERTEX
  5
4B3
  8
0_18__
  6
CONTINUOUS
 62
     1
 10
863.742100075726
 20
-477.9982451723779
 30
0.0
  0
VERTEX
  5
4B4
  8
0_18__
  6
CONTINUOUS
 62
     1
 10
863.695782459456
 20
-477.8573638831901
 30
0.0
  0
VERTEX
  5
4B5
  8
0_18__
  6
CONTINUOUS
 62
     1
 10
863.6486681890858
 20
-477.7224380971896
 30
0.0
  0
VERTEX
  5
4B6
  8
0_18__
  6
CONTINUOUS
 62
     1
 10
863.6009582628204
 20
-477.5916699857296
 30
0.0
  0
VERTEX
  5
4B7
  8
0_18__
  6
CONTINUOUS
 62
     1
 10
863.5526526806595
 20
-477.4650595488101
 30
0.0
  0
VERTEX
  5
4B8
  8
0_18__
  6
CONTINUOUS
 62
     1
 10
863.5037514426034
 20
-477.342606786431
 30
0.0
  0
VERTEX
  5
4B9
  8
0_18__
  6
CONTINUOUS
 62
     1
 10
863.4542545486519
 20
-477.2243116985924
 30
0.0
  0
VERTEX
  5
4BA
  8
0_18__
  6
CONTINUOUS
 62
     1
 10
863.404161998805
 20
-477.1101742852941
 30
0.0
  0
VERTEX
  5
4BB
  8
0_18__
  6
CONTINUOUS
 62
     1
 10
863.3534737930628
 20
-477.0001945465364
 30
0.0
  0
VERTEX
  5
4BC
  8
0_18__
  6
CONTINUOUS
 62
     1
 10
863.3021899314252
 20
-476.8943724823191
 30
0.0
  0
VERTEX
  5
4BD
  8
0_18__
  6
CONTINUOUS
 62
     1
 10
863.2493243885037
 20
-476.7913673259595
 30
0.0
  0
VERTEX
  5
4BE
  8
0_18__
  6
CONTINUOUS
 62
     1
 10
863.1938911389097
 20
-476.6898383107746
 30
0.0
  0
VERTEX
  5
4BF
  8
0_18__
  6
CONTINUOUS
 62
     1
 10
863.1358901826434
 20
-476.5897854367645
 30
0.0
  0
VERTEX
  5
4C0
  8
0_18__
  6
CONTINUOUS
 62
     1
 10
863.0753215197046
 20
-476.4912087039293
 30
0.0
  0
VERTEX
  5
4C1
  8
0_18__
  6
CONTINUOUS
 62
     1
 10
863.0121851500933
 20
-476.3941081122689
 30
0.0
  0
VERTEX
  5
4C2
  8
0_18__
  6
CONTINUOUS
 62
     1
 10
862.9464810738095
 20
-476.2984836617832
 30
0.0
  0
VERTEX
  5
4C3
  8
0_18__
  6
CONTINUOUS
 62
     1
 10
862.8782092908532
 20
-476.2043353524723
 30
0.0
  0
VERTEX
  5
4C4
  8
0_18__
  6
CONTINUOUS
 62
     1
 10
862.8073698012246
 20
-476.1116631843363
 30
0.0
  0
VERTEX
  5
4C5
  8
0_18__
  6
CONTINUOUS
 62
     1
 10
862.7328772205707
 20
-476.0223740675342
 30
0.0
  0
VERTEX
  5
4C6
  8
0_18__
  6
CONTINUOUS
 62
     1
 10
862.6536461645387
 20
-475.9383749122247
 30
0.0
  0
VERTEX
  5
4C7
  8
0_18__
  6
CONTINUOUS
 62
     1
 10
862.5696766331288
 20
-475.8596657184081
 30
0.0
  0
VERTEX
  5
4C8
  8
0_18__
  6
CONTINUOUS
 62
     1
 10
862.4809686263409
 20
-475.7862464860843
 30
0.0
  0
VERTEX
  5
4C9
  8
0_18__
  6
CONTINUOUS
 62
     1
 10
862.3875221441748
 20
-475.7181172152534
 30
0.0
  0
VERTEX
  5
4CA
  8
0_18__
  6
CONTINUOUS
 62
     1
 10
862.2893371866309
 20
-475.6552779059155
 30
0.0
  0
VERTEX
  5
4CB
  8
0_18__
  6
CONTINUOUS
 62
     1
 10
862.1864137537088
 20
-475.5977285580702
 30
0.0
  0
VERTEX
  5
4CC
  8
0_18__
  6
CONTINUOUS
 62
     1
 10
862.0787518454088
 20
-475.5454691717177
 30
0.0
  0
VERTEX
  5
4CD
  8
0_18__
  6
CONTINUOUS
 62
     1
 10
861.9687270430616
 20
-475.5020552238107
 30
0.0
  0
VERTEX
  5
4CE
  8
0_18__
  6
CONTINUOUS
 62
     1
 10
861.8587149279978
 20
-475.4710421913016
 30
0.0
  0
VERTEX
  5
4CF
  8
0_18__
  6
CONTINUOUS
 62
     1
 10
861.7487155002175
 20
-475.4524300741905
 30
0.0
  0
VERTEX
  5
4D0
  8
0_18__
  6
CONTINUOUS
 62
     1
 10
861.6387287597208
 20
-475.4462188724773
 30
0.0
  0
VERTEX
  5
4D1
  8
0_18__
  6
CONTINUOUS
 62
     1
 10
861.5287547065076
 20
-475.4524085861619
 30
0.0
  0
VERTEX
  5
4D2
  8
0_18__
  6
CONTINUOUS
 62
     1
 10
861.4187933405778
 20
-475.4709992152448
 30
0.0
  0
VERTEX
  5
4D3
  8
0_18__
  6
CONTINUOUS
 62
     1
 10
861.3088446619316
 20
-475.5019907597253
 30
0.0
  0
VERTEX
  5
4D4
  8
0_18__
  6
CONTINUOUS
 62
     1
 10
861.1989086705689
 20
-475.545383219604
 30
0.0
  0
VERTEX
  5
4D5
  8
0_18__
  6
CONTINUOUS
 62
     1
 10
861.0913429804815
 20
-475.5976238178192
 30
0.0
  0
VERTEX
  5
4D6
  8
0_18__
  6
CONTINUOUS
 62
     1
 10
860.9885052056611
 20
-475.6551597773097
 30
0.0
  0
VERTEX
  5
4D7
  8
0_18__
  6
CONTINUOUS
 62
     1
 10
860.8903953461077
 20
-475.7179910980755
 30
0.0
  0
VERTEX
  5
4D8
  8
0_18__
  6
CONTINUOUS
 62
     1
 10
860.7970134018212
 20
-475.7861177801165
 30
0.0
  0
VERTEX
  5
4D9
  8
0_18__
  6
CONTINUOUS
 62
     1
 10
860.7083593728019
 20
-475.8595398234327
 30
0.0
  0
VERTEX
  5
4DA
  8
0_18__
  6
CONTINUOUS
 62
     1
 10
860.6244332590495
 20
-475.9382572280242
 30
0.0
  0
VERTEX
  5
4DB
  8
0_18__
  6
CONTINUOUS
 62
     1
 10
860.5452350605641
 20
-476.0222699938911
 30
0.0
  0
VERTEX
  5
4DC
  8
0_18__
  6
CONTINUOUS
 62
     1
 10
860.4707647773457
 20
-476.1115781210331
 30
0.0
  0
VERTEX
  5
4DD
  8
0_18__
  6
CONTINUOUS
 62
     1
 10
860.3999382652426
 20
-476.2042692023972
 30
0.0
  0
VERTEX
  5
4DE
  8
0_18__
  6
CONTINUOUS
 62
     1
 10
860.3316713801028
 20
-476.2984308309306
 30
0.0
  0
VERTEX
  5
4DF
  8
0_18__
  6
CONTINUOUS
 62
     1
 10
860.2659641219262
 20
-476.3940630066329
 30
0.0
  0
VERTEX
  5
4E0
  8
0_18__
  6
CONTINUOUS
 62
     1
 10
860.2028164907131
 20
-476.4911657295045
 30
0.0
  0
VERTEX
  5
4E1
  8
0_18__
  6
CONTINUOUS
 62
     1
 10
860.1422284864633
 20
-476.589738999545
 30
0.0
  0
VERTEX
  5
4E2
  8
0_18__
  6
CONTINUOUS
 62
     1
 10
860.0842001091768
 20
-476.6897828167548
 30
0.0
  0
VERTEX
  5
4E3
  8
0_18__
  6
CONTINUOUS
 62
     1
 10
860.0287313588537
 20
-476.7912971811336
 30
0.0
  0
VERTEX
  5
4E4
  8
0_18__
  6
CONTINUOUS
 62
     1
 10
859.975822235494
 20
-476.8942820926814
 30
0.0
  0
VERTEX
  5
4E5
  8
0_18__
  6
CONTINUOUS
 62
     1
 10
859.9244968620359
 20
-477.0000840257056
 30
0.0
  0
VERTEX
  5
4E6
  8
0_18__
  6
CONTINUOUS
 62
     1
 10
859.8737793614179
 20
-477.1100494545137
 30
0.0
  0
VERTEX
  5
4E7
  8
0_18__
  6
CONTINUOUS
 62
     1
 10
859.8236697336399
 20
-477.2241783791055
 30
0.0
  0
VERTEX
  5
4E8
  8
0_18__
  6
CONTINUOUS
 62
     1
 10
859.7741679787018
 20
-477.3424707994812
 30
0.0
  0
VERTEX
  5
4E9
  8
0_18__
  6
CONTINUOUS
 62
     1
 10
859.7252740966039
 20
-477.4649267156408
 30
0.0
  0
VERTEX
  5
4EA
  8
0_18__
  6
CONTINUOUS
 62
     1
 10
859.6769880873461
 20
-477.591546127584
 30
0.0
  0
VERTEX
  5
4EB
  8
0_18__
  6
CONTINUOUS
 62
     1
 10
859.6293099509282
 20
-477.7223290353111
 30
0.0
  0
VERTEX
  5
4EC
  8
0_18__
  6
CONTINUOUS
 62
     1
 10
859.5822396873505
 20
-477.8572754388219
 30
0.0
  0
VERTEX
  5
4ED
  8
0_18__
  6
CONTINUOUS
 62
     1
 10
859.5359660316135
 20
-477.9981774193764
 30
0.0
  0
VERTEX
  5
4EE
  8
0_18__
  6
CONTINUOUS
 62
     1
 10
859.490677718718
 20
-478.1468270582338
 30
0.0
  0
VERTEX
  5
4EF
  8
0_18__
  6
CONTINUOUS
 62
     1
 10
859.4463747486641
 20
-478.3032243553944
 30
0.0
  0
VERTEX
  5
4F0
  8
0_18__
  6
CONTINUOUS
 62
     1
 10
859.4030571214516
 20
-478.4673693108582
 30
0.0
  0
VERTEX
  5
4F1
  8
0_18__
  6
CONTINUOUS
 62
     1
 10
859.3607248370809
 20
-478.6392619246252
 30
0.0
  0
VERTEX
  5
4F2
  8
0_18__
  6
CONTINUOUS
 62
     1
 10
859.3193778955515
 20
-478.8189021966953
 30
0.0
  0
VERTEX
  5
4F3
  8
0_18__
  6
CONTINUOUS
 62
     1
 10
859.2790162968637
 20
-479.0062901270685
 30
0.0
  0
VERTEX
  5
4F4
  8
0_18__
  6
CONTINUOUS
 62
     1
 10
859.2396400410174
 20
-479.2014257157448
 30
0.0
  0
VERTEX
  5
4F5
  8
0_18__
  6
CONTINUOUS
 62
     1
 10
859.202318042931
 20
-479.4024484636385
 30
0.0
  0
VERTEX
  5
4F6
  8
0_18__
  6
CONTINUOUS
 62
     1
 10
859.1681192175225
 20
-479.6074978716638
 30
0.0
  0
VERTEX
  5
4F7
  8
0_18__
  6
CONTINUOUS
 62
     1
 10
859.1370435647922
 20
-479.8165739398205
 30
0.0
  0
VERTEX
  5
4F8
  8
0_18__
  6
CONTINUOUS
 62
     1
 10
859.1090910847399
 20
-480.0296766681088
 30
0.0
  0
VERTEX
  5
4F9
  8
0_18__
  6
CONTINUOUS
 62
     1
 10
859.0842617773658
 20
-480.2468060565286
 30
0.0
  0
VERTEX
  5
4FA
  8
0_18__
  6
CONTINUOUS
 62
     1
 10
859.0625556426696
 20
-480.4679621050801
 30
0.0
  0
VERTEX
  5
4FB
  8
0_18__
  6
CONTINUOUS
 62
     1
 10
859.0439726806514
 20
-480.6931448137631
 30
0.0
  0
VERTEX
  5
4FC
  8
0_18__
  6
CONTINUOUS
 62
     1
 10
859.0285128913115
 20
-480.9223541825775
 30
0.0
  0
VERTEX
  5
4FD
  8
0_18__
  6
CONTINUOUS
 62
     1
 10
859.0163524367122
 20
-481.1535756551477
 30
0.0
  0
VERTEX
  5
4FE
  8
0_18__
  6
CONTINUOUS
 62
     1
 10
859.0076674789161
 20
-481.3847946750981
 30
0.0
  0
VERTEX
  5
4FF
  8
0_18__
  6
CONTINUOUS
 62
     1
 10
859.0024580179235
 20
-481.6160112424285
 30
0.0
  0
VERTEX
  5
500
  8
0_18__
  6
CONTINUOUS
 62
     1
 10
859.0007240537341
 20
-481.847225357139
 30
0.0
  0
VERTEX
  5
501
  8
0_18__
  6
CONTINUOUS
 62
     1
 10
859.0024655863481
 20
-482.0784370192296
 30
0.0
  0
VERTEX
  5
502
  8
0_18__
  6
CONTINUOUS
 62
     1
 10
859.0076826157654
 20
-482.3096462287003
 30
0.0
  0
VERTEX
  5
503
  8
0_18__
  6
CONTINUOUS
 62
     1
 10
859.016375141986
 20
-482.5408529855512
 30
0.0
  0
VERTEX
  5
504
  8
0_18__
  6
CONTINUOUS
 62
     1
 10
859.02854316501
 20
-482.772057289782
 30
0.0
  0
VERTEX
  5
505
  8
0_18__
  6
CONTINUOUS
 62
     1
 10
859.0443479641042
 20
-483.003030610878
 30
0.0
  0
VERTEX
  5
506
  8
0_18__
  6
CONTINUOUS
 62
     1
 10
859.0639508185354
 20
-483.2335444183243
 30
0.0
  0
VERTEX
  5
507
  8
0_18__
  6
CONTINUOUS
 62
     1
 10
859.0873517283037
 20
-483.4635987121208
 30
0.0
  0
VERTEX
  5
508
  8
0_18__
  6
CONTINUOUS
 62
     1
 10
859.114550693409
 20
-483.6931934922675
 30
0.0
  0
VERTEX
  5
509
  8
0_18__
  6
CONTINUOUS
 62
     1
 10
859.1455477138513
 20
-483.9223287587645
 30
0.0
  0
VERTEX
  5
50A
  8
0_18__
  6
CONTINUOUS
 62
     1
 10
859.1803427896307
 20
-484.1510045116117
 30
0.0
  0
VERTEX
  5
50B
  8
0_18__
  6
CONTINUOUS
 62
     1
 10
859.2189359207472
 20
-484.3792207508093
 30
0.0
  0
VERTEX
  5
50C
  8
0_18__
  6
CONTINUOUS
 62
     1
 10
859.2613271072007
 20
-484.6069774763571
 30
0.0
  0
VERTEX
  5
50D
  8
0_18__
  6
CONTINUOUS
 62
     1
 10
859.3075374507139
 20
-484.8321009039194
 30
0.0
  0
VERTEX
  5
50E
  8
0_18__
  6
CONTINUOUS
 62
     1
 10
859.3575880530093
 20
-485.0524172491604
 30
0.0
  0
VERTEX
  5
50F
  8
0_18__
  6
CONTINUOUS
 62
     1
 10
859.4114789140867
 20
-485.2679265120801
 30
0.0
  0
VERTEX
  5
510
  8
0_18__
  6
CONTINUOUS
 62
     1
 10
859.4692100339466
 20
-485.4786286926785
 30
0.0
  0
VERTEX
  5
511
  8
0_18__
  6
CONTINUOUS
 62
     1
 10
859.5307814125886
 20
-485.6845237909556
 30
0.0
  0
VERTEX
  5
512
  8
0_18__
  6
CONTINUOUS
 62
     1
 10
859.5961930500129
 20
-485.8856118069116
 30
0.0
  0
VERTEX
  5
513
  8
0_18__
  6
CONTINUOUS
 62
     1
 10
859.6654449462193
 20
-486.0818927405462
 30
0.0
  0
VERTEX
  5
514
  8
0_18__
  6
CONTINUOUS
 62
     1
 10
859.7385371012078
 20
-486.2733665918597
 30
0.0
  0
VERTEX
  5
515
  8
0_18__
  6
CONTINUOUS
 62
     1
 10
859.814510826025
 20
-486.4578154440537
 30
0.0
  0
VERTEX
  5
516
  8
0_18__
  6
CONTINUOUS
 62
     1
 10
859.8924074317167
 20
-486.6330213803299
 30
0.0
  0
VERTEX
  5
517
  8
0_18__
  6
CONTINUOUS
 62
     1
 10
859.972226918283
 20
-486.7989844006884
 30
0.0
  0
VERTEX
  5
518
  8
0_18__
  6
CONTINUOUS
 62
     1
 10
860.0539692857242
 20
-486.9557045051292
 30
0.0
  0
VERTEX
  5
519
  8
0_18__
  6
CONTINUOUS
 62
     1
 10
860.1376345340398
 20
-487.1031816936525
 30
0.0
  0
VERTEX
  5
51A
  8
0_18__
  6
CONTINUOUS
 62
     1
 10
860.2232226632302
 20
-487.2414159662579
 30
0.0
  0
VERTEX
  5
51B
  8
0_18__
  6
CONTINUOUS
 62
     1
 10
860.3107336732951
 20
-487.3704073229458
 30
0.0
  0
VERTEX
  5
51C
  8
0_18__
  6
CONTINUOUS
 62
     1
 10
860.4001675642348
 20
-487.4901557637158
 30
0.0
  0
VERTEX
  5
51D
  8
0_18__
  6
CONTINUOUS
 62
     1
 10
860.4899587283012
 20
-487.6004138295571
 30
0.0
  0
VERTEX
  5
51E
  8
0_18__
  6
CONTINUOUS
 62
     1
 10
860.5785415577463
 20
-487.7009340614584
 30
0.0
  0
VERTEX
  5
51F
  8
0_18__
  6
CONTINUOUS
 62
     1
 10
860.6659160525704
 20
-487.7917164594197
 30
0.0
  0
VERTEX
  5
520
  8
0_18__
  6
CONTINUOUS
 62
     1
 10
860.7520822127733
 20
-487.8727610234412
 30
0.0
  0
VERTEX
  5
521
  8
0_18__
  6
CONTINUOUS
 62
     1
 10
860.837040038355
 20
-487.9440677535226
 30
0.0
  0
VERTEX
  5
522
  8
0_18__
  6
CONTINUOUS
 62
     1
 10
860.9207895293156
 20
-488.005636649664
 30
0.0
  0
VERTEX
  5
523
  8
0_18__
  6
CONTINUOUS
 62
     1
 10
861.0033306856549
 20
-488.0574677118655
 30
0.0
  0
VERTEX
  5
524
  8
0_18__
  6
CONTINUOUS
 62
     1
 10
861.0846635073731
 20
-488.0995609401269
 30
0.0
  0
VERTEX
  5
525
  8
0_18__
  6
CONTINUOUS
 62
     1
 10
861.1639609690503
 20
-488.1344551706521
 30
0.0
  0
VERTEX
  5
526
  8
0_18__
  6
CONTINUOUS
 62
     1
 10
861.2403960452667
 20
-488.1646892396449
 30
0.0
  0
VERTEX
  5
527
  8
0_18__
  6
CONTINUOUS
 62
     1
 10
861.3139687360223
 20
-488.190263147105
 30
0.0
  0
VERTEX
  5
528
  8
0_18__
  6
CONTINUOUS
 62
     1
 10
861.384679041317
 20
-488.2111768930329
 30
0.0
  0
VERTEX
  5
529
  8
0_18__
  6
CONTINUOUS
 62
     1
 10
861.452526961151
 20
-488.227430477428
 30
0.0
  0
VERTEX
  5
52A
  8
0_18__
  6
CONTINUOUS
 62
     1
 10
861.517512495524
 20
-488.2390239002908
 30
0.0
  0
VERTEX
  5
52B
  8
0_18__
  6
CONTINUOUS
 62
     1
 10
861.5796356444363
 20
-488.245957161621
 30
0.0
  0
VERTEX
  5
52C
  8
0_18__
  6
CONTINUOUS
 62
     1
 10
861.6388964078877
 20
-488.2482302614187
 30
0.0
  0
VERTEX
  5
52D
  8
0_18__
  6
CONTINUOUS
 62
     1
 10
861.6388964078877
 20
-488.2482302614187
 30
0.0
  0
VERTEX
  5
52E
  8
0_18__
  6
CONTINUOUS
 62
     1
 10
861.6388964078877
 20
-488.2482302614187
 30
0.0
  0
SEQEND
  5
52F
  8
0_18__
  6
CONTINUOUS
 62
     1
  0
ARC
  5
530
  8
0_18__
  6
CONTINUOUS
 62
     1
 10
844.9070361586901
 20
-481.8469436260434
 30
0.0
 40
20.07352999999998
 50
336.5133860000001
 51
26.09905699999939
  0
POLYLINE
  5
531
  8
0_18__
  6
CONTINUOUS
 62
     1
 66
     1
 10
0.0
 20
0.0
 30
0.0
 70
   129
  0
VERTEX
  5
532
  8
0_18__
  6
CONTINUOUS
 62
     1
 10
839.1222359094928
 20
-488.2482302614187
 30
0.0
  0
VERTEX
  5
533
  8
0_18__
  6
CONTINUOUS
 62
     1
 10
839.1814921117953
 20
-488.2458527806875
 30
0.0
  0
VERTEX
  5
534
  8
0_18__
  6
CONTINUOUS
 62
     1
 10
839.2436015772605
 20
-488.2388343004313
 30
0.0
  0
VERTEX
  5
535
  8
0_18__
  6
CONTINUOUS
 62
     1
 10
839.3085643058887
 20
-488.2271748206499
 30
0.0
  0
VERTEX
  5
536
  8
0_18__
  6
CONTINUOUS
 62
     1
 10
839.3763802976798
 20
-488.2108743413435
 30
0.0
  0
VERTEX
  5
537
  8
0_18__
  6
CONTINUOUS
 62
     1
 10
839.4470495526338
 20
-488.1899328625118
 30
0.0
  0
VERTEX
  5
538
  8
0_18__
  6
CONTINUOUS
 62
     1
 10
839.5205720707505
 20
-488.164350384155
 30
0.0
  0
VERTEX
  5
539
  8
0_18__
  6
CONTINUOUS
 62
     1
 10
839.5969478520302
 20
-488.1341269062731
 30
0.0
  0
VERTEX
  5
53A
  8
0_18__
  6
CONTINUOUS
 62
     1
 10
839.6761768964727
 20
-488.099262428866
 30
0.0
  0
VERTEX
  5
53B
  8
0_18__
  6
CONTINUOUS
 62
     1
 10
839.7574469929591
 20
-488.057210238307
 30
0.0
  0
VERTEX
  5
53C
  8
0_18__
  6
CONTINUOUS
 62
     1
 10
839.8399459303698
 20
-488.0054236209688
 30
0.0
  0
VERTEX
  5
53D
  8
0_18__
  6
CONTINUOUS
 62
     1
 10
839.9236737087051
 20
-487.9439025768517
 30
0.0
  0
VERTEX
  5
53E
  8
0_18__
  6
CONTINUOUS
 62
     1
 10
840.008630327965
 20
-487.8726471059556
 30
0.0
  0
VERTEX
  5
53F
  8
0_18__
  6
CONTINUOUS
 62
     1
 10
840.0948157881494
 20
-487.7916572082804
 30
0.0
  0
VERTEX
  5
540
  8
0_18__
  6
CONTINUOUS
 62
     1
 10
840.1822300892583
 20
-487.7009328838262
 30
0.0
  0
VERTEX
  5
541
  8
0_18__
  6
CONTINUOUS
 62
     1
 10
840.2708732312917
 20
-487.600474132593
 30
0.0
  0
VERTEX
  5
542
  8
0_18__
  6
CONTINUOUS
 62
     1
 10
840.3607452142496
 20
-487.4902809545808
 30
0.0
  0
VERTEX
  5
543
  8
0_18__
  6
CONTINUOUS
 62
     1
 10
840.4502606749736
 20
-487.3705926014405
 30
0.0
  0
VERTEX
  5
544
  8
0_18__
  6
CONTINUOUS
 62
     1
 10
840.5378342503052
 20
-487.2416483248229
 30
0.0
  0
VERTEX
  5
545
  8
0_18__
  6
CONTINUOUS
 62
     1
 10
840.6234659402445
 20
-487.1034481247281
 30
0.0
  0
VERTEX
  5
546
  8
0_18__
  6
CONTINUOUS
 62
     1
 10
840.7071557447914
 20
-486.9559920011559
 30
0.0
  0
VERTEX
  5
547
  8
0_18__
  6
CONTINUOUS
 62
     1
 10
840.7889036639458
 20
-486.7992799541065
 30
0.0
  0
VERTEX
  5
548
  8
0_18__
  6
CONTINUOUS
 62
     1
 10
840.8687096977079
 20
-486.6333119835799
 30
0.0
  0
VERTEX
  5
549
  8
0_18__
  6
CONTINUOUS
 62
     1
 10
840.9465738460776
 20
-486.458088089576
 30
0.0
  0
VERTEX
  5
54A
  8
0_18__
  6
CONTINUOUS
 62
     1
 10
841.0224961090549
 20
-486.2736082720947
 30
0.0
  0
VERTEX
  5
54B
  8
0_18__
  6
CONTINUOUS
 62
     1
 10
841.0955345223251
 20
-486.0821003644226
 30
0.0
  0
VERTEX
  5
54C
  8
0_18__
  6
CONTINUOUS
 62
     1
 10
841.1647471215736
 20
-485.8857921998456
 30
0.0
  0
VERTEX
  5
54D
  8
0_18__
  6
CONTINUOUS
 62
     1
 10
841.2301339068002
 20
-485.6846837783637
 30
0.0
  0
VERTEX
  5
54E
  8
0_18__
  6
CONTINUOUS
 62
     1
 10
841.291694878005
 20
-485.4787750999772
 30
0.0
  0
VERTEX
  5
54F
  8
0_18__
  6
CONTINUOUS
 62
     1
 10
841.3494300351881
 20
-485.2680661646858
 30
0.0
  0
VERTEX
  5
550
  8
0_18__
  6
CONTINUOUS
 62
     1
 10
841.4033393783494
 20
-485.0525569724896
 30
0.0
  0
VERTEX
  5
551
  8
0_18__
  6
CONTINUOUS
 62
     1
 10
841.4534229074889
 20
-484.8322475233886
 30
0.0
  0
VERTEX
  5
552
  8
0_18__
  6
CONTINUOUS
 62
     1
 10
841.4996806226065
 20
-484.6071378173829
 30
0.0
  0
VERTEX
  5
553
  8
0_18__
  6
CONTINUOUS
 62
     1
 10
841.5421209732158
 20
-484.3793967244202
 30
0.0
  0
VERTEX
  5
554
  8
0_18__
  6
CONTINUOUS
 62
     1
 10
841.58075240883
 20
-484.1511931144482
 30
0.0
  0
VERTEX
  5
555
  8
0_18__
  6
CONTINUOUS
 62
     1
 10
841.615574929449
 20
-483.922526987467
 30
0.0
  0
VERTEX
  5
556
  8
0_18__
  6
CONTINUOUS
 62
     1
 10
841.646588535073
 20
-483.6933983434766
 30
0.0
  0
VERTEX
  5
557
  8
0_18__
  6
CONTINUOUS
 62
     1
 10
841.6737932257017
 20
-483.463807182477
 30
0.0
  0
VERTEX
  5
558
  8
0_18__
  6
CONTINUOUS
 62
     1
 10
841.6971890013355
 20
-483.2337535044682
 30
0.0
  0
VERTEX
  5
559
  8
0_18__
  6
CONTINUOUS
 62
     1
 10
841.7167758619742
 20
-483.0032373094501
 30
0.0
  0
VERTEX
  5
55A
  8
0_18__
  6
CONTINUOUS
 62
     1
 10
841.7325538076176
 20
-482.7722585974229
 30
0.0
  0
VERTEX
  5
55B
  8
0_18__
  6
CONTINUOUS
 62
     1
 10
841.7446931852733
 20
-482.5410477960222
 30
0.0
  0
VERTEX
  5
55C
  8
0_18__
  6
CONTINUOUS
 62
     1
 10
841.7533643419483
 20
-482.3098353328837
 30
0.0
  0
VERTEX
  5
55D
  8
0_18__
  6
CONTINUOUS
 62
     1
 10
841.7585672776429
 20
-482.0786212080075
 30
0.0
  0
VERTEX
  5
55E
  8
0_18__
  6
CONTINUOUS
 62
     1
 10
841.760301992357
 20
-481.8474054213933
 30
0.0
  0
VERTEX
  5
55F
  8
0_18__
  6
CONTINUOUS
 62
     1
 10
841.7585684860904
 20
-481.6161879730414
 30
0.0
  0
VERTEX
  5
560
  8
0_18__
  6
CONTINUOUS
 62
     1
 10
841.7533667588434
 20
-481.3849688629518
 30
0.0
  0
VERTEX
  5
561
  8
0_18__
  6
CONTINUOUS
 62
     1
 10
841.7446968106158
 20
-481.1537480911244
 30
0.0
  0
VERTEX
  5
562
  8
0_18__
  6
CONTINUOUS
 62
     1
 10
841.7325586414075
 20
-480.9225256575592
 30
0.0
  0
VERTEX
  5
563
  8
0_18__
  6
CONTINUOUS
 62
     1
 10
841.7171261776913
 20
-480.6933143922807
 30
0.0
  0
VERTEX
  5
564
  8
0_18__
  6
CONTINUOUS
 62
     1
 10
841.6985733459395
 20
-480.4681271253135
 30
0.0
  0
VERTEX
  5
565
  8
0_18__
  6
CONTINUOUS
 62
     1
 10
841.6769001461521
 20
-480.2469638566577
 30
0.0
  0
VERTEX
  5
566
  8
0_18__
  6
CONTINUOUS
 62
     1
 10
841.6521065783293
 20
-480.029824586313
 30
0.0
  0
VERTEX
  5
567
  8
0_18__
  6
CONTINUOUS
 62
     1
 10
841.6241926424707
 20
-479.8167093142797
 30
0.0
  0
VERTEX
  5
568
  8
0_18__
  6
CONTINUOUS
 62
     1
 10
841.5931583385767
 20
-479.6076180405577
 30
0.0
  0
VERTEX
  5
569
  8
0_18__
  6
CONTINUOUS
 62
     1
 10
841.5590036666472
 20
-479.402550765147
 30
0.0
  0
VERTEX
  5
56A
  8
0_18__
  6
CONTINUOUS
 62
     1
 10
841.521728626682
 20
-479.2015074880476
 30
0.0
  0
VERTEX
  5
56B
  8
0_18__
  6
CONTINUOUS
 62
     1
 10
841.4823945765465
 20
-479.0063528760209
 30
0.0
  0
VERTEX
  5
56C
  8
0_18__
  6
CONTINUOUS
 62
     1
 10
841.4420628741062
 20
-478.8189515958284
 30
0.0
  0
VERTEX
  5
56D
  8
0_18__
  6
CONTINUOUS
 62
     1
 10
841.400733519361
 20
-478.6393036474699
 30
0.0
  0
VERTEX
  5
56E
  8
0_18__
  6
CONTINUOUS
 62
     1
 10
841.3584065123107
 20
-478.4674090309455
 30
0.0
  0
VERTEX
  5
56F
  8
0_18__
  6
CONTINUOUS
 62
     1
 10
841.3150818529556
 20
-478.3032677462554
 30
0.0
  0
VERTEX
  5
570
  8
0_18__
  6
CONTINUOUS
 62
     1
 10
841.2707595412955
 20
-478.1468797933994
 30
0.0
  0
VERTEX
  5
571
  8
0_18__
  6
CONTINUOUS
 62
     1
 10
841.2254395773305
 20
-477.9982451723774
 30
0.0
  0
VERTEX
  5
572
  8
0_18__
  6
CONTINUOUS
 62
     1
 10
841.1791219610604
 20
-477.8573638831897
 30
0.0
  0
VERTEX
  5
573
  8
0_18__
  6
CONTINUOUS
 62
     1
 10
841.1320076906903
 20
-477.7224380971892
 30
0.0
  0
VERTEX
  5
574
  8
0_18__
  6
CONTINUOUS
 62
     1
 10
841.0842977644248
 20
-477.5916699857291
 30
0.0
  0
VERTEX
  5
575
  8
0_18__
  6
CONTINUOUS
 62
     1
 10
841.035992182264
 20
-477.4650595488097
 30
0.0
  0
VERTEX
  5
576
  8
0_18__
  6
CONTINUOUS
 62
     1
 10
840.9870909442078
 20
-477.3426067864306
 30
0.0
  0
VERTEX
  5
577
  8
0_18__
  6
CONTINUOUS
 62
     1
 10
840.9375940502563
 20
-477.2243116985919
 30
0.0
  0
VERTEX
  5
578
  8
0_18__
  6
CONTINUOUS
 62
     1
 10
840.8875015004094
 20
-477.1101742852936
 30
0.0
  0
VERTEX
  5
579
  8
0_18__
  6
CONTINUOUS
 62
     1
 10
840.8368132946672
 20
-477.0001945465359
 30
0.0
  0
VERTEX
  5
57A
  8
0_18__
  6
CONTINUOUS
 62
     1
 10
840.7855294330296
 20
-476.8943724823187
 30
0.0
  0
VERTEX
  5
57B
  8
0_18__
  6
CONTINUOUS
 62
     1
 10
840.7326638901081
 20
-476.7913673259591
 30
0.0
  0
VERTEX
  5
57C
  8
0_18__
  6
CONTINUOUS
 62
     1
 10
840.6772306405142
 20
-476.6898383107741
 30
0.0
  0
VERTEX
  5
57D
  8
0_18__
  6
CONTINUOUS
 62
     1
 10
840.6192296842478
 20
-476.589785436764
 30
0.0
  0
VERTEX
  5
57E
  8
0_18__
  6
CONTINUOUS
 62
     1
 10
840.5586610213089
 20
-476.4912087039288
 30
0.0
  0
VERTEX
  5
57F
  8
0_18__
  6
CONTINUOUS
 62
     1
 10
840.4955246516977
 20
-476.3941081122684
 30
0.0
  0
VERTEX
  5
580
  8
0_18__
  6
CONTINUOUS
 62
     1
 10
840.4298205754138
 20
-476.2984836617827
 30
0.0
  0
VERTEX
  5
581
  8
0_18__
  6
CONTINUOUS
 62
     1
 10
840.3615487924576
 20
-476.2043353524718
 30
0.0
  0
VERTEX
  5
582
  8
0_18__
  6
CONTINUOUS
 62
     1
 10
840.2907093028289
 20
-476.1116631843358
 30
0.0
  0
VERTEX
  5
583
  8
0_18__
  6
CONTINUOUS
 62
     1
 10
840.216216722175
 20
-476.0223740675337
 30
0.0
  0
VERTEX
  5
584
  8
0_18__
  6
CONTINUOUS
 62
     1
 10
840.1369856661429
 20
-475.9383749122243
 30
0.0
  0
VERTEX
  5
585
  8
0_18__
  6
CONTINUOUS
 62
     1
 10
840.053016134733
 20
-475.8596657184077
 30
0.0
  0
VERTEX
  5
586
  8
0_18__
  6
CONTINUOUS
 62
     1
 10
839.9643081279451
 20
-475.786246486084
 30
0.0
  0
VERTEX
  5
587
  8
0_18__
  6
CONTINUOUS
 62
     1
 10
839.870861645779
 20
-475.7181172152532
 30
0.0
  0
VERTEX
  5
588
  8
0_18__
  6
CONTINUOUS
 62
     1
 10
839.7726766882349
 20
-475.6552779059151
 30
0.0
  0
VERTEX
  5
589
  8
0_18__
  6
CONTINUOUS
 62
     1
 10
839.669753255313
 20
-475.5977285580699
 30
0.0
  0
VERTEX
  5
58A
  8
0_18__
  6
CONTINUOUS
 62
     1
 10
839.5620913470129
 20
-475.5454691717175
 30
0.0
  0
VERTEX
  5
58B
  8
0_18__
  6
CONTINUOUS
 62
     1
 10
839.4520665446656
 20
-475.5020552238104
 30
0.0
  0
VERTEX
  5
58C
  8
0_18__
  6
CONTINUOUS
 62
     1
 10
839.3420544296018
 20
-475.4710421913014
 30
0.0
  0
VERTEX
  5
58D
  8
0_18__
  6
CONTINUOUS
 62
     1
 10
839.2320550018217
 20
-475.4524300741905
 30
0.0
  0
VERTEX
  5
58E
  8
0_18__
  6
CONTINUOUS
 62
     1
 10
839.1220682613249
 20
-475.4462188724773
 30
0.0
  0
VERTEX
  5
58F
  8
0_18__
  6
CONTINUOUS
 62
     1
 10
839.0120942081116
 20
-475.4524085861622
 30
0.0
  0
VERTEX
  5
590
  8
0_18__
  6
CONTINUOUS
 62
     1
 10
838.902132842182
 20
-475.4709992152448
 30
0.0
  0
VERTEX
  5
591
  8
0_18__
  6
CONTINUOUS
 62
     1
 10
838.7921841635358
 20
-475.5019907597255
 30
0.0
  0
VERTEX
  5
592
  8
0_18__
  6
CONTINUOUS
 62
     1
 10
838.6822481721731
 20
-475.5453832196042
 30
0.0
  0
VERTEX
  5
593
  8
0_18__
  6
CONTINUOUS
 62
     1
 10
838.5746824820857
 20
-475.5976238178196
 30
0.0
  0
VERTEX
  5
594
  8
0_18__
  6
CONTINUOUS
 62
     1
 10
838.4718447072653
 20
-475.65515977731
 30
0.0
  0
VERTEX
  5
595
  8
0_18__
  6
CONTINUOUS
 62
     1
 10
838.3737348477118
 20
-475.7179910980758
 30
0.0
  0
VERTEX
  5
596
  8
0_18__
  6
CONTINUOUS
 62
     1
 10
838.2803529034255
 20
-475.7861177801167
 30
0.0
  0
VERTEX
  5
597
  8
0_18__
  6
CONTINUOUS
 62
     1
 10
838.1916988744061
 20
-475.8595398234329
 30
0.0
  0
VERTEX
  5
598
  8
0_18__
  6
CONTINUOUS
 62
     1
 10
838.1077727606537
 20
-475.9382572280244
 30
0.0
  0
VERTEX
  5
599
  8
0_18__
  6
CONTINUOUS
 62
     1
 10
838.0285745621684
 20
-476.0222699938913
 30
0.0
  0
VERTEX
  5
59A
  8
0_18__
  6
CONTINUOUS
 62
     1
 10
837.95410427895
 20
-476.1115781210333
 30
0.0
  0
VERTEX
  5
59B
  8
0_18__
  6
CONTINUOUS
 62
     1
 10
837.8832777668468
 20
-476.2042692023974
 30
0.0
  0
VERTEX
  5
59C
  8
0_18__
  6
CONTINUOUS
 62
     1
 10
837.8150108817069
 20
-476.2984308309308
 30
0.0
  0
VERTEX
  5
59D
  8
0_18__
  6
CONTINUOUS
 62
     1
 10
837.7493036235305
 20
-476.3940630066331
 30
0.0
  0
VERTEX
  5
59E
  8
0_18__
  6
CONTINUOUS
 62
     1
 10
837.6861559923174
 20
-476.4911657295047
 30
0.0
  0
VERTEX
  5
59F
  8
0_18__
  6
CONTINUOUS
 62
     1
 10
837.6255679880676
 20
-476.5897389995453
 30
0.0
  0
VERTEX
  5
5A0
  8
0_18__
  6
CONTINUOUS
 62
     1
 10
837.5675396107811
 20
-476.6897828167549
 30
0.0
  0
VERTEX
  5
5A1
  8
0_18__
  6
CONTINUOUS
 62
     1
 10
837.512070860458
 20
-476.7912971811336
 30
0.0
  0
VERTEX
  5
5A2
  8
0_18__
  6
CONTINUOUS
 62
     1
 10
837.4591617370983
 20
-476.8942820926816
 30
0.0
  0
VERTEX
  5
5A3
  8
0_18__
  6
CONTINUOUS
 62
     1
 10
837.4078363636402
 20
-477.000084025706
 30
0.0
  0
VERTEX
  5
5A4
  8
0_18__
  6
CONTINUOUS
 62
     1
 10
837.3571188630222
 20
-477.1100494545141
 30
0.0
  0
VERTEX
  5
5A5
  8
0_18__
  6
CONTINUOUS
 62
     1
 10
837.3070092352442
 20
-477.224178379106
 30
0.0
  0
VERTEX
  5
5A6
  8
0_18__
  6
CONTINUOUS
 62
     1
 10
837.2575074803062
 20
-477.3424707994816
 30
0.0
  0
VERTEX
  5
5A7
  8
0_18__
  6
CONTINUOUS
 62
     1
 10
837.2086135982083
 20
-477.4649267156411
 30
0.0
  0
VERTEX
  5
5A8
  8
0_18__
  6
CONTINUOUS
 62
     1
 10
837.1603275889505
 20
-477.5915461275845
 30
0.0
  0
VERTEX
  5
5A9
  8
0_18__
  6
CONTINUOUS
 62
     1
 10
837.1126494525327
 20
-477.7223290353115
 30
0.0
  0
VERTEX
  5
5AA
  8
0_18__
  6
CONTINUOUS
 62
     1
 10
837.0655791889549
 20
-477.8572754388224
 30
0.0
  0
VERTEX
  5
5AB
  8
0_18__
  6
CONTINUOUS
 62
     1
 10
837.0193055332179
 20
-477.9981774193768
 30
0.0
  0
VERTEX
  5
5AC
  8
0_18__
  6
CONTINUOUS
 62
     1
 10
836.9740172203225
 20
-478.1468270582343
 30
0.0
  0
VERTEX
  5
5AD
  8
0_18__
  6
CONTINUOUS
 62
     1
 10
836.9297142502685
 20
-478.3032243553948
 30
0.0
  0
VERTEX
  5
5AE
  8
0_18__
  6
CONTINUOUS
 62
     1
 10
836.8863966230562
 20
-478.4673693108587
 30
0.0
  0
VERTEX
  5
5AF
  8
0_18__
  6
CONTINUOUS
 62
     1
 10
836.8440643386853
 20
-478.6392619246257
 30
0.0
  0
VERTEX
  5
5B0
  8
0_18__
  6
CONTINUOUS
 62
     1
 10
836.802717397156
 20
-478.8189021966957
 30
0.0
  0
VERTEX
  5
5B1
  8
0_18__
  6
CONTINUOUS
 62
     1
 10
836.7623557984682
 20
-479.006290127069
 30
0.0
  0
VERTEX
  5
5B2
  8
0_18__
  6
CONTINUOUS
 62
     1
 10
836.7229795426219
 20
-479.2014257157452
 30
0.0
  0
VERTEX
  5
5B3
  8
0_18__
  6
CONTINUOUS
 62
     1
 10
836.6856575445355
 20
-479.402448463639
 30
0.0
  0
VERTEX
  5
5B4
  8
0_18__
  6
CONTINUOUS
 62
     1
 10
836.651458719127
 20
-479.6074978716642
 30
0.0
  0
VERTEX
  5
5B5
  8
0_18__
  6
CONTINUOUS
 62
     1
 10
836.6203830663968
 20
-479.816573939821
 30
0.0
  0
VERTEX
  5
5B6
  8
0_18__
  6
CONTINUOUS
 62
     1
 10
836.5924305863446
 20
-480.0296766681092
 30
0.0
  0
VERTEX
  5
5B7
  8
0_18__
  6
CONTINUOUS
 62
     1
 10
836.5676012789703
 20
-480.2468060565291
 30
0.0
  0
VERTEX
  5
5B8
  8
0_18__
  6
CONTINUOUS
 62
     1
 10
836.5458951442741
 20
-480.4679621050806
 30
0.0
  0
VERTEX
  5
5B9
  8
0_18__
  6
CONTINUOUS
 62
     1
 10
836.5273121822561
 20
-480.6931448137635
 30
0.0
  0
VERTEX
  5
5BA
  8
0_18__
  6
CONTINUOUS
 62
     1
 10
836.5118523929161
 20
-480.9223541825779
 30
0.0
  0
VERTEX
  5
5BB
  8
0_18__
  6
CONTINUOUS
 62
     1
 10
836.4996919383168
 20
-481.1535756551482
 30
0.0
  0
VERTEX
  5
5BC
  8
0_18__
  6
CONTINUOUS
 62
     1
 10
836.4910069805208
 20
-481.3847946750985
 30
0.0
  0
VERTEX
  5
5BD
  8
0_18__
  6
CONTINUOUS
 62
     1
 10
836.4857975195281
 20
-481.616011242429
 30
0.0
  0
VERTEX
  5
5BE
  8
0_18__
  6
CONTINUOUS
 62
     1
 10
836.4840635553387
 20
-481.8472253571395
 30
0.0
  0
VERTEX
  5
5BF
  8
0_18__
  6
CONTINUOUS
 62
     1
 10
836.4858050879527
 20
-482.07843701923
 30
0.0
  0
VERTEX
  5
5C0
  8
0_18__
  6
CONTINUOUS
 62
     1
 10
836.49102211737
 20
-482.3096462287008
 30
0.0
  0
VERTEX
  5
5C1
  8
0_18__
  6
CONTINUOUS
 62
     1
 10
836.4997146435907
 20
-482.5408529855516
 30
0.0
  0
VERTEX
  5
5C2
  8
0_18__
  6
CONTINUOUS
 62
     1
 10
836.5118826666146
 20
-482.7720572897824
 30
0.0
  0
VERTEX
  5
5C3
  8
0_18__
  6
CONTINUOUS
 62
     1
 10
836.5276874657088
 20
-483.0030306108785
 30
0.0
  0
VERTEX
  5
5C4
  8
0_18__
  6
CONTINUOUS
 62
     1
 10
836.5472903201401
 20
-483.2335444183248
 30
0.0
  0
VERTEX
  5
5C5
  8
0_18__
  6
CONTINUOUS
 62
     1
 10
836.5706912299083
 20
-483.4635987121212
 30
0.0
  0
VERTEX
  5
5C6
  8
0_18__
  6
CONTINUOUS
 62
     1
 10
836.5978901950136
 20
-483.6931934922679
 30
0.0
  0
VERTEX
  5
5C7
  8
0_18__
  6
CONTINUOUS
 62
     1
 10
836.628887215456
 20
-483.9223287587649
 30
0.0
  0
VERTEX
  5
5C8
  8
0_18__
  6
CONTINUOUS
 62
     1
 10
836.6636822912353
 20
-484.1510045116122
 30
0.0
  0
VERTEX
  5
5C9
  8
0_18__
  6
CONTINUOUS
 62
     1
 10
836.7022754223518
 20
-484.3792207508097
 30
0.0
  0
VERTEX
  5
5CA
  8
0_18__
  6
CONTINUOUS
 62
     1
 10
836.7446666088053
 20
-484.6069774763575
 30
0.0
  0
VERTEX
  5
5CB
  8
0_18__
  6
CONTINUOUS
 62
     1
 10
836.7908769523185
 20
-484.8321009039198
 30
0.0
  0
VERTEX
  5
5CC
  8
0_18__
  6
CONTINUOUS
 62
     1
 10
836.8409275546139
 20
-485.0524172491608
 30
0.0
  0
VERTEX
  5
5CD
  8
0_18__
  6
CONTINUOUS
 62
     1
 10
836.8948184156915
 20
-485.2679265120805
 30
0.0
  0
VERTEX
  5
5CE
  8
0_18__
  6
CONTINUOUS
 62
     1
 10
836.9525495355513
 20
-485.478628692679
 30
0.0
  0
VERTEX
  5
5CF
  8
0_18__
  6
CONTINUOUS
 62
     1
 10
837.0141209141933
 20
-485.6845237909561
 30
0.0
  0
VERTEX
  5
5D0
  8
0_18__
  6
CONTINUOUS
 62
     1
 10
837.0795325516175
 20
-485.885611806912
 30
0.0
  0
VERTEX
  5
5D1
  8
0_18__
  6
CONTINUOUS
 62
     1
 10
837.148784447824
 20
-486.0818927405467
 30
0.0
  0
VERTEX
  5
5D2
  8
0_18__
  6
CONTINUOUS
 62
     1
 10
837.2218766028127
 20
-486.2733665918602
 30
0.0
  0
VERTEX
  5
5D3
  8
0_18__
  6
CONTINUOUS
 62
     1
 10
837.2978503276297
 20
-486.4578154440542
 30
0.0
  0
VERTEX
  5
5D4
  8
0_18__
  6
CONTINUOUS
 62
     1
 10
837.3757469333216
 20
-486.6330213803303
 30
0.0
  0
VERTEX
  5
5D5
  8
0_18__
  6
CONTINUOUS
 62
     1
 10
837.4555664198879
 20
-486.7989844006888
 30
0.0
  0
VERTEX
  5
5D6
  8
0_18__
  6
CONTINUOUS
 62
     1
 10
837.5373087873289
 20
-486.9557045051297
 30
0.0
  0
VERTEX
  5
5D7
  8
0_18__
  6
CONTINUOUS
 62
     1
 10
837.6209740356446
 20
-487.1031816936529
 30
0.0
  0
VERTEX
  5
5D8
  8
0_18__
  6
CONTINUOUS
 62
     1
 10
837.7065621648351
 20
-487.2414159662584
 30
0.0
  0
VERTEX
  5
5D9
  8
0_18__
  6
CONTINUOUS
 62
     1
 10
837.7940731749
 20
-487.3704073229462
 30
0.0
  0
VERTEX
  5
5DA
  8
0_18__
  6
CONTINUOUS
 62
     1
 10
837.8835070658397
 20
-487.4901557637163
 30
0.0
  0
VERTEX
  5
5DB
  8
0_18__
  6
CONTINUOUS
 62
     1
 10
837.973298229906
 20
-487.6004138295575
 30
0.0
  0
VERTEX
  5
5DC
  8
0_18__
  6
CONTINUOUS
 62
     1
 10
838.0618810593512
 20
-487.7009340614588
 30
0.0
  0
VERTEX
  5
5DD
  8
0_18__
  6
CONTINUOUS
 62
     1
 10
838.1492555541753
 20
-487.7917164594202
 30
0.0
  0
VERTEX
  5
5DE
  8
0_18__
  6
CONTINUOUS
 62
     1
 10
838.2354217143782
 20
-487.8727610234416
 30
0.0
  0
VERTEX
  5
5DF
  8
0_18__
  6
CONTINUOUS
 62
     1
 10
838.32037953996
 20
-487.9440677535229
 30
0.0
  0
VERTEX
  5
5E0
  8
0_18__
  6
CONTINUOUS
 62
     1
 10
838.4041290309204
 20
-488.0056366496643
 30
0.0
  0
VERTEX
  5
5E1
  8
0_18__
  6
CONTINUOUS
 62
     1
 10
838.4866701872598
 20
-488.0574677118658
 30
0.0
  0
VERTEX
  5
5E2
  8
0_18__
  6
CONTINUOUS
 62
     1
 10
838.5680030089782
 20
-488.0995609401273
 30
0.0
  0
VERTEX
  5
5E3
  8
0_18__
  6
CONTINUOUS
 62
     1
 10
838.6473004706554
 20
-488.1344551706525
 30
0.0
  0
VERTEX
  5
5E4
  8
0_18__
  6
CONTINUOUS
 62
     1
 10
838.7237355468717
 20
-488.1646892396452
 30
0.0
  0
VERTEX
  5
5E5
  8
0_18__
  6
CONTINUOUS
 62
     1
 10
838.7973082376272
 20
-488.1902631471054
 30
0.0
  0
VERTEX
  5
5E6
  8
0_18__
  6
CONTINUOUS
 62
     1
 10
838.8680185429221
 20
-488.2111768930331
 30
0.0
  0
VERTEX
  5
5E7
  8
0_18__
  6
CONTINUOUS
 62
     1
 10
838.9358664627559
 20
-488.2274304774282
 30
0.0
  0
VERTEX
  5
5E8
  8
0_18__
  6
CONTINUOUS
 62
     1
 10
839.0008519971291
 20
-488.2390239002909
 30
0.0
  0
VERTEX
  5
5E9
  8
0_18__
  6
CONTINUOUS
 62
     1
 10
839.0629751460413
 20
-488.245957161621
 30
0.0
  0
VERTEX
  5
5EA
  8
0_18__
  6
CONTINUOUS
 62
     1
 10
839.1222359094927
 20
-488.2482302614187
 30
0.0
  0
VERTEX
  5
5EB
  8
0_18__
  6
CONTINUOUS
 62
     1
 10
839.1222359094927
 20
-488.2482302614187
 30
0.0
  0
VERTEX
  5
5EC
  8
0_18__
  6
CONTINUOUS
 62
     1
 10
839.1222359094928
 20
-488.2482302614187
 30
0.0
  0
SEQEND
  5
5ED
  8
0_18__
  6
CONTINUOUS
 62
     1
  0
POLYLINE
  5
5EE
  8
0_18__
  6
CONTINUOUS
 62
     1
 66
     1
 10
0.0
 20
0.0
 30
0.0
 70
   129
  0
VERTEX
  5
5EF
  8
0_18__
  6
CONTINUOUS
 62
     1
 10
850.3805661586889
 20
-488.2482302614187
 30
0.0
  0
VERTEX
  5
5F0
  8
0_18__
  6
CONTINUOUS
 62
     1
 10
850.528192619665
 20
-488.2444945780917
 30
0.0
  0
VERTEX
  5
5F1
  8
0_18__
  6
CONTINUOUS
 62
     1
 10
850.6842120739925
 20
-488.233416585507
 30
0.0
  0
VERTEX
  5
5F2
  8
0_18__
  6
CONTINUOUS
 62
     1
 10
850.8486245216714
 20
-488.2149962836647
 30
0.0
  0
VERTEX
  5
5F3
  8
0_18__
  6
CONTINUOUS
 62
     1
 10
851.0214299627016
 20
-488.189233672565
 30
0.0
  0
VERTEX
  5
5F4
  8
0_18__
  6
CONTINUOUS
 62
     1
 10
851.2026283970832
 20
-488.1561287522077
 30
0.0
  0
VERTEX
  5
5F5
  8
0_18__
  6
CONTINUOUS
 62
     1
 10
851.3922198248163
 20
-488.1156815225927
 30
0.0
  0
VERTEX
  5
5F6
  8
0_18__
  6
CONTINUOUS
 62
     1
 10
851.5902042459006
 20
-488.0678919837201
 30
0.0
  0
VERTEX
  5
5F7
  8
0_18__
  6
CONTINUOUS
 62
     1
 10
851.7965816603364
 20
-488.01276013559
 30
0.0
  0
VERTEX
  5
5F8
  8
0_18__
  6
CONTINUOUS
 62
     1
 10
852.0074589490063
 20
-487.9453662858911
 30
0.0
  0
VERTEX
  5
5F9
  8
0_18__
  6
CONTINUOUS
 62
     1
 10
852.2189429927926
 20
-487.8607907423119
 30
0.0
  0
VERTEX
  5
5FA
  8
0_18__
  6
CONTINUOUS
 62
     1
 10
852.4310337916954
 20
-487.7590335048526
 30
0.0
  0
VERTEX
  5
5FB
  8
0_18__
  6
CONTINUOUS
 62
     1
 10
852.6437313457147
 20
-487.6400945735129
 30
0.0
  0
VERTEX
  5
5FC
  8
0_18__
  6
CONTINUOUS
 62
     1
 10
852.8570356548506
 20
-487.5039739482932
 30
0.0
  0
VERTEX
  5
5FD
  8
0_18__
  6
CONTINUOUS
 62
     1
 10
853.0709467191031
 20
-487.3506716291931
 30
0.0
  0
VERTEX
  5
5FE
  8
0_18__
  6
CONTINUOUS
 62
     1
 10
853.2854645384721
 20
-487.1801876162129
 30
0.0
  0
VERTEX
  5
5FF
  8
0_18__
  6
CONTINUOUS
 62
     1
 10
853.5005891129575
 20
-486.9925219093526
 30
0.0
  0
VERTEX
  5
600
  8
0_18__
  6
CONTINUOUS
 62
     1
 10
853.7106450393155
 20
-486.7923366500395
 30
0.0
  0
VERTEX
  5
601
  8
0_18__
  6
CONTINUOUS
 62
     1
 10
853.9099569143018
 20
-486.5842939797011
 30
0.0
  0
VERTEX
  5
602
  8
0_18__
  6
CONTINUOUS
 62
     1
 10
854.0985247379164
 20
-486.3683938983374
 30
0.0
  0
VERTEX
  5
603
  8
0_18__
  6
CONTINUOUS
 62
     1
 10
854.2763485101593
 20
-486.1446364059485
 30
0.0
  0
VERTEX
  5
604
  8
0_18__
  6
CONTINUOUS
 62
     1
 10
854.4434282310307
 20
-485.9130215025343
 30
0.0
  0
VERTEX
  5
605
  8
0_18__
  6
CONTINUOUS
 62
     1
 10
854.5997639005304
 20
-485.6735491880947
 30
0.0
  0
VERTEX
  5
606
  8
0_18__
  6
CONTINUOUS
 62
     1
 10
854.7453555186585
 20
-485.4262194626299
 30
0.0
  0
VERTEX
  5
607
  8
0_18__
  6
CONTINUOUS
 62
     1
 10
854.8802030854149
 20
-485.1710323261397
 30
0.0
  0
VERTEX
  5
608
  8
0_18__
  6
CONTINUOUS
 62
     1
 10
855.0042797526892
 20
-484.9102421282407
 30
0.0
  0
VERTEX
  5
609
  8
0_18__
  6
CONTINUOUS
 62
     1
 10
855.1175586723712
 20
-484.6461032185498
 30
0.0
  0
VERTEX
  5
60A
  8
0_18__
  6
CONTINUOUS
 62
     1
 10
855.2200398444606
 20
-484.3786155970669
 30
0.0
  0
VERTEX
  5
60B
  8
0_18__
  6
CONTINUOUS
 62
     1
 10
855.3117232689576
 20
-484.1077792637918
 30
0.0
  0
VERTEX
  5
60C
  8
0_18__
  6
CONTINUOUS
 62
     1
 10
855.3926089458623
 20
-483.8335942187247
 30
0.0
  0
VERTEX
  5
60D
  8
0_18__
  6
CONTINUOUS
 62
     1
 10
855.4626968751745
 20
-483.5560604618654
 30
0.0
  0
VERTEX
  5
60E
  8
0_18__
  6
CONTINUOUS
 62
     1
 10
855.5219870568942
 20
-483.2751779932141
 30
0.0
  0
VERTEX
  5
60F
  8
0_18__
  6
CONTINUOUS
 62
     1
 10
855.5704794910216
 20
-482.9909468127707
 30
0.0
  0
VERTEX
  5
610
  8
0_18__
  6
CONTINUOUS
 62
     1
 10
855.6081883024881
 20
-482.705038340277
 30
0.0
  0
VERTEX
  5
611
  8
0_18__
  6
CONTINUOUS
 62
     1
 10
855.6351276162256
 20
-482.419123995475
 30
0.0
  0
VERTEX
  5
612
  8
0_18__
  6
CONTINUOUS
 62
     1
 10
855.6512974322343
 20
-482.1332037783646
 30
0.0
  0
VERTEX
  5
613
  8
0_18__
  6
CONTINUOUS
 62
     1
 10
855.6566977505137
 20
-481.847277688946
 30
0.0
  0
VERTEX
  5
614
  8
0_18__
  6
CONTINUOUS
 62
     1
 10
855.6513285710641
 20
-481.5613457272188
 30
0.0
  0
VERTEX
  5
615
  8
0_18__
  6
CONTINUOUS
 62
     1
 10
855.6351898938855
 20
-481.2754078931835
 30
0.0
  0
VERTEX
  5
616
  8
0_18__
  6
CONTINUOUS
 62
     1
 10
855.6082817189779
 20
-480.9894641868395
 30
0.0
  0
VERTEX
  5
617
  8
0_18__
  6
CONTINUOUS
 62
     1
 10
855.5706040463411
 20
-480.7035146081873
 30
0.0
  0
VERTEX
  5
618
  8
0_18__
  6
CONTINUOUS
 62
     1
 10
855.5221380872599
 20
-480.4192403229069
 30
0.0
  0
VERTEX
  5
619
  8
0_18__
  6
CONTINUOUS
 62
     1
 10
855.4628650530188
 20
-480.1383224966787
 30
0.0
  0
VERTEX
  5
61A
  8
0_18__
  6
CONTINUOUS
 62
     1
 10
855.3927849436177
 20
-479.8607611295026
 30
0.0
  0
VERTEX
  5
61B
  8
0_18__
  6
CONTINUOUS
 62
     1
 10
855.3118977590567
 20
-479.5865562213785
 30
0.0
  0
VERTEX
  5
61C
  8
0_18__
  6
CONTINUOUS
 62
     1
 10
855.2202034993358
 20
-479.3157077723065
 30
0.0
  0
VERTEX
  5
61D
  8
0_18__
  6
CONTINUOUS
 62
     1
 10
855.1177021644548
 20
-479.0482157822867
 30
0.0
  0
VERTEX
  5
61E
  8
0_18__
  6
CONTINUOUS
 62
     1
 10
855.004393754414
 20
-478.784080251319
 30
0.0
  0
VERTEX
  5
61F
  8
0_18__
  6
CONTINUOUS
 62
     1
 10
854.8802782692131
 20
-478.5233011794032
 30
0.0
  0
VERTEX
  5
620
  8
0_18__
  6
CONTINUOUS
 62
     1
 10
854.7454127071475
 20
-478.2681226607405
 30
0.0
  0
VERTEX
  5
621
  8
0_18__
  6
CONTINUOUS
 62
     1
 10
854.5998540665121
 20
-478.0207887895314
 30
0.0
  0
VERTEX
  5
622
  8
0_18__
  6
CONTINUOUS
 62
     1
 10
854.443602347307
 20
-477.781299565776
 30
0.0
  0
VERTEX
  5
623
  8
0_18__
  6
CONTINUOUS
 62
     1
 10
854.276657549532
 20
-477.5496549894742
 30
0.0
  0
VERTEX
  5
624
  8
0_18__
  6
CONTINUOUS
 62
     1
 10
854.0990196731874
 20
-477.3258550606262
 30
0.0
  0
VERTEX
  5
625
  8
0_18__
  6
CONTINUOUS
 62
     1
 10
853.910688718273
 20
-477.1098997792319
 30
0.0
  0
VERTEX
  5
626
  8
0_18__
  6
CONTINUOUS
 62
     1
 10
853.711664684789
 20
-476.9017891452913
 30
0.0
  0
VERTEX
  5
627
  8
0_18__
  6
CONTINUOUS
 62
     1
 10
853.501947572735
 20
-476.7015231588043
 30
0.0
  0
VERTEX
  5
628
  8
0_18__
  6
CONTINUOUS
 62
     1
 10
853.282659092308
 20
-476.5125562601529
 30
0.0
  0
VERTEX
  5
629
  8
0_18__
  6
CONTINUOUS
 62
     1
 10
853.054920953704
 20
-476.3383428897191
 30
0.0
  0
VERTEX
  5
62A
  8
0_18__
  6
CONTINUOUS
 62
     1
 10
852.8187331569234
 20
-476.1788830475029
 30
0.0
  0
VERTEX
  5
62B
  8
0_18__
  6
CONTINUOUS
 62
     1
 10
852.5740957019659
 20
-476.0341767335042
 30
0.0
  0
VERTEX
  5
62C
  8
0_18__
  6
CONTINUOUS
 62
     1
 10
852.3210085888318
 20
-475.904223947723
 30
0.0
  0
VERTEX
  5
62D
  8
0_18__
  6
CONTINUOUS
 62
     1
 10
852.0594718175207
 20
-475.7890246901594
 30
0.0
  0
VERTEX
  5
62E
  8
0_18__
  6
CONTINUOUS
 62
     1
 10
851.789485388033
 20
-475.6885789608134
 30
0.0
  0
VERTEX
  5
62F
  8
0_18__
  6
CONTINUOUS
 62
     1
 10
851.5110493003685
 20
-475.6028867596849
 30
0.0
  0
VERTEX
  5
630
  8
0_18__
  6
CONTINUOUS
 62
     1
 10
851.2283896435504
 20
-475.5343555902743
 30
0.0
  0
VERTEX
  5
631
  8
0_18__
  6
CONTINUOUS
 62
     1
 10
850.9457325066021
 20
-475.485392956082
 30
0.0
  0
VERTEX
  5
632
  8
0_18__
  6
CONTINUOUS
 62
     1
 10
850.6630778895234
 20
-475.4559988571079
 30
0.0
  0
VERTEX
  5
633
  8
0_18__
  6
CONTINUOUS
 62
     1
 10
850.3804257923144
 20
-475.4461732933523
 30
0.0
  0
VERTEX
  5
634
  8
0_18__
  6
CONTINUOUS
 62
     1
 10
850.0977762149752
 20
-475.4559162648148
 30
0.0
  0
VERTEX
  5
635
  8
0_18__
  6
CONTINUOUS
 62
     1
 10
849.8151291575056
 20
-475.4852277714957
 30
0.0
  0
VERTEX
  5
636
  8
0_18__
  6
CONTINUOUS
 62
     1
 10
849.5324846199057
 20
-475.5341078133948
 30
0.0
  0
VERTEX
  5
637
  8
0_18__
  6
CONTINUOUS
 62
     1
 10
849.2498426021755
 20
-475.6025563905123
 30
0.0
  0
VERTEX
  5
638
  8
0_18__
  6
CONTINUOUS
 62
     1
 10
848.9714294902064
 20
-475.6881807409349
 30
0.0
  0
VERTEX
  5
639
  8
0_18__
  6
CONTINUOUS
 62
     1
 10
848.7014716698899
 20
-475.7885881027494
 30
0.0
  0
VERTEX
  5
63A
  8
0_18__
  6
CONTINUOUS
 62
     1
 10
848.4399691412257
 20
-475.9037784759557
 30
0.0
  0
VERTEX
  5
63B
  8
0_18__
  6
CONTINUOUS
 62
     1
 10
848.1869219042142
 20
-476.0337518605539
 30
0.0
  0
VERTEX
  5
63C
  8
0_18__
  6
CONTINUOUS
 62
     1
 10
847.942329958855
 20
-476.1785082565441
 30
0.0
  0
VERTEX
  5
63D
  8
0_18__
  6
CONTINUOUS
 62
     1
 10
847.7061933051483
 20
-476.3380476639262
 30
0.0
  0
VERTEX
  5
63E
  8
0_18__
  6
CONTINUOUS
 62
     1
 10
847.4785119430942
 20
-476.5123700827003
 30
0.0
  0
VERTEX
  5
63F
  8
0_18__
  6
CONTINUOUS
 62
     1
 10
847.2592858726925
 20
-476.7014755128662
 30
0.0
  0
VERTEX
  5
640
  8
0_18__
  6
CONTINUOUS
 62
     1
 10
847.0496262253732
 20
-476.9018816613802
 30
0.0
  0
VERTEX
  5
641
  8
0_18__
  6
CONTINUOUS
 62
     1
 10
846.850644132566
 20
-477.1101062351984
 30
0.0
  0
VERTEX
  5
642
  8
0_18__
  6
CONTINUOUS
 62
     1
 10
846.6623395942711
 20
-477.3261492343208
 30
0.0
  0
VERTEX
  5
643
  8
0_18__
  6
CONTINUOUS
 62
     1
 10
846.4847126104884
 20
-477.5500106587473
 30
0.0
  0
VERTEX
  5
644
  8
0_18__
  6
CONTINUOUS
 62
     1
 10
846.3177631812179
 20
-477.7816905084781
 30
0.0
  0
VERTEX
  5
645
  8
0_18__
  6
CONTINUOUS
 62
     1
 10
846.1614913064595
 20
-478.021188783513
 30
0.0
  0
VERTEX
  5
646
  8
0_18__
  6
CONTINUOUS
 62
     1
 10
846.0158969862134
 20
-478.2685054838521
 30
0.0
  0
VERTEX
  5
647
  8
0_18__
  6
CONTINUOUS
 62
     1
 10
845.8809802204796
 20
-478.5236406094955
 30
0.0
  0
VERTEX
  5
648
  8
0_18__
  6
CONTINUOUS
 62
     1
 10
845.7568085555376
 20
-478.7843657635163
 30
0.0
  0
VERTEX
  5
649
  8
0_18__
  6
CONTINUOUS
 62
     1
 10
845.6434495376678
 20
-479.0484525489878
 30
0.0
  0
VERTEX
  5
64A
  8
0_18__
  6
CONTINUOUS
 62
     1
 10
845.54090316687
 20
-479.31590096591
 30
0.0
  0
VERTEX
  5
64B
  8
0_18__
  6
CONTINUOUS
 62
     1
 10
845.449169443144
 20
-479.586711014283
 30
0.0
  0
VERTEX
  5
64C
  8
0_18__
  6
CONTINUOUS
 62
     1
 10
845.3682483664901
 20
-479.8608826941066
 30
0.0
  0
VERTEX
  5
64D
  8
0_18__
  6
CONTINUOUS
 62
     1
 10
845.2981399369081
 20
-480.138416005381
 30
0.0
  0
VERTEX
  5
64E
  8
0_18__
  6
CONTINUOUS
 62
     1
 10
845.2388441543981
 20
-480.4193109481062
 30
0.0
  0
VERTEX
  5
64F
  8
0_18__
  6
CONTINUOUS
 62
     1
 10
845.19036101896
 20
-480.7035675222819
 30
0.0
  0
VERTEX
  5
650
  8
0_18__
  6
CONTINUOUS
 62
     1
 10
845.152669789439
 20
-480.9895029810802
 30
0.0
  0
VERTEX
  5
651
  8
0_18__
  6
CONTINUOUS
 62
     1
 10
845.12574972468
 20
-481.2754345776731
 30
0.0
  0
VERTEX
  5
652
  8
0_18__
  6
CONTINUOUS
 62
     1
 10
845.1096008246831
 20
-481.5613623120603
 30
0.0
  0
VERTEX
  5
653
  8
0_18__
  6
CONTINUOUS
 62
     1
 10
845.1042230894482
 20
-481.847286184242
 30
0.0
  0
VERTEX
  5
654
  8
0_18__
  6
CONTINUOUS
 62
     1
 10
845.1096165189754
 20
-482.133206194218
 30
0.0
  0
VERTEX
  5
655
  8
0_18__
  6
CONTINUOUS
 62
     1
 10
845.1257811132647
 20
-482.4191223419884
 30
0.0
  0
VERTEX
  5
656
  8
0_18__
  6
CONTINUOUS
 62
     1
 10
845.152716872316
 20
-482.7050346275532
 30
0.0
  0
VERTEX
  5
657
  8
0_18__
  6
CONTINUOUS
 62
     1
 10
845.1904237961294
 20
-482.9909430509126
 30
0.0
  0
VERTEX
  5
658
  8
0_18__
  6
CONTINUOUS
 62
     1
 10
845.2389180837392
 20
-483.2751726159108
 30
0.0
  0
VERTEX
  5
659
  8
0_18__
  6
CONTINUOUS
 62
     1
 10
845.2982159341798
 20
-483.5560483263922
 30
0.0
  0
VERTEX
  5
65A
  8
0_18__
  6
CONTINUOUS
 62
     1
 10
845.368317347451
 20
-483.8335701823569
 30
0.0
  0
VERTEX
  5
65B
  8
0_18__
  6
CONTINUOUS
 62
     1
 10
845.4492223235529
 20
-484.1077381838049
 30
0.0
  0
VERTEX
  5
65C
  8
0_18__
  6
CONTINUOUS
 62
     1
 10
845.5409308624858
 20
-484.3785523307363
 30
0.0
  0
VERTEX
  5
65D
  8
0_18__
  6
CONTINUOUS
 62
     1
 10
845.6434429642492
 20
-484.6460126231509
 30
0.0
  0
VERTEX
  5
65E
  8
0_18__
  6
CONTINUOUS
 62
     1
 10
845.7567586288434
 20
-484.9101190610488
 30
0.0
  0
VERTEX
  5
65F
  8
0_18__
  6
CONTINUOUS
 62
     1
 10
845.8808778562684
 20
-485.17087164443
 30
0.0
  0
VERTEX
  5
660
  8
0_18__
  6
CONTINUOUS
 62
     1
 10
846.0157628817258
 20
-485.4260272070419
 30
0.0
  0
VERTEX
  5
661
  8
0_18__
  6
CONTINUOUS
 62
     1
 10
846.1613759404174
 20
-485.6733425826319
 30
0.0
  0
VERTEX
  5
662
  8
0_18__
  6
CONTINUOUS
 62
     1
 10
846.3177170323432
 20
-485.9128177712
 30
0.0
  0
VERTEX
  5
663
  8
0_18__
  6
CONTINUOUS
 62
     1
 10
846.4847861575033
 20
-486.1444527727461
 30
0.0
  0
VERTEX
  5
664
  8
0_18__
  6
CONTINUOUS
 62
     1
 10
846.6625833158976
 20
-486.3682475872704
 30
0.0
  0
VERTEX
  5
665
  8
0_18__
  6
CONTINUOUS
 62
     1
 10
846.851108507526
 20
-486.5842022147727
 30
0.0
  0
VERTEX
  5
666
  8
0_18__
  6
CONTINUOUS
 62
     1
 10
847.0503617323886
 20
-486.7923166552532
 30
0.0
  0
VERTEX
  5
667
  8
0_18__
  6
CONTINUOUS
 62
     1
 10
847.2603429904855
 20
-486.9925909087118
 30
0.0
  0
VERTEX
  5
668
  8
0_18__
  6
CONTINUOUS
 62
     1
 10
847.4753942028121
 20
-487.1803485651292
 30
0.0
  0
VERTEX
  5
669
  8
0_18__
  6
CONTINUOUS
 62
     1
 10
847.6898572903644
 20
-487.3509132144861
 30
0.0
  0
VERTEX
  5
66A
  8
0_18__
  6
CONTINUOUS
 62
     1
 10
847.9037322531423
 20
-487.5042848567824
 30
0.0
  0
VERTEX
  5
66B
  8
0_18__
  6
CONTINUOUS
 62
     1
 10
848.1170190911456
 20
-487.6404634920184
 30
0.0
  0
VERTEX
  5
66C
  8
0_18__
  6
CONTINUOUS
 62
     1
 10
848.3297178043745
 20
-487.7594491201937
 30
0.0
  0
VERTEX
  5
66D
  8
0_18__
  6
CONTINUOUS
 62
     1
 10
848.541828392829
 20
-487.8612417413087
 30
0.0
  0
VERTEX
  5
66E
  8
0_18__
  6
CONTINUOUS
 62
     1
 10
848.7533508565089
 20
-487.9458413553632
 30
0.0
  0
VERTEX
  5
66F
  8
0_18__
  6
CONTINUOUS
 62
     1
 10
848.9642851954144
 20
-488.0132479623571
 30
0.0
  0
VERTEX
  5
670
  8
0_18__
  6
CONTINUOUS
 62
     1
 10
849.170724827419
 20
-488.0683784013106
 30
0.0
  0
VERTEX
  5
671
  8
0_18__
  6
CONTINUOUS
 62
     1
 10
849.3687631703965
 20
-488.116149511244
 30
0.0
  0
VERTEX
  5
672
  8
0_18__
  6
CONTINUOUS
 62
     1
 10
849.5584002243465
 20
-488.156561292157
 30
0.0
  0
VERTEX
  5
673
  8
0_18__
  6
CONTINUOUS
 62
     1
 10
849.7396359892696
 20
-488.1896137440499
 30
0.0
  0
VERTEX
  5
674
  8
0_18__
  6
CONTINUOUS
 62
     1
 10
849.9124704651653
 20
-488.2153068669224
 30
0.0
  0
VERTEX
  5
675
  8
0_18__
  6
CONTINUOUS
 62
     1
 10
850.0769036520337
 20
-488.2336406607749
 30
0.0
  0
VERTEX
  5
676
  8
0_18__
  6
CONTINUOUS
 62
     1
 10
850.2329355498749
 20
-488.2446151256069
 30
0.0
  0
VERTEX
  5
677
  8
0_18__
  6
CONTINUOUS
 62
     1
 10
850.3805661586889
 20
-488.2482302614187
 30
0.0
  0
VERTEX
  5
678
  8
0_18__
  6
CONTINUOUS
 62
     1
 10
850.3805661586889
 20
-488.2482302614187
 30
0.0
  0
VERTEX
  5
679
  8
0_18__
  6
CONTINUOUS
 62
     1
 10
850.3805661586889
 20
-488.2482302614187
 30
0.0
  0
SEQEND
  5
67A
  8
0_18__
  6
CONTINUOUS
 62
     1
  0
ARC
  5
67B
  8
0_18__
  6
CONTINUOUS
 62
     1
 10
855.85409615869
 20
-481.8469436260434
 30
0.0
 40
20.07352999999992
 50
154.8000270000001
 51
203.4866139999999
  0
ARC
  5
67C
  8
0_18__
  6
CONTINUOUS
 62
     1
 10
834.07171015869
 20
-471.5969436260434
 30
0.0
 40
3.999999999999957
 50
334.8000270000018
 51
90.00000000000001
  0
LINE
  5
67D
  8
0_18__
  6
CONTINUOUS
 62
     1
 10
841.06506615869
 20
-434.8469436260434
 30
0.0
 11
839.9030661586901
 21
-436.8595876260433
 31
0.0
  0
LINE
  5
67E
  8
0_18__
  6
CONTINUOUS
 62
     1
 10
841.06506615869
 20
-424.8469436260434
 30
0.0
 11
839.9030661586901
 21
-426.0089436260432
 31
0.0
  0
LINE
  5
67F
  8
0_18__
  6
CONTINUOUS
 62
     1
 10
841.06506615869
 20
-424.8469436260434
 30
0.0
 11
841.06506615869
 21
-434.8469436260434
 31
0.0
  0
LINE
  5
680
  8
0_18__
  6
CONTINUOUS
 62
     1
 10
839.9030661586901
 20
-426.0089436260432
 30
0.0
 11
839.9030661586901
 21
-437.0236836260433
 31
0.0
  0
LINE
  5
681
  8
0_18__
  6
CONTINUOUS
 62
     1
 10
859.6960661586901
 20
-424.8469436260434
 30
0.0
 11
859.6960661586901
 21
-434.8469436260434
 31
0.0
  0
LINE
  5
682
  8
0_18__
  6
CONTINUOUS
 62
     1
 10
859.6960661586901
 20
-424.8469436260434
 30
0.0
 11
860.85806615869
 21
-426.0089436260432
 31
0.0
  0
LINE
  5
683
  8
0_18__
  6
CONTINUOUS
 62
     1
 10
839.9030661586901
 20
-426.0089436260432
 30
0.0
 11
860.85806615869
 21
-426.0089436260432
 31
0.0
  0
LINE
  5
684
  8
0_18__
  6
CONTINUOUS
 62
     1
 10
841.06506615869
 20
-424.8469436260434
 30
0.0
 11
859.6960661586901
 21
-424.8469436260434
 31
0.0
  0
LINE
  5
685
  8
0_18__
  6
CONTINUOUS
 62
     1
 10
859.6960661586901
 20
-434.8469436260434
 30
0.0
 11
860.85806615869
 21
-436.8595876260433
 31
0.0
  0
LINE
  5
686
  8
0_18__
  6
CONTINUOUS
 62
     1
 10
860.85806615869
 20
-426.0089436260432
 30
0.0
 11
860.85806615869
 21
-437.0832196260435
 31
0.0
  0
LINE
  5
687
  8
0_18__
  6
CONTINUOUS
 62
     1
 10
860.85806615869
 20
-434.8469436260434
 30
0.0
 11
839.9030661586901
 21
-434.8469436260434
 31
0.0
  0
LINE
  5
688
  8
0_03____
  6
ISO-04______
 62
     2
 10
781.2805661586902
 20
-454.8469436260434
 30
0.0
 11
874.38056815869
 21
-454.8469436260434
 31
0.0
  0
LINE
  5
689
  8
0_18__
  6
CONTINUOUS
 62
     1
 10
825.38056615869
 20
-466.1469436260436
 30
0.0
 11
827.38056615869
 21
-466.1469436260436
 31
0.0
  0
LINE
  5
68A
  8
0_18__
  6
CONTINUOUS
 62
     1
 10
828.5930001586901
 20
-466.8469436260434
 30
0.0
 11
827.38056615869
 21
-466.1469456260434
 31
0.0
  0
LINE
  5
68B
  8
0_18__
  6
CONTINUOUS
 62
     1
 10
825.38056615869
 20
-443.5469396260432
 30
0.0
 11
827.38056615869
 21
-443.5469396260432
 31
0.0
  0
LINE
  5
68C
  8
0_18__
  6
CONTINUOUS
 62
     1
 10
827.38056415869
 20
-443.5469416260435
 30
0.0
 11
828.5929941586901
 21
-442.8469436260434
 31
0.0
  0
LINE
  5
68D
  8
0_03____
  6
ISO-04______
 62
     2
 10
850.38056615869
 20
-414.8469436260434
 30
0.0
 11
850.38056615869
 21
-664.8469416260434
 31
0.0
  0
LINE
  5
68E
  8
0_18__
  6
CONTINUOUS
 62
     1
 10
825.38056615869
 20
-442.8469436260434
 30
0.0
 11
828.78872415869
 21
-442.8469436260434
 31
0.0
  0
LINE
  5
68F
  8
0_18__
  6
CONTINUOUS
 62
     1
 10
828.8805601586901
 20
-466.8469436260434
 30
0.0
 11
828.78872415869
 21
-466.8469436260434
 31
0.0
  0
LINE
  5
690
  8
0_18__
  6
CONTINUOUS
 62
     1
 10
825.38056615869
 20
-466.8469436260434
 30
0.0
 11
828.78872415869
 21
-466.8469436260434
 31
0.0
  0
LINE
  5
691
  8
0_18__
  6
CONTINUOUS
 62
     1
 10
813.3805601586901
 20
-459.5969436260434
 30
0.0
 11
805.28056615869
 21
-459.5969436260434
 31
0.0
  0
LINE
  5
692
  8
0_18__
  6
CONTINUOUS
 62
     1
 10
813.3805601586901
 20
-450.0969436260434
 30
0.0
 11
805.28056615869
 21
-450.0969436260434
 31
0.0
  0
POLYLINE
  5
693
  8
0_18__
  6
CONTINUOUS
 62
     1
 66
     1
 10
0.0
 20
0.0
 30
0.0
 70
   129
  0
VERTEX
  5
694
  8
0_18__
  6
CONTINUOUS
 62
     1
 10
818.164229975873
 20
-444.1717585385982
 30
0.0
  0
VERTEX
  5
695
  8
0_18__
  6
CONTINUOUS
 62
     1
 10
818.1457320035651
 20
-444.0987497520134
 30
0.0
  0
VERTEX
  5
696
  8
0_18__
  6
CONTINUOUS
 62
     1
 10
818.1296879740802
 20
-444.0205418893316
 30
0.0
  0
VERTEX
  5
697
  8
0_18__
  6
CONTINUOUS
 62
     1
 10
818.1160978874184
 20
-443.9371349505531
 30
0.0
  0
VERTEX
  5
698
  8
0_18__
  6
CONTINUOUS
 62
     1
 10
818.1049617435797
 20
-443.8485289356777
 30
0.0
  0
VERTEX
  5
699
  8
0_18__
  6
CONTINUOUS
 62
     1
 10
818.096279542564
 20
-443.7547238447054
 30
0.0
  0
VERTEX
  5
69A
  8
0_18__
  6
CONTINUOUS
 62
     1
 10
818.0900512843715
 20
-443.6557196776362
 30
0.0
  0
VERTEX
  5
69B
  8
0_18__
  6
CONTINUOUS
 62
     1
 10
818.086276969002
 20
-443.5515164344702
 30
0.0
  0
VERTEX
  5
69C
  8
0_18__
  6
CONTINUOUS
 62
     1
 10
818.0849565964556
 20
-443.4421141152072
 30
0.0
  0
VERTEX
  5
69D
  8
0_18__
  6
CONTINUOUS
 62
     1
 10
818.0896278099444
 20
-443.3290726623425
 30
0.0
  0
VERTEX
  5
69E
  8
0_18__
  6
CONTINUOUS
 62
     1
 10
818.1038282526803
 20
-443.2139520183708
 30
0.0
  0
VERTEX
  5
69F
  8
0_18__
  6
CONTINUOUS
 62
     1
 10
818.1275579246634
 20
-443.0967521832922
 30
0.0
  0
VERTEX
  5
6A0
  8
0_18__
  6
CONTINUOUS
 62
     1
 10
818.1608168258937
 20
-442.9774731571067
 30
0.0
  0
VERTEX
  5
6A1
  8
0_18__
  6
CONTINUOUS
 62
     1
 10
818.203604956371
 20
-442.8561149398142
 30
0.0
  0
VERTEX
  5
6A2
  8
0_18__
  6
CONTINUOUS
 62
     1
 10
818.2559223160956
 20
-442.732677531415
 30
0.0
  0
VERTEX
  5
6A3
  8
0_18__
  6
CONTINUOUS
 62
     1
 10
818.3177689050675
 20
-442.6071609319087
 30
0.0
  0
VERTEX
  5
6A4
  8
0_18__
  6
CONTINUOUS
 62
     1
 10
818.3891447232864
 20
-442.4795651412956
 30
0.0
  0
VERTEX
  5
6A5
  8
0_18__
  6
CONTINUOUS
 62
     1
 10
818.4681990784268
 20
-442.3537919007953
 30
0.0
  0
VERTEX
  5
6A6
  8
0_18__
  6
CONTINUOUS
 62
     1
 10
818.5530812781626
 20
-442.2337429516276
 30
0.0
  0
VERTEX
  5
6A7
  8
0_18__
  6
CONTINUOUS
 62
     1
 10
818.6437913224938
 20
-442.1194182937925
 30
0.0
  0
VERTEX
  5
6A8
  8
0_18__
  6
CONTINUOUS
 62
     1
 10
818.7403292114207
 20
-442.01081792729
 30
0.0
  0
VERTEX
  5
6A9
  8
0_18__
  6
CONTINUOUS
 62
     1
 10
818.842694944943
 20
-441.9079418521201
 30
0.0
  0
VERTEX
  5
6AA
  8
0_18__
  6
CONTINUOUS
 62
     1
 10
818.9508885230608
 20
-441.8107900682828
 30
0.0
  0
VERTEX
  5
6AB
  8
0_18__
  6
CONTINUOUS
 62
     1
 10
819.0649099457742
 20
-441.7193625757781
 30
0.0
  0
VERTEX
  5
6AC
  8
0_18__
  6
CONTINUOUS
 62
     1
 10
819.184759213083
 20
-441.6336593746059
 30
0.0
  0
VERTEX
  5
6AD
  8
0_18__
  6
CONTINUOUS
 62
     1
 10
819.3109593680394
 20
-441.5529607607372
 30
0.0
  0
VERTEX
  5
6AE
  8
0_18__
  6
CONTINUOUS
 62
     1
 10
819.4440334536953
 20
-441.4765470301425
 30
0.0
  0
VERTEX
  5
6AF
  8
0_18__
  6
CONTINUOUS
 62
     1
 10
819.5839814700508
 20
-441.4044181828218
 30
0.0
  0
VERTEX
  5
6B0
  8
0_18__
  6
CONTINUOUS
 62
     1
 10
819.7308034171059
 20
-441.3365742187752
 30
0.0
  0
VERTEX
  5
6B1
  8
0_18__
  6
CONTINUOUS
 62
     1
 10
819.8844992948606
 20
-441.2730151380027
 30
0.0
  0
VERTEX
  5
6B2
  8
0_18__
  6
CONTINUOUS
 62
     1
 10
820.0450691033147
 20
-441.2137409405043
 30
0.0
  0
VERTEX
  5
6B3
  8
0_18__
  6
CONTINUOUS
 62
     1
 10
820.2125128424686
 20
-441.1587516262799
 30
0.0
  0
VERTEX
  5
6B4
  8
0_18__
  6
CONTINUOUS
 62
     1
 10
820.3868305123219
 20
-441.1080471953296
 30
0.0
  0
VERTEX
  5
6B5
  8
0_18__
  6
CONTINUOUS
 62
     1
 10
820.5673762360129
 20
-441.0642516918275
 30
0.0
  0
VERTEX
  5
6B6
  8
0_18__
  6
CONTINUOUS
 62
     1
 10
820.7535041366795
 20
-441.0299891599477
 30
0.0
  0
VERTEX
  5
6B7
  8
0_18__
  6
CONTINUOUS
 62
     1
 10
820.9452142143216
 20
-441.0052595996901
 30
0.0
  0
VERTEX
  5
6B8
  8
0_18__
  6
CONTINUOUS
 62
     1
 10
821.1425064689395
 20
-440.990063011055
 30
0.0
  0
VERTEX
  5
6B9
  8
0_18__
  6
CONTINUOUS
 62
     1
 10
821.3453809005329
 20
-440.9843993940422
 30
0.0
  0
VERTEX
  5
6BA
  8
0_18__
  6
CONTINUOUS
 62
     1
 10
821.5538375091019
 20
-440.9882687486515
 30
0.0
  0
VERTEX
  5
6BB
  8
0_18__
  6
CONTINUOUS
 62
     1
 10
821.7678762946465
 20
-441.0016710748832
 30
0.0
  0
VERTEX
  5
6BC
  8
0_18__
  6
CONTINUOUS
 62
     1
 10
821.9874972571668
 20
-441.0246063727373
 30
0.0
  0
VERTEX
  5
6BD
  8
0_18__
  6
CONTINUOUS
 62
     1
 10
822.2056502045932
 20
-441.0570042067159
 30
0.0
  0
VERTEX
  5
6BE
  8
0_18__
  6
CONTINUOUS
 62
     1
 10
822.4152849448567
 20
-441.0987941413214
 30
0.0
  0
VERTEX
  5
6BF
  8
0_18__
  6
CONTINUOUS
 62
     1
 10
822.6164014779571
 20
-441.1499761765538
 30
0.0
  0
VERTEX
  5
6C0
  8
0_18__
  6
CONTINUOUS
 62
     1
 10
822.8089998038943
 20
-441.2105503124129
 30
0.0
  0
VERTEX
  5
6C1
  8
0_18__
  6
CONTINUOUS
 62
     1
 10
822.9930799226685
 20
-441.280516548899
 30
0.0
  0
VERTEX
  5
6C2
  8
0_18__
  6
CONTINUOUS
 62
     1
 10
823.1686418342796
 20
-441.359874886012
 30
0.0
  0
VERTEX
  5
6C3
  8
0_18__
  6
CONTINUOUS
 62
     1
 10
823.3356855387276
 20
-441.4486253237518
 30
0.0
  0
VERTEX
  5
6C4
  8
0_18__
  6
CONTINUOUS
 62
     1
 10
823.4942110360125
 20
-441.5467678621185
 30
0.0
  0
VERTEX
  5
6C5
  8
0_18__
  6
CONTINUOUS
 62
     1
 10
823.6436204594207
 20
-441.6511919151211
 30
0.0
  0
VERTEX
  5
6C6
  8
0_18__
  6
CONTINUOUS
 62
     1
 10
823.7833159422387
 20
-441.7587868967687
 30
0.0
  0
VERTEX
  5
6C7
  8
0_18__
  6
CONTINUOUS
 62
     1
 10
823.9132974844663
 20
-441.8695528070612
 30
0.0
  0
VERTEX
  5
6C8
  8
0_18__
  6
CONTINUOUS
 62
     1
 10
824.0335650861035
 20
-441.9834896459987
 30
0.0
  0
VERTEX
  5
6C9
  8
0_18__
  6
CONTINUOUS
 62
     1
 10
824.1441187471504
 20
-442.1005974135812
 30
0.0
  0
VERTEX
  5
6CA
  8
0_18__
  6
CONTINUOUS
 62
     1
 10
824.244958467607
 20
-442.2208761098086
 30
0.0
  0
VERTEX
  5
6CB
  8
0_18__
  6
CONTINUOUS
 62
     1
 10
824.3360842474733
 20
-442.344325734681
 30
0.0
  0
VERTEX
  5
6CC
  8
0_18__
  6
CONTINUOUS
 62
     1
 10
824.4174960867493
 20
-442.4709462881983
 30
0.0
  0
VERTEX
  5
6CD
  8
0_18__
  6
CONTINUOUS
 62
     1
 10
824.4892904832755
 20
-442.600514909087
 30
0.0
  0
VERTEX
  5
6CE
  8
0_18__
  6
CONTINUOUS
 62
     1
 10
824.5515639348919
 20
-442.7328087360731
 30
0.0
  0
VERTEX
  5
6CF
  8
0_18__
  6
CONTINUOUS
 62
     1
 10
824.6043164415989
 20
-442.8678277691569
 30
0.0
  0
VERTEX
  5
6D0
  8
0_18__
  6
CONTINUOUS
 62
     1
 10
824.6475480033964
 20
-443.005572008338
 30
0.0
  0
VERTEX
  5
6D1
  8
0_18__
  6
CONTINUOUS
 62
     1
 10
824.6812586202843
 20
-443.146041453617
 30
0.0
  0
VERTEX
  5
6D2
  8
0_18__
  6
CONTINUOUS
 62
     1
 10
824.7054482922629
 20
-443.2892361049934
 30
0.0
  0
VERTEX
  5
6D3
  8
0_18__
  6
CONTINUOUS
 62
     1
 10
824.7201170193318
 20
-443.4351559624673
 30
0.0
  0
VERTEX
  5
6D4
  8
0_18__
  6
CONTINUOUS
 62
     1
 10
824.7252648014912
 20
-443.5838010260388
 30
0.0
  0
VERTEX
  5
6D5
  8
0_18__
  6
CONTINUOUS
 62
     1
 10
824.7208701501925
 20
-443.7324646014068
 30
0.0
  0
VERTEX
  5
6D6
  8
0_18__
  6
CONTINUOUS
 62
     1
 10
824.7069115768874
 20
-443.8784399942705
 30
0.0
  0
VERTEX
  5
6D7
  8
0_18__
  6
CONTINUOUS
 62
     1
 10
824.6833890815756
 20
-444.0217272046298
 30
0.0
  0
VERTEX
  5
6D8
  8
0_18__
  6
CONTINUOUS
 62
     1
 10
824.6503026642574
 20
-444.1623262324845
 30
0.0
  0
VERTEX
  5
6D9
  8
0_18__
  6
CONTINUOUS
 62
     1
 10
824.6076523249326
 20
-444.3002370778348
 30
0.0
  0
VERTEX
  5
6DA
  8
0_18__
  6
CONTINUOUS
 62
     1
 10
824.5554380636012
 20
-444.4354597406807
 30
0.0
  0
VERTEX
  5
6DB
  8
0_18__
  6
CONTINUOUS
 62
     1
 10
824.4936598802633
 20
-444.5679942210222
 30
0.0
  0
VERTEX
  5
6DC
  8
0_18__
  6
CONTINUOUS
 62
     1
 10
824.4223177749188
 20
-444.6978405188593
 30
0.0
  0
VERTEX
  5
6DD
  8
0_18__
  6
CONTINUOUS
 62
     1
 10
824.3432776988051
 20
-444.8234918277919
 30
0.0
  0
VERTEX
  5
6DE
  8
0_18__
  6
CONTINUOUS
 62
     1
 10
824.258405603159
 20
-444.9434413414203
 30
0.0
  0
VERTEX
  5
6DF
  8
0_18__
  6
CONTINUOUS
 62
     1
 10
824.1677014879806
 20
-445.0576890597446
 30
0.0
  0
VERTEX
  5
6E0
  8
0_18__
  6
CONTINUOUS
 62
     1
 10
824.0711653532699
 20
-445.1662349827646
 30
0.0
  0
VERTEX
  5
6E1
  8
0_18__
  6
CONTINUOUS
 62
     1
 10
823.9687971990268
 20
-445.2690791104804
 30
0.0
  0
VERTEX
  5
6E2
  8
0_18__
  6
CONTINUOUS
 62
     1
 10
823.8605970252515
 20
-445.366221442892
 30
0.0
  0
VERTEX
  5
6E3
  8
0_18__
  6
CONTINUOUS
 62
     1
 10
823.7465648319439
 20
-445.4576619799993
 30
0.0
  0
VERTEX
  5
6E4
  8
0_18__
  6
CONTINUOUS
 62
     1
 10
823.6267006191042
 20
-445.5434007218023
 30
0.0
  0
VERTEX
  5
6E5
  8
0_18__
  6
CONTINUOUS
 62
     1
 10
823.5004954805279
 20
-445.6241377671086
 30
0.0
  0
VERTEX
  5
6E6
  8
0_18__
  6
CONTINUOUS
 62
     1
 10
823.3674405100107
 20
-445.7005732147254
 30
0.0
  0
VERTEX
  5
6E7
  8
0_18__
  6
CONTINUOUS
 62
     1
 10
823.227535707553
 20
-445.7727070646529
 30
0.0
  0
VERTEX
  5
6E8
  8
0_18__
  6
CONTINUOUS
 62
     1
 10
823.0807810731546
 20
-445.840539316891
 30
0.0
  0
VERTEX
  5
6E9
  8
0_18__
  6
CONTINUOUS
 62
     1
 10
822.9271766068155
 20
-445.9040699714396
 30
0.0
  0
VERTEX
  5
6EA
  8
0_18__
  6
CONTINUOUS
 62
     1
 10
822.7667223085357
 20
-445.9632990282989
 30
0.0
  0
VERTEX
  5
6EB
  8
0_18__
  6
CONTINUOUS
 62
     1
 10
822.5994181783152
 20
-446.0182264874688
 30
0.0
  0
VERTEX
  5
6EC
  8
0_18__
  6
CONTINUOUS
 62
     1
 10
822.425264216154
 20
-446.0688523489493
 30
0.0
  0
VERTEX
  5
6ED
  8
0_18__
  6
CONTINUOUS
 62
     1
 10
822.2424315049407
 20
-446.1123380419482
 30
0.0
  0
VERTEX
  5
6EE
  8
0_18__
  6
CONTINUOUS
 62
     1
 10
822.049091127564
 20
-446.1458449956731
 30
0.0
  0
VERTEX
  5
6EF
  8
0_18__
  6
CONTINUOUS
 62
     1
 10
821.8452430840239
 20
-446.1693732101239
 30
0.0
  0
VERTEX
  5
6F0
  8
0_18__
  6
CONTINUOUS
 62
     1
 10
821.6308873743202
 20
-446.1829226853008
 30
0.0
  0
VERTEX
  5
6F1
  8
0_18__
  6
CONTINUOUS
 62
     1
 10
821.4060239984531
 20
-446.1864934212037
 30
0.0
  0
VERTEX
  5
6F2
  8
0_18__
  6
CONTINUOUS
 62
     1
 10
821.1706529564226
 20
-446.1800854178329
 30
0.0
  0
VERTEX
  5
6F3
  8
0_18__
  6
CONTINUOUS
 62
     1
 10
820.9247742482286
 20
-446.1636986751879
 30
0.0
  0
VERTEX
  5
6F4
  8
0_18__
  6
CONTINUOUS
 62
     1
 10
820.6683878738711
 20
-446.1373331932689
 30
0.0
  0
VERTEX
  5
6F5
  8
0_18__
  6
CONTINUOUS
 62
     1
 10
820.4129455112839
 20
-446.0979623850902
 30
0.0
  0
VERTEX
  5
6F6
  8
0_18__
  6
CONTINUOUS
 62
     1
 10
820.1698988384
 20
-446.0425596636661
 30
0.0
  0
VERTEX
  5
6F7
  8
0_18__
  6
CONTINUOUS
 62
     1
 10
819.9392478552197
 20
-445.9711250289965
 30
0.0
  0
VERTEX
  5
6F8
  8
0_18__
  6
CONTINUOUS
 62
     1
 10
819.7209925617431
 20
-445.8836584810816
 30
0.0
  0
VERTEX
  5
6F9
  8
0_18__
  6
CONTINUOUS
 62
     1
 10
819.5151329579699
 20
-445.7801600199213
 30
0.0
  0
VERTEX
  5
6FA
  8
0_18__
  6
CONTINUOUS
 62
     1
 10
819.3216690439003
 20
-445.6606296455153
 30
0.0
  0
VERTEX
  5
6FB
  8
0_18__
  6
CONTINUOUS
 62
     1
 10
819.1406008195343
 20
-445.5250673578639
 30
0.0
  0
VERTEX
  5
6FC
  8
0_18__
  6
CONTINUOUS
 62
     1
 10
818.9719282848718
 20
-445.3734731569673
 30
0.0
  0
VERTEX
  5
6FD
  8
0_18__
  6
CONTINUOUS
 62
     1
 10
818.8171426452093
 20
-445.2150374782258
 30
0.0
  0
VERTEX
  5
6FE
  8
0_18__
  6
CONTINUOUS
 62
     1
 10
818.6777351058433
 20
-445.0589507570401
 30
0.0
  0
VERTEX
  5
6FF
  8
0_18__
  6
CONTINUOUS
 62
     1
 10
818.5537056667738
 20
-444.9052129934101
 30
0.0
  0
VERTEX
  5
700
  8
0_18__
  6
CONTINUOUS
 62
     1
 10
818.4450543280007
 20
-444.753824187336
 30
0.0
  0
VERTEX
  5
701
  8
0_18__
  6
CONTINUOUS
 62
     1
 10
818.351781089524
 20
-444.6047843388178
 30
0.0
  0
VERTEX
  5
702
  8
0_18__
  6
CONTINUOUS
 62
     1
 10
818.2738859513439
 20
-444.4580934478554
 30
0.0
  0
VERTEX
  5
703
  8
0_18__
  6
CONTINUOUS
 62
     1
 10
818.2113689134602
 20
-444.3137515144489
 30
0.0
  0
VERTEX
  5
704
  8
0_18__
  6
CONTINUOUS
 62
     1
 10
818.164229975873
 20
-444.1717585385982
 30
0.0
  0
VERTEX
  5
705
  8
0_18__
  6
CONTINUOUS
 62
     1
 10
818.164229975873
 20
-444.1717585385982
 30
0.0
  0
VERTEX
  5
706
  8
0_18__
  6
CONTINUOUS
 62
     1
 10
818.164229975873
 20
-444.1717585385982
 30
0.0
  0
SEQEND
  5
707
  8
0_18__
  6
CONTINUOUS
 62
     1
  0
POLYLINE
  5
708
  8
0_18__
  6
CONTINUOUS
 62
     1
 66
     1
 10
0.0
 20
0.0
 30
0.0
 70
   129
  0
VERTEX
  5
709
  8
0_18__
  6
CONTINUOUS
 62
     1
 10
818.164229975873
 20
-465.5221287134887
 30
0.0
  0
VERTEX
  5
70A
  8
0_18__
  6
CONTINUOUS
 62
     1
 10
818.2112660218567
 20
-465.3801114905189
 30
0.0
  0
VERTEX
  5
70B
  8
0_18__
  6
CONTINUOUS
 62
     1
 10
818.2737043044704
 20
-465.2357527033721
 30
0.0
  0
VERTEX
  5
70C
  8
0_18__
  6
CONTINUOUS
 62
     1
 10
818.3515448237142
 20
-465.0890523520486
 30
0.0
  0
VERTEX
  5
70D
  8
0_18__
  6
CONTINUOUS
 62
     1
 10
818.4447875795881
 20
-464.9400104365482
 30
0.0
  0
VERTEX
  5
70E
  8
0_18__
  6
CONTINUOUS
 62
     1
 10
818.5534325720921
 20
-464.788626956871
 30
0.0
  0
VERTEX
  5
70F
  8
0_18__
  6
CONTINUOUS
 62
     1
 10
818.6774798012262
 20
-464.634901913017
 30
0.0
  0
VERTEX
  5
710
  8
0_18__
  6
CONTINUOUS
 62
     1
 10
818.8169292669904
 20
-464.4788353049861
 30
0.0
  0
VERTEX
  5
711
  8
0_18__
  6
CONTINUOUS
 62
     1
 10
818.9717809693847
 20
-464.3204271327784
 30
0.0
  0
VERTEX
  5
712
  8
0_18__
  6
CONTINUOUS
 62
     1
 10
819.1405260766326
 20
-464.1688583666975
 30
0.0
  0
VERTEX
  5
713
  8
0_18__
  6
CONTINUOUS
 62
     1
 10
819.3216557569576
 20
-464.033309977047
 30
0.0
  0
VERTEX
  5
714
  8
0_18__
  6
CONTINUOUS
 62
     1
 10
819.51517001036
 20
-463.913781963827
 30
0.0
  0
VERTEX
  5
715
  8
0_18__
  6
CONTINUOUS
 62
     1
 10
819.7210688368395
 20
-463.8102743270374
 30
0.0
  0
VERTEX
  5
716
  8
0_18__
  6
CONTINUOUS
 62
     1
 10
819.9393522363962
 20
-463.7227870666782
 30
0.0
  0
VERTEX
  5
717
  8
0_18__
  6
CONTINUOUS
 62
     1
 10
820.1700202090301
 20
-463.6513201827495
 30
0.0
  0
VERTEX
  5
718
  8
0_18__
  6
CONTINUOUS
 62
     1
 10
820.4130727547413
 20
-463.5958736752511
 30
0.0
  0
VERTEX
  5
719
  8
0_18__
  6
CONTINUOUS
 62
     1
 10
820.6685098735296
 20
-463.5564475441834
 30
0.0
  0
VERTEX
  5
71A
  8
0_18__
  6
CONTINUOUS
 62
     1
 10
820.9248857540618
 20
-463.5300290088525
 30
0.0
  0
VERTEX
  5
71B
  8
0_18__
  6
CONTINUOUS
 62
     1
 10
821.1707545850045
 20
-463.5136052885651
 30
0.0
  0
VERTEX
  5
71C
  8
0_18__
  6
CONTINUOUS
 62
     1
 10
821.4061163663578
 20
-463.5071763833213
 30
0.0
  0
VERTEX
  5
71D
  8
0_18__
  6
CONTINUOUS
 62
     1
 10
821.6309710981216
 20
-463.5107422931209
 30
0.0
  0
VERTEX
  5
71E
  8
0_18__
  6
CONTINUOUS
 62
     1
 10
821.8453187802959
 20
-463.524303017964
 30
0.0
  0
VERTEX
  5
71F
  8
0_18__
  6
CONTINUOUS
 62
     1
 10
822.0491594128807
 20
-463.5478585578505
 30
0.0
  0
VERTEX
  5
720
  8
0_18__
  6
CONTINUOUS
 62
     1
 10
822.242492995876
 20
-463.5814089127807
 30
0.0
  0
VERTEX
  5
721
  8
0_18__
  6
CONTINUOUS
 62
     1
 10
822.4253195292819
 20
-463.6249540827544
 30
0.0
  0
VERTEX
  5
722
  8
0_18__
  6
CONTINUOUS
 62
     1
 10
822.5994686141067
 20
-463.6756426019308
 30
0.0
  0
VERTEX
  5
723
  8
0_18__
  6
CONTINUOUS
 62
     1
 10
822.7667698513592
 20
-463.7306230044692
 30
0.0
  0
VERTEX
  5
724
  8
0_18__
  6
CONTINUOUS
 62
     1
 10
822.9272232410391
 20
-463.7898952903697
 30
0.0
  0
VERTEX
  5
725
  8
0_18__
  6
CONTINUOUS
 62
     1
 10
823.0808287831464
 20
-463.8534594596325
 30
0.0
  0
VERTEX
  5
726
  8
0_18__
  6
CONTINUOUS
 62
     1
 10
823.2275864776814
 20
-463.9213155122574
 30
0.0
  0
VERTEX
  5
727
  8
0_18__
  6
CONTINUOUS
 62
     1
 10
823.3674963246439
 20
-463.9934634482441
 30
0.0
  0
VERTEX
  5
728
  8
0_18__
  6
CONTINUOUS
 62
     1
 10
823.5005583240338
 20
-464.069903267593
 30
0.0
  0
VERTEX
  5
729
  8
0_18__
  6
CONTINUOUS
 62
     1
 10
823.6267724758513
 20
-464.1506349703041
 30
0.0
  0
VERTEX
  5
72A
  8
0_18__
  6
CONTINUOUS
 62
     1
 10
823.7466386390054
 20
-464.2363635947989
 30
0.0
  0
VERTEX
  5
72B
  8
0_18__
  6
CONTINUOUS
 62
     1
 10
823.8606566724047
 20
-464.3277941794995
 30
0.0
  0
VERTEX
  5
72C
  8
0_18__
  6
CONTINUOUS
 62
     1
 10
823.9688265760495
 20
-464.4249267244056
 30
0.0
  0
VERTEX
  5
72D
  8
0_18__
  6
CONTINUOUS
 62
     1
 10
824.0711483499398
 20
-464.5277612295175
 30
0.0
  0
VERTEX
  5
72E
  8
0_18__
  6
CONTINUOUS
 62
     1
 10
824.1676219940755
 20
-464.6362976948351
 30
0.0
  0
VERTEX
  5
72F
  8
0_18__
  6
CONTINUOUS
 62
     1
 10
824.2582475084566
 20
-464.7505361203582
 30
0.0
  0
VERTEX
  5
730
  8
0_18__
  6
CONTINUOUS
 62
     1
 10
824.3430248930832
 20
-464.870476506087
 30
0.0
  0
VERTEX
  5
731
  8
0_18__
  6
CONTINUOUS
 62
     1
 10
824.4219541479553
 20
-464.9961188520215
 30
0.0
  0
VERTEX
  5
732
  8
0_18__
  6
CONTINUOUS
 62
     1
 10
824.4931937756131
 20
-465.1259566647403
 30
0.0
  0
VERTEX
  5
733
  8
0_18__
  6
CONTINUOUS
 62
     1
 10
824.5549022785972
 20
-465.2584834508224
 30
0.0
  0
VERTEX
  5
734
  8
0_18__
  6
CONTINUOUS
 62
     1
 10
824.6070796569077
 20
-465.3936992102675
 30
0.0
  0
VERTEX
  5
735
  8
0_18__
  6
CONTINUOUS
 62
     1
 10
824.6497259105442
 20
-465.5316039430759
 30
0.0
  0
VERTEX
  5
736
  8
0_18__
  6
CONTINUOUS
 62
     1
 10
824.6828410395071
 20
-465.6721976492472
 30
0.0
  0
VERTEX
  5
737
  8
0_18__
  6
CONTINUOUS
 62
     1
 10
824.7064250437962
 20
-465.8154803287819
 30
0.0
  0
VERTEX
  5
738
  8
0_18__
  6
CONTINUOUS
 62
     1
 10
824.7204779234116
 20
-465.9614519816796
 30
0.0
  0
VERTEX
  5
739
  8
0_18__
  6
CONTINUOUS
 62
     1
 10
824.7249996783532
 20
-466.1101126079404
 30
0.0
  0
VERTEX
  5
73A
  8
0_18__
  6
CONTINUOUS
 62
     1
 10
824.7199828522107
 20
-466.2587567520266
 30
0.0
  0
VERTEX
  5
73B
  8
0_18__
  6
CONTINUOUS
 62
     1
 10
824.7054199885732
 20
-466.4046789584002
 30
0.0
  0
VERTEX
  5
73C
  8
0_18__
  6
CONTINUOUS
 62
     1
 10
824.6813110874409
 20
-466.5478792270612
 30
0.0
  0
VERTEX
  5
73D
  8
0_18__
  6
CONTINUOUS
 62
     1
 10
824.6476561488139
 20
-466.6883575580096
 30
0.0
  0
VERTEX
  5
73E
  8
0_18__
  6
CONTINUOUS
 62
     1
 10
824.604455172692
 20
-466.8261139512455
 30
0.0
  0
VERTEX
  5
73F
  8
0_18__
  6
CONTINUOUS
 62
     1
 10
824.5517081590754
 20
-466.9611484067688
 30
0.0
  0
VERTEX
  5
740
  8
0_18__
  6
CONTINUOUS
 62
     1
 10
824.4894151079639
 20
-467.0934609245795
 30
0.0
  0
VERTEX
  5
741
  8
0_18__
  6
CONTINUOUS
 62
     1
 10
824.4175760193575
 20
-467.2230515046776
 30
0.0
  0
VERTEX
  5
742
  8
0_18__
  6
CONTINUOUS
 62
     1
 10
824.3361116312938
 20
-467.3496933891672
 30
0.0
  0
VERTEX
  5
743
  8
0_18__
  6
CONTINUOUS
 62
     1
 10
824.2449426818101
 20
-467.4731598201522
 30
0.0
  0
VERTEX
  5
744
  8
0_18__
  6
CONTINUOUS
 62
     1
 10
824.1440691709065
 20
-467.5934507976325
 30
0.0
  0
VERTEX
  5
745
  8
0_18__
  6
CONTINUOUS
 62
     1
 10
824.0334910985829
 20
-467.7105663216082
 30
0.0
  0
VERTEX
  5
746
  8
0_18__
  6
CONTINUOUS
 62
     1
 10
823.9132084648394
 20
-467.8245063920793
 30
0.0
  0
VERTEX
  5
747
  8
0_18__
  6
CONTINUOUS
 62
     1
 10
823.7832212696758
 20
-467.9352710090459
 30
0.0
  0
VERTEX
  5
748
  8
0_18__
  6
CONTINUOUS
 62
     1
 10
823.6435295130923
 20
-468.0428601725077
 30
0.0
  0
VERTEX
  5
749
  8
0_18__
  6
CONTINUOUS
 62
     1
 10
823.4941331950889
 20
-468.147273882465
 30
0.0
  0
VERTEX
  5
74A
  8
0_18__
  6
CONTINUOUS
 62
     1
 10
823.3356241646178
 20
-468.2454061812668
 30
0.0
  0
VERTEX
  5
74B
  8
0_18__
  6
CONTINUOUS
 62
     1
 10
823.1685942706312
 20
-468.334151111262
 30
0.0
  0
VERTEX
  5
74C
  8
0_18__
  6
CONTINUOUS
 62
     1
 10
822.9930435131291
 20
-468.4135086724509
 30
0.0
  0
VERTEX
  5
74D
  8
0_18__
  6
CONTINUOUS
 62
     1
 10
822.8089718921115
 20
-468.4834788648332
 30
0.0
  0
VERTEX
  5
74E
  8
0_18__
  6
CONTINUOUS
 62
     1
 10
822.6163794075785
 20
-468.5440616884091
 30
0.0
  0
VERTEX
  5
74F
  8
0_18__
  6
CONTINUOUS
 62
     1
 10
822.41526605953
 20
-468.5952571431785
 30
0.0
  0
VERTEX
  5
750
  8
0_18__
  6
CONTINUOUS
 62
     1
 10
822.2056318479661
 20
-468.6370652291414
 30
0.0
  0
VERTEX
  5
751
  8
0_18__
  6
CONTINUOUS
 62
     1
 10
821.9874767728866
 20
-468.669485946298
 30
0.0
  0
VERTEX
  5
752
  8
0_18__
  6
CONTINUOUS
 62
     1
 10
821.767853363588
 20
-468.6924411640092
 30
0.0
  0
VERTEX
  5
753
  8
0_18__
  6
CONTINUOUS
 62
     1
 10
821.5538141493661
 20
-468.7058527516363
 30
0.0
  0
VERTEX
  5
754
  8
0_18__
  6
CONTINUOUS
 62
     1
 10
821.3453591302211
 20
-468.7097207091792
 30
0.0
  0
VERTEX
  5
755
  8
0_18__
  6
CONTINUOUS
 62
     1
 10
821.1424883061532
 20
-468.7040450366381
 30
0.0
  0
VERTEX
  5
756
  8
0_18__
  6
CONTINUOUS
 62
     1
 10
820.9452016771619
 20
-468.6888257340129
 30
0.0
  0
VERTEX
  5
757
  8
0_18__
  6
CONTINUOUS
 62
     1
 10
820.7534992432477
 20
-468.6640628013035
 30
0.0
  0
VERTEX
  5
758
  8
0_18__
  6
CONTINUOUS
 62
     1
 10
820.5673810044102
 20
-468.6297562385101
 30
0.0
  0
VERTEX
  5
759
  8
0_18__
  6
CONTINUOUS
 62
     1
 10
820.3868469606498
 20
-468.5859060456326
 30
0.0
  0
VERTEX
  5
75A
  8
0_18__
  6
CONTINUOUS
 62
     1
 10
820.2125402901336
 20
-468.5351459709557
 30
0.0
  0
VERTEX
  5
75B
  8
0_18__
  6
CONTINUOUS
 62
     1
 10
820.0451041710294
 20
-468.4801097627642
 30
0.0
  0
VERTEX
  5
75C
  8
0_18__
  6
CONTINUOUS
 62
     1
 10
819.884538603337
 20
-468.4207974210583
 30
0.0
  0
VERTEX
  5
75D
  8
0_18__
  6
CONTINUOUS
 62
     1
 10
819.7308435870564
 20
-468.3572089458379
 30
0.0
  0
VERTEX
  5
75E
  8
0_18__
  6
CONTINUOUS
 62
     1
 10
819.5840191221877
 20
-468.2893443371029
 30
0.0
  0
VERTEX
  5
75F
  8
0_18__
  6
CONTINUOUS
 62
     1
 10
819.4440652087309
 20
-468.2172035948533
 30
0.0
  0
VERTEX
  5
760
  8
0_18__
  6
CONTINUOUS
 62
     1
 10
819.3109818466859
 20
-468.1407867190894
 30
0.0
  0
VERTEX
  5
761
  8
0_18__
  6
CONTINUOUS
 62
     1
 10
819.1847690360528
 20
-468.0600937098109
 30
0.0
  0
VERTEX
  5
762
  8
0_18__
  6
CONTINUOUS
 62
     1
 10
819.0649115831673
 20
-467.9744023565349
 30
0.0
  0
VERTEX
  5
763
  8
0_18__
  6
CONTINUOUS
 62
     1
 10
818.950894294365
 20
-467.8829904487784
 30
0.0
  0
VERTEX
  5
764
  8
0_18__
  6
CONTINUOUS
 62
     1
 10
818.842717169646
 20
-467.7858579865415
 30
0.0
  0
VERTEX
  5
765
  8
0_18__
  6
CONTINUOUS
 62
     1
 10
818.7403802090101
 20
-467.683004969824
 30
0.0
  0
VERTEX
  5
766
  8
0_18__
  6
CONTINUOUS
 62
     1
 10
818.6438834124576
 20
-467.5744313986261
 30
0.0
  0
VERTEX
  5
767
  8
0_18__
  6
CONTINUOUS
 62
     1
 10
818.5532267799883
 20
-467.4601372729476
 30
0.0
  0
VERTEX
  5
768
  8
0_18__
  6
CONTINUOUS
 62
     1
 10
818.4684103116024
 20
-467.3401225927888
 30
0.0
  0
VERTEX
  5
769
  8
0_18__
  6
CONTINUOUS
 62
     1
 10
818.3894340072995
 20
-467.2143873581495
 30
0.0
  0
VERTEX
  5
76A
  8
0_18__
  6
CONTINUOUS
 62
     1
 10
818.3181340411351
 20
-467.0868276304859
 30
0.0
  0
VERTEX
  5
76B
  8
0_18__
  6
CONTINUOUS
 62
     1
 10
818.2563465871638
 20
-466.9613394712546
 30
0.0
  0
VERTEX
  5
76C
  8
0_18__
  6
CONTINUOUS
 62
     1
 10
818.2040716453859
 20
-466.8379228804555
 30
0.0
  0
VERTEX
  5
76D
  8
0_18__
  6
CONTINUOUS
 62
     1
 10
818.1613092158012
 20
-466.7165778580884
 30
0.0
  0
VERTEX
  5
76E
  8
0_18__
  6
CONTINUOUS
 62
     1
 10
818.1280592984099
 20
-466.5973044041534
 30
0.0
  0
VERTEX
  5
76F
  8
0_18__
  6
CONTINUOUS
 62
     1
 10
818.1043218932117
 20
-466.4801025186506
 30
0.0
  0
VERTEX
  5
770
  8
0_18__
  6
CONTINUOUS
 62
     1
 10
818.0900970002069
 20
-466.3649722015799
 30
0.0
  0
VERTEX
  5
771
  8
0_18__
  6
CONTINUOUS
 62
     1
 10
818.0853846193954
 20
-466.2519134529414
 30
0.0
  0
VERTEX
  5
772
  8
0_18__
  6
CONTINUOUS
 62
     1
 10
818.0866549689648
 20
-466.1424904725177
 30
0.0
  0
VERTEX
  5
773
  8
0_18__
  6
CONTINUOUS
 62
     1
 10
818.0903782671029
 20
-466.0382674600919
 30
0.0
  0
VERTEX
  5
774
  8
0_18__
  6
CONTINUOUS
 62
     1
 10
818.0965545138097
 20
-465.9392444156638
 30
0.0
  0
VERTEX
  5
775
  8
0_18__
  6
CONTINUOUS
 62
     1
 10
818.1051837090849
 20
-465.8454213392333
 30
0.0
  0
VERTEX
  5
776
  8
0_18__
  6
CONTINUOUS
 62
     1
 10
818.116265852929
 20
-465.7567982308005
 30
0.0
  0
VERTEX
  5
777
  8
0_18__
  6
CONTINUOUS
 62
     1
 10
818.1298009453417
 20
-465.6733750903655
 30
0.0
  0
VERTEX
  5
778
  8
0_18__
  6
CONTINUOUS
 62
     1
 10
818.145788986323
 20
-465.5951519179282
 30
0.0
  0
VERTEX
  5
779
  8
0_18__
  6
CONTINUOUS
 62
     1
 10
818.164229975873
 20
-465.5221287134887
 30
0.0
  0
VERTEX
  5
77A
  8
0_18__
  6
CONTINUOUS
 62
     1
 10
818.164229975873
 20
-465.5221287134887
 30
0.0
  0
VERTEX
  5
77B
  8
0_18__
  6
CONTINUOUS
 62
     1
 10
818.164229975873
 20
-465.5221287134887
 30
0.0
  0
SEQEND
  5
77C
  8
0_18__
  6
CONTINUOUS
 62
     1
  0
POLYLINE
  5
77D
  8
0_18__
  6
CONTINUOUS
 62
     1
 66
     1
 10
0.0
 20
0.0
 30
0.0
 70
   129
  0
VERTEX
  5
77E
  8
0_18__
  6
CONTINUOUS
 62
     1
 10
818.0839999219459
 20
-454.8469436260434
 30
0.0
  0
VERTEX
  5
77F
  8
0_18__
  6
CONTINUOUS
 62
     1
 10
818.0849482580077
 20
-454.7375715440501
 30
0.0
  0
VERTEX
  5
780
  8
0_18__
  6
CONTINUOUS
 62
     1
 10
818.087831847898
 20
-454.621598557052
 30
0.0
  0
VERTEX
  5
781
  8
0_18__
  6
CONTINUOUS
 62
     1
 10
818.0926506916167
 20
-454.4990246650492
 30
0.0
  0
VERTEX
  5
782
  8
0_18__
  6
CONTINUOUS
 62
     1
 10
818.0994047891637
 20
-454.3698498680415
 30
0.0
  0
VERTEX
  5
783
  8
0_18__
  6
CONTINUOUS
 62
     1
 10
818.1080941405392
 20
-454.2340741660289
 30
0.0
  0
VERTEX
  5
784
  8
0_18__
  6
CONTINUOUS
 62
     1
 10
818.1187187457431
 20
-454.0916975590115
 30
0.0
  0
VERTEX
  5
785
  8
0_18__
  6
CONTINUOUS
 62
     1
 10
818.1312786047754
 20
-453.9427200469894
 30
0.0
  0
VERTEX
  5
786
  8
0_18__
  6
CONTINUOUS
 62
     1
 10
818.1457737176361
 20
-453.7871416299624
 30
0.0
  0
VERTEX
  5
787
  8
0_18__
  6
CONTINUOUS
 62
     1
 10
818.1644608024994
 20
-453.625535653809
 30
0.0
  0
VERTEX
  5
788
  8
0_18__
  6
CONTINUOUS
 62
     1
 10
818.1895965775396
 20
-453.4584754644077
 30
0.0
  0
VERTEX
  5
789
  8
0_18__
  6
CONTINUOUS
 62
     1
 10
818.2211810427568
 20
-453.2859610617584
 30
0.0
  0
VERTEX
  5
78A
  8
0_18__
  6
CONTINUOUS
 62
     1
 10
818.2592141981509
 20
-453.1079924458609
 30
0.0
  0
VERTEX
  5
78B
  8
0_18__
  6
CONTINUOUS
 62
     1
 10
818.3036960437219
 20
-452.9245696167154
 30
0.0
  0
VERTEX
  5
78C
  8
0_18__
  6
CONTINUOUS
 62
     1
 10
818.3546265794696
 20
-452.7356925743219
 30
0.0
  0
VERTEX
  5
78D
  8
0_18__
  6
CONTINUOUS
 62
     1
 10
818.4120058053943
 20
-452.5413613186804
 30
0.0
  0
VERTEX
  5
78E
  8
0_18__
  6
CONTINUOUS
 62
     1
 10
818.475833721496
 20
-452.3415758497908
 30
0.0
  0
VERTEX
  5
78F
  8
0_18__
  6
CONTINUOUS
 62
     1
 10
818.5467004203979
 20
-452.1408669467484
 30
0.0
  0
VERTEX
  5
790
  8
0_18__
  6
CONTINUOUS
 62
     1
 10
818.6251959947235
 20
-451.9437653886481
 30
0.0
  0
VERTEX
  5
791
  8
0_18__
  6
CONTINUOUS
 62
     1
 10
818.7113204444729
 20
-451.7502711754901
 30
0.0
  0
VERTEX
  5
792
  8
0_18__
  6
CONTINUOUS
 62
     1
 10
818.8050737696461
 20
-451.560384307274
 30
0.0
  0
VERTEX
  5
793
  8
0_18__
  6
CONTINUOUS
 62
     1
 10
818.906455970243
 20
-451.3741047840002
 30
0.0
  0
VERTEX
  5
794
  8
0_18__
  6
CONTINUOUS
 62
     1
 10
819.0154670462636
 20
-451.1914326056685
 30
0.0
  0
VERTEX
  5
795
  8
0_18__
  6
CONTINUOUS
 62
     1
 10
819.1321069977079
 20
-451.012367772279
 30
0.0
  0
VERTEX
  5
796
  8
0_18__
  6
CONTINUOUS
 62
     1
 10
819.2563758245759
 20
-450.8369102838317
 30
0.0
  0
VERTEX
  5
797
  8
0_18__
  6
CONTINUOUS
 62
     1
 10
819.3892382455405
 20
-450.6689907115122
 30
0.0
  0
VERTEX
  5
798
  8
0_18__
  6
CONTINUOUS
 62
     1
 10
819.5316589792744
 20
-450.5125396265062
 30
0.0
  0
VERTEX
  5
799
  8
0_18__
  6
CONTINUOUS
 62
     1
 10
819.6836380257777
 20
-450.3675570288136
 30
0.0
  0
VERTEX
  5
79A
  8
0_18__
  6
CONTINUOUS
 62
     1
 10
819.8451753850502
 20
-450.2340429184346
 30
0.0
  0
VERTEX
  5
79B
  8
0_18__
  6
CONTINUOUS
 62
     1
 10
820.0162710570921
 20
-450.1119972953691
 30
0.0
  0
VERTEX
  5
79C
  8
0_18__
  6
CONTINUOUS
 62
     1
 10
820.1969250419033
 20
-450.0014201596172
 30
0.0
  0
VERTEX
  5
79D
  8
0_18__
  6
CONTINUOUS
 62
     1
 10
820.387137339484
 20
-449.9023115111787
 30
0.0
  0
VERTEX
  5
79E
  8
0_18__
  6
CONTINUOUS
 62
     1
 10
820.5869079498339
 20
-449.8146713500537
 30
0.0
  0
VERTEX
  5
79F
  8
0_18__
  6
CONTINUOUS
 62
     1
 10
820.7914653644898
 20
-449.7430021303039
 30
0.0
  0
VERTEX
  5
7A0
  8
0_18__
  6
CONTINUOUS
 62
     1
 10
820.9960380749885
 20
-449.6918063059909
 30
0.0
  0
VERTEX
  5
7A1
  8
0_18__
  6
CONTINUOUS
 62
     1
 10
821.20062608133
 20
-449.6610838771148
 30
0.0
  0
VERTEX
  5
7A2
  8
0_18__
  6
CONTINUOUS
 62
     1
 10
821.4052293835143
 20
-449.6508348436755
 30
0.0
  0
VERTEX
  5
7A3
  8
0_18__
  6
CONTINUOUS
 62
     1
 10
821.6098479815414
 20
-449.6610592056732
 30
0.0
  0
VERTEX
  5
7A4
  8
0_18__
  6
CONTINUOUS
 62
     1
 10
821.8144818754112
 20
-449.6917569631075
 30
0.0
  0
VERTEX
  5
7A5
  8
0_18__
  6
CONTINUOUS
 62
     1
 10
822.0191310651237
 20
-449.7429281159789
 30
0.0
  0
VERTEX
  5
7A6
  8
0_18__
  6
CONTINUOUS
 62
     1
 10
822.2237955506791
 20
-449.814572664287
 30
0.0
  0
VERTEX
  5
7A7
  8
0_18__
  6
CONTINUOUS
 62
     1
 10
822.4236823456683
 20
-449.9021893647719
 30
0.0
  0
VERTEX
  5
7A8
  8
0_18__
  6
CONTINUOUS
 62
     1
 10
822.6139984636825
 20
-450.0012769741734
 30
0.0
  0
VERTEX
  5
7A9
  8
0_18__
  6
CONTINUOUS
 62
     1
 10
822.7947439047216
 20
-450.1118354924915
 30
0.0
  0
VERTEX
  5
7AA
  8
0_18__
  6
CONTINUOUS
 62
     1
 10
822.9659186687857
 20
-450.2338649197264
 30
0.0
  0
VERTEX
  5
7AB
  8
0_18__
  6
CONTINUOUS
 62
     1
 10
823.1275227558747
 20
-450.367365255878
 30
0.0
  0
VERTEX
  5
7AC
  8
0_18__
  6
CONTINUOUS
 62
     1
 10
823.2795561659887
 20
-450.512336500946
 30
0.0
  0
VERTEX
  5
7AD
  8
0_18__
  6
CONTINUOUS
 62
     1
 10
823.4220188991276
 20
-450.6687786549309
 30
0.0
  0
VERTEX
  5
7AE
  8
0_18__
  6
CONTINUOUS
 62
     1
 10
823.5549109552915
 20
-450.8366917178323
 30
0.0
  0
VERTEX
  5
7AF
  8
0_18__
  6
CONTINUOUS
 62
     1
 10
823.67919755999
 20
-451.012145702229
 30
0.0
  0
VERTEX
  5
7B0
  8
0_18__
  6
CONTINUOUS
 62
     1
 10
823.7958439387331
 20
-451.1912106206996
 30
0.0
  0
VERTEX
  5
7B1
  8
0_18__
  6
CONTINUOUS
 62
     1
 10
823.9048500915205
 20
-451.3738864732441
 30
0.0
  0
VERTEX
  5
7B2
  8
0_18__
  6
CONTINUOUS
 62
     1
 10
824.0062160183526
 20
-451.5601732598623
 30
0.0
  0
VERTEX
  5
7B3
  8
0_18__
  6
CONTINUOUS
 62
     1
 10
824.099941719229
 20
-451.7500709805544
 30
0.0
  0
VERTEX
  5
7B4
  8
0_18__
  6
CONTINUOUS
 62
     1
 10
824.1860271941499
 20
-451.9435796353204
 30
0.0
  0
VERTEX
  5
7B5
  8
0_18__
  6
CONTINUOUS
 62
     1
 10
824.2644724431152
 20
-452.1406992241602
 30
0.0
  0
VERTEX
  5
7B6
  8
0_18__
  6
CONTINUOUS
 62
     1
 10
824.335277466125
 20
-452.3414297470738
 30
0.0
  0
VERTEX
  5
7B7
  8
0_18__
  6
CONTINUOUS
 62
     1
 10
824.3993718945718
 20
-452.5445518878739
 30
0.0
  0
VERTEX
  5
7B8
  8
0_18__
  6
CONTINUOUS
 62
     1
 10
824.457685359848
 20
-452.7488463303735
 30
0.0
  0
VERTEX
  5
7B9
  8
0_18__
  6
CONTINUOUS
 62
     1
 10
824.5102178619538
 20
-452.9543130745722
 30
0.0
  0
VERTEX
  5
7BA
  8
0_18__
  6
CONTINUOUS
 62
     1
 10
824.5569694008891
 20
-453.1609521204703
 30
0.0
  0
VERTEX
  5
7BB
  8
0_18__
  6
CONTINUOUS
 62
     1
 10
824.597939976654
 20
-453.3687634680674
 30
0.0
  0
VERTEX
  5
7BC
  8
0_18__
  6
CONTINUOUS
 62
     1
 10
824.6331295892483
 20
-453.577747117364
 30
0.0
  0
VERTEX
  5
7BD
  8
0_18__
  6
CONTINUOUS
 62
     1
 10
824.6625382386719
 20
-453.7879030683596
 30
0.0
  0
VERTEX
  5
7BE
  8
0_18__
  6
CONTINUOUS
 62
     1
 10
824.6861659249253
 20
-453.9992313210546
 30
0.0
  0
VERTEX
  5
7BF
  8
0_18__
  6
CONTINUOUS
 62
     1
 10
824.7043175326394
 20
-454.211147521738
 30
0.0
  0
VERTEX
  5
7C0
  8
0_18__
  6
CONTINUOUS
 62
     1
 10
824.7172979464453
 20
-454.4230673166987
 30
0.0
  0
VERTEX
  5
7C1
  8
0_18__
  6
CONTINUOUS
 62
     1
 10
824.7251071663435
 20
-454.6349907059372
 30
0.0
  0
VERTEX
  5
7C2
  8
0_18__
  6
CONTINUOUS
 62
     1
 10
824.7277451923337
 20
-454.846917689453
 30
0.0
  0
VERTEX
  5
7C3
  8
0_18__
  6
CONTINUOUS
 62
     1
 10
824.7252120244159
 20
-455.0588482672463
 30
0.0
  0
VERTEX
  5
7C4
  8
0_18__
  6
CONTINUOUS
 62
     1
 10
824.7175076625902
 20
-455.270782439317
 30
0.0
  0
VERTEX
  5
7C5
  8
0_18__
  6
CONTINUOUS
 62
     1
 10
824.7046321068565
 20
-455.4827202056654
 30
0.0
  0
VERTEX
  5
7C6
  8
0_18__
  6
CONTINUOUS
 62
     1
 10
824.6865853572148
 20
-455.6946615662912
 30
0.0
  0
VERTEX
  5
7C7
  8
0_18__
  6
CONTINUOUS
 62
     1
 10
824.6630484479015
 20
-455.9060123566777
 30
0.0
  0
VERTEX
  5
7C8
  8
0_18__
  6
CONTINUOUS
 62
     1
 10
824.6337024131527
 20
-456.116178412308
 30
0.0
  0
VERTEX
  5
7C9
  8
0_18__
  6
CONTINUOUS
 62
     1
 10
824.5985472529686
 20
-456.3251597331823
 30
0.0
  0
VERTEX
  5
7CA
  8
0_18__
  6
CONTINUOUS
 62
     1
 10
824.557582967349
 20
-456.5329563193005
 30
0.0
  0
VERTEX
  5
7CB
  8
0_18__
  6
CONTINUOUS
 62
     1
 10
824.5108095562941
 20
-456.7395681706626
 30
0.0
  0
VERTEX
  5
7CC
  8
0_18__
  6
CONTINUOUS
 62
     1
 10
824.4582270198039
 20
-456.9449952872685
 30
0.0
  0
VERTEX
  5
7CD
  8
0_18__
  6
CONTINUOUS
 62
     1
 10
824.3998353578783
 20
-457.1492376691184
 30
0.0
  0
VERTEX
  5
7CE
  8
0_18__
  6
CONTINUOUS
 62
     1
 10
824.3356345705172
 20
-457.3522953162121
 30
0.0
  0
VERTEX
  5
7CF
  8
0_18__
  6
CONTINUOUS
 62
     1
 10
824.2647205667806
 20
-457.552957840106
 30
0.0
  0
VERTEX
  5
7D0
  8
0_18__
  6
CONTINUOUS
 62
     1
 10
824.1861892557282
 20
-457.7500148523562
 30
0.0
  0
VERTEX
  5
7D1
  8
0_18__
  6
CONTINUOUS
 62
     1
 10
824.10004063736
 20
-457.9434663529628
 30
0.0
  0
VERTEX
  5
7D2
  8
0_18__
  6
CONTINUOUS
 62
     1
 10
824.0062747116763
 20
-458.1333123419258
 30
0.0
  0
VERTEX
  5
7D3
  8
0_18__
  6
CONTINUOUS
 62
     1
 10
823.9048914786766
 20
-458.3195528192451
 30
0.0
  0
VERTEX
  5
7D4
  8
0_18__
  6
CONTINUOUS
 62
     1
 10
823.7958909383613
 20
-458.5021877849208
 30
0.0
  0
VERTEX
  5
7D5
  8
0_18__
  6
CONTINUOUS
 62
     1
 10
823.6792730907301
 20
-458.6812172389529
 30
0.0
  0
VERTEX
  5
7D6
  8
0_18__
  6
CONTINUOUS
 62
     1
 10
823.5550379357833
 20
-458.8566411813413
 30
0.0
  0
VERTEX
  5
7D7
  8
0_18__
  6
CONTINUOUS
 62
     1
 10
823.4222068169124
 20
-459.0245324182285
 30
0.0
  0
VERTEX
  5
7D8
  8
0_18__
  6
CONTINUOUS
 62
     1
 10
823.2798010775095
 20
-459.1809637557569
 30
0.0
  0
VERTEX
  5
7D9
  8
0_18__
  6
CONTINUOUS
 62
     1
 10
823.1278207175744
 20
-459.3259351939266
 30
0.0
  0
VERTEX
  5
7DA
  8
0_18__
  6
CONTINUOUS
 62
     1
 10
822.9662657371073
 20
-459.4594467327377
 30
0.0
  0
VERTEX
  5
7DB
  8
0_18__
  6
CONTINUOUS
 62
     1
 10
822.7951361361079
 20
-459.58149837219
 30
0.0
  0
VERTEX
  5
7DC
  8
0_18__
  6
CONTINUOUS
 62
     1
 10
822.6144319145765
 20
-459.6920901122835
 30
0.0
  0
VERTEX
  5
7DD
  8
0_18__
  6
CONTINUOUS
 62
     1
 10
822.4241530725129
 20
-459.7912219530183
 30
0.0
  0
VERTEX
  5
7DE
  8
0_18__
  6
CONTINUOUS
 62
     1
 10
822.2242996099171
 20
-459.8788938943942
 30
0.0
  0
VERTEX
  5
7DF
  8
0_18__
  6
CONTINUOUS
 62
     1
 10
822.0196595172947
 20
-459.9505946815163
 30
0.0
  0
VERTEX
  5
7E0
  8
0_18__
  6
CONTINUOUS
 62
     1
 10
821.8150207851511
 20
-460.0018130594895
 30
0.0
  0
VERTEX
  5
7E1
  8
0_18__
  6
CONTINUOUS
 62
     1
 10
821.6103834134863
 20
-460.0325490283137
 30
0.0
  0
VERTEX
  5
7E2
  8
0_18__
  6
CONTINUOUS
 62
     1
 10
821.4057474023002
 20
-460.0428025879889
 30
0.0
  0
VERTEX
  5
7E3
  8
0_18__
  6
CONTINUOUS
 62
     1
 10
821.2011127515929
 20
-460.0325737385153
 30
0.0
  0
VERTEX
  5
7E4
  8
0_18__
  6
CONTINUOUS
 62
     1
 10
820.9964794613643
 20
-460.0018624798927
 30
0.0
  0
VERTEX
  5
7E5
  8
0_18__
  6
CONTINUOUS
 62
     1
 10
820.7918475316146
 20
-459.950668812121
 30
0.0
  0
VERTEX
  5
7E6
  8
0_18__
  6
CONTINUOUS
 62
     1
 10
820.5872169623435
 20
-459.8789927352004
 30
0.0
  0
VERTEX
  5
7E7
  8
0_18__
  6
CONTINUOUS
 62
     1
 10
820.3873715396235
 20
-459.7913429635469
 30
0.0
  0
VERTEX
  5
7E8
  8
0_18__
  6
CONTINUOUS
 62
     1
 10
820.1970950495264
 20
-459.6922282115764
 30
0.0
  0
VERTEX
  5
7E9
  8
0_18__
  6
CONTINUOUS
 62
     1
 10
820.0163874920523
 20
-459.581648479289
 30
0.0
  0
VERTEX
  5
7EA
  8
0_18__
  6
CONTINUOUS
 62
     1
 10
819.8452488672013
 20
-459.4596037666847
 30
0.0
  0
VERTEX
  5
7EB
  8
0_18__
  6
CONTINUOUS
 62
     1
 10
819.6836791749733
 20
-459.3260940737634
 30
0.0
  0
VERTEX
  5
7EC
  8
0_18__
  6
CONTINUOUS
 62
     1
 10
819.5316784153683
 20
-459.1811194005253
 30
0.0
  0
VERTEX
  5
7ED
  8
0_18__
  6
CONTINUOUS
 62
     1
 10
819.3892465883864
 20
-459.0246797469702
 30
0.0
  0
VERTEX
  5
7EE
  8
0_18__
  6
CONTINUOUS
 62
     1
 10
819.2563836940274
 20
-458.8567751130981
 30
0.0
  0
VERTEX
  5
7EF
  8
0_18__
  6
CONTINUOUS
 62
     1
 10
819.1321202720463
 20
-458.6813333764342
 30
0.0
  0
VERTEX
  5
7F0
  8
0_18__
  6
CONTINUOUS
 62
     1
 10
819.015486862198
 20
-458.5022824145033
 30
0.0
  0
VERTEX
  5
7F1
  8
0_18__
  6
CONTINUOUS
 62
     1
 10
818.9064834644826
 20
-458.3196222273052
 30
0.0
  0
VERTEX
  5
7F2
  8
0_18__
  6
CONTINUOUS
 62
     1
 10
818.8051100788998
 20
-458.1333528148404
 30
0.0
  0
VERTEX
  5
7F3
  8
0_18__
  6
CONTINUOUS
 62
     1
 10
818.7113667054498
 20
-457.9434741771084
 30
0.0
  0
VERTEX
  5
7F4
  8
0_18__
  6
CONTINUOUS
 62
     1
 10
818.6252533441325
 20
-457.7499863141096
 30
0.0
  0
VERTEX
  5
7F5
  8
0_18__
  6
CONTINUOUS
 62
     1
 10
818.546769994948
 20
-457.5528892258438
 30
0.0
  0
VERTEX
  5
7F6
  8
0_18__
  6
CONTINUOUS
 62
     1
 10
818.4759166578963
 20
-457.352182912311
 30
0.0
  0
VERTEX
  5
7F7
  8
0_18__
  6
CONTINUOUS
 62
     1
 10
818.4121019237803
 20
-457.1523999419705
 30
0.0
  0
VERTEX
  5
7F8
  8
0_18__
  6
CONTINUOUS
 62
     1
 10
818.3547343834032
 20
-456.9580728832814
 30
0.0
  0
VERTEX
  5
7F9
  8
0_18__
  6
CONTINUOUS
 62
     1
 10
818.3038140367648
 20
-456.7692017362438
 30
0.0
  0
VERTEX
  5
7FA
  8
0_18__
  6
CONTINUOUS
 62
     1
 10
818.2593408838652
 20
-456.5857865008574
 30
0.0
  0
VERTEX
  5
7FB
  8
0_18__
  6
CONTINUOUS
 62
     1
 10
818.2213149247045
 20
-456.4078271771225
 30
0.0
  0
VERTEX
  5
7FC
  8
0_18__
  6
CONTINUOUS
 62
     1
 10
818.1897361592826
 20
-456.2353237650391
 30
0.0
  0
VERTEX
  5
7FD
  8
0_18__
  6
CONTINUOUS
 62
     1
 10
818.1646045875995
 20
-456.068276264607
 30
0.0
  0
VERTEX
  5
7FE
  8
0_18__
  6
CONTINUOUS
 62
     1
 10
818.1459202096551
 20
-455.9066846758265
 30
0.0
  0
VERTEX
  5
7FF
  8
0_18__
  6
CONTINUOUS
 62
     1
 10
818.131424521719
 20
-455.7511205430881
 30
0.0
  0
VERTEX
  5
800
  8
0_18__
  6
CONTINUOUS
 62
     1
 10
818.1188590200609
 20
-455.6021554107826
 30
0.0
  0
VERTEX
  5
801
  8
0_18__
  6
CONTINUOUS
 62
     1
 10
818.1082237046805
 20
-455.4597892789103
 30
0.0
  0
VERTEX
  5
802
  8
0_18__
  6
CONTINUOUS
 62
     1
 10
818.0995185755779
 20
-455.3240221474709
 30
0.0
  0
VERTEX
  5
803
  8
0_18__
  6
CONTINUOUS
 62
     1
 10
818.0927436327531
 20
-455.1948540164645
 30
0.0
  0
VERTEX
  5
804
  8
0_18__
  6
CONTINUOUS
 62
     1
 10
818.0878988762063
 20
-455.0722848858911
 30
0.0
  0
VERTEX
  5
805
  8
0_18__
  6
CONTINUOUS
 62
     1
 10
818.0849843059372
 20
-454.9563147557508
 30
0.0
  0
VERTEX
  5
806
  8
0_18__
  6
CONTINUOUS
 62
     1
 10
818.0839999219459
 20
-454.8469436260434
 30
0.0
  0
VERTEX
  5
807
  8
0_18__
  6
CONTINUOUS
 62
     1
 10
818.0839999219459
 20
-454.8469436260434
 30
0.0
  0
VERTEX
  5
808
  8
0_18__
  6
CONTINUOUS
 62
     1
 10
818.0839999219459
 20
-454.8469436260434
 30
0.0
  0
SEQEND
  5
809
  8
0_18__
  6
CONTINUOUS
 62
     1
  0
ARC
  5
80A
  8
0_18__
  6
CONTINUOUS
 62
     1
 10
828.2351541586901
 20
-452.6996196260434
 30
0.0
 40
15.00000000000004
 50
139.483842
 51
163.1313610000003
  0
ARC
  5
80B
  8
0_18__
  6
CONTINUOUS
 62
     1
 10
828.2351541586901
 20
-456.9942676260434
 30
0.0
 40
15.00000000000005
 50
196.8686389999997
 51
220.516158
  0
ARC
  5
80C
  8
0_18__
  6
CONTINUOUS
 62
     1
 10
821.40566215869
 20
-446.8633516260434
 30
0.0
 40
6.016459999999892
 50
48.64890599999829
 51
139.4838420000018
  0
ARC
  5
80D
  8
0_18__
  6
CONTINUOUS
 62
     1
 10
821.40566215869
 20
-462.8305356260435
 30
0.0
 40
6.016459999999824
 50
220.5161579999986
 51
311.3510940000013
  0
LINE
  5
80E
  8
0_18__
  6
CONTINUOUS
 62
     1
 10
813.38056615869
 20
-448.3469436260434
 30
0.0
 11
813.88056615869
 21
-448.3469436260434
 31
0.0
  0
LINE
  5
80F
  8
0_18__
  6
CONTINUOUS
 62
     1
 10
813.88056615869
 20
-461.3469436260434
 30
0.0
 11
813.38056615869
 21
-461.3469436260434
 31
0.0
  0
LINE
  5
810
  8
0_18__
  6
CONTINUOUS
 62
     1
 10
813.38056615869
 20
-461.3469436260434
 30
0.0
 11
813.38056615869
 21
-448.3469436260434
 31
0.0
  0
LINE
  5
811
  8
0_18__
  6
CONTINUOUS
 62
     1
 10
813.88056615869
 20
-461.3469436260434
 30
0.0
 11
813.88056615869
 21
-448.3469436260434
 31
0.0
  0
LINE
  5
812
  8
0_18__
  6
CONTINUOUS
 62
     1
 10
825.38056615869
 20
-467.3469436260434
 30
0.0
 11
825.38056615869
 21
-442.3469436260434
 31
0.0
  0
LINE
  5
813
  8
0_18__
  6
CONTINUOUS
 62
     1
 10
827.38056615869
 20
-442.8469436260434
 30
0.0
 11
827.38056615869
 21
-466.8469436260434
 31
0.0
  0
POLYLINE
  5
814
  8
0_18__
  6
CONTINUOUS
 62
     1
 66
     1
 10
0.0
 20
0.0
 30
0.0
 70
   128
  0
VERTEX
  5
815
  8
0_18__
  6
CONTINUOUS
 62
     1
 10
840.13056615869
 20
-556.7825124355527
 30
0.0
  0
VERTEX
  5
816
  8
0_18__
  6
CONTINUOUS
 62
     1
 10
840.4296396127482
 20
-556.6314825047593
 30
0.0
  0
VERTEX
  5
817
  8
0_18__
  6
CONTINUOUS
 62
     1
 10
840.7434921908678
 20
-556.4848884701084
 30
0.0
  0
VERTEX
  5
818
  8
0_18__
  6
CONTINUOUS
 62
     1
 10
841.0721238930485
 20
-556.3427303315998
 30
0.0
  0
VERTEX
  5
819
  8
0_18__
  6
CONTINUOUS
 62
     1
 10
841.4155347192905
 20
-556.2050080892334
 30
0.0
  0
VERTEX
  5
81A
  8
0_18__
  6
CONTINUOUS
 62
     1
 10
841.7737246695939
 20
-556.0717217430094
 30
0.0
  0
VERTEX
  5
81B
  8
0_18__
  6
CONTINUOUS
 62
     1
 10
842.1466937439585
 20
-555.9428712929277
 30
0.0
  0
VERTEX
  5
81C
  8
0_18__
  6
CONTINUOUS
 62
     1
 10
842.5344419423845
 20
-555.8184567389883
 30
0.0
  0
VERTEX
  5
81D
  8
0_18__
  6
CONTINUOUS
 62
     1
 10
842.9369692648718
 20
-555.6984780811912
 30
0.0
  0
VERTEX
  5
81E
  8
0_18__
  6
CONTINUOUS
 62
     1
 10
843.3463883820564
 20
-555.5931212366085
 30
0.0
  0
VERTEX
  5
81F
  8
0_18__
  6
CONTINUOUS
 62
     1
 10
843.7548119645747
 20
-555.5125721223121
 30
0.0
  0
VERTEX
  5
820
  8
0_18__
  6
CONTINUOUS
 62
     1
 10
844.1622400124268
 20
-555.4568307383023
 30
0.0
  0
VERTEX
  5
821
  8
0_18__
  6
CONTINUOUS
 62
     1
 10
844.5686725256123
 20
-555.425897084579
 30
0.0
  0
VERTEX
  5
822
  8
0_18__
  6
CONTINUOUS
 62
     1
 10
844.9741095041315
 20
-555.4197711611421
 30
0.0
  0
VERTEX
  5
823
  8
0_18__
  6
CONTINUOUS
 62
     1
 10
845.3785509479843
 20
-555.4384529679917
 30
0.0
  0
VERTEX
  5
824
  8
0_18__
  6
CONTINUOUS
 62
     1
 10
845.7819968571707
 20
-555.4819425051277
 30
0.0
  0
VERTEX
  5
825
  8
0_18__
  6
CONTINUOUS
 62
     1
 10
846.1844472316908
 20
-555.5502397725502
 30
0.0
  0
VERTEX
  5
826
  8
0_18__
  6
CONTINUOUS
 62
     1
 10
846.5811406806229
 20
-555.6329693279415
 30
0.0
  0
VERTEX
  5
827
  8
0_18__
  6
CONTINUOUS
 62
     1
 10
846.9673158130455
 20
-555.7197557289842
 30
0.0
  0
VERTEX
  5
828
  8
0_18__
  6
CONTINUOUS
 62
     1
 10
847.3429726289585
 20
-555.8105989756781
 30
0.0
  0
VERTEX
  5
829
  8
0_18__
  6
CONTINUOUS
 62
     1
 10
847.708111128362
 20
-555.9054990680233
 30
0.0
  0
VERTEX
  5
82A
  8
0_18__
  6
CONTINUOUS
 62
     1
 10
848.062731311256
 20
-556.0044560060198
 30
0.0
  0
VERTEX
  5
82B
  8
0_18__
  6
CONTINUOUS
 62
     1
 10
848.4068331776405
 20
-556.1074697896676
 30
0.0
  0
VERTEX
  5
82C
  8
0_18__
  6
CONTINUOUS
 62
     1
 10
848.7404167275154
 20
-556.2145404189666
 30
0.0
  0
VERTEX
  5
82D
  8
0_18__
  6
CONTINUOUS
 62
     1
 10
849.0634819608808
 20
-556.325667893917
 30
0.0
  0
VERTEX
  5
82E
  8
0_18__
  6
CONTINUOUS
 62
     1
 10
849.3813908853548
 20
-556.4381366743667
 30
0.0
  0
VERTEX
  5
82F
  8
0_18__
  6
CONTINUOUS
 62
     1
 10
849.6995055085555
 20
-556.5492312201638
 30
0.0
  0
VERTEX
  5
830
  8
0_18__
  6
CONTINUOUS
 62
     1
 10
850.0178258304828
 20
-556.6589515313086
 30
0.0
  0
VERTEX
  5
831
  8
0_18__
  6
CONTINUOUS
 62
     1
 10
850.3363518511369
 20
-556.7672976078009
 30
0.0
  0
VERTEX
  5
832
  8
0_18__
  6
CONTINUOUS
 62
     1
 10
850.6550835705176
 20
-556.8742694496406
 30
0.0
  0
VERTEX
  5
833
  8
0_18__
  6
CONTINUOUS
 62
     1
 10
850.9740209886249
 20
-556.9798670568277
 30
0.0
  0
VERTEX
  5
834
  8
0_18__
  6
CONTINUOUS
 62
     1
 10
851.293164105459
 20
-557.0840904293625
 30
0.0
  0
VERTEX
  5
835
  8
0_18__
  6
CONTINUOUS
 62
     1
 10
851.6125129210199
 20
-557.1869395672446
 30
0.0
  0
VERTEX
  5
836
  8
0_18__
  6
CONTINUOUS
 62
     1
 10
851.937342499791
 20
-557.2866543306134
 30
0.0
  0
VERTEX
  5
837
  8
0_18__
  6
CONTINUOUS
 62
     1
 10
852.2729279062563
 20
-557.3814745796077
 30
0.0
  0
VERTEX
  5
838
  8
0_18__
  6
CONTINUOUS
 62
     1
 10
852.6192691404158
 20
-557.4714003142276
 30
0.0
  0
VERTEX
  5
839
  8
0_18__
  6
CONTINUOUS
 62
     1
 10
852.9763662022693
 20
-557.5564315344731
 30
0.0
  0
VERTEX
  5
83A
  8
0_18__
  6
CONTINUOUS
 62
     1
 10
853.344219091817
 20
-557.6365682403441
 30
0.0
  0
VERTEX
  5
83B
  8
0_18__
  6
CONTINUOUS
 62
     1
 10
853.7228278090588
 20
-557.7118104318408
 30
0.0
  0
VERTEX
  5
83C
  8
0_18__
  6
CONTINUOUS
 62
     1
 10
854.1121923539947
 20
-557.7821581089631
 30
0.0
  0
VERTEX
  5
83D
  8
0_18__
  6
CONTINUOUS
 62
     1
 10
854.5123127266247
 20
-557.847611271711
 30
0.0
  0
VERTEX
  5
83E
  8
0_18__
  6
CONTINUOUS
 62
     1
 10
854.9181853903959
 20
-557.9005714410416
 30
0.0
  0
VERTEX
  5
83F
  8
0_18__
  6
CONTINUOUS
 62
     1
 10
855.3248068087553
 20
-557.933440137912
 30
0.0
  0
VERTEX
  5
840
  8
0_18__
  6
CONTINUOUS
 62
     1
 10
855.7321769817029
 20
-557.9462173623223
 30
0.0
  0
VERTEX
  5
841
  8
0_18__
  6
CONTINUOUS
 62
     1
 10
856.1402959092386
 20
-557.9389031142724
 30
0.0
  0
VERTEX
  5
842
  8
0_18__
  6
CONTINUOUS
 62
     1
 10
856.5491635913626
 20
-557.9114973937624
 30
0.0
  0
VERTEX
  5
843
  8
0_18__
  6
CONTINUOUS
 62
     1
 10
856.9587800280747
 20
-557.8640002007921
 30
0.0
  0
VERTEX
  5
844
  8
0_18__
  6
CONTINUOUS
 62
     1
 10
857.369145219375
 20
-557.7964115353618
 30
0.0
  0
VERTEX
  5
845
  8
0_18__
  6
CONTINUOUS
 62
     1
 10
857.7802591652635
 20
-557.7087313974713
 30
0.0
  0
VERTEX
  5
846
  8
0_18__
  6
CONTINUOUS
 62
     1
 10
858.1848474948205
 20
-557.6087490863358
 30
0.0
  0
VERTEX
  5
847
  8
0_18__
  6
CONTINUOUS
 62
     1
 10
858.5756358371264
 20
-557.5042539011705
 30
0.0
  0
VERTEX
  5
848
  8
0_18__
  6
CONTINUOUS
 62
     1
 10
858.9526241921814
 20
-557.3952458419753
 30
0.0
  0
VERTEX
  5
849
  8
0_18__
  6
CONTINUOUS
 62
     1
 10
859.3158125599853
 20
-557.2817249087504
 30
0.0
  0
VERTEX
  5
84A
  8
0_18__
  6
CONTINUOUS
 62
     1
 10
859.6652009405379
 20
-557.1636911014957
 30
0.0
  0
VERTEX
  5
84B
  8
0_18__
  6
CONTINUOUS
 62
     1
 10
860.0007893338397
 20
-557.0411444202111
 30
0.0
  0
VERTEX
  5
84C
  8
0_18__
  6
CONTINUOUS
 62
     1
 10
860.3225777398904
 20
-556.9140848648968
 30
0.0
  0
VERTEX
  5
84D
  8
0_18__
  6
CONTINUOUS
 62
     1
 10
860.63056615869
 20
-556.7825124355527
 30
0.0
  0
VERTEX
  5
84E
  8
0_18__
  6
CONTINUOUS
 62
     1
 10
860.63056615869
 20
-556.7825124355527
 30
0.0
  0
SEQEND
  5
84F
  8
0_18__
  6
CONTINUOUS
 62
     1
  0
POLYLINE
  5
850
  8
0_18__
  6
CONTINUOUS
 62
     1
 66
     1
 10
0.0
 20
0.0
 30
0.0
 70
   128
  0
VERTEX
  5
851
  8
0_18__
  6
CONTINUOUS
 62
     1
 10
840.13056615869
 20
-552.7825124355527
 30
0.0
  0
VERTEX
  5
852
  8
0_18__
  6
CONTINUOUS
 62
     1
 10
840.4296396127482
 20
-552.6314825047593
 30
0.0
  0
VERTEX
  5
853
  8
0_18__
  6
CONTINUOUS
 62
     1
 10
840.7434921908678
 20
-552.4848884701084
 30
0.0
  0
VERTEX
  5
854
  8
0_18__
  6
CONTINUOUS
 62
     1
 10
841.0721238930485
 20
-552.3427303315998
 30
0.0
  0
VERTEX
  5
855
  8
0_18__
  6
CONTINUOUS
 62
     1
 10
841.4155347192905
 20
-552.2050080892334
 30
0.0
  0
VERTEX
  5
856
  8
0_18__
  6
CONTINUOUS
 62
     1
 10
841.7737246695939
 20
-552.0717217430094
 30
0.0
  0
VERTEX
  5
857
  8
0_18__
  6
CONTINUOUS
 62
     1
 10
842.1466937439585
 20
-551.9428712929277
 30
0.0
  0
VERTEX
  5
858
  8
0_18__
  6
CONTINUOUS
 62
     1
 10
842.5344419423845
 20
-551.8184567389883
 30
0.0
  0
VERTEX
  5
859
  8
0_18__
  6
CONTINUOUS
 62
     1
 10
842.9369692648718
 20
-551.6984780811912
 30
0.0
  0
VERTEX
  5
85A
  8
0_18__
  6
CONTINUOUS
 62
     1
 10
843.3463883820564
 20
-551.5931212366085
 30
0.0
  0
VERTEX
  5
85B
  8
0_18__
  6
CONTINUOUS
 62
     1
 10
843.7548119645747
 20
-551.5125721223121
 30
0.0
  0
VERTEX
  5
85C
  8
0_18__
  6
CONTINUOUS
 62
     1
 10
844.1622400124268
 20
-551.4568307383023
 30
0.0
  0
VERTEX
  5
85D
  8
0_18__
  6
CONTINUOUS
 62
     1
 10
844.5686725256123
 20
-551.425897084579
 30
0.0
  0
VERTEX
  5
85E
  8
0_18__
  6
CONTINUOUS
 62
     1
 10
844.9741095041315
 20
-551.4197711611421
 30
0.0
  0
VERTEX
  5
85F
  8
0_18__
  6
CONTINUOUS
 62
     1
 10
845.3785509479843
 20
-551.4384529679917
 30
0.0
  0
VERTEX
  5
860
  8
0_18__
  6
CONTINUOUS
 62
     1
 10
845.7819968571707
 20
-551.4819425051277
 30
0.0
  0
VERTEX
  5
861
  8
0_18__
  6
CONTINUOUS
 62
     1
 10
846.1844472316908
 20
-551.5502397725502
 30
0.0
  0
VERTEX
  5
862
  8
0_18__
  6
CONTINUOUS
 62
     1
 10
846.5811406806229
 20
-551.6329693279415
 30
0.0
  0
VERTEX
  5
863
  8
0_18__
  6
CONTINUOUS
 62
     1
 10
846.9673158130455
 20
-551.7197557289842
 30
0.0
  0
VERTEX
  5
864
  8
0_18__
  6
CONTINUOUS
 62
     1
 10
847.3429726289585
 20
-551.8105989756781
 30
0.0
  0
VERTEX
  5
865
  8
0_18__
  6
CONTINUOUS
 62
     1
 10
847.708111128362
 20
-551.9054990680233
 30
0.0
  0
VERTEX
  5
866
  8
0_18__
  6
CONTINUOUS
 62
     1
 10
848.062731311256
 20
-552.0044560060198
 30
0.0
  0
VERTEX
  5
867
  8
0_18__
  6
CONTINUOUS
 62
     1
 10
848.4068331776405
 20
-552.1074697896676
 30
0.0
  0
VERTEX
  5
868
  8
0_18__
  6
CONTINUOUS
 62
     1
 10
848.7404167275154
 20
-552.2145404189666
 30
0.0
  0
VERTEX
  5
869
  8
0_18__
  6
CONTINUOUS
 62
     1
 10
849.0634819608808
 20
-552.325667893917
 30
0.0
  0
VERTEX
  5
86A
  8
0_18__
  6
CONTINUOUS
 62
     1
 10
849.3813908853548
 20
-552.4381366743667
 30
0.0
  0
VERTEX
  5
86B
  8
0_18__
  6
CONTINUOUS
 62
     1
 10
849.6995055085555
 20
-552.5492312201638
 30
0.0
  0
VERTEX
  5
86C
  8
0_18__
  6
CONTINUOUS
 62
     1
 10
850.0178258304828
 20
-552.6589515313086
 30
0.0
  0
VERTEX
  5
86D
  8
0_18__
  6
CONTINUOUS
 62
     1
 10
850.3363518511369
 20
-552.7672976078009
 30
0.0
  0
VERTEX
  5
86E
  8
0_18__
  6
CONTINUOUS
 62
     1
 10
850.6550835705176
 20
-552.8742694496406
 30
0.0
  0
VERTEX
  5
86F
  8
0_18__
  6
CONTINUOUS
 62
     1
 10
850.9740209886249
 20
-552.9798670568277
 30
0.0
  0
VERTEX
  5
870
  8
0_18__
  6
CONTINUOUS
 62
     1
 10
851.293164105459
 20
-553.0840904293625
 30
0.0
  0
VERTEX
  5
871
  8
0_18__
  6
CONTINUOUS
 62
     1
 10
851.6125129210199
 20
-553.1869395672446
 30
0.0
  0
VERTEX
  5
872
  8
0_18__
  6
CONTINUOUS
 62
     1
 10
851.937342499791
 20
-553.2866543306134
 30
0.0
  0
VERTEX
  5
873
  8
0_18__
  6
CONTINUOUS
 62
     1
 10
852.2729279062563
 20
-553.3814745796077
 30
0.0
  0
VERTEX
  5
874
  8
0_18__
  6
CONTINUOUS
 62
     1
 10
852.6192691404158
 20
-553.4714003142276
 30
0.0
  0
VERTEX
  5
875
  8
0_18__
  6
CONTINUOUS
 62
     1
 10
852.9763662022693
 20
-553.5564315344731
 30
0.0
  0
VERTEX
  5
876
  8
0_18__
  6
CONTINUOUS
 62
     1
 10
853.344219091817
 20
-553.6365682403441
 30
0.0
  0
VERTEX
  5
877
  8
0_18__
  6
CONTINUOUS
 62
     1
 10
853.7228278090588
 20
-553.7118104318408
 30
0.0
  0
VERTEX
  5
878
  8
0_18__
  6
CONTINUOUS
 62
     1
 10
854.1121923539947
 20
-553.7821581089631
 30
0.0
  0
VERTEX
  5
879
  8
0_18__
  6
CONTINUOUS
 62
     1
 10
854.5123127266248
 20
-553.847611271711
 30
0.0
  0
VERTEX
  5
87A
  8
0_18__
  6
CONTINUOUS
 62
     1
 10
854.918185390396
 20
-553.9005714410416
 30
0.0
  0
VERTEX
  5
87B
  8
0_18__
  6
CONTINUOUS
 62
     1
 10
855.3248068087555
 20
-553.933440137912
 30
0.0
  0
VERTEX
  5
87C
  8
0_18__
  6
CONTINUOUS
 62
     1
 10
855.732176981703
 20
-553.9462173623223
 30
0.0
  0
VERTEX
  5
87D
  8
0_18__
  6
CONTINUOUS
 62
     1
 10
856.1402959092387
 20
-553.9389031142724
 30
0.0
  0
VERTEX
  5
87E
  8
0_18__
  6
CONTINUOUS
 62
     1
 10
856.5491635913627
 20
-553.9114973937624
 30
0.0
  0
VERTEX
  5
87F
  8
0_18__
  6
CONTINUOUS
 62
     1
 10
856.9587800280748
 20
-553.8640002007921
 30
0.0
  0
VERTEX
  5
880
  8
0_18__
  6
CONTINUOUS
 62
     1
 10
857.369145219375
 20
-553.7964115353618
 30
0.0
  0
VERTEX
  5
881
  8
0_18__
  6
CONTINUOUS
 62
     1
 10
857.7802591652635
 20
-553.7087313974713
 30
0.0
  0
VERTEX
  5
882
  8
0_18__
  6
CONTINUOUS
 62
     1
 10
858.1848474948205
 20
-553.6087490863358
 30
0.0
  0
VERTEX
  5
883
  8
0_18__
  6
CONTINUOUS
 62
     1
 10
858.5756358371265
 20
-553.5042539011705
 30
0.0
  0
VERTEX
  5
884
  8
0_18__
  6
CONTINUOUS
 62
     1
 10
858.9526241921814
 20
-553.3952458419753
 30
0.0
  0
VERTEX
  5
885
  8
0_18__
  6
CONTINUOUS
 62
     1
 10
859.3158125599853
 20
-553.2817249087504
 30
0.0
  0
VERTEX
  5
886
  8
0_18__
  6
CONTINUOUS
 62
     1
 10
859.6652009405379
 20
-553.1636911014957
 30
0.0
  0
VERTEX
  5
887
  8
0_18__
  6
CONTINUOUS
 62
     1
 10
860.0007893338397
 20
-553.0411444202111
 30
0.0
  0
VERTEX
  5
888
  8
0_18__
  6
CONTINUOUS
 62
     1
 10
860.3225777398904
 20
-552.9140848648968
 30
0.0
  0
VERTEX
  5
889
  8
0_18__
  6
CONTINUOUS
 62
     1
 10
860.63056615869
 20
-552.7825124355527
 30
0.0
  0
VERTEX
  5
88A
  8
0_18__
  6
CONTINUOUS
 62
     1
 10
860.63056615869
 20
-552.7825124355527
 30
0.0
  0
SEQEND
  5
88B
  8
0_18__
  6
CONTINUOUS
 62
     1
  0
LINE
  5
88C
  8
0_18__
  6
CONTINUOUS
 62
     1
 10
840.13056615869
 20
-492.8469416260434
 30
0.0
 11
840.13056615869
 21
-552.7825116260435
 31
0.0
  0
LINE
  5
88D
  8
0_18__
  6
CONTINUOUS
 62
     1
 10
840.13056615869
 20
-556.7825116260435
 30
0.0
 11
840.13056615869
 21
-616.8469416260434
 31
0.0
  0
LINE
  5
88E
  8
0_18__
  6
CONTINUOUS
 62
     1
 10
860.63056615869
 20
-492.8469416260434
 30
0.0
 11
860.63056615869
 21
-552.7825116260435
 31
0.0
  0
LINE
  5
88F
  8
0_18__
  6
CONTINUOUS
 62
     1
 10
860.63056615869
 20
-556.7825116260435
 30
0.0
 11
860.63056615869
 21
-616.8469416260434
 31
0.0
  0
LINE
  5
890
  8
0_18__
  6
CONTINUOUS
 62
     1
 10
860.5640481586901
 20
-490.7180856260434
 30
0.0
 11
840.19709415869
 21
-490.7180856260434
 31
0.0
  0
LINE
  5
891
  8
0_18__
  6
CONTINUOUS
 62
     1
 10
841.38688815869
 20
-489.8469416260434
 30
0.0
 11
841.3596641586901
 21
-490.7180876260434
 31
0.0
  0
LINE
  5
892
  8
0_18__
  6
CONTINUOUS
 62
     1
 10
840.22431815869
 20
-489.8469416260434
 30
0.0
 11
840.13056815869
 21
-492.8469416260434
 31
0.0
  0
LINE
  5
893
  8
0_18__
  6
CONTINUOUS
 62
     1
 10
840.1305481586901
 20
-492.8469536260434
 30
0.0
 11
841.3596561586901
 21
-490.7180876260434
 31
0.0
  0
LINE
  5
894
  8
0_18__
  6
CONTINUOUS
 62
     1
 10
859.3742401586901
 20
-489.8469416260434
 30
0.0
 11
859.40146415869
 21
-490.7180816260434
 31
0.0
  0
LINE
  5
895
  8
0_18__
  6
CONTINUOUS
 62
     1
 10
860.53682615869
 20
-489.8469416260434
 30
0.0
 11
860.63057615869
 21
-492.8469456260434
 31
0.0
  0
LINE
  5
896
  8
0_18__
  6
CONTINUOUS
 62
     1
 10
860.6305481586901
 20
-492.8469496260434
 30
0.0
 11
859.4014441586901
 21
-490.7180916260434
 31
0.0
  0
LINE
  5
897
  8
0_18__
  6
CONTINUOUS
 62
     1
 10
860.5640421586901
 20
-642.8469416260434
 30
0.0
 11
840.19709415869
 21
-642.8469416260434
 31
0.0
  0
LINE
  5
898
  8
0_18__
  6
CONTINUOUS
 62
     1
 10
859.02646415869
 20
-654.8469656260434
 30
0.0
 11
859.40146415869
 21
-642.8469596260434
 31
0.0
  0
LINE
  5
899
  8
0_18__
  6
CONTINUOUS
 62
     1
 10
860.22654215869
 20
-653.6468956260435
 30
0.0
 11
860.63056815869
 21
-640.7180976260433
 31
0.0
  0
LINE
  5
89A
  8
0_18__
  6
CONTINUOUS
 62
     1
 10
820.3805581586901
 20
-632.8469416260434
 30
0.0
 11
880.38056615869
 21
-632.8469416260434
 31
0.0
  0
LINE
  5
89B
  8
0_18__
  6
CONTINUOUS
 62
     1
 10
850.38056615869
 20
-616.8469416260434
 30
0.0
 11
861.13057215869
 21
-616.8469416260434
 31
0.0
  0
ARC
  5
89C
  8
0_18__
  6
CONTINUOUS
 62
     1
 10
855.40472015869
 20
-661.4811736260435
 30
0.0
 40
45.00000000000008
 50
64.66681000000003
 51
82.68980299999987
  0
ARC
  5
89D
  8
0_18__
  6
CONTINUOUS
 62
     1
 10
870.38056215869
 20
-629.8469576260434
 30
0.0
 40
9.999999999999957
 50
359.9999859999999
 51
65.80904999999973
  0
LINE
  5
89E
  8
0_18__
  6
CONTINUOUS
 62
     1
 10
880.38056615869
 20
-629.8469576260434
 30
0.0
 11
880.38056615869
 21
-632.8469576260434
 31
0.0
  0
LINE
  5
89F
  8
0_18__
  6
CONTINUOUS
 62
     1
 10
860.63057615869
 20
-640.7180656260434
 30
0.0
 11
859.40147615869
 21
-642.8469176260435
 31
0.0
  0
LINE
  5
8A0
  8
0_18__
  6
CONTINUOUS
 62
     1
 10
860.63056615869
 20
-632.8469416260434
 30
0.0
 11
860.63056615869
 21
-640.7181416260435
 31
0.0
  0
LINE
  5
8A1
  8
0_18__
  6
CONTINUOUS
 62
     1
 10
840.5345921586901
 20
-653.6468956260435
 30
0.0
 11
860.22654215869
 21
-653.6468956260435
 31
0.0
  0
LINE
  5
8A2
  8
0_18__
  6
CONTINUOUS
 62
     1
 10
859.02646215869
 20
-654.8469416260434
 30
0.0
 11
841.7346621586901
 21
-654.8469416260434
 31
0.0
  0
LINE
  5
8A3
  8
0_18__
  6
CONTINUOUS
 62
     1
 10
859.02646015869
 20
-654.8469436260434
 30
0.0
 11
860.22652015869
 21
-653.6468796260433
 31
0.0
  0
LINE
  5
8A4
  8
0_18__
  6
CONTINUOUS
 62
     1
 10
841.7347101586901
 20
-654.8468836260433
 30
0.0
 11
840.53465015869
 21
-653.6468216260434
 31
0.0
  0
LINE
  5
8A5
  8
0_18__
  6
CONTINUOUS
 62
     1
 10
841.7346641586901
 20
-654.8469616260434
 30
0.0
 11
841.3596641586901
 21
-642.8469516260434
 31
0.0
  0
LINE
  5
8A6
  8
0_18__
  6
CONTINUOUS
 62
     1
 10
840.13056615869
 20
-632.8469416260434
 30
0.0
 11
840.13056615869
 21
-640.7180816260434
 31
0.0
  0
LINE
  5
8A7
  8
0_18__
  6
CONTINUOUS
 62
     1
 10
840.1305581586901
 20
-640.7180896260434
 30
0.0
 11
841.3596641586901
 21
-642.8469516260434
 31
0.0
  0
LINE
  5
8A8
  8
0_18__
  6
CONTINUOUS
 62
     1
 10
840.5345921586901
 20
-653.6468756260433
 30
0.0
 11
840.13056815869
 21
-640.7180976260433
 31
0.0
  0
LINE
  5
8A9
  8
0_18__
  6
CONTINUOUS
 62
     1
 10
839.63057415869
 20
-616.8469416260434
 30
0.0
 11
850.38056615869
 21
-616.8469416260434
 31
0.0
  0
ARC
  5
8AA
  8
0_18__
  6
CONTINUOUS
 62
     1
 10
845.35635015869
 20
-661.4811736260435
 30
0.0
 40
45.00000000000009
 50
97.31014199999998
 51
115.3331259999999
  0
ARC
  5
8AB
  8
0_18__
  6
CONTINUOUS
 62
     1
 10
830.3805581586901
 20
-629.8469256260435
 30
0.0
 40
9.999999999999996
 50
114.1908730000001
 51
179.9999500000002
  0
LINE
  5
8AC
  8
0_18__
  6
CONTINUOUS
 62
     1
 10
820.3805581586901
 20
-629.8469416260434
 30
0.0
 11
820.3805581586901
 21
-632.8469416260434
 31
0.0
  0
LINE
  5
8AD
  8
0_18__
  6
CONTINUOUS
 62
     1
 10
794.2805661586901
 20
-448.0854636260433
 30
0.0
 11
792.2805661586901
 21
-448.0854636260433
 31
0.0
  0
LINE
  5
8AE
  8
0_18__
  6
CONTINUOUS
 62
     1
 10
794.2805661586901
 20
-448.7847656260433
 30
0.0
 11
792.2805661586901
 21
-448.7847656260433
 31
0.0
  0
LINE
  5
8AF
  8
0_18__
  6
CONTINUOUS
 62
     1
 10
794.2805661586901
 20
-449.8971956260434
 30
0.0
 11
792.2805661586901
 21
-449.8971956260434
 31
0.0
  0
LINE
  5
8B0
  8
0_18__
  6
CONTINUOUS
 62
     1
 10
794.2805661586901
 20
-451.3469436260434
 30
0.0
 11
792.2805661586901
 21
-451.3469436260434
 31
0.0
  0
LINE
  5
8B1
  8
0_18__
  6
CONTINUOUS
 62
     1
 10
794.2805661586901
 20
-453.0352096260435
 30
0.0
 11
792.2805661586901
 21
-453.0352096260435
 31
0.0
  0
LINE
  5
8B2
  8
0_18__
  6
CONTINUOUS
 62
     1
 10
794.2805661586901
 20
-456.6586776260433
 30
0.0
 11
792.2805661586901
 21
-456.6586776260433
 31
0.0
  0
LINE
  5
8B3
  8
0_18__
  6
CONTINUOUS
 62
     1
 10
794.2805661586901
 20
-458.3469436260434
 30
0.0
 11
792.2805661586901
 21
-458.3469436260434
 31
0.0
  0
LINE
  5
8B4
  8
0_18__
  6
CONTINUOUS
 62
     1
 10
794.2805661586901
 20
-459.7966916260434
 30
0.0
 11
792.2805661586901
 21
-459.7966916260434
 31
0.0
  0
LINE
  5
8B5
  8
0_18__
  6
CONTINUOUS
 62
     1
 10
794.2805661586901
 20
-460.9091216260435
 30
0.0
 11
792.2805661586901
 21
-460.9091216260435
 31
0.0
  0
LINE
  5
8B6
  8
0_18__
  6
CONTINUOUS
 62
     1
 10
794.2805661586901
 20
-461.6084236260435
 30
0.0
 11
792.2122801586902
 21
-461.6084236260435
 31
0.0
  0
ARC
  5
8B7
  8
0_18__
  6
CONTINUOUS
 62
     1
 10
816.28056615869
 20
-454.8469436260434
 30
0.0
 40
24.99999999999996
 50
163.739795
 51
196.260205
  0
LINE
  5
8B8
  8
0_18__
  6
CONTINUOUS
 62
     1
 10
792.2805661586901
 20
-447.8469436260434
 30
0.0
 11
792.2805661586901
 21
-461.8469436260434
 31
0.0
  0
LINE
  5
8B9
  8
0_18__
  6
CONTINUOUS
 62
     1
 10
794.2805661586901
 20
-447.8469436260434
 30
0.0
 11
792.2805661586901
 21
-447.8469436260434
 31
0.0
  0
LINE
  5
8BA
  8
0_18__
  6
CONTINUOUS
 62
     1
 10
794.2805661586901
 20
-461.8469436260434
 30
0.0
 11
792.2805661586901
 21
-461.8469436260434
 31
0.0
  0
LINE
  5
8BB
  8
0_18__
  6
CONTINUOUS
 62
     1
 10
801.11301815869
 20
-473.3469436260434
 30
0.0
 11
805.28056615869
 21
-473.3469436260434
 31
0.0
  0
LINE
  5
8BC
  8
0_18__
  6
CONTINUOUS
 62
     1
 10
794.2805661586901
 20
-446.8469436260434
 30
0.0
 11
794.2805661586901
 21
-462.4699596260434
 31
0.0
  0
LINE
  5
8BD
  8
0_18__
  6
CONTINUOUS
 62
     1
 10
805.28056615869
 20
-423.8469436260434
 30
0.0
 11
805.28056615869
 21
-473.3469436260434
 31
0.0
  0
LINE
  5
8BE
  8
0_18__
  6
CONTINUOUS
 62
     1
 10
805.28056615869
 20
-423.8469436260434
 30
0.0
 11
801.11301815869
 21
-423.8469436260434
 31
0.0
  0
ARC
  5
8BF
  8
0_18__
  6
CONTINUOUS
 62
     1
 10
801.11301815869
 20
-467.3469436260434
 30
0.0
 40
5.999999999999932
 50
199.9473669999996
 51
270.0
  0
ARC
  5
8C0
  8
0_18__
  6
CONTINUOUS
 62
     1
 10
820.24684815869
 20
-462.3308396260436
 30
0.0
 40
25.9670319999999
 50
180.6783339999992
 51
182.4258309999998
  0
ARC
  5
8C1
  8
0_18__
  6
CONTINUOUS
 62
     1
 10
801.11301815869
 20
-429.8469436260434
 30
0.0
 40
6.0
 50
90.0
 51
174.393191999998
  0
ARC
  5
8C2
  8
0_18__
  6
CONTINUOUS
 62
     1
 10
974.28056615869
 20
-446.8469436260434
 30
0.0
 40
179.9999999999999
 50
174.393192
 51
180.0
  0
POLYLINE
  5
8C3
  8
0_18__
  6
CONTINUOUS
 62
     1
 66
     1
 10
0.0
 20
0.0
 30
0.0
 70
   128
  0
VERTEX
  5
8C4
  8
0_18__
  6
CONTINUOUS
 62
     1
 10
794.2981647922779
 20
-463.2488868191244
 30
0.0
 42
0.0084676198599574
 70
     2
 50
0.5094979753982318
  0
VERTEX
  5
8C5
  8
0_18__
  6
CONTINUOUS
 62
     1
 10
794.303053272384
 20
-463.43812249339
 30
0.0
  0
SEQEND
  5
8C6
  8
0_18__
  6
CONTINUOUS
 62
     1
  0
POLYLINE
  5
8C7
  8
0_18__
  6
CONTINUOUS
 62
     1
 66
     1
 10
0.0
 20
0.0
 30
0.0
 70
   128
  0
VERTEX
  5
8C8
  8
0_18__
  6
CONTINUOUS
 62
     1
 10
794.3029787762162
 20
-463.4363750459802
 30
0.0
 42
0.0088916337750432
 70
     2
 50
2.433636262680673
  0
VERTEX
  5
8C9
  8
0_18__
  6
CONTINUOUS
 62
     1
 10
794.3149443659754
 20
-463.6347922796294
 30
0.0
  0
SEQEND
  5
8CA
  8
0_18__
  6
CONTINUOUS
 62
     1
  0
POLYLINE
  5
8CB
  8
0_18__
  6
CONTINUOUS
 62
     1
 66
     1
 10
0.0
 20
0.0
 30
0.0
 70
   128
  0
VERTEX
  5
8CC
  8
0_18__
  6
CONTINUOUS
 62
     1
 10
794.3071129881737
 20
-463.437527616753
 30
0.0
  0
VERTEX
  5
8CD
  8
0_18__
  6
CONTINUOUS
 62
     1
 10
794.3268738407764
 20
-463.8176507189856
 30
0.0
  0
VERTEX
  5
8CE
  8
0_18__
  6
CONTINUOUS
 62
     1
 10
794.353687085408
 20
-464.197116439846
 30
0.0
  0
VERTEX
  5
8CF
  8
0_18__
  6
CONTINUOUS
 62
     1
 10
794.3875527220684
 20
-464.5759247793337
 30
0.0
  0
VERTEX
  5
8D0
  8
0_18__
  6
CONTINUOUS
 62
     1
 10
794.4284707507577
 20
-464.9540757374492
 30
0.0
  0
VERTEX
  5
8D1
  8
0_18__
  6
CONTINUOUS
 62
     1
 10
794.4764411714757
 20
-465.3315693141922
 30
0.0
  0
VERTEX
  5
8D2
  8
0_18__
  6
CONTINUOUS
 62
     1
 10
794.5314639842227
 20
-465.7084055095627
 30
0.0
  0
VERTEX
  5
8D3
  8
0_18__
  6
CONTINUOUS
 62
     1
 10
794.5935391889984
 20
-466.0845843235606
 30
0.0
  0
VERTEX
  5
8D4
  8
0_18__
  6
CONTINUOUS
 62
     1
 10
794.6626667858029
 20
-466.4601057561863
 30
0.0
  0
VERTEX
  5
8D5
  8
0_18__
  6
CONTINUOUS
 62
     1
 10
794.7388950192
 20
-466.8342225068578
 30
0.0
  0
VERTEX
  5
8D6
  8
0_18__
  6
CONTINUOUS
 62
     1
 10
794.8222721337531
 20
-467.2061872749937
 30
0.0
  0
VERTEX
  5
8D7
  8
0_18__
  6
CONTINUOUS
 62
     1
 10
794.9127981294625
 20
-467.5760000605939
 30
0.0
  0
VERTEX
  5
8D8
  8
0_18__
  6
CONTINUOUS
 62
     1
 10
795.010473006328
 20
-467.9436608636585
 30
0.0
  0
VERTEX
  5
8D9
  8
0_18__
  6
CONTINUOUS
 62
     1
 10
795.1152967643495
 20
-468.3091696841874
 30
0.0
  0
VERTEX
  5
8DA
  8
0_18__
  6
CONTINUOUS
 62
     1
 10
795.2272694035273
 20
-468.6725265221805
 30
0.0
  0
VERTEX
  5
8DB
  8
0_18__
  6
CONTINUOUS
 62
     1
 10
795.3463909238612
 20
-469.0337313776381
 30
0.0
  0
VERTEX
  5
8DC
  8
0_18__
  6
CONTINUOUS
 62
     1
 10
795.4726613253513
 20
-469.39278425056
 30
0.0
  0
VERTEX
  5
8DD
  8
0_18__
  6
CONTINUOUS
 62
     1
 10
795.4726613253513
 20
-469.39278425056
 30
0.0
  0
SEQEND
  5
8DE
  8
0_18__
  6
CONTINUOUS
 62
     1
  0
POLYLINE
  5
8DF
  8
0_18__
  6
CONTINUOUS
 62
     1
 66
     1
 10
0.0
 20
0.0
 30
0.0
 70
   128
  0
VERTEX
  5
8E0
  8
0_18__
  6
CONTINUOUS
 62
     1
 10
794.2784103197321
 20
-462.4916094249306
 30
0.0
  0
VERTEX
  5
8E1
  8
0_18__
  6
CONTINUOUS
 62
     1
 10
794.2787668299234
 20
-462.5506007154056
 30
0.0
  0
VERTEX
  5
8E2
  8
0_18__
  6
CONTINUOUS
 62
     1
 10
794.279300689039
 20
-462.6095896086458
 30
0.0
  0
VERTEX
  5
8E3
  8
0_18__
  6
CONTINUOUS
 62
     1
 10
794.2800118970792
 20
-462.6685761046514
 30
0.0
  0
VERTEX
  5
8E4
  8
0_18__
  6
CONTINUOUS
 62
     1
 10
794.2809004540438
 20
-462.7275602034223
 30
0.0
  0
VERTEX
  5
8E5
  8
0_18__
  6
CONTINUOUS
 62
     1
 10
794.281966359933
 20
-462.7865419049585
 30
0.0
  0
VERTEX
  5
8E6
  8
0_18__
  6
CONTINUOUS
 62
     1
 10
794.2832096147465
 20
-462.8455212092601
 30
0.0
  0
VERTEX
  5
8E7
  8
0_18__
  6
CONTINUOUS
 62
     1
 10
794.2846302184846
 20
-462.904498116327
 30
0.0
  0
VERTEX
  5
8E8
  8
0_18__
  6
CONTINUOUS
 62
     1
 10
794.2862281711473
 20
-462.9634726261593
 30
0.0
  0
VERTEX
  5
8E9
  8
0_18__
  6
CONTINUOUS
 62
     1
 10
794.2879648800916
 20
-463.0224438936391
 30
0.0
  0
VERTEX
  5
8EA
  8
0_18__
  6
CONTINUOUS
 62
     1
 10
794.2898017526752
 20
-463.0814110736488
 30
0.0
  0
VERTEX
  5
8EB
  8
0_18__
  6
CONTINUOUS
 62
     1
 10
794.291738788898
 20
-463.1403741661884
 30
0.0
  0
VERTEX
  5
8EC
  8
0_18__
  6
CONTINUOUS
 62
     1
 10
794.29377598876
 20
-463.199333171258
 30
0.0
  0
VERTEX
  5
8ED
  8
0_18__
  6
CONTINUOUS
 62
     1
 10
794.2959133522612
 20
-463.2582880888574
 30
0.0
  0
VERTEX
  5
8EE
  8
0_18__
  6
CONTINUOUS
 62
     1
 10
794.2981508794016
 20
-463.3172389189867
 30
0.0
  0
VERTEX
  5
8EF
  8
0_18__
  6
CONTINUOUS
 62
     1
 10
794.3004885701812
 20
-463.3761856616458
 30
0.0
  0
VERTEX
  5
8F0
  8
0_18__
  6
CONTINUOUS
 62
     1
 10
794.3029264246
 20
-463.4351283168348
 30
0.0
  0
VERTEX
  5
8F1
  8
0_18__
  6
CONTINUOUS
 62
     1
 10
794.3029264246
 20
-463.4351283168348
 30
0.0
  0
SEQEND
  5
8F2
  8
0_18__
  6
CONTINUOUS
 62
     1
  0
LINE
  5
8F3
  8
0_18__
  6
CONTINUOUS
 62
     1
 10
792.2805661586901
 20
-454.8469436260434
 30
0.0
 11
794.2805661586901
 21
-454.8469436260434
 31
0.0
  0
DIMENSION
  5
8F4
  8
__-1
 62
    17
  2
*D4
 10
727.3805661586905
 20
-654.8469416260434
 30
0.0
 11
725.2365499550613
 21
-539.8469426260434
 31
0.0
 70
    32
  3
TOOLBOX
 13
783.0576141586903
 23
-424.8469436260434
 33
0.0
 14
783.0576141586903
 24
-654.8469416260434
 34
0.0
 50
-90.0
  0
DIMENSION
  5
8F5
  8
__-1
 62
    17
  2
*D5
 10
757.3805661586905
 20
-654.8469416260434
 30
0.0
 11
755.2365499550613
 21
-554.8469426260434
 31
0.0
 70
    32
  3
TOOLBOX
 13
778.2805661586902
 23
-454.8469436260434
 33
0.0
 14
780.0576141698662
 24
-654.8469416260434
 34
0.0
 50
-90.0
  0
DIMENSION
  5
8F6
  8
__-1
 62
    17
  2
*D6
 10
757.3805661586905
 20
-454.8469436260434
 30
0.0
 11
755.2365499550613
 21
-439.8469436260434
 31
0.0
 70
    32
  3
TOOLBOX
 13
774.7010742343796
 23
-424.8469436260434
 33
0.0
 14
757.3805661586905
 24
-454.8469436260434
 34
0.0
 50
-90.0
  0
DIMENSION
  5
8F7
  8
__-1
 62
    17
  2
*D7
 10
791.2805661586901
 20
-364.4758342610435
 30
0.0
 11
820.8305661586901
 21
-362.3318180574142
 31
0.0
 70
    32
  3
TOOLBOX
 13
850.38056615869
 23
-424.8469436260434
 33
0.0
 14
791.2805661586901
 24
-422.0518637140202
 34
0.0
  0
DIMENSION
  5
8F8
  8
__-1
 62
    17
  2
*D8
 10
843.88056615869
 20
-394.8469436260434
 30
0.0
 11
850.38056615869
 21
-392.7029274224142
 31
0.0
 70
    32
  3
TOOLBOX
 13
856.88056615869
 23
-417.0
 33
0.0
 14
843.88056615869
 24
-417.0
 34
0.0
  0
DIMENSION
  5
8F9
  8
__-1
 62
    17
  2
*D9
 10
820.3805581586901
 20
-698.0
 30
0.0
 11
850.38056215869
 21
-695.8559837963708
 31
0.0
 70
    32
  3
TOOLBOX
 13
880.38056615869
 23
-648.0
 33
0.0
 14
820.3805581586901
 24
-648.0
 34
0.0
  0
TEXT
  5
8FA
  8
0_18__
 62
     1
 10
904.3805465541787
 20
-706.6936464036372
 30
0.0
 40
4.248032407407408
  1
R1/2
  7
YUGOTHIC_MEDIUM
 11
904.3805465541787
 21
-704.5696301999335
 31
0.0
 73
     2
  0
LINE
  5
8FB
  8
0_13___
 62
     5
 10
860.4285561586901
 20
-647.1824976260434
 30
0.0
 11
895.7982448708923
 21
-708.4445955234718
 31
0.0
  0
LINE
  5
8FC
  8
0_13___
 62
     5
 10
895.7982448708923
 20
-708.4445955234718
 30
0.0
 11
917.4700132531432
 21
-708.4445955234718
 31
0.0
  0
TEXT
  5
8FD
  8
0_18__
 62
     1
 10
904.8747697683928
 20
-490.2490508801654
 30
0.0
 40
4.248032407407408
  1
G1/2
  7
YUGOTHIC_MEDIUM
 11
904.8747697683928
 21
-488.1250346764617
 31
0.0
 73
     2
  0
LINE
  5
8FE
  8
0_13___
 62
     5
 10
860.9227793729042
 20
-430.7379021025716
 30
0.0
 11
896.2924680851063
 21
-492.0
 31
0.0
  0
LINE
  5
8FF
  8
0_13___
 62
     5
 10
896.2924680851063
 20
-492.0
 30
0.0
 11
917.9642364673573
 21
-492.0
 31
0.0
  0
DIMENSION
  5
900
  8
__-1
 62
    17
  2
*D10
 10
835.78056615869
 20
-529.7466666667411
 30
0.0
 11
885.1562211725447
 21
-529.7466666667411
 31
0.0
 70
   160
  3
TOOLBOX
 13
864.9805661586901
 23
-493.8513976260434
 33
0.0
 14
835.78056615869
 24
-493.8513976260434
 34
0.0
  0
TEXT
  5
901
  8
0_18__
 62
     1
 10
643.0
 20
-812.1496640826873
 30
0.0
 40
4.248032407407408
  1
＊（　）内寸法は参考寸法。
  7
YUGOTHIC_MEDIUM
  0
VIEWPORT
  5
902
 67
     1
  8
0
 10
128.5
 20
97.5
 30
0.0
 40
314.226
 41
222.18
 68
     1
 69
     1
1001
ACAD
1000
MVIEW
1002
{
1070
    16
1010
0.0
1020
0.0
1030
0.0
1010
0.0
1020
0.0
1030
1.0
1040
0.0
1040
222.18
1040
128.5
1040
97.5
1040
50.0
1040
0.0
1040
0.0
1070
     0
1070
   100
1070
     0
1070
     3
1070
     0
1070
     0
1070
     0
1070
     0
1040
0.0
1040
0.0
1040
0.0
1040
10.0
1040
10.0
1040
10.0
1040
10.0
1070
     0
1002
{
1002
}
1002
}
  0
ENDSEC
  0
EOF
