  0
SECTION
  2
HEADER
  9
$ACADVER
  1
AC1009
  9
$DWGCODEPAGE
  3
dos932
  9
$INSBASE
 10
0.0
 20
0.0
 30
0.0
  9
$EXTMIN
 10
-979.0494277441692
 20
-45.346540875306
 30
0.0
  9
$EXTMAX
 10
2190.000011444091
 20
7252.604459634489
 30
0.0
  9
$LIMMIN
 10
0.0
 20
0.0
  9
$LIMMAX
 10
12.0
 20
9.0
  9
$ORTHOMODE
 70
     0
  9
$REGENMODE
 70
     1
  9
$FILLMODE
 70
     1
  9
$QTEXTMODE
 70
     0
  9
$MIRRTEXT
 70
     1
  9
$DRAGMODE
 70
     2
  9
$LTSCALE
 40
12.7
  9
$OSMODE
 70
    37
  9
$ATTMODE
 70
     1
  9
$TEXTSIZE
 40
0.2
  9
$TRACEWID
 40
1.0
  9
$TEXTSTYLE
  7
STANDARD
  9
$CLAYER
  8
020
  9
$CELTYPE
  6
BYLAYER
  9
$CECOLOR
 62
   256
  9
$DIMSCALE
 40
1.0
  9
$DIMASZ
 40
0.5007446289062499
  9
$DIMEXO
 40
3.0
  9
$DIMDLI
 40
10.16
  9
$DIMRND
 40
0.0
  9
$DIMDLE
 40
0.0
  9
$DIMEXE
 40
0.0
  9
$DIMTP
 40
0.0
  9
$DIMTM
 40
0.0
  9
$DIMTXT
 40
31.86024305555555
  9
$DIMCEN
 40
0.0
  9
$DIMTSZ
 40
0.0
  9
$DIMTOL
 70
     0
  9
$DIMLIM
 70
     0
  9
$DIMTIH
 70
     0
  9
$DIMTOH
 70
     0
  9
$DIMSE1
 70
     0
  9
$DIMSE2
 70
     0
  9
$DIMTAD
 70
     1
  9
$DIMZIN
 70
     8
  9
$DIMBLK
  1
DOT
  9
$DIMASO
 70
     1
  9
$DIMSHO
 70
     1
  9
$DIMPOST
  1
<>
  9
$DIMAPOST
  1
[]
  9
$DIMALT
 70
     0
  9
$DIMALTD
 70
     3
  9
$DIMALTF
 40
0.0393700787401575
  9
$DIMLFAC
 40
1.0
  9
$DIMTOFL
 70
     1
  9
$DIMTVP
 40
0.0
  9
$DIMTIX
 70
     1
  9
$DIMSOXD
 70
     0
  9
$DIMSAH
 70
     0
  9
$DIMBLK1
  1
DOT
  9
$DIMBLK2
  1
DOT
  9
$DIMSTYLE
  2
SPEAC
  9
$DIMCLRD
 70
     0
  9
$DIMCLRE
 70
     0
  9
$DIMCLRT
 70
     0
  9
$DIMTFAC
 40
1.0
  9
$DIMGAP
 40
0.1999999992549419
  9
$LUNITS
 70
     2
  9
$LUPREC
 70
     1
  9
$SKETCHINC
 40
0.1
  9
$FILLETRAD
 40
0.5
  9
$AUNITS
 70
     0
  9
$AUPREC
 70
     2
  9
$MENU
  1
.
  9
$ELEVATION
 40
0.0
  9
$PELEVATION
 40
0.0
  9
$THICKNESS
 40
0.0
  9
$LIMCHECK
 70
     0
  9
$CHAMFERA
 40
0.0
  9
$CHAMFERB
 40
0.0
  9
$SKPOLY
 70
     0
  9
$TDCREATE
 40
2459829.598226887
  9
$TDUPDATE
 40
2459829.598239016
  9
$TDINDWG
 40
0.0000000116
  9
$TDUSRTIMER
 40
0.0000000116
  9
$USRTIMER
 70
     1
  9
$ANGBASE
 50
0.0
  9
$ANGDIR
 70
     0
  9
$PDMODE
 70
     1
  9
$PDSIZE
 40
-2.0
  9
$PLINEWID
 40
0.0
  9
$COORDS
 70
     1
  9
$SPLFRAME
 70
     0
  9
$SPLINETYPE
 70
     6
  9
$SPLINESEGS
 70
     8
  9
$ATTDIA
 70
     0
  9
$ATTREQ
 70
     1
  9
$HANDLING
 70
     1
  9
$HANDSEED
  5
5F2
  9
$SURFTAB1
 70
     6
  9
$SURFTAB2
 70
     6
  9
$SURFTYPE
 70
     6
  9
$SURFU
 70
     6
  9
$SURFV
 70
     6
  9
$UCSNAME
  2

  9
$UCSORG
 10
0.0
 20
0.0
 30
0.0
  9
$UCSXDIR
 10
1.0
 20
0.0
 30
0.0
  9
$UCSYDIR
 10
0.0
 20
1.0
 30
0.0
  9
$PUCSNAME
  2

  9
$PUCSORG
 10
0.0
 20
0.0
 30
0.0
  9
$PUCSXDIR
 10
1.0
 20
0.0
 30
0.0
  9
$PUCSYDIR
 10
0.0
 20
1.0
 30
0.0
  9
$USERI1
 70
     0
  9
$USERI2
 70
     0
  9
$USERI3
 70
     0
  9
$USERI4
 70
     0
  9
$USERI5
 70
     0
  9
$USERR1
 40
0.0
  9
$USERR2
 40
0.0
  9
$USERR3
 40
0.0
  9
$USERR4
 40
0.0
  9
$USERR5
 40
0.0
  9
$WORLDVIEW
 70
     1
  9
$SHADEDGE
 70
     3
  9
$SHADEDIF
 70
    70
  9
$TILEMODE
 70
     1
  9
$MAXACTVP
 70
    64
  9
$PLIMCHECK
 70
     0
  9
$PEXTMIN
 10
1.000000000000000E+20
 20
1.000000000000000E+20
 30
1.000000000000000E+20
  9
$PEXTMAX
 10
-1.000000000000000E+20
 20
-1.000000000000000E+20
 30
-1.000000000000000E+20
  9
$PLIMMIN
 10
-20.0
 20
-7.5
  9
$PLIMMAX
 10
277.0
 20
202.5
  9
$UNITMODE
 70
     0
  9
$VISRETAIN
 70
     1
  9
$PLINEGEN
 70
     0
  9
$PSLTSCALE
 70
     1
  0
ENDSEC
  0
SECTION
  2
TABLES
  0
TABLE
  2
VPORT
 70
     1
  0
VPORT
  2
*ACTIVE
 70
     0
 10
0.0
 20
0.0
 11
1.0
 21
1.0
 12
605.475291849961
 22
3603.628959379592
 13
0.0
 23
0.0
 14
0.5
 24
0.5
 15
0.5
 25
0.5
 16
0.0
 26
0.0
 36
1.0
 17
0.0
 27
0.0
 37
0.0
 40
7297.951000509795
 41
0.4342382456345469
 42
2000.0
 43
0.0
 44
0.0
 50
0.0
 51
0.0
 71
     0
 72
   100
 73
     1
 74
     3
 75
     0
 76
     0
 77
     0
 78
     0
  0
ENDTAB
  0
TABLE
  2
LTYPE
 70
   198
  0
LTYPE
  2
CONTINUOUS
 70
     0
  3
Solid line
 72
    65
 73
     0
 40
0.0
  0
LTYPE
  2
ISO-04______
 70
     0
  3

 72
    65
 73
     4
 40
0.48
 49
0.48
 49
-0.0600000000000001
 49
0.01
 49
-0.0600000000000001
  0
LTYPE
  2
ISO-02___
 70
     0
  3

 72
    65
 73
     2
 40
0.24
 49
0.24
 49
-0.06
  0
LTYPE
  2
AI-LINETYPE-180
 70
     0
  3

 72
    65
 73
     2
 40
2.462962962847222
 49
0.462962962847222
 49
-2.222222309969844
  0
LTYPE
  2
AI-LINETYPE-179
 70
     0
  3

 72
    65
 73
     2
 40
2.462962962847222
 49
0.462962962847222
 49
-2.222222309969844
  0
LTYPE
  2
AI-LINETYPE-178
 70
     0
  3

 72
    65
 73
     2
 40
2.462962962847222
 49
0.462962962847222
 49
-2.222222309969844
  0
LTYPE
  2
AI-LINETYPE-177
 70
     0
  3

 72
    65
 73
     2
 40
2.462962962847222
 49
0.462962962847222
 49
-2.222222309969844
  0
LTYPE
  2
AI-LINETYPE-176
 70
     0
  3

 72
    65
 73
     2
 40
2.462962962847222
 49
0.462962962847222
 49
-2.222222309969844
  0
LTYPE
  2
AI-LINETYPE-175
 70
     0
  3

 72
    65
 73
     2
 40
2.462962962847222
 49
0.462962962847222
 49
-2.222222309969844
  0
LTYPE
  2
AI-LINETYPE-174
 70
     0
  3

 72
    65
 73
     2
 40
2.462962962847222
 49
0.462962962847222
 49
-2.222222309969844
  0
LTYPE
  2
AI-LINETYPE-173
 70
     0
  3

 72
    65
 73
     2
 40
2.462962962847222
 49
0.462962962847222
 49
-2.222222309969844
  0
LTYPE
  2
AI-LINETYPE-172
 70
     0
  3

 72
    65
 73
     2
 40
0.462962962847222
 49
0.462962962847222
 49
-1.851851851388889
  0
LTYPE
  2
AI-LINETYPE-171
 70
     0
  3

 72
    65
 73
     2
 40
2.462962962847222
 49
0.462962962847222
 49
-2.222222309969844
  0
LTYPE
  2
AI-LINETYPE-170
 70
     0
  3

 72
    65
 73
     2
 40
2.462962962847222
 49
0.462962962847222
 49
-2.222222309969844
  0
LTYPE
  2
AI-LINETYPE-169
 70
     0
  3

 72
    65
 73
     2
 40
2.462962962847222
 49
0.462962962847222
 49
-2.222222309969844
  0
LTYPE
  2
AI-LINETYPE-168
 70
     0
  3

 72
    65
 73
     2
 40
2.462962962847222
 49
0.462962962847222
 49
-2.222222309969844
  0
LTYPE
  2
AI-LINETYPE-167
 70
     0
  3

 72
    65
 73
     2
 40
2.462962962847222
 49
0.462962962847222
 49
-2.222222309969844
  0
LTYPE
  2
AI-LINETYPE-166
 70
     0
  3

 72
    65
 73
     2
 40
2.462962962847222
 49
0.462962962847222
 49
-2.222222309969844
  0
LTYPE
  2
AI-LINETYPE-165
 70
     0
  3

 72
    65
 73
     2
 40
2.462962962847222
 49
0.462962962847222
 49
-2.222222309969844
  0
LTYPE
  2
AI-LINETYPE-164
 70
     0
  3

 72
    65
 73
     2
 40
2.462962962847222
 49
0.462962962847222
 49
-2.222222309969844
  0
LTYPE
  2
AI-LINETYPE-163
 70
     0
  3

 72
    65
 73
     2
 40
2.462962962847222
 49
0.462962962847222
 49
-2.222222309969844
  0
LTYPE
  2
AI-LINETYPE-162
 70
     0
  3

 72
    65
 73
     2
 40
2.462962962847222
 49
0.462962962847222
 49
-2.222222309969844
  0
LTYPE
  2
AI-LINETYPE-161
 70
     0
  3

 72
    65
 73
     2
 40
2.462962962847222
 49
0.462962962847222
 49
-2.222222309969844
  0
LTYPE
  2
AI-LINETYPE-160
 70
     0
  3

 72
    65
 73
     2
 40
2.462962962847222
 49
0.462962962847222
 49
-2.222222309969844
  0
LTYPE
  2
AI-LINETYPE-159
 70
     0
  3

 72
    65
 73
     2
 40
2.462962962847222
 49
0.462962962847222
 49
-2.222222309969844
  0
LTYPE
  2
AI-LINETYPE-158
 70
     0
  3

 72
    65
 73
     2
 40
0.462962962847222
 49
0.462962962847222
 49
-1.851851851388889
  0
LTYPE
  2
AI-LINETYPE-157
 70
     0
  3

 72
    65
 73
     2
 40
2.462962962847222
 49
0.462962962847222
 49
-2.222222309969844
  0
LTYPE
  2
AI-LINETYPE-156
 70
     0
  3

 72
    65
 73
     2
 40
2.462962962847222
 49
0.462962962847222
 49
-2.222222309969844
  0
LTYPE
  2
AI-LINETYPE-155
 70
     0
  3

 72
    65
 73
     2
 40
2.462962962847222
 49
0.462962962847222
 49
-2.222222309969844
  0
LTYPE
  2
AI-LINETYPE-154
 70
     0
  3

 72
    65
 73
     2
 40
2.462962962847222
 49
0.462962962847222
 49
-2.222222309969844
  0
LTYPE
  2
AI-LINETYPE-153
 70
     0
  3

 72
    65
 73
     2
 40
2.462962962847222
 49
0.462962962847222
 49
-2.222222309969844
  0
LTYPE
  2
ISO-08_____
 70
     0
  3

 72
    65
 73
     4
 40
0.48
 49
0.48
 49
-0.0600000000000001
 49
0.12
 49
-0.0599999999999999
  0
LTYPE
  2
ISO-10______
 70
     0
  3

 72
    65
 73
     4
 40
0.24
 49
0.24
 49
-0.06
 49
0.01
 49
-0.06
  0
LTYPE
  2
VW-01____
 70
     0
  3

 72
    65
 73
     2
 40
0.083312
 49
0.083312
 49
-0.083312
  0
LTYPE
  2
AI-LINETYPE-152
 70
     0
  3

 72
    65
 73
     2
 40
1.333333385981906
 49
1.333333385981906
 49
-1.333333385981906
  0
LTYPE
  2
AI-LINETYPE-151
 70
     0
  3

 72
    65
 73
     2
 40
1.333333385981906
 49
1.333333385981906
 49
-1.333333385981906
  0
LTYPE
  2
AI-LINETYPE-150
 70
     0
  3

 72
    65
 73
     2
 40
1.333333385981906
 49
1.333333385981906
 49
-1.333333385981906
  0
LTYPE
  2
AI-LINETYPE-149
 70
     0
  3

 72
    65
 73
     2
 40
1.333333385981906
 49
1.333333385981906
 49
-1.333333385981906
  0
LTYPE
  2
AI-LINETYPE-148
 70
     0
  3

 72
    65
 73
     2
 40
1.333333385981906
 49
1.333333385981906
 49
-1.333333385981906
  0
LTYPE
  2
AI-LINETYPE-147
 70
     0
  3

 72
    65
 73
     2
 40
1.333333385981906
 49
1.333333385981906
 49
-1.333333385981906
  0
LTYPE
  2
AI-LINETYPE-146
 70
     0
  3

 72
    65
 73
     2
 40
1.333333385981906
 49
1.333333385981906
 49
-1.333333385981906
  0
LTYPE
  2
AI-LINETYPE-145
 70
     0
  3

 72
    65
 73
     2
 40
1.333333385981906
 49
1.333333385981906
 49
-1.333333385981906
  0
LTYPE
  2
AI-LINETYPE-144
 70
     0
  3

 72
    65
 73
     2
 40
5.333333332500001
 49
3.3333333325
 49
-3.3333333325
  0
LTYPE
  2
AI-LINETYPE-143
 70
     0
  3

 72
    65
 73
     2
 40
5.333333332500001
 49
3.3333333325
 49
-3.3333333325
  0
LTYPE
  2
AI-LINETYPE-142
 70
     0
  3

 72
    65
 73
     2
 40
5.333333332500001
 49
3.3333333325
 49
-3.3333333325
  0
LTYPE
  2
AI-LINETYPE-141
 70
     0
  3

 72
    65
 73
     2
 40
5.333333332500001
 49
3.3333333325
 49
-3.3333333325
  0
LTYPE
  2
AI-LINETYPE-140
 70
     0
  3

 72
    65
 73
     2
 40
5.333333332500001
 49
3.3333333325
 49
-3.3333333325
  0
LTYPE
  2
AI-LINETYPE-139
 70
     0
  3

 72
    65
 73
     2
 40
5.333333332500001
 49
3.3333333325
 49
-3.3333333325
  0
LTYPE
  2
AI-LINETYPE-138
 70
     0
  3

 72
    65
 73
     2
 40
5.333333332500001
 49
3.3333333325
 49
-3.3333333325
  0
LTYPE
  2
AI-LINETYPE-137
 70
     0
  3

 72
    65
 73
     2
 40
5.333333332500001
 49
3.3333333325
 49
-3.3333333325
  0
LTYPE
  2
AI-LINETYPE-136
 70
     0
  3

 72
    65
 73
     2
 40
5.333333332500001
 49
3.3333333325
 49
-3.3333333325
  0
LTYPE
  2
AI-LINETYPE-135
 70
     0
  3

 72
    65
 73
     2
 40
5.333333332500001
 49
3.3333333325
 49
-3.3333333325
  0
LTYPE
  2
AI-LINETYPE-134
 70
     0
  3

 72
    65
 73
     2
 40
5.333333332500001
 49
3.3333333325
 49
-3.3333333325
  0
LTYPE
  2
AI-LINETYPE-133
 70
     0
  3

 72
    65
 73
     2
 40
5.333333332500001
 49
3.3333333325
 49
-3.3333333325
  0
LTYPE
  2
AI-LINETYPE-132
 70
     0
  3

 72
    65
 73
     2
 40
5.333333332500001
 49
3.3333333325
 49
-3.3333333325
  0
LTYPE
  2
AI-LINETYPE-131
 70
     0
  3

 72
    65
 73
     2
 40
5.333333332500001
 49
3.3333333325
 49
-3.3333333325
  0
LTYPE
  2
AI-LINETYPE-130
 70
     0
  3

 72
    65
 73
     2
 40
5.333333332500001
 49
3.3333333325
 49
-3.3333333325
  0
LTYPE
  2
AI-LINETYPE-129
 70
     0
  3

 72
    65
 73
     2
 40
5.333333332500001
 49
3.3333333325
 49
-3.3333333325
  0
LTYPE
  2
AI-LINETYPE-128
 70
     0
  3

 72
    65
 73
     2
 40
5.333333332500001
 49
3.3333333325
 49
-3.3333333325
  0
LTYPE
  2
AI-LINETYPE-127
 70
     0
  3

 72
    65
 73
     2
 40
5.333333332500001
 49
3.3333333325
 49
-3.3333333325
  0
LTYPE
  2
AI-LINETYPE-126
 70
     0
  3

 72
    65
 73
     2
 40
5.333333332500001
 49
3.3333333325
 49
-3.3333333325
  0
LTYPE
  2
AI-LINETYPE-125
 70
     0
  3

 72
    65
 73
     2
 40
5.333333332500001
 49
3.3333333325
 49
-3.3333333325
  0
LTYPE
  2
AI-LINETYPE-124
 70
     0
  3

 72
    65
 73
     2
 40
5.333333332500001
 49
3.3333333325
 49
-3.3333333325
  0
LTYPE
  2
AI-LINETYPE-123
 70
     0
  3

 72
    65
 73
     2
 40
5.333333332500001
 49
3.3333333325
 49
-3.3333333325
  0
LTYPE
  2
AI-LINETYPE-122
 70
     0
  3

 72
    65
 73
     2
 40
5.333333332500001
 49
3.3333333325
 49
-3.3333333325
  0
LTYPE
  2
AI-LINETYPE-121
 70
     0
  3

 72
    65
 73
     2
 40
5.333333332500001
 49
3.3333333325
 49
-3.3333333325
  0
LTYPE
  2
AI-LINETYPE-120
 70
     0
  3

 72
    65
 73
     2
 40
5.333333332500001
 49
3.3333333325
 49
-3.3333333325
  0
LTYPE
  2
AI-LINETYPE-119
 70
     0
  3

 72
    65
 73
     2
 40
5.333333332500001
 49
3.3333333325
 49
-3.3333333325
  0
LTYPE
  2
AI-LINETYPE-118
 70
     0
  3

 72
    65
 73
     2
 40
5.333333332500001
 49
3.3333333325
 49
-3.3333333325
  0
LTYPE
  2
AI-LINETYPE-117
 70
     0
  3

 72
    65
 73
     2
 40
5.333333332500001
 49
3.3333333325
 49
-3.3333333325
  0
LTYPE
  2
AI-LINETYPE-116
 70
     0
  3

 72
    65
 73
     2
 40
5.333333332500001
 49
3.3333333325
 49
-3.3333333325
  0
LTYPE
  2
AI-LINETYPE-115
 70
     0
  3

 72
    65
 73
     2
 40
5.333333332500001
 49
3.3333333325
 49
-3.3333333325
  0
LTYPE
  2
AI-LINETYPE-114
 70
     0
  3

 72
    65
 73
     2
 40
5.333333332500001
 49
3.3333333325
 49
-3.3333333325
  0
LTYPE
  2
AI-LINETYPE-113
 70
     0
  3

 72
    65
 73
     2
 40
5.333333332500001
 49
3.3333333325
 49
-3.3333333325
  0
LTYPE
  2
AI-LINETYPE-112
 70
     0
  3

 72
    65
 73
     2
 40
5.333333332500001
 49
3.3333333325
 49
-3.3333333325
  0
LTYPE
  2
AI-LINETYPE-111
 70
     0
  3

 72
    65
 73
     2
 40
5.333333332500001
 49
3.3333333325
 49
-3.3333333325
  0
LTYPE
  2
AI-LINETYPE-110
 70
     0
  3

 72
    65
 73
     2
 40
5.333333332500001
 49
3.3333333325
 49
-3.3333333325
  0
LTYPE
  2
AI-LINETYPE-109
 70
     0
  3

 72
    65
 73
     2
 40
5.333333332500001
 49
3.3333333325
 49
-3.3333333325
  0
LTYPE
  2
AI-LINETYPE-108
 70
     0
  3

 72
    65
 73
     2
 40
5.333333332500001
 49
3.3333333325
 49
-3.3333333325
  0
LTYPE
  2
AI-LINETYPE-107
 70
     0
  3

 72
    65
 73
     2
 40
5.333333332500001
 49
3.3333333325
 49
-3.3333333325
  0
LTYPE
  2
AI-LINETYPE-106
 70
     0
  3

 72
    65
 73
     2
 40
5.333333332500001
 49
3.3333333325
 49
-3.3333333325
  0
LTYPE
  2
AI-LINETYPE-105
 70
     0
  3

 72
    65
 73
     2
 40
5.333333332500001
 49
3.3333333325
 49
-3.3333333325
  0
LTYPE
  2
AI-LINETYPE-104
 70
     0
  3

 72
    65
 73
     2
 40
5.333333332500001
 49
3.3333333325
 49
-3.3333333325
  0
LTYPE
  2
AI-LINETYPE-103
 70
     0
  3

 72
    65
 73
     2
 40
5.333333332500001
 49
3.3333333325
 49
-3.3333333325
  0
LTYPE
  2
AI-LINETYPE-102
 70
     0
  3

 72
    65
 73
     2
 40
5.333333332500001
 49
3.3333333325
 49
-3.3333333325
  0
LTYPE
  2
AI-LINETYPE-101
 70
     0
  3

 72
    65
 73
     2
 40
5.333333332500001
 49
3.3333333325
 49
-3.3333333325
  0
LTYPE
  2
AI-LINETYPE-100
 70
     0
  3

 72
    65
 73
     2
 40
5.333333332500001
 49
3.3333333325
 49
-3.3333333325
  0
LTYPE
  2
AI-LINETYPE-99
 70
     0
  3

 72
    65
 73
     2
 40
5.333333332500001
 49
3.3333333325
 49
-3.3333333325
  0
LTYPE
  2
AI-LINETYPE-98
 70
     0
  3

 72
    65
 73
     2
 40
5.333333332500001
 49
3.3333333325
 49
-3.3333333325
  0
LTYPE
  2
AI-LINETYPE-97
 70
     0
  3

 72
    65
 73
     2
 40
5.333333332500001
 49
3.3333333325
 49
-3.3333333325
  0
LTYPE
  2
AI-LINETYPE-96
 70
     0
  3

 72
    65
 73
     2
 40
5.333333332500001
 49
3.3333333325
 49
-3.3333333325
  0
LTYPE
  2
AI-LINETYPE-95
 70
     0
  3

 72
    65
 73
     2
 40
5.333333332500001
 49
3.3333333325
 49
-3.3333333325
  0
LTYPE
  2
AI-LINETYPE-94
 70
     0
  3

 72
    65
 73
     2
 40
5.333333332500001
 49
3.3333333325
 49
-3.3333333325
  0
LTYPE
  2
AI-LINETYPE-93
 70
     0
  3

 72
    65
 73
     2
 40
5.333333332500001
 49
3.3333333325
 49
-3.3333333325
  0
LTYPE
  2
AI-LINETYPE-92
 70
     0
  3

 72
    65
 73
     2
 40
5.333333332500001
 49
3.3333333325
 49
-3.3333333325
  0
LTYPE
  2
AI-LINETYPE-91
 70
     0
  3

 72
    65
 73
     2
 40
5.333333332500001
 49
3.3333333325
 49
-3.3333333325
  0
LTYPE
  2
AI-LINETYPE-90
 70
     0
  3

 72
    65
 73
     2
 40
5.333333332500001
 49
3.3333333325
 49
-3.3333333325
  0
LTYPE
  2
AI-LINETYPE-89
 70
     0
  3

 72
    65
 73
     2
 40
5.333333332500001
 49
3.3333333325
 49
-3.3333333325
  0
LTYPE
  2
AI-LINETYPE-88
 70
     0
  3

 72
    65
 73
     2
 40
5.333333332500001
 49
3.3333333325
 49
-3.3333333325
  0
LTYPE
  2
AI-LINETYPE-87
 70
     0
  3

 72
    65
 73
     2
 40
5.333333332500001
 49
3.3333333325
 49
-3.3333333325
  0
LTYPE
  2
AI-LINETYPE-86
 70
     0
  3

 72
    65
 73
     2
 40
5.333333332500001
 49
3.3333333325
 49
-3.3333333325
  0
LTYPE
  2
AI-LINETYPE-85
 70
     0
  3

 72
    65
 73
     2
 40
5.333333332500001
 49
3.3333333325
 49
-3.3333333325
  0
LTYPE
  2
AI-LINETYPE-84
 70
     0
  3

 72
    65
 73
     2
 40
5.333333332500001
 49
3.3333333325
 49
-3.3333333325
  0
LTYPE
  2
AI-LINETYPE-83
 70
     0
  3

 72
    65
 73
     2
 40
5.333333332500001
 49
3.3333333325
 49
-3.3333333325
  0
LTYPE
  2
AI-LINETYPE-82
 70
     0
  3

 72
    65
 73
     2
 40
5.333333332500001
 49
3.3333333325
 49
-3.3333333325
  0
LTYPE
  2
AI-LINETYPE-81
 70
     0
  3

 72
    65
 73
     2
 40
5.333333332500001
 49
3.3333333325
 49
-3.3333333325
  0
LTYPE
  2
AI-LINETYPE-80
 70
     0
  3

 72
    65
 73
     2
 40
5.333333332500001
 49
3.3333333325
 49
-3.3333333325
  0
LTYPE
  2
AI-LINETYPE-79
 70
     0
  3

 72
    65
 73
     2
 40
5.333333332500001
 49
3.3333333325
 49
-3.3333333325
  0
LTYPE
  2
AI-LINETYPE-78
 70
     0
  3

 72
    65
 73
     2
 40
5.333333332500001
 49
3.3333333325
 49
-3.3333333325
  0
LTYPE
  2
AI-LINETYPE-77
 70
     0
  3

 72
    65
 73
     2
 40
5.333333332500001
 49
3.3333333325
 49
-3.3333333325
  0
LTYPE
  2
AI-LINETYPE-76
 70
     0
  3

 72
    65
 73
     2
 40
5.333333332500001
 49
3.3333333325
 49
-3.3333333325
  0
LTYPE
  2
AI-LINETYPE-75
 70
     0
  3

 72
    65
 73
     2
 40
5.333333332500001
 49
3.3333333325
 49
-3.3333333325
  0
LTYPE
  2
AI-LINETYPE-74
 70
     0
  3

 72
    65
 73
     2
 40
5.333333332500001
 49
3.3333333325
 49
-3.3333333325
  0
LTYPE
  2
AI-LINETYPE-73
 70
     0
  3

 72
    65
 73
     2
 40
5.333333332500001
 49
3.3333333325
 49
-3.3333333325
  0
LTYPE
  2
AI-LINETYPE-72
 70
     0
  3

 72
    65
 73
     2
 40
5.333333332500001
 49
3.3333333325
 49
-3.3333333325
  0
LTYPE
  2
AI-LINETYPE-71
 70
     0
  3

 72
    65
 73
     2
 40
5.333333332500001
 49
3.3333333325
 49
-3.3333333325
  0
LTYPE
  2
AI-LINETYPE-70
 70
     0
  3

 72
    65
 73
     2
 40
5.333333332500001
 49
3.3333333325
 49
-3.3333333325
  0
LTYPE
  2
AI-LINETYPE-69
 70
     0
  3

 72
    65
 73
     2
 40
5.333333332500001
 49
3.3333333325
 49
-3.3333333325
  0
LTYPE
  2
AI-LINETYPE-68
 70
     0
  3

 72
    65
 73
     2
 40
5.333333332500001
 49
3.3333333325
 49
-3.3333333325
  0
LTYPE
  2
AI-LINETYPE-67
 70
     0
  3

 72
    65
 73
     2
 40
5.333333332500001
 49
3.3333333325
 49
-3.3333333325
  0
LTYPE
  2
AI-LINETYPE-66
 70
     0
  3

 72
    65
 73
     2
 40
5.333333332500001
 49
3.3333333325
 49
-3.3333333325
  0
LTYPE
  2
AI-LINETYPE-65
 70
     0
  3

 72
    65
 73
     2
 40
5.333333332500001
 49
3.3333333325
 49
-3.3333333325
  0
LTYPE
  2
AI-LINETYPE-64
 70
     0
  3

 72
    65
 73
     2
 40
5.333333332500001
 49
3.3333333325
 49
-3.3333333325
  0
LTYPE
  2
AI-LINETYPE-63
 70
     0
  3

 72
    65
 73
     2
 40
5.333333332500001
 49
3.3333333325
 49
-3.3333333325
  0
LTYPE
  2
AI-LINETYPE-62
 70
     0
  3

 72
    65
 73
     2
 40
5.333333332500001
 49
3.3333333325
 49
-3.3333333325
  0
LTYPE
  2
AI-LINETYPE-61
 70
     0
  3

 72
    65
 73
     2
 40
5.333333332500001
 49
3.3333333325
 49
-3.3333333325
  0
LTYPE
  2
AI-LINETYPE-60
 70
     0
  3

 72
    65
 73
     2
 40
5.333333332500001
 49
3.3333333325
 49
-3.3333333325
  0
LTYPE
  2
AI-LINETYPE-59
 70
     0
  3

 72
    65
 73
     2
 40
5.333333332500001
 49
3.3333333325
 49
-3.3333333325
  0
LTYPE
  2
AI-LINETYPE-58
 70
     0
  3

 72
    65
 73
     2
 40
5.333333332500001
 49
3.3333333325
 49
-3.3333333325
  0
LTYPE
  2
AI-LINETYPE-57
 70
     0
  3

 72
    65
 73
     2
 40
5.333333332500001
 49
3.3333333325
 49
-3.3333333325
  0
LTYPE
  2
AI-LINETYPE-56
 70
     0
  3

 72
    65
 73
     2
 40
5.333333332500001
 49
3.3333333325
 49
-3.3333333325
  0
LTYPE
  2
AI-LINETYPE-55
 70
     0
  3

 72
    65
 73
     2
 40
5.333333332500001
 49
3.3333333325
 49
-3.3333333325
  0
LTYPE
  2
AI-LINETYPE-54
 70
     0
  3

 72
    65
 73
     2
 40
5.333333332500001
 49
3.3333333325
 49
-3.3333333325
  0
LTYPE
  2
AI-LINETYPE-53
 70
     0
  3

 72
    65
 73
     2
 40
5.333333332500001
 49
3.3333333325
 49
-3.3333333325
  0
LTYPE
  2
AI-LINETYPE-52
 70
     0
  3

 72
    65
 73
     2
 40
5.333333332500001
 49
3.3333333325
 49
-3.3333333325
  0
LTYPE
  2
AI-LINETYPE-51
 70
     0
  3

 72
    65
 73
     2
 40
5.333333332500001
 49
3.3333333325
 49
-3.3333333325
  0
LTYPE
  2
AI-LINETYPE-50
 70
     0
  3

 72
    65
 73
     2
 40
5.333333332500001
 49
3.3333333325
 49
-3.3333333325
  0
LTYPE
  2
AI-LINETYPE-49
 70
     0
  3

 72
    65
 73
     2
 40
5.333333332500001
 49
3.3333333325
 49
-3.3333333325
  0
LTYPE
  2
AI-LINETYPE-48
 70
     0
  3

 72
    65
 73
     2
 40
5.333333332500001
 49
3.3333333325
 49
-3.3333333325
  0
LTYPE
  2
AI-LINETYPE-47
 70
     0
  3

 72
    65
 73
     2
 40
5.333333332500001
 49
3.3333333325
 49
-3.3333333325
  0
LTYPE
  2
AI-LINETYPE-46
 70
     0
  3

 72
    65
 73
     2
 40
5.333333332500001
 49
3.3333333325
 49
-3.3333333325
  0
LTYPE
  2
AI-LINETYPE-45
 70
     0
  3

 72
    65
 73
     2
 40
5.333333332500001
 49
3.3333333325
 49
-3.3333333325
  0
LTYPE
  2
AI-LINETYPE-44
 70
     0
  3

 72
    65
 73
     2
 40
5.333333332500001
 49
3.3333333325
 49
-3.3333333325
  0
LTYPE
  2
AI-LINETYPE-43
 70
     0
  3

 72
    65
 73
     2
 40
5.333333332500001
 49
3.3333333325
 49
-3.3333333325
  0
LTYPE
  2
AI-LINETYPE-42
 70
     0
  3

 72
    65
 73
     2
 40
5.333333332500001
 49
3.3333333325
 49
-3.3333333325
  0
LTYPE
  2
AI-LINETYPE-41
 70
     0
  3

 72
    65
 73
     2
 40
5.333333332500001
 49
3.3333333325
 49
-3.3333333325
  0
LTYPE
  2
AI-LINETYPE-40
 70
     0
  3

 72
    65
 73
     2
 40
5.333333332500001
 49
3.3333333325
 49
-3.3333333325
  0
LTYPE
  2
AI-LINETYPE-39
 70
     0
  3

 72
    65
 73
     2
 40
5.333333332500001
 49
3.3333333325
 49
-3.3333333325
  0
LTYPE
  2
AI-LINETYPE-38
 70
     0
  3

 72
    65
 73
     2
 40
5.333333332500001
 49
3.3333333325
 49
-3.3333333325
  0
LTYPE
  2
AI-LINETYPE-37
 70
     0
  3

 72
    65
 73
     2
 40
5.333333332500001
 49
3.3333333325
 49
-3.3333333325
  0
LTYPE
  2
AI-LINETYPE-36
 70
     0
  3

 72
    65
 73
     2
 40
5.333333332500001
 49
3.3333333325
 49
-3.3333333325
  0
LTYPE
  2
AI-LINETYPE-35
 70
     0
  3

 72
    65
 73
     2
 40
5.333333332500001
 49
3.3333333325
 49
-3.3333333325
  0
LTYPE
  2
AI-LINETYPE-34
 70
     0
  3

 72
    65
 73
     2
 40
5.333333332500001
 49
3.3333333325
 49
-3.3333333325
  0
LTYPE
  2
AI-LINETYPE-33
 70
     0
  3

 72
    65
 73
     2
 40
5.333333332500001
 49
3.3333333325
 49
-3.3333333325
  0
LTYPE
  2
AI-LINETYPE-32
 70
     0
  3

 72
    65
 73
     2
 40
5.333333332500001
 49
3.3333333325
 49
-3.3333333325
  0
LTYPE
  2
AI-LINETYPE-31
 70
     0
  3

 72
    65
 73
     2
 40
5.333333332500001
 49
3.3333333325
 49
-3.3333333325
  0
LTYPE
  2
AI-LINETYPE-30
 70
     0
  3

 72
    65
 73
     2
 40
5.333333332500001
 49
3.3333333325
 49
-3.3333333325
  0
LTYPE
  2
AI-LINETYPE-29
 70
     0
  3

 72
    65
 73
     2
 40
5.333333332500001
 49
3.3333333325
 49
-3.3333333325
  0
LTYPE
  2
AI-LINETYPE-28
 70
     0
  3

 72
    65
 73
     2
 40
5.333333332500001
 49
3.3333333325
 49
-3.3333333325
  0
LTYPE
  2
AI-LINETYPE-27
 70
     0
  3

 72
    65
 73
     2
 40
5.333333332500001
 49
3.3333333325
 49
-3.3333333325
  0
LTYPE
  2
AI-LINETYPE-26
 70
     0
  3

 72
    65
 73
     2
 40
5.333333332500001
 49
3.3333333325
 49
-3.3333333325
  0
LTYPE
  2
AI-LINETYPE-25
 70
     0
  3

 72
    65
 73
     2
 40
5.333333332500001
 49
3.3333333325
 49
-3.3333333325
  0
LTYPE
  2
AI-LINETYPE-24
 70
     0
  3

 72
    65
 73
     2
 40
5.333333332500001
 49
3.3333333325
 49
-3.3333333325
  0
LTYPE
  2
AI-LINETYPE-23
 70
     0
  3

 72
    65
 73
     2
 40
5.333333332500001
 49
3.3333333325
 49
-3.3333333325
  0
LTYPE
  2
AI-LINETYPE-22
 70
     0
  3

 72
    65
 73
     2
 40
5.333333332500001
 49
3.3333333325
 49
-3.3333333325
  0
LTYPE
  2
AI-LINETYPE-21
 70
     0
  3

 72
    65
 73
     2
 40
5.333333332500001
 49
3.3333333325
 49
-3.3333333325
  0
LTYPE
  2
AI-LINETYPE-20
 70
     0
  3

 72
    65
 73
     2
 40
5.333333332500001
 49
3.3333333325
 49
-3.3333333325
  0
LTYPE
  2
AI-LINETYPE-19
 70
     0
  3

 72
    65
 73
     2
 40
5.333333332500001
 49
3.3333333325
 49
-3.3333333325
  0
LTYPE
  2
AI-LINETYPE-18
 70
     0
  3

 72
    65
 73
     2
 40
5.333333332500001
 49
3.3333333325
 49
-3.3333333325
  0
LTYPE
  2
AI-LINETYPE-17
 70
     0
  3

 72
    65
 73
     2
 40
5.333333332500001
 49
3.3333333325
 49
-3.3333333325
  0
LTYPE
  2
AI-LINETYPE-16
 70
     0
  3

 72
    65
 73
     2
 40
5.333333332500001
 49
3.3333333325
 49
-3.3333333325
  0
LTYPE
  2
AI-LINETYPE-15
 70
     0
  3

 72
    65
 73
     2
 40
5.333333332500001
 49
3.3333333325
 49
-3.3333333325
  0
LTYPE
  2
AI-LINETYPE-14
 70
     0
  3

 72
    65
 73
     2
 40
5.333333332500001
 49
3.3333333325
 49
-3.3333333325
  0
LTYPE
  2
AI-LINETYPE-13
 70
     0
  3

 72
    65
 73
     2
 40
5.333333332500001
 49
3.3333333325
 49
-3.3333333325
  0
LTYPE
  2
AI-LINETYPE-12
 70
     0
  3

 72
    65
 73
     2
 40
5.333333332500001
 49
3.3333333325
 49
-3.3333333325
  0
LTYPE
  2
AI-LINETYPE-11
 70
     0
  3

 72
    65
 73
     2
 40
5.333333332500001
 49
3.3333333325
 49
-3.3333333325
  0
LTYPE
  2
AI-LINETYPE-10
 70
     0
  3

 72
    65
 73
     2
 40
5.333333332500001
 49
3.3333333325
 49
-3.3333333325
  0
LTYPE
  2
AI-LINETYPE-9
 70
     0
  3

 72
    65
 73
     2
 40
5.333333332500001
 49
3.3333333325
 49
-3.3333333325
  0
LTYPE
  2
AI-LINETYPE-8
 70
     0
  3

 72
    65
 73
     2
 40
5.333333332500001
 49
3.3333333325
 49
-3.3333333325
  0
LTYPE
  2
AI-LINETYPE-7
 70
     0
  3

 72
    65
 73
     2
 40
5.333333332500001
 49
3.3333333325
 49
-3.3333333325
  0
LTYPE
  2
AI-LINETYPE-6
 70
     0
  3

 72
    65
 73
     2
 40
5.333333332500001
 49
3.3333333325
 49
-3.3333333325
  0
LTYPE
  2
AI-LINETYPE-5
 70
     0
  3

 72
    65
 73
     2
 40
5.333333332500001
 49
3.3333333325
 49
-3.3333333325
  0
LTYPE
  2
AI-LINETYPE-4
 70
     0
  3

 72
    65
 73
     2
 40
5.333333332500001
 49
3.3333333325
 49
-3.3333333325
  0
LTYPE
  2
AI-LINETYPE-3
 70
     0
  3

 72
    65
 73
     2
 40
5.333333332500001
 49
3.3333333325
 49
-3.3333333325
  0
LTYPE
  2
AI-LINETYPE-2
 70
     0
  3

 72
    65
 73
     2
 40
5.333333332500001
 49
3.3333333325
 49
-3.3333333325
  0
LTYPE
  2
AI-LINETYPE-1
 70
     0
  3

 72
    65
 73
     2
 40
5.333333332500001
 49
3.3333333325
 49
-3.3333333325
  0
LTYPE
  2
______-12
 70
     0
  3

 72
    65
 73
     2
 40
0.015748031496063
 49
0.015748031496063
 49
-0.031496062992126
  0
LTYPE
  2
______-11
 70
     0
  3

 72
    65
 73
     4
 40
0.1968503937007874
 49
0.1968503937007874
 49
-0.031496062992126
 49
0.015748031496063
 49
-0.031496062992126
  0
LTYPE
  2
______-10
 70
     0
  3

 72
    65
 73
     6
 40
1.5
 49
1.5
 49
-0.1111139999999999
 49
0.2777720000000001
 49
-0.1111139999999999
 49
0.25
 49
-0.125
  0
LTYPE
  2
______-9
 70
     0
  3

 72
    65
 73
     4
 40
1.5
 49
1.5
 49
-0.1111139999999999
 49
0.2777720000000001
 49
-0.1111139999999999
  0
LTYPE
  2
______-8
 70
     0
  3

 72
    65
 73
     6
 40
0.25
 49
0.25
 49
-0.083312
 49
0.027772
 49
-0.055572
 49
0.027772
 49
-0.055572
  0
LTYPE
  2
______-7
 70
     0
  3

 72
    65
 73
     6
 40
0.25
 49
0.25
 49
-0.083312
 49
0.2500000000000001
 49
-0.083344
 49
0.027772
 49
-0.055572
  0
LTYPE
  2
______-6
 70
     0
  3

 72
    65
 73
     4
 40
0.25
 49
0.25
 49
-0.083312
 49
0.027772
 49
-0.055572
  0
LTYPE
  2
______-5
 70
     0
  3

 72
    65
 73
     2
 40
0.02777
 49
0.02777
 49
-0.055542
  0
LTYPE
  2
______-4
 70
     0
  3

 72
    65
 73
     2
 40
0.52777
 49
0.52777
 49
-0.083314
  0
LTYPE
  2
______-3
 70
     0
  3

 72
    65
 73
     2
 40
0.416656
 49
0.416656
 49
-0.083344
  0
LTYPE
  2
______-2
 70
     0
  3

 72
    65
 73
     2
 40
0.194428
 49
0.194428
 49
-0.083342
  0
LTYPE
  2
______-1
 70
     0
  3

 72
    65
 73
     2
 40
0.083312
 49
0.083312
 49
-0.083344
  0
ENDTAB
  0
TABLE
  2
LAYER
 70
    35
  0
LAYER
  2
0
 70
     0
 62
     7
  6
CONTINUOUS
  0
LAYER
  2
020
 70
     0
 62
     1
  6
CONTINUOUS
  0
LAYER
  2
SAKUZU
 70
     0
 62
     7
  6
CONTINUOUS
  0
LAYER
  2
__-3
 70
     0
 62
     7
  6
CONTINUOUS
  0
LAYER
  2
LAYER0002
 70
     0
 62
     7
  6
CONTINUOUS
  0
LAYER
  2
DEFPOINTS
 70
     0
 62
     7
  6
CONTINUOUS
  0
ENDTAB
  0
TABLE
  2
STYLE
 70
     2
  0
STYLE
  2
STANDARD
 70
     0
 40
0.0
 41
1.0
 50
0.0
 71
     0
 42
0.2
  3
txt
  4
BIGFONT.SHX
  0
STYLE
  2
YUGOTHIC_MEDIUM
 70
     0
 40
0.0
 41
1.0
 50
0.0
 71
     0
 42
0.2
  3

  4
YuGothic Medium
  0
ENDTAB
  0
TABLE
  2
VIEW
 70
     0
  0
ENDTAB
  0
TABLE
  2
UCS
 70
     0
  0
ENDTAB
  0
TABLE
  2
APPID
 70
     3
  0
APPID
  2
ACAD
 70
     0
  0
APPID
  2
ACCMTRANSPARENCY
 70
     0
  0
APPID
  2
ACAECLAYERSTANDARD
 70
     0
  0
ENDTAB
  0
TABLE
  2
DIMSTYLE
 70
     2
  0
DIMSTYLE
  2
STANDARD
 70
     0
  3

  4

  5

  6

  7

 40
1.0
 41
0.18
 42
0.0625
 43
0.38
 44
0.18
 45
0.0
 46
0.0
 47
0.0
 48
0.0
140
0.18
141
0.09
142
0.0
143
25.4
144
1.0
145
0.0
146
1.0
147
0.09
 71
     0
 72
     0
 73
     1
 74
     1
 75
     0
 76
     0
 77
     0
 78
     0
170
     0
171
     2
172
     0
173
     0
174
     0
175
     0
176
     0
177
     0
178
     0
  0
DIMSTYLE
  2
SPEAC
 70
     0
  3
<>
  4
[]
  5
DOT
  6
DOT
  7
DOT
 40
1.0
 41
0.5007446289062499
 42
3.0
 43
10.16
 44
0.0
 45
0.0
 46
0.0
 47
0.0
 48
0.0
140
31.86024305555555
141
0.0
142
0.0
143
0.0393700787401575
144
1.0
145
0.0
146
1.0
147
0.1999999992549419
 71
     0
 72
     0
 73
     0
 74
     0
 75
     0
 76
     0
 77
     1
 78
     8
170
     0
171
     3
172
     1
173
     0
174
     1
175
     0
176
     0
177
     0
178
     0
  0
ENDTAB
  0
ENDSEC
  0
SECTION
  2
BLOCKS
  0
BLOCK
  8
0
  2
$MODEL_SPACE
 70
     0
 10
0.0
 20
0.0
 30
0.0
  3
$MODEL_SPACE
  1

  0
ENDBLK
  5
21
  8
0
  0
BLOCK
 67
     1
  8
0
  2
$PAPER_SPACE
 70
     0
 10
0.0
 20
0.0
 30
0.0
  3
$PAPER_SPACE
  1

  0
ENDBLK
  5
1D
 67
     1
  8
0
  0
BLOCK
  8
0
  2
____-1
 70
     0
 10
0.0
 20
0.0
 30
0.0
  3
____-1
  1

  0
ENDBLK
  5
71
  8
0
  0
BLOCK
  8
0
  2
____-2-1
 70
     0
 10
0.0
 20
0.0
 30
0.0
  3
____-2-1
  1

  0
LINE
  5
1BC
  8
__-3
  6
CONTINUOUS
 62
     7
 10
144.272
 20
310.5308544574551
 30
0.0
 11
-144.272
 21
310.5308544574551
 31
0.0
  0
TEXT
  5
1BD
  8
__-3
 62
     3
 10
94.48727566194626
 20
306.1956939473636
 30
0.0
 40
2.389518229166667
  1
2022.08.31
  7
YUGOTHIC_MEDIUM
 11
94.48727566194626
 21
307.390453061947
 31
0.0
 73
     2
  0
TEXT
  5
1BE
  8
__-3
 62
     3
 10
129.4375369899762
 20
306.1956939473636
 30
0.0
 40
2.389518229166667
  1
1:15(A4)
  7
YUGOTHIC_MEDIUM
 11
129.4375369899762
 21
307.390453061947
 31
0.0
 73
     2
  0
INSERT
  5
1BF
  8
__-3
 62
    17
  2
____-1
 10
0.0
 20
0.0
 30
0.0
  0
TEXT
  5
1C0
  8
__-3
 62
     3
 10
116.8075934565349
 20
306.9777030619469
 30
0.0
 40
2.389518229166667
  1
SCALE:
  7
YUGOTHIC_MEDIUM
 11
116.8075934565349
 21
309.3672212911135
 31
0.0
 73
     3
  0
TEXT
  5
1C1
  8
__-3
 62
     3
 10
-49.28778269347822
 20
306.9777030619469
 30
0.0
 40
2.389518229166667
  1
NAME:
  7
YUGOTHIC_MEDIUM
 11
-49.28778269347822
 21
309.3672212911135
 31
0.0
 73
     3
  0
TEXT
  5
1C2
  8
__-3
 62
     3
 10
83.83485407521394
 20
306.9777030619469
 30
0.0
 40
2.389518229166667
  1
DATE:
  7
YUGOTHIC_MEDIUM
 11
83.83485407521394
 21
309.3672212911135
 31
0.0
 73
     3
  0
TEXT
  5
1C3
  8
__-3
 62
     3
 10
49.94351325906834
 20
306.9777030619469
 30
0.0
 40
2.389518229166667
  1
ID:
  7
YUGOTHIC_MEDIUM
 11
49.94351325906834
 21
309.3672212911135
 31
0.0
 73
     3
  0
TEXT
  5
1C4
  8
__-3
 62
     3
 10
54.87692605681511
 20
306.1956939473636
 30
0.0
 40
2.389518229166667
  1
KB-KC025-09
  7
YUGOTHIC_MEDIUM
 11
54.87692605681511
 21
307.390453061947
 31
0.0
 73
     2
  0
TEXT
  5
1C5
  8
__-3
 62
     3
 10
-36.90650480634042
 20
306.1956939473636
 30
0.0
 40
2.389518229166667
  1
業務用キッチン  コーナー台 バックガードあり
  7
YUGOTHIC_MEDIUM
 11
-36.90650480634042
 21
307.390453061947
 31
0.0
 73
     2
  0
ENDBLK
  5
74
  8
0
  0
BLOCK
  8
0
  2
____-3-1
 70
     0
 10
0.0
 20
0.0
 30
0.0
  3
____-3-1
  1

  0
ENDBLK
  5
77
  8
0
  0
BLOCK
  8
0
  2
____-4-1
 70
     0
 10
0.0
 20
0.0
 30
0.0
  3
____-4-1
  1

  0
LINE
  5
1C6
  8
__-3
  6
CONTINUOUS
 62
     7
 10
144.272
 20
109.2480892083655
 30
0.0
 11
-144.272
 21
109.2480892083655
 31
0.0
  0
TEXT
  5
1C7
  8
__-3
 62
     3
 10
94.48727566194626
 20
104.9129286982741
 30
0.0
 40
2.389518229166667
  1
2022.08.31
  7
YUGOTHIC_MEDIUM
 11
94.48727566194626
 21
106.1076878128574
 31
0.0
 73
     2
  0
TEXT
  5
1C8
  8
__-3
 62
     3
 10
129.4375369899762
 20
104.9129286982741
 30
0.0
 40
2.389518229166667
  1
1:15(A4)
  7
YUGOTHIC_MEDIUM
 11
129.4375369899762
 21
106.1076878128574
 31
0.0
 73
     2
  0
INSERT
  5
1C9
  8
__-3
 62
    17
  2
____-3-1
 10
0.0
 20
0.0
 30
0.0
  0
TEXT
  5
1CA
  8
__-3
 62
     3
 10
116.8075934565349
 20
105.6949378128574
 30
0.0
 40
2.389518229166667
  1
SCALE:
  7
YUGOTHIC_MEDIUM
 11
116.8075934565349
 21
108.084456042024
 31
0.0
 73
     3
  0
TEXT
  5
1CB
  8
__-3
 62
     3
 10
-49.28778269347822
 20
105.6949378128574
 30
0.0
 40
2.389518229166667
  1
NAME:
  7
YUGOTHIC_MEDIUM
 11
-49.28778269347822
 21
108.084456042024
 31
0.0
 73
     3
  0
TEXT
  5
1CC
  8
__-3
 62
     3
 10
83.83485407521394
 20
105.6949378128574
 30
0.0
 40
2.389518229166667
  1
DATE:
  7
YUGOTHIC_MEDIUM
 11
83.83485407521394
 21
108.084456042024
 31
0.0
 73
     3
  0
TEXT
  5
1CD
  8
__-3
 62
     3
 10
49.94351325906834
 20
105.6949378128574
 30
0.0
 40
2.389518229166667
  1
ID:
  7
YUGOTHIC_MEDIUM
 11
49.94351325906834
 21
108.084456042024
 31
0.0
 73
     3
  0
TEXT
  5
1CE
  8
__-3
 62
     3
 10
54.87692605681511
 20
104.9129286982741
 30
0.0
 40
2.389518229166667
  1
KB-KC025-09
  7
YUGOTHIC_MEDIUM
 11
54.87692605681511
 21
106.1076878128574
 31
0.0
 73
     2
  0
TEXT
  5
1CF
  8
__-3
 62
     3
 10
-36.90650480634042
 20
104.9129286982741
 30
0.0
 40
2.389518229166667
  1
業務用キッチン  コーナー台 バックガードなし
  7
YUGOTHIC_MEDIUM
 11
-36.90650480634042
 21
106.1076878128574
 31
0.0
 73
     2
  0
ENDBLK
  5
7A
  8
0
  0
BLOCK
  8
0
  2
*D5
 70
     1
 10
0.0
 20
0.0
 30
0.0
  3
*D5
  1

  0
LINE
  5
1D0
  8
SAKUZU
  6
CONTINUOUS
 62
     0
 10
1232.950593236666
 20
2504.728644503294
 30
0.0
 11
1115.950593236665
 21
2504.728644503294
 31
0.0
  0
LINE
  5
1D1
  8
SAKUZU
  6
CONTINUOUS
 62
     0
 10
1232.950593236666
 20
2544.728644503294
 30
0.0
 11
1115.950593236665
 21
2544.728644503294
 31
0.0
  0
LINE
  5
1D2
  8
SAKUZU
  6
CONTINUOUS
 62
     0
 10
1115.950593236665
 20
2504.728644503294
 30
0.0
 11
1115.950593236665
 21
2544.728644503294
 31
0.0
  0
LINE
  5
1D3
  8
SAKUZU
  6
CONTINUOUS
 62
     0
 10
1115.950593236665
 20
2504.227899874388
 30
0.0
 11
1115.950593236665
 21
2503.727155245481
 31
0.0
  0
LINE
  5
1D4
  8
SAKUZU
  6
CONTINUOUS
 62
     0
 10
1115.950593236665
 20
2545.229389132201
 30
0.0
 11
1115.950593236665
 21
2545.730133761107
 31
0.0
  0
INSERT
  5
1D5
  8
SAKUZU
 62
     0
  2
_DOT
 10
1115.950593236665
 20
2504.728644503294
 30
0.0
 41
0.5007446289062499
 42
0.5007446289062499
 43
0.5007446289062499
 50
90.0
  0
INSERT
  5
1D6
  8
SAKUZU
 62
     0
  2
_DOT
 10
1115.950593236665
 20
2544.728644503294
 30
0.0
 41
0.5007446289062499
 42
0.5007446289062499
 43
0.5007446289062499
 50
270.0
  0
TEXT
  5
1D7
  8
SAKUZU
  6
CONTINUOUS
 62
     0
 10
1115.75059323741
 20
2494.385555878956
 30
0.0
 40
31.86024305555555
  1
40
 50
90.0
  7
YUGOTHIC_MEDIUM
  0
POINT
  5
1D8
  8
DEFPOINTS
 62
     0
 10
1235.950593236666
 20
2504.728644503294
 30
0.0
  0
POINT
  5
4AB
  8
DEFPOINTS
 62
     0
 10
1235.950593236666
 20
2544.728644503294
 30
0.0
  0
POINT
  5
4AC
  8
DEFPOINTS
 62
     0
 10
1115.950593236665
 20
2544.728644503294
 30
0.0
  0
ENDBLK
  5
7D
  8
0
  0
BLOCK
  8
0
  2
*D6
 70
     1
 10
0.0
 20
0.0
 30
0.0
  3
*D6
  1

  0
LINE
  5
1D9
  8
SAKUZU
  6
CONTINUOUS
 62
     0
 10
1248.350591901522
 20
1694.728644503294
 30
0.0
 11
1115.950593236666
 21
1694.728644503294
 31
0.0
  0
LINE
  5
1DA
  8
SAKUZU
  6
CONTINUOUS
 62
     0
 10
1241.450592282991
 20
1894.728644503291
 30
0.0
 11
1115.950593236666
 21
1894.728644503291
 31
0.0
  0
LINE
  5
1DB
  8
SAKUZU
  6
CONTINUOUS
 62
     0
 10
1115.950593236666
 20
1695.2293891322
 30
0.0
 11
1115.950593236666
 21
1894.227899874385
 31
0.0
  0
INSERT
  5
1DC
  8
SAKUZU
 62
     0
  2
_DOT
 10
1115.950593236666
 20
1694.728644503294
 30
0.0
 41
0.5007446289062499
 42
0.5007446289062499
 43
0.5007446289062499
 50
270.0
  0
INSERT
  5
1DD
  8
SAKUZU
 62
     0
  2
_DOT
 10
1115.950593236666
 20
1894.728644503291
 30
0.0
 41
0.5007446289062499
 42
0.5007446289062499
 43
0.5007446289062499
 50
90.0
  0
TEXT
  5
1DE
  8
SAKUZU
  6
CONTINUOUS
 62
     0
 10
1115.750593237411
 20
1749.214011566785
 30
0.0
 40
31.86024305555555
  1
200
 50
90.0
  7
YUGOTHIC_MEDIUM
  0
POINT
  5
1DF
  8
DEFPOINTS
 62
     0
 10
1251.350591901522
 20
1694.728644503294
 30
0.0
  0
POINT
  5
1E0
  8
DEFPOINTS
 62
     0
 10
1244.450592282991
 20
1894.728644503291
 30
0.0
  0
POINT
  5
1E1
  8
DEFPOINTS
 62
     0
 10
1115.950593236666
 20
1894.728644503291
 30
0.0
  0
ENDBLK
  5
80
  8
0
  0
BLOCK
  8
0
  2
*D7
 70
     1
 10
0.0
 20
0.0
 30
0.0
  3
*D7
  1

  0
LINE
  5
1E2
  8
SAKUZU
  6
CONTINUOUS
 62
     0
 10
1232.950593236666
 20
2544.728644503294
 30
0.0
 11
1015.950593236666
 21
2544.728644503294
 31
0.0
  0
LINE
  5
1E3
  8
SAKUZU
  6
CONTINUOUS
 62
     0
 10
1248.350591901522
 20
1694.728644503294
 30
0.0
 11
1015.950593236666
 21
1694.728644503294
 31
0.0
  0
LINE
  5
1E4
  8
SAKUZU
  6
CONTINUOUS
 62
     0
 10
1015.950593236666
 20
2544.227899874388
 30
0.0
 11
1015.950593236666
 21
1695.2293891322
 31
0.0
  0
INSERT
  5
1E5
  8
SAKUZU
 62
     0
  2
_DOT
 10
1015.950593236666
 20
2544.728644503294
 30
0.0
 41
0.5007446289062499
 42
0.5007446289062499
 43
0.5007446289062499
 50
90.0
  0
INSERT
  5
1E6
  8
SAKUZU
 62
     0
  2
_DOT
 10
1015.950593236666
 20
1694.728644503294
 30
0.0
 41
0.5007446289062499
 42
0.5007446289062499
 43
0.5007446289062499
 50
270.0
  0
TEXT
  5
1E7
  8
SAKUZU
  6
CONTINUOUS
 62
     0
 10
1015.750593237411
 20
2074.214011566786
 30
0.0
 40
31.86024305555555
  1
850
 50
90.0
  7
YUGOTHIC_MEDIUM
  0
POINT
  5
1E8
  8
DEFPOINTS
 62
     0
 10
1235.950593236666
 20
2544.728644503294
 30
0.0
  0
POINT
  5
1E9
  8
DEFPOINTS
 62
     0
 10
1251.350591901522
 20
1694.728644503294
 30
0.0
  0
POINT
  5
1EA
  8
DEFPOINTS
 62
     0
 10
1015.950593236666
 20
1694.728644503294
 30
0.0
  0
ENDBLK
  5
83
  8
0
  0
BLOCK
  8
0
  2
*D8
 70
     1
 10
0.0
 20
0.0
 30
0.0
  3
*D8
  1

  0
LINE
  5
1EB
  8
SAKUZU
  6
CONTINUOUS
 62
     0
 10
-919.0494277441692
 20
3339.880505079891
 30
0.0
 11
-919.0494277441692
 21
3222.880505079891
 31
0.0
  0
LINE
  5
1EC
  8
SAKUZU
  6
CONTINUOUS
 62
     0
 10
-979.0494277441692
 20
3339.880505079891
 30
0.0
 11
-979.0494277441692
 21
3222.880505079891
 31
0.0
  0
LINE
  5
1ED
  8
SAKUZU
  6
CONTINUOUS
 62
     0
 10
-919.5501723730754
 20
3222.880505079891
 30
0.0
 11
-978.548683115263
 21
3222.880505079891
 31
0.0
  0
INSERT
  5
1EE
  8
SAKUZU
 62
     0
  2
_DOT
 10
-919.0494277441692
 20
3222.880505079891
 30
0.0
 41
0.5007446289062499
 42
0.5007446289062499
 43
0.5007446289062499
  0
INSERT
  5
1EF
  8
SAKUZU
 62
     0
  2
_DOT
 10
-979.0494277441692
 20
3222.880505079891
 30
0.0
 41
0.5007446289062499
 42
0.5007446289062499
 43
0.5007446289062499
 50
180.0
  0
TEXT
  5
1F0
  8
SAKUZU
  6
CONTINUOUS
 62
     0
 10
-980.1510935841163
 20
3223.080505079145
 30
0.0
 40
31.86024305555555
  1
60
  7
YUGOTHIC_MEDIUM
  0
POINT
  5
1F1
  8
DEFPOINTS
 62
     0
 10
-919.0494277441692
 20
3342.880505079891
 30
0.0
  0
POINT
  5
1F2
  8
DEFPOINTS
 62
     0
 10
-979.0494277441692
 20
3342.880505079891
 30
0.0
  0
POINT
  5
1F3
  8
DEFPOINTS
 62
     0
 10
-979.0494277441692
 20
3222.880505079891
 30
0.0
  0
ENDBLK
  5
86
  8
0
  0
BLOCK
  8
0
  2
*D9
 70
     1
 10
0.0
 20
0.0
 30
0.0
  3
*D9
  1

  0
LINE
  5
1F4
  8
SAKUZU
  6
CONTINUOUS
 62
     0
 10
-379.0494124853801
 20
3339.880505079891
 30
0.0
 11
-379.0494124853801
 21
3222.880505079891
 31
0.0
  0
LINE
  5
1F5
  8
SAKUZU
  6
CONTINUOUS
 62
     0
 10
-919.0494277441692
 20
3339.880505079891
 30
0.0
 11
-919.0494277441692
 21
3222.880505079891
 31
0.0
  0
LINE
  5
1F6
  8
SAKUZU
  6
CONTINUOUS
 62
     0
 10
-379.5501571142864
 20
3222.880505079891
 30
0.0
 11
-918.548683115263
 21
3222.880505079891
 31
0.0
  0
INSERT
  5
1F7
  8
SAKUZU
 62
     0
  2
_DOT
 10
-379.0494124853801
 20
3222.880505079891
 30
0.0
 41
0.5007446289062499
 42
0.5007446289062499
 43
0.5007446289062499
  0
INSERT
  5
1F8
  8
SAKUZU
 62
     0
  2
_DOT
 10
-919.0494277441692
 20
3222.880505079891
 30
0.0
 41
0.5007446289062499
 42
0.5007446289062499
 43
0.5007446289062499
 50
180.0
  0
TEXT
  5
1F9
  8
SAKUZU
  6
CONTINUOUS
 62
     0
 10
-694.5640530512826
 20
3223.080505079145
 30
0.0
 40
31.86024305555555
  1
540
  7
YUGOTHIC_MEDIUM
  0
POINT
  5
1FA
  8
DEFPOINTS
 62
     0
 10
-379.0494124853801
 20
3342.880505079891
 30
0.0
  0
POINT
  5
1FB
  8
DEFPOINTS
 62
     0
 10
-919.0494277441692
 20
3342.880505079891
 30
0.0
  0
POINT
  5
1FC
  8
DEFPOINTS
 62
     0
 10
-919.0494277441692
 20
3222.880505079891
 30
0.0
  0
ENDBLK
  5
89
  8
0
  0
BLOCK
  8
0
  2
*D10
 70
     1
 10
0.0
 20
0.0
 30
0.0
  3
*D10
  1

  0
LINE
  5
1FD
  8
SAKUZU
  6
CONTINUOUS
 62
     0
 10
-379.0494124853801
 20
3339.880505079891
 30
0.0
 11
-379.0494124853801
 21
3122.880505079891
 31
0.0
  0
LINE
  5
1FE
  8
SAKUZU
  6
CONTINUOUS
 62
     0
 10
-979.0494277441692
 20
3339.880505079891
 30
0.0
 11
-979.0494277441692
 21
3122.880505079891
 31
0.0
  0
LINE
  5
1FF
  8
SAKUZU
  6
CONTINUOUS
 62
     0
 10
-379.5501571142864
 20
3122.880505079891
 30
0.0
 11
-978.548683115263
 21
3122.880505079891
 31
0.0
  0
INSERT
  5
200
  8
SAKUZU
 62
     0
  2
_DOT
 10
-379.0494124853801
 20
3122.880505079891
 30
0.0
 41
0.5007446289062499
 42
0.5007446289062499
 43
0.5007446289062499
  0
INSERT
  5
201
  8
SAKUZU
 62
     0
  2
_DOT
 10
-979.0494277441692
 20
3122.880505079891
 30
0.0
 41
0.5007446289062499
 42
0.5007446289062499
 43
0.5007446289062499
 50
180.0
  0
TEXT
  5
202
  8
SAKUZU
  6
CONTINUOUS
 62
     0
 10
-725.3226302668911
 20
3123.080505079145
 30
0.0
 40
31.86024305555555
  1
600
  7
YUGOTHIC_MEDIUM
  0
POINT
  5
203
  8
DEFPOINTS
 62
     0
 10
-379.0494124853801
 20
3342.880505079891
 30
0.0
  0
POINT
  5
204
  8
DEFPOINTS
 62
     0
 10
-979.0494277441692
 20
3342.880505079891
 30
0.0
  0
POINT
  5
205
  8
DEFPOINTS
 62
     0
 10
-979.0494277441692
 20
3122.880505079891
 30
0.0
  0
ENDBLK
  5
8C
  8
0
  0
BLOCK
  8
0
  2
*D11
 70
     1
 10
0.0
 20
0.0
 30
0.0
  3
*D11
  1

  0
LINE
  5
206
  8
SAKUZU
  6
CONTINUOUS
 62
     0
 10
-129.0494067633342
 20
3589.880505079891
 30
0.0
 11
-129.0494067633342
 21
3122.880505079891
 31
0.0
  0
LINE
  5
207
  8
SAKUZU
  6
CONTINUOUS
 62
     0
 10
-379.0494124853801
 20
3339.880505079891
 30
0.0
 11
-379.0494124853801
 21
3122.880505079891
 31
0.0
  0
LINE
  5
208
  8
SAKUZU
  6
CONTINUOUS
 62
     0
 10
-129.5501513922405
 20
3122.880505079891
 30
0.0
 11
-378.5486678564739
 21
3122.880505079891
 31
0.0
  0
INSERT
  5
209
  8
SAKUZU
 62
     0
  2
_DOT
 10
-129.0494067633342
 20
3122.880505079891
 30
0.0
 41
0.5007446289062499
 42
0.5007446289062499
 43
0.5007446289062499
  0
INSERT
  5
20A
  8
SAKUZU
 62
     0
  2
_DOT
 10
-379.0494124853801
 20
3122.880505079891
 30
0.0
 41
0.5007446289062499
 42
0.5007446289062499
 43
0.5007446289062499
 50
180.0
  0
TEXT
  5
20B
  8
SAKUZU
  6
CONTINUOUS
 62
     0
 10
-299.5640425608651
 20
3123.080505079145
 30
0.0
 40
31.86024305555555
  1
250
  7
YUGOTHIC_MEDIUM
  0
POINT
  5
20C
  8
DEFPOINTS
 62
     0
 10
-129.0494067633342
 20
3592.880505079891
 30
0.0
  0
POINT
  5
20D
  8
DEFPOINTS
 62
     0
 10
-379.0494124853801
 20
3342.880505079891
 30
0.0
  0
POINT
  5
20E
  8
DEFPOINTS
 62
     0
 10
-379.0494124853801
 20
3122.880505079891
 30
0.0
  0
ENDBLK
  5
8F
  8
0
  0
BLOCK
  8
0
  2
*D12
 70
     1
 10
0.0
 20
0.0
 30
0.0
  3
*D12
  1

  0
LINE
  5
20F
  8
SAKUZU
  6
CONTINUOUS
 62
     0
 10
-129.0494067633342
 20
3589.880505079891
 30
0.0
 11
-129.0494067633342
 21
3022.880505079891
 31
0.0
  0
LINE
  5
210
  8
SAKUZU
  6
CONTINUOUS
 62
     0
 10
-979.0494277441692
 20
3339.880505079891
 30
0.0
 11
-979.0494277441692
 21
3022.880505079891
 31
0.0
  0
LINE
  5
211
  8
SAKUZU
  6
CONTINUOUS
 62
     0
 10
-129.5501513922405
 20
3022.880505079891
 30
0.0
 11
-978.548683115263
 21
3022.880505079891
 31
0.0
  0
INSERT
  5
212
  8
SAKUZU
 62
     0
  2
_DOT
 10
-129.0494067633342
 20
3022.880505079891
 30
0.0
 41
0.5007446289062499
 42
0.5007446289062499
 43
0.5007446289062499
  0
INSERT
  5
213
  8
SAKUZU
 62
     0
  2
_DOT
 10
-979.0494277441692
 20
3022.880505079891
 30
0.0
 41
0.5007446289062499
 42
0.5007446289062499
 43
0.5007446289062499
 50
180.0
  0
TEXT
  5
214
  8
SAKUZU
  6
CONTINUOUS
 62
     0
 10
-599.5640501902596
 20
3023.080505079145
 30
0.0
 40
31.86024305555555
  1
850
  7
YUGOTHIC_MEDIUM
  0
POINT
  5
215
  8
DEFPOINTS
 62
     0
 10
-129.0494067633342
 20
3592.880505079891
 30
0.0
  0
POINT
  5
216
  8
DEFPOINTS
 62
     0
 10
-979.0494277441692
 20
3342.880505079891
 30
0.0
  0
POINT
  5
217
  8
DEFPOINTS
 62
     0
 10
-979.0494277441692
 20
3022.880505079891
 30
0.0
  0
ENDBLK
  5
92
  8
0
  0
BLOCK
  8
0
  2
*D13
 70
     1
 10
0.0
 20
0.0
 30
0.0
  3
*D13
  1

  0
LINE
  5
218
  8
SAKUZU
  6
CONTINUOUS
 62
     0
 10
-126.0494067633342
 20
4132.88050507989
 30
0.0
 11
-9.049406763334215
 21
4132.88050507989
 31
0.0
  0
LINE
  5
219
  8
SAKUZU
  6
CONTINUOUS
 62
     0
 10
-126.0494067633342
 20
4192.88050507989
 30
0.0
 11
-9.049406763334218
 21
4192.88050507989
 31
0.0
  0
LINE
  5
21A
  8
SAKUZU
  6
CONTINUOUS
 62
     0
 10
-9.049406763334215
 20
4133.381249708797
 30
0.0
 11
-9.049406763334218
 21
4192.379760450984
 31
0.0
  0
INSERT
  5
21B
  8
SAKUZU
 62
     0
  2
_DOT
 10
-9.049406763334215
 20
4132.88050507989
 30
0.0
 41
0.5007446289062499
 42
0.5007446289062499
 43
0.5007446289062499
 50
270.0
  0
INSERT
  5
21C
  8
SAKUZU
 62
     0
  2
_DOT
 10
-9.049406763334218
 20
4192.88050507989
 30
0.0
 41
0.5007446289062499
 42
0.5007446289062499
 43
0.5007446289062499
 50
90.0
  0
TEXT
  5
21D
  8
SAKUZU
  6
CONTINUOUS
 62
     0
 10
-9.249406762588478
 20
4131.778839239943
 30
0.0
 40
31.86024305555555
  1
60
 50
90.0
  7
YUGOTHIC_MEDIUM
  0
POINT
  5
21E
  8
DEFPOINTS
 62
     0
 10
-129.0494067633342
 20
4132.88050507989
 30
0.0
  0
POINT
  5
21F
  8
DEFPOINTS
 62
     0
 10
-129.0494067633342
 20
4192.88050507989
 30
0.0
  0
POINT
  5
220
  8
DEFPOINTS
 62
     0
 10
-9.049406763334218
 20
4192.88050507989
 30
0.0
  0
ENDBLK
  5
95
  8
0
  0
BLOCK
  8
0
  2
*D14
 70
     1
 10
0.0
 20
0.0
 30
0.0
  3
*D14
  1

  0
LINE
  5
221
  8
SAKUZU
  6
CONTINUOUS
 62
     0
 10
-126.0494067633342
 20
3592.880505079891
 30
0.0
 11
-9.049406763334412
 21
3592.880505079891
 31
0.0
  0
LINE
  5
222
  8
SAKUZU
  6
CONTINUOUS
 62
     0
 10
-126.0494067633342
 20
4132.88050507989
 30
0.0
 11
-9.049406763334446
 21
4132.88050507989
 31
0.0
  0
LINE
  5
223
  8
SAKUZU
  6
CONTINUOUS
 62
     0
 10
-9.049406763334412
 20
3593.381249708797
 30
0.0
 11
-9.049406763334446
 21
4132.379760450984
 31
0.0
  0
INSERT
  5
224
  8
SAKUZU
 62
     0
  2
_DOT
 10
-9.049406763334412
 20
3592.880505079891
 30
0.0
 41
0.5007446289062499
 42
0.5007446289062499
 43
0.5007446289062499
 50
270.0
  0
INSERT
  5
225
  8
SAKUZU
 62
     0
  2
_DOT
 10
-9.049406763334446
 20
4132.88050507989
 30
0.0
 41
0.5007446289062499
 42
0.5007446289062499
 43
0.5007446289062499
 50
90.0
  0
TEXT
  5
226
  8
SAKUZU
  6
CONTINUOUS
 62
     0
 10
-9.249406762589388
 20
3817.365872143382
 30
0.0
 40
31.86024305555555
  1
540
 50
90.0
  7
YUGOTHIC_MEDIUM
  0
POINT
  5
227
  8
DEFPOINTS
 62
     0
 10
-129.0494067633342
 20
3592.880505079891
 30
0.0
  0
POINT
  5
228
  8
DEFPOINTS
 62
     0
 10
-129.0494067633342
 20
4132.88050507989
 30
0.0
  0
POINT
  5
229
  8
DEFPOINTS
 62
     0
 10
-9.049406763334446
 20
4132.88050507989
 30
0.0
  0
ENDBLK
  5
98
  8
0
  0
BLOCK
  8
0
  2
*D15
 70
     1
 10
0.0
 20
0.0
 30
0.0
  3
*D15
  1

  0
LINE
  5
22A
  8
SAKUZU
  6
CONTINUOUS
 62
     0
 10
-126.0494067633342
 20
3592.880505079891
 30
0.0
 11
90.95059323666582
 21
3592.880505079891
 31
0.0
  0
LINE
  5
22B
  8
SAKUZU
  6
CONTINUOUS
 62
     0
 10
-126.0494067633342
 20
4192.88050507989
 30
0.0
 11
90.95059323666578
 21
4192.88050507989
 31
0.0
  0
LINE
  5
22C
  8
SAKUZU
  6
CONTINUOUS
 62
     0
 10
90.95059323666582
 20
3593.381249708797
 30
0.0
 11
90.95059323666578
 21
4192.379760450984
 31
0.0
  0
INSERT
  5
22D
  8
SAKUZU
 62
     0
  2
_DOT
 10
90.95059323666582
 20
3592.880505079891
 30
0.0
 41
0.5007446289062499
 42
0.5007446289062499
 43
0.5007446289062499
 50
270.0
  0
INSERT
  5
22E
  8
SAKUZU
 62
     0
  2
_DOT
 10
90.95059323666578
 20
4192.88050507989
 30
0.0
 41
0.5007446289062499
 42
0.5007446289062499
 43
0.5007446289062499
 50
90.0
  0
TEXT
  5
22F
  8
SAKUZU
  6
CONTINUOUS
 62
     0
 10
90.75059323741107
 20
3846.607294927774
 30
0.0
 40
31.86024305555555
  1
600
 50
90.0
  7
YUGOTHIC_MEDIUM
  0
POINT
  5
230
  8
DEFPOINTS
 62
     0
 10
-129.0494067633342
 20
3592.880505079891
 30
0.0
  0
POINT
  5
231
  8
DEFPOINTS
 62
     0
 10
-129.0494067633342
 20
4192.88050507989
 30
0.0
  0
POINT
  5
232
  8
DEFPOINTS
 62
     0
 10
90.95059323666578
 20
4192.88050507989
 30
0.0
  0
ENDBLK
  5
9B
  8
0
  0
BLOCK
  8
0
  2
*D16
 70
     1
 10
0.0
 20
0.0
 30
0.0
  3
*D16
  1

  0
LINE
  5
233
  8
SAKUZU
  6
CONTINUOUS
 62
     0
 10
-376.0494124853801
 20
3342.880505079891
 30
0.0
 11
90.9505932366658
 21
3342.880505079891
 31
0.0
  0
LINE
  5
234
  8
SAKUZU
  6
CONTINUOUS
 62
     0
 10
-126.0494067633342
 20
3592.880505079891
 30
0.0
 11
90.95059323666578
 21
3592.880505079891
 31
0.0
  0
LINE
  5
235
  8
SAKUZU
  6
CONTINUOUS
 62
     0
 10
90.9505932366658
 20
3343.381249708797
 30
0.0
 11
90.95059323666578
 21
3592.379760450984
 31
0.0
  0
INSERT
  5
236
  8
SAKUZU
 62
     0
  2
_DOT
 10
90.9505932366658
 20
3342.880505079891
 30
0.0
 41
0.5007446289062499
 42
0.5007446289062499
 43
0.5007446289062499
 50
270.0
  0
INSERT
  5
237
  8
SAKUZU
 62
     0
  2
_DOT
 10
90.95059323666578
 20
3592.880505079891
 30
0.0
 41
0.5007446289062499
 42
0.5007446289062499
 43
0.5007446289062499
 50
90.0
  0
TEXT
  5
238
  8
SAKUZU
  6
CONTINUOUS
 62
     0
 10
90.75059323741061
 20
3422.365872143383
 30
0.0
 40
31.86024305555555
  1
250
 50
90.0
  7
YUGOTHIC_MEDIUM
  0
POINT
  5
239
  8
DEFPOINTS
 62
     0
 10
-379.0494124853801
 20
3342.880505079891
 30
0.0
  0
POINT
  5
23A
  8
DEFPOINTS
 62
     0
 10
-129.0494067633342
 20
3592.880505079891
 30
0.0
  0
POINT
  5
23B
  8
DEFPOINTS
 62
     0
 10
90.95059323666578
 20
3592.880505079891
 30
0.0
  0
ENDBLK
  5
9E
  8
0
  0
BLOCK
  8
0
  2
*D17
 70
     1
 10
0.0
 20
0.0
 30
0.0
  3
*D17
  1

  0
LINE
  5
23C
  8
SAKUZU
  6
CONTINUOUS
 62
     0
 10
-376.0494124853801
 20
3342.880505079891
 30
0.0
 11
190.9505932366658
 21
3342.880505079891
 31
0.0
  0
LINE
  5
23D
  8
SAKUZU
  6
CONTINUOUS
 62
     0
 10
-126.0494067633342
 20
4192.88050507989
 30
0.0
 11
190.9505932366658
 21
4192.88050507989
 31
0.0
  0
LINE
  5
23E
  8
SAKUZU
  6
CONTINUOUS
 62
     0
 10
190.9505932366658
 20
3343.381249708797
 30
0.0
 11
190.9505932366658
 21
4192.379760450984
 31
0.0
  0
INSERT
  5
23F
  8
SAKUZU
 62
     0
  2
_DOT
 10
190.9505932366658
 20
3342.880505079891
 30
0.0
 41
0.5007446289062499
 42
0.5007446289062499
 43
0.5007446289062499
 50
270.0
  0
INSERT
  5
240
  8
SAKUZU
 62
     0
  2
_DOT
 10
190.9505932366658
 20
4192.88050507989
 30
0.0
 41
0.5007446289062499
 42
0.5007446289062499
 43
0.5007446289062499
 50
90.0
  0
TEXT
  5
241
  8
SAKUZU
  6
CONTINUOUS
 62
     0
 10
190.7505932374111
 20
3722.365872143382
 30
0.0
 40
31.86024305555555
  1
850
 50
90.0
  7
YUGOTHIC_MEDIUM
  0
POINT
  5
242
  8
DEFPOINTS
 62
     0
 10
-379.0494124853801
 20
3342.880505079891
 30
0.0
  0
POINT
  5
243
  8
DEFPOINTS
 62
     0
 10
-129.0494067633342
 20
4192.88050507989
 30
0.0
  0
POINT
  5
244
  8
DEFPOINTS
 62
     0
 10
190.9505932366658
 20
4192.88050507989
 30
0.0
  0
ENDBLK
  5
A1
  8
0
  0
BLOCK
  8
0
  2
*D18
 70
     1
 10
0.0
 20
0.0
 30
0.0
  3
*D18
  1

  0
LINE
  5
245
  8
SAKUZU
  6
CONTINUOUS
 62
     0
 10
1337.000041961669
 20
5512.604459634489
 30
0.0
 11
1220.000041961669
 21
5512.604459634489
 31
0.0
  0
LINE
  5
246
  8
SAKUZU
  6
CONTINUOUS
 62
     0
 10
1337.000041961669
 20
5552.604459634489
 30
0.0
 11
1220.000041961669
 21
5552.604459634489
 31
0.0
  0
LINE
  5
247
  8
SAKUZU
  6
CONTINUOUS
 62
     0
 10
1220.000041961669
 20
5512.604459634489
 30
0.0
 11
1220.000041961669
 21
5552.604459634489
 31
0.0
  0
LINE
  5
248
  8
SAKUZU
  6
CONTINUOUS
 62
     0
 10
1220.000041961669
 20
5512.103715005583
 30
0.0
 11
1220.000041961669
 21
5511.602970376676
 31
0.0
  0
LINE
  5
249
  8
SAKUZU
  6
CONTINUOUS
 62
     0
 10
1220.000041961669
 20
5553.105204263396
 30
0.0
 11
1220.000041961669
 21
5553.605948892302
 31
0.0
  0
INSERT
  5
24A
  8
SAKUZU
 62
     0
  2
_DOT
 10
1220.000041961669
 20
5512.604459634489
 30
0.0
 41
0.5007446289062499
 42
0.5007446289062499
 43
0.5007446289062499
 50
90.0
  0
INSERT
  5
24B
  8
SAKUZU
 62
     0
  2
_DOT
 10
1220.000041961669
 20
5552.604459634489
 30
0.0
 41
0.5007446289062499
 42
0.5007446289062499
 43
0.5007446289062499
 50
270.0
  0
TEXT
  5
24C
  8
SAKUZU
  6
CONTINUOUS
 62
     0
 10
1219.800041962415
 20
5502.26137101015
 30
0.0
 40
31.86024305555555
  1
40
 50
90.0
  7
YUGOTHIC_MEDIUM
  0
POINT
  5
24D
  8
DEFPOINTS
 62
     0
 10
1340.000041961669
 20
5512.604459634489
 30
0.0
  0
POINT
  5
593
  8
DEFPOINTS
 62
     0
 10
1340.000041961669
 20
5552.604459634489
 30
0.0
  0
POINT
  5
594
  8
DEFPOINTS
 62
     0
 10
1220.000041961669
 20
5552.604459634489
 30
0.0
  0
ENDBLK
  5
A4
  8
0
  0
BLOCK
  8
0
  2
*D19
 70
     1
 10
0.0
 20
0.0
 30
0.0
  3
*D19
  1

  0
LINE
  5
24E
  8
SAKUZU
  6
CONTINUOUS
 62
     0
 10
1352.400040626525
 20
4702.604459634489
 30
0.0
 11
1220.000041961669
 21
4702.604459634489
 31
0.0
  0
LINE
  5
24F
  8
SAKUZU
  6
CONTINUOUS
 62
     0
 10
1345.500041007995
 20
4902.604459634486
 30
0.0
 11
1220.000041961669
 21
4902.604459634486
 31
0.0
  0
LINE
  5
250
  8
SAKUZU
  6
CONTINUOUS
 62
     0
 10
1220.000041961669
 20
4703.105204263396
 30
0.0
 11
1220.000041961669
 21
4902.10371500558
 31
0.0
  0
INSERT
  5
251
  8
SAKUZU
 62
     0
  2
_DOT
 10
1220.000041961669
 20
4702.604459634489
 30
0.0
 41
0.5007446289062499
 42
0.5007446289062499
 43
0.5007446289062499
 50
270.0
  0
INSERT
  5
252
  8
SAKUZU
 62
     0
  2
_DOT
 10
1220.000041961669
 20
4902.604459634486
 30
0.0
 41
0.5007446289062499
 42
0.5007446289062499
 43
0.5007446289062499
 50
90.0
  0
TEXT
  5
253
  8
SAKUZU
  6
CONTINUOUS
 62
     0
 10
1219.800041962416
 20
4757.089826697979
 30
0.0
 40
31.86024305555555
  1
200
 50
90.0
  7
YUGOTHIC_MEDIUM
  0
POINT
  5
254
  8
DEFPOINTS
 62
     0
 10
1355.400040626525
 20
4702.604459634489
 30
0.0
  0
POINT
  5
255
  8
DEFPOINTS
 62
     0
 10
1348.500041007995
 20
4902.604459634486
 30
0.0
  0
POINT
  5
256
  8
DEFPOINTS
 62
     0
 10
1220.000041961669
 20
4902.604459634486
 30
0.0
  0
ENDBLK
  5
A7
  8
0
  0
BLOCK
  8
0
  2
*D20
 70
     1
 10
0.0
 20
0.0
 30
0.0
  3
*D20
  1

  0
LINE
  5
257
  8
SAKUZU
  6
CONTINUOUS
 62
     0
 10
1337.000041961669
 20
5552.604459634489
 30
0.0
 11
1120.000041961669
 21
5552.604459634489
 31
0.0
  0
LINE
  5
258
  8
SAKUZU
  6
CONTINUOUS
 62
     0
 10
1352.400040626525
 20
4702.604459634489
 30
0.0
 11
1120.000041961669
 21
4702.604459634489
 31
0.0
  0
LINE
  5
259
  8
SAKUZU
  6
CONTINUOUS
 62
     0
 10
1120.000041961669
 20
5552.103715005583
 30
0.0
 11
1120.000041961669
 21
4703.105204263396
 31
0.0
  0
INSERT
  5
25A
  8
SAKUZU
 62
     0
  2
_DOT
 10
1120.000041961669
 20
5552.604459634489
 30
0.0
 41
0.5007446289062499
 42
0.5007446289062499
 43
0.5007446289062499
 50
90.0
  0
INSERT
  5
25B
  8
SAKUZU
 62
     0
  2
_DOT
 10
1120.000041961669
 20
4702.604459634489
 30
0.0
 41
0.5007446289062499
 42
0.5007446289062499
 43
0.5007446289062499
 50
270.0
  0
TEXT
  5
25C
  8
SAKUZU
  6
CONTINUOUS
 62
     0
 10
1119.800041962416
 20
5082.089826697981
 30
0.0
 40
31.86024305555555
  1
850
 50
90.0
  7
YUGOTHIC_MEDIUM
  0
POINT
  5
25D
  8
DEFPOINTS
 62
     0
 10
1340.000041961669
 20
5552.604459634489
 30
0.0
  0
POINT
  5
25E
  8
DEFPOINTS
 62
     0
 10
1355.400040626525
 20
4702.604459634489
 30
0.0
  0
POINT
  5
25F
  8
DEFPOINTS
 62
     0
 10
1120.000041961669
 20
4702.604459634489
 30
0.0
  0
ENDBLK
  5
AA
  8
0
  0
BLOCK
  8
0
  2
*D21
 70
     1
 10
0.0
 20
0.0
 30
0.0
  3
*D21
  1

  0
LINE
  5
260
  8
SAKUZU
  6
CONTINUOUS
 62
     0
 10
1337.000041961669
 20
5702.604459634489
 30
0.0
 11
1120.000041961669
 21
5702.604459634489
 31
0.0
  0
LINE
  5
261
  8
SAKUZU
  6
CONTINUOUS
 62
     0
 10
1337.000041961669
 20
5552.604459634489
 30
0.0
 11
1120.000041961669
 21
5552.604459634489
 31
0.0
  0
LINE
  5
262
  8
SAKUZU
  6
CONTINUOUS
 62
     0
 10
1120.000041961669
 20
5702.103715005583
 30
0.0
 11
1120.000041961669
 21
5553.105204263396
 31
0.0
  0
INSERT
  5
263
  8
SAKUZU
 62
     0
  2
_DOT
 10
1120.000041961669
 20
5702.604459634489
 30
0.0
 41
0.5007446289062499
 42
0.5007446289062499
 43
0.5007446289062499
 50
90.0
  0
INSERT
  5
264
  8
SAKUZU
 62
     0
  2
_DOT
 10
1120.000041961669
 20
5552.604459634489
 30
0.0
 41
0.5007446289062499
 42
0.5007446289062499
 43
0.5007446289062499
 50
270.0
  0
TEXT
  5
265
  8
SAKUZU
  6
CONTINUOUS
 62
     0
 10
1119.800041962416
 20
5579.814095051155
 30
0.0
 40
31.86024305555555
  1
150
 50
90.0
  7
YUGOTHIC_MEDIUM
  0
POINT
  5
266
  8
DEFPOINTS
 62
     0
 10
1340.000041961669
 20
5702.604459634489
 30
0.0
  0
POINT
  5
267
  8
DEFPOINTS
 62
     0
 10
1340.000041961669
 20
5552.604459634489
 30
0.0
  0
POINT
  5
268
  8
DEFPOINTS
 62
     0
 10
1120.000041961669
 20
5552.604459634489
 30
0.0
  0
ENDBLK
  5
AD
  8
0
  0
BLOCK
  8
0
  2
*D22
 70
     1
 10
0.0
 20
0.0
 30
0.0
  3
*D22
  1

  0
LINE
  5
269
  8
SAKUZU
  6
CONTINUOUS
 62
     0
 10
-814.9999790191655
 20
6399.604459634489
 30
0.0
 11
-814.9999790191655
 21
6282.604459634489
 31
0.0
  0
LINE
  5
26A
  8
SAKUZU
  6
CONTINUOUS
 62
     0
 10
-874.9999790191655
 20
6399.604459634489
 30
0.0
 11
-874.9999790191655
 21
6282.604459634489
 31
0.0
  0
LINE
  5
26B
  8
SAKUZU
  6
CONTINUOUS
 62
     0
 10
-815.5007236480717
 20
6282.604459634489
 30
0.0
 11
-874.4992343902593
 21
6282.604459634489
 31
0.0
  0
INSERT
  5
26C
  8
SAKUZU
 62
     0
  2
_DOT
 10
-814.9999790191655
 20
6282.604459634489
 30
0.0
 41
0.5007446289062499
 42
0.5007446289062499
 43
0.5007446289062499
  0
INSERT
  5
26D
  8
SAKUZU
 62
     0
  2
_DOT
 10
-874.9999790191655
 20
6282.604459634489
 30
0.0
 41
0.5007446289062499
 42
0.5007446289062499
 43
0.5007446289062499
 50
180.0
  0
TEXT
  5
26E
  8
SAKUZU
  6
CONTINUOUS
 62
     0
 10
-876.1016448591126
 20
6282.804459633743
 30
0.0
 40
31.86024305555555
  1
60
  7
YUGOTHIC_MEDIUM
  0
POINT
  5
26F
  8
DEFPOINTS
 62
     0
 10
-814.9999790191655
 20
6402.604459634489
 30
0.0
  0
POINT
  5
270
  8
DEFPOINTS
 62
     0
 10
-874.9999790191655
 20
6402.604459634489
 30
0.0
  0
POINT
  5
271
  8
DEFPOINTS
 62
     0
 10
-874.9999790191655
 20
6282.604459634489
 30
0.0
  0
ENDBLK
  5
B0
  8
0
  0
BLOCK
  8
0
  2
*D23
 70
     1
 10
0.0
 20
0.0
 30
0.0
  3
*D23
  1

  0
LINE
  5
272
  8
SAKUZU
  6
CONTINUOUS
 62
     0
 10
-274.9999637603764
 20
6399.604459634489
 30
0.0
 11
-274.9999637603764
 21
6282.604459634489
 31
0.0
  0
LINE
  5
273
  8
SAKUZU
  6
CONTINUOUS
 62
     0
 10
-814.9999790191655
 20
6399.604459634489
 30
0.0
 11
-814.9999790191655
 21
6282.604459634489
 31
0.0
  0
LINE
  5
274
  8
SAKUZU
  6
CONTINUOUS
 62
     0
 10
-275.5007083892827
 20
6282.604459634489
 30
0.0
 11
-814.4992343902593
 21
6282.604459634489
 31
0.0
  0
INSERT
  5
275
  8
SAKUZU
 62
     0
  2
_DOT
 10
-274.9999637603764
 20
6282.604459634489
 30
0.0
 41
0.5007446289062499
 42
0.5007446289062499
 43
0.5007446289062499
  0
INSERT
  5
276
  8
SAKUZU
 62
     0
  2
_DOT
 10
-814.9999790191655
 20
6282.604459634489
 30
0.0
 41
0.5007446289062499
 42
0.5007446289062499
 43
0.5007446289062499
 50
180.0
  0
TEXT
  5
277
  8
SAKUZU
  6
CONTINUOUS
 62
     0
 10
-590.5146043262789
 20
6282.804459633743
 30
0.0
 40
31.86024305555555
  1
540
  7
YUGOTHIC_MEDIUM
  0
POINT
  5
278
  8
DEFPOINTS
 62
     0
 10
-274.9999637603764
 20
6402.604459634489
 30
0.0
  0
POINT
  5
279
  8
DEFPOINTS
 62
     0
 10
-814.9999790191655
 20
6402.604459634489
 30
0.0
  0
POINT
  5
27A
  8
DEFPOINTS
 62
     0
 10
-814.9999790191655
 20
6282.604459634489
 30
0.0
  0
ENDBLK
  5
B3
  8
0
  0
BLOCK
  8
0
  2
*D24
 70
     1
 10
0.0
 20
0.0
 30
0.0
  3
*D24
  1

  0
LINE
  5
27B
  8
SAKUZU
  6
CONTINUOUS
 62
     0
 10
-274.9999637603764
 20
6399.604459634489
 30
0.0
 11
-274.9999637603764
 21
6182.604459634489
 31
0.0
  0
LINE
  5
27C
  8
SAKUZU
  6
CONTINUOUS
 62
     0
 10
-874.9999790191655
 20
6399.604459634489
 30
0.0
 11
-874.9999790191655
 21
6182.604459634489
 31
0.0
  0
LINE
  5
27D
  8
SAKUZU
  6
CONTINUOUS
 62
     0
 10
-275.5007083892827
 20
6182.604459634489
 30
0.0
 11
-874.4992343902593
 21
6182.604459634489
 31
0.0
  0
INSERT
  5
27E
  8
SAKUZU
 62
     0
  2
_DOT
 10
-274.9999637603764
 20
6182.604459634489
 30
0.0
 41
0.5007446289062499
 42
0.5007446289062499
 43
0.5007446289062499
  0
INSERT
  5
27F
  8
SAKUZU
 62
     0
  2
_DOT
 10
-874.9999790191655
 20
6182.604459634489
 30
0.0
 41
0.5007446289062499
 42
0.5007446289062499
 43
0.5007446289062499
 50
180.0
  0
TEXT
  5
280
  8
SAKUZU
  6
CONTINUOUS
 62
     0
 10
-621.2731815418874
 20
6182.804459633743
 30
0.0
 40
31.86024305555555
  1
600
  7
YUGOTHIC_MEDIUM
  0
POINT
  5
281
  8
DEFPOINTS
 62
     0
 10
-274.9999637603764
 20
6402.604459634489
 30
0.0
  0
POINT
  5
282
  8
DEFPOINTS
 62
     0
 10
-874.9999790191655
 20
6402.604459634489
 30
0.0
  0
POINT
  5
283
  8
DEFPOINTS
 62
     0
 10
-874.9999790191655
 20
6182.604459634489
 30
0.0
  0
ENDBLK
  5
B6
  8
0
  0
BLOCK
  8
0
  2
*D25
 70
     1
 10
0.0
 20
0.0
 30
0.0
  3
*D25
  1

  0
LINE
  5
284
  8
SAKUZU
  6
CONTINUOUS
 62
     0
 10
-24.99995803833076
 20
6649.604459634489
 30
0.0
 11
-24.99995803833076
 21
6182.604459634489
 31
0.0
  0
LINE
  5
285
  8
SAKUZU
  6
CONTINUOUS
 62
     0
 10
-274.9999637603764
 20
6399.604459634489
 30
0.0
 11
-274.9999637603764
 21
6182.604459634489
 31
0.0
  0
LINE
  5
286
  8
SAKUZU
  6
CONTINUOUS
 62
     0
 10
-25.50070266723701
 20
6182.604459634489
 30
0.0
 11
-274.4992191314702
 21
6182.604459634489
 31
0.0
  0
INSERT
  5
287
  8
SAKUZU
 62
     0
  2
_DOT
 10
-24.99995803833076
 20
6182.604459634489
 30
0.0
 41
0.5007446289062499
 42
0.5007446289062499
 43
0.5007446289062499
  0
INSERT
  5
288
  8
SAKUZU
 62
     0
  2
_DOT
 10
-274.9999637603764
 20
6182.604459634489
 30
0.0
 41
0.5007446289062499
 42
0.5007446289062499
 43
0.5007446289062499
 50
180.0
  0
TEXT
  5
289
  8
SAKUZU
  6
CONTINUOUS
 62
     0
 10
-195.5145938358615
 20
6182.804459633743
 30
0.0
 40
31.86024305555555
  1
250
  7
YUGOTHIC_MEDIUM
  0
POINT
  5
28A
  8
DEFPOINTS
 62
     0
 10
-24.99995803833076
 20
6652.604459634489
 30
0.0
  0
POINT
  5
28B
  8
DEFPOINTS
 62
     0
 10
-274.9999637603764
 20
6402.604459634489
 30
0.0
  0
POINT
  5
28C
  8
DEFPOINTS
 62
     0
 10
-274.9999637603764
 20
6182.604459634489
 30
0.0
  0
ENDBLK
  5
B9
  8
0
  0
BLOCK
  8
0
  2
*D26
 70
     1
 10
0.0
 20
0.0
 30
0.0
  3
*D26
  1

  0
LINE
  5
28D
  8
SAKUZU
  6
CONTINUOUS
 62
     0
 10
-24.99995803833076
 20
6649.604459634489
 30
0.0
 11
-24.99995803833076
 21
6082.604459634489
 31
0.0
  0
LINE
  5
28E
  8
SAKUZU
  6
CONTINUOUS
 62
     0
 10
-874.9999790191655
 20
6399.604459634489
 30
0.0
 11
-874.9999790191655
 21
6082.604459634489
 31
0.0
  0
LINE
  5
28F
  8
SAKUZU
  6
CONTINUOUS
 62
     0
 10
-25.50070266723701
 20
6082.604459634489
 30
0.0
 11
-874.4992343902593
 21
6082.604459634489
 31
0.0
  0
INSERT
  5
290
  8
SAKUZU
 62
     0
  2
_DOT
 10
-24.99995803833076
 20
6082.604459634489
 30
0.0
 41
0.5007446289062499
 42
0.5007446289062499
 43
0.5007446289062499
  0
INSERT
  5
291
  8
SAKUZU
 62
     0
  2
_DOT
 10
-874.9999790191655
 20
6082.604459634489
 30
0.0
 41
0.5007446289062499
 42
0.5007446289062499
 43
0.5007446289062499
 50
180.0
  0
TEXT
  5
292
  8
SAKUZU
  6
CONTINUOUS
 62
     0
 10
-495.514601465256
 20
6082.804459633743
 30
0.0
 40
31.86024305555555
  1
850
  7
YUGOTHIC_MEDIUM
  0
POINT
  5
293
  8
DEFPOINTS
 62
     0
 10
-24.99995803833076
 20
6652.604459634489
 30
0.0
  0
POINT
  5
294
  8
DEFPOINTS
 62
     0
 10
-874.9999790191655
 20
6402.604459634489
 30
0.0
  0
POINT
  5
295
  8
DEFPOINTS
 62
     0
 10
-874.9999790191655
 20
6082.604459634489
 30
0.0
  0
ENDBLK
  5
BC
  8
0
  0
BLOCK
  8
0
  2
*D27
 70
     1
 10
0.0
 20
0.0
 30
0.0
  3
*D27
  1

  0
LINE
  5
296
  8
SAKUZU
  6
CONTINUOUS
 62
     0
 10
-21.99995803833076
 20
7192.604459634489
 30
0.0
 11
95.00004196166924
 21
7192.604459634489
 31
0.0
  0
LINE
  5
297
  8
SAKUZU
  6
CONTINUOUS
 62
     0
 10
-21.99995803833076
 20
7252.604459634489
 30
0.0
 11
95.00004196166924
 21
7252.604459634489
 31
0.0
  0
LINE
  5
298
  8
SAKUZU
  6
CONTINUOUS
 62
     0
 10
95.00004196166924
 20
7193.105204263396
 30
0.0
 11
95.00004196166924
 21
7252.103715005583
 31
0.0
  0
INSERT
  5
299
  8
SAKUZU
 62
     0
  2
_DOT
 10
95.00004196166924
 20
7192.604459634489
 30
0.0
 41
0.5007446289062499
 42
0.5007446289062499
 43
0.5007446289062499
 50
270.0
  0
INSERT
  5
29A
  8
SAKUZU
 62
     0
  2
_DOT
 10
95.00004196166924
 20
7252.604459634489
 30
0.0
 41
0.5007446289062499
 42
0.5007446289062499
 43
0.5007446289062499
 50
90.0
  0
TEXT
  5
29B
  8
SAKUZU
  6
CONTINUOUS
 62
     0
 10
94.80004196241498
 20
7191.502793794542
 30
0.0
 40
31.86024305555555
  1
60
 50
90.0
  7
YUGOTHIC_MEDIUM
  0
POINT
  5
29C
  8
DEFPOINTS
 62
     0
 10
-24.99995803833076
 20
7192.604459634489
 30
0.0
  0
POINT
  5
29D
  8
DEFPOINTS
 62
     0
 10
-24.99995803833076
 20
7252.604459634489
 30
0.0
  0
POINT
  5
29E
  8
DEFPOINTS
 62
     0
 10
95.00004196166924
 20
7252.604459634489
 30
0.0
  0
ENDBLK
  5
BF
  8
0
  0
BLOCK
  8
0
  2
*D28
 70
     1
 10
0.0
 20
0.0
 30
0.0
  3
*D28
  1

  0
LINE
  5
29F
  8
SAKUZU
  6
CONTINUOUS
 62
     0
 10
-21.99995803833076
 20
6652.604459634489
 30
0.0
 11
95.00004196166904
 21
6652.604459634489
 31
0.0
  0
LINE
  5
2A0
  8
SAKUZU
  6
CONTINUOUS
 62
     0
 10
-21.99995803833076
 20
7192.604459634489
 30
0.0
 11
95.00004196166901
 21
7192.604459634489
 31
0.0
  0
LINE
  5
2A1
  8
SAKUZU
  6
CONTINUOUS
 62
     0
 10
95.00004196166904
 20
6653.105204263396
 30
0.0
 11
95.00004196166901
 21
7192.103715005583
 31
0.0
  0
INSERT
  5
2A2
  8
SAKUZU
 62
     0
  2
_DOT
 10
95.00004196166904
 20
6652.604459634489
 30
0.0
 41
0.5007446289062499
 42
0.5007446289062499
 43
0.5007446289062499
 50
270.0
  0
INSERT
  5
2A3
  8
SAKUZU
 62
     0
  2
_DOT
 10
95.00004196166901
 20
7192.604459634489
 30
0.0
 41
0.5007446289062499
 42
0.5007446289062499
 43
0.5007446289062499
 50
90.0
  0
TEXT
  5
2A4
  8
SAKUZU
  6
CONTINUOUS
 62
     0
 10
94.80004196241498
 20
6877.089826697981
 30
0.0
 40
31.86024305555555
  1
540
 50
90.0
  7
YUGOTHIC_MEDIUM
  0
POINT
  5
2A5
  8
DEFPOINTS
 62
     0
 10
-24.99995803833076
 20
6652.604459634489
 30
0.0
  0
POINT
  5
2A6
  8
DEFPOINTS
 62
     0
 10
-24.99995803833076
 20
7192.604459634489
 30
0.0
  0
POINT
  5
2A7
  8
DEFPOINTS
 62
     0
 10
95.00004196166901
 20
7192.604459634489
 30
0.0
  0
ENDBLK
  5
C2
  8
0
  0
BLOCK
  8
0
  2
*D29
 70
     1
 10
0.0
 20
0.0
 30
0.0
  3
*D29
  1

  0
LINE
  5
2A8
  8
SAKUZU
  6
CONTINUOUS
 62
     0
 10
-21.99995803833076
 20
6652.604459634489
 30
0.0
 11
195.0000419616693
 21
6652.604459634489
 31
0.0
  0
LINE
  5
2A9
  8
SAKUZU
  6
CONTINUOUS
 62
     0
 10
-21.99995803833076
 20
7252.604459634489
 30
0.0
 11
195.0000419616692
 21
7252.604459634489
 31
0.0
  0
LINE
  5
2AA
  8
SAKUZU
  6
CONTINUOUS
 62
     0
 10
195.0000419616693
 20
6653.105204263396
 30
0.0
 11
195.0000419616692
 21
7252.103715005583
 31
0.0
  0
INSERT
  5
2AB
  8
SAKUZU
 62
     0
  2
_DOT
 10
195.0000419616693
 20
6652.604459634489
 30
0.0
 41
0.5007446289062499
 42
0.5007446289062499
 43
0.5007446289062499
 50
270.0
  0
INSERT
  5
2AC
  8
SAKUZU
 62
     0
  2
_DOT
 10
195.0000419616692
 20
7252.604459634489
 30
0.0
 41
0.5007446289062499
 42
0.5007446289062499
 43
0.5007446289062499
 50
90.0
  0
TEXT
  5
2AD
  8
SAKUZU
  6
CONTINUOUS
 62
     0
 10
194.800041962415
 20
6906.331249482372
 30
0.0
 40
31.86024305555555
  1
600
 50
90.0
  7
YUGOTHIC_MEDIUM
  0
POINT
  5
2AE
  8
DEFPOINTS
 62
     0
 10
-24.99995803833076
 20
6652.604459634489
 30
0.0
  0
POINT
  5
2AF
  8
DEFPOINTS
 62
     0
 10
-24.99995803833076
 20
7252.604459634489
 30
0.0
  0
POINT
  5
2B0
  8
DEFPOINTS
 62
     0
 10
195.0000419616692
 20
7252.604459634489
 30
0.0
  0
ENDBLK
  5
C5
  8
0
  0
BLOCK
  8
0
  2
*D30
 70
     1
 10
0.0
 20
0.0
 30
0.0
  3
*D30
  1

  0
LINE
  5
2B1
  8
SAKUZU
  6
CONTINUOUS
 62
     0
 10
-271.9999637603764
 20
6402.604459634489
 30
0.0
 11
195.0000419616693
 21
6402.604459634489
 31
0.0
  0
LINE
  5
2B2
  8
SAKUZU
  6
CONTINUOUS
 62
     0
 10
-21.99995803833076
 20
6652.604459634489
 30
0.0
 11
195.0000419616692
 21
6652.604459634489
 31
0.0
  0
LINE
  5
2B3
  8
SAKUZU
  6
CONTINUOUS
 62
     0
 10
195.0000419616693
 20
6403.105204263396
 30
0.0
 11
195.0000419616692
 21
6652.103715005583
 31
0.0
  0
INSERT
  5
2B4
  8
SAKUZU
 62
     0
  2
_DOT
 10
195.0000419616693
 20
6402.604459634489
 30
0.0
 41
0.5007446289062499
 42
0.5007446289062499
 43
0.5007446289062499
 50
270.0
  0
INSERT
  5
2B5
  8
SAKUZU
 62
     0
  2
_DOT
 10
195.0000419616692
 20
6652.604459634489
 30
0.0
 41
0.5007446289062499
 42
0.5007446289062499
 43
0.5007446289062499
 50
90.00000000000001
  0
TEXT
  5
2B6
  8
SAKUZU
  6
CONTINUOUS
 62
     0
 10
194.800041962415
 20
6482.089826697981
 30
0.0
 40
31.86024305555555
  1
250
 50
90.00000000000001
  7
YUGOTHIC_MEDIUM
  0
POINT
  5
2B7
  8
DEFPOINTS
 62
     0
 10
-274.9999637603764
 20
6402.604459634489
 30
0.0
  0
POINT
  5
2B8
  8
DEFPOINTS
 62
     0
 10
-24.99995803833076
 20
6652.604459634489
 30
0.0
  0
POINT
  5
2B9
  8
DEFPOINTS
 62
     0
 10
195.0000419616692
 20
6652.604459634489
 30
0.0
  0
ENDBLK
  5
C8
  8
0
  0
BLOCK
  8
0
  2
*D31
 70
     1
 10
0.0
 20
0.0
 30
0.0
  3
*D31
  1

  0
LINE
  5
2BA
  8
SAKUZU
  6
CONTINUOUS
 62
     0
 10
-271.9999637603764
 20
6402.604459634489
 30
0.0
 11
295.0000419616694
 21
6402.604459634489
 31
0.0
  0
LINE
  5
2BB
  8
SAKUZU
  6
CONTINUOUS
 62
     0
 10
-21.99995803833076
 20
7252.604459634489
 30
0.0
 11
295.0000419616693
 21
7252.604459634489
 31
0.0
  0
LINE
  5
2BC
  8
SAKUZU
  6
CONTINUOUS
 62
     0
 10
295.0000419616694
 20
6403.105204263396
 30
0.0
 11
295.0000419616693
 21
7252.103715005583
 31
0.0
  0
INSERT
  5
2BD
  8
SAKUZU
 62
     0
  2
_DOT
 10
295.0000419616694
 20
6402.604459634489
 30
0.0
 41
0.5007446289062499
 42
0.5007446289062499
 43
0.5007446289062499
 50
270.0
  0
INSERT
  5
2BE
  8
SAKUZU
 62
     0
  2
_DOT
 10
295.0000419616693
 20
7252.604459634489
 30
0.0
 41
0.5007446289062499
 42
0.5007446289062499
 43
0.5007446289062499
 50
90.0
  0
TEXT
  5
2BF
  8
SAKUZU
  6
CONTINUOUS
 62
     0
 10
294.800041962415
 20
6782.089826697981
 30
0.0
 40
31.86024305555555
  1
850
 50
90.0
  7
YUGOTHIC_MEDIUM
  0
POINT
  5
2C0
  8
DEFPOINTS
 62
     0
 10
-274.9999637603764
 20
6402.604459634489
 30
0.0
  0
POINT
  5
2C1
  8
DEFPOINTS
 62
     0
 10
-24.99995803833076
 20
7252.604459634489
 30
0.0
  0
POINT
  5
2C2
  8
DEFPOINTS
 62
     0
 10
295.0000419616693
 20
7252.604459634489
 30
0.0
  0
ENDBLK
  5
CB
  8
0
  0
BLOCK
  8
0
  2
_DOT
 70
     0
 10
0.0
 20
0.0
 30
0.0
  3
_DOT
  1

  0
POLYLINE
  5
1BA
  8
0
  6
BYBLOCK
 62
     0
 66
     1
 10
0.0
 20
0.0
 30
0.0
 70
     1
 40
0.5
 41
0.5
  0
VERTEX
  5
5EF
  8
0
  6
BYBLOCK
 62
     0
 10
-0.25
 20
0.0
 30
0.0
 42
1.0
  0
VERTEX
  5
5F0
  8
0
  6
BYBLOCK
 62
     0
 10
0.25
 20
0.0
 30
0.0
 42
1.0
  0
SEQEND
  5
5F1
  8
0
  6
BYBLOCK
 62
     0
  0
LINE
  5
1BB
  8
0
  6
BYBLOCK
 62
     0
 10
-0.5
 20
0.0
 30
0.0
 11
-1.0
 21
0.0
 31
0.0
  0
ENDBLK
  5
1B9
  8
0
  0
ENDSEC
  0
SECTION
  2
ENTITIES
  0
POLYLINE
  5
2C3
  8
020
  6
CONTINUOUS
 62
     1
 66
     1
 10
0.0
 20
0.0
 30
0.0
 70
   129
  0
VERTEX
  5
2C4
  8
020
  6
CONTINUOUS
 62
     1
 10
749.9048257883746
 20
348.2826074618756
 30
0.0
  0
VERTEX
  5
2C5
  8
020
  6
CONTINUOUS
 62
     1
 10
760.4027853330043
 20
348.2826074618756
 30
0.0
  0
VERTEX
  5
2C6
  8
020
  6
CONTINUOUS
 62
     1
 10
760.4027853330043
 20
343.0826074618756
 30
0.0
  0
VERTEX
  5
2C7
  8
020
  6
CONTINUOUS
 62
     1
 10
749.9048257883746
 20
343.0826074618756
 30
0.0
  0
SEQEND
  5
2C8
  8
020
  6
CONTINUOUS
 62
     1
  0
TEXT
  5
2C9
  8
020
 62
     1
 10
753.1544014544509
 20
344.8323852396534
 30
0.0
 40
2.124016203703704
  1
NO
  7
YUGOTHIC_MEDIUM
 11
753.1544014544509
 21
346.9564014433571
 31
0.0
 73
     3
  0
TEXT
  5
2CA
  8
020
 62
     1
 10
768.7815833384673
 20
344.8057185729867
 30
0.0
 40
2.124016203703704
  1
名称
  7
YUGOTHIC_MEDIUM
 11
768.7815833384673
 21
346.9297347766905
 31
0.0
 73
     3
  0
POLYLINE
  5
2CB
  8
020
  6
CONTINUOUS
 62
     1
 66
     1
 10
0.0
 20
0.0
 30
0.0
 70
   129
  0
VERTEX
  5
2CC
  8
020
  6
CONTINUOUS
 62
     1
 10
760.4027853330043
 20
348.2826074618756
 30
0.0
  0
VERTEX
  5
2CD
  8
020
  6
CONTINUOUS
 62
     1
 10
782.8048257883746
 20
348.2826074618756
 30
0.0
  0
VERTEX
  5
2CE
  8
020
  6
CONTINUOUS
 62
     1
 10
782.8048257883746
 20
343.0826074618756
 30
0.0
  0
VERTEX
  5
2CF
  8
020
  6
CONTINUOUS
 62
     1
 10
760.4027853330043
 20
343.0826074618756
 30
0.0
  0
SEQEND
  5
2D0
  8
020
  6
CONTINUOUS
 62
     1
  0
POLYLINE
  5
2D1
  8
020
  6
CONTINUOUS
 62
     1
 66
     1
 10
0.0
 20
0.0
 30
0.0
 70
   129
  0
VERTEX
  5
2D2
  8
020
  6
CONTINUOUS
 62
     1
 10
782.8048257883746
 20
348.2826074618756
 30
0.0
  0
VERTEX
  5
2D3
  8
020
  6
CONTINUOUS
 62
     1
 10
813.4548257883746
 20
348.2826074618756
 30
0.0
  0
VERTEX
  5
2D4
  8
020
  6
CONTINUOUS
 62
     1
 10
813.4548257883746
 20
343.0826074618756
 30
0.0
  0
VERTEX
  5
2D5
  8
020
  6
CONTINUOUS
 62
     1
 10
782.8048257883746
 20
343.0826074618756
 30
0.0
  0
SEQEND
  5
2D6
  8
020
  6
CONTINUOUS
 62
     1
  0
TEXT
  5
2D7
  8
020
 62
     1
 10
795.1437146772635
 20
344.8157185729867
 30
0.0
 40
2.124016203703704
  1
材質
  7
YUGOTHIC_MEDIUM
 11
795.1437146772635
 21
346.9397347766904
 31
0.0
 73
     3
  0
POLYLINE
  5
2D8
  8
020
  6
CONTINUOUS
 62
     1
 66
     1
 10
0.0
 20
0.0
 30
0.0
 70
   129
  0
VERTEX
  5
2D9
  8
020
  6
CONTINUOUS
 62
     1
 10
749.9048257883746
 20
343.0826074618756
 30
0.0
  0
VERTEX
  5
2DA
  8
020
  6
CONTINUOUS
 62
     1
 10
760.4027853330043
 20
343.0826074618756
 30
0.0
  0
VERTEX
  5
2DB
  8
020
  6
CONTINUOUS
 62
     1
 10
760.4027853330043
 20
337.8826074618755
 30
0.0
  0
VERTEX
  5
2DC
  8
020
  6
CONTINUOUS
 62
     1
 10
749.9048257883746
 20
337.8826074618755
 30
0.0
  0
SEQEND
  5
2DD
  8
020
  6
CONTINUOUS
 62
     1
  0
POLYLINE
  5
2DE
  8
020
  6
CONTINUOUS
 62
     1
 66
     1
 10
0.0
 20
0.0
 30
0.0
 70
   129
  0
VERTEX
  5
2DF
  8
020
  6
CONTINUOUS
 62
     1
 10
760.4027853330043
 20
343.0826074618756
 30
0.0
  0
VERTEX
  5
2E0
  8
020
  6
CONTINUOUS
 62
     1
 10
782.8048257883746
 20
343.0826074618756
 30
0.0
  0
VERTEX
  5
2E1
  8
020
  6
CONTINUOUS
 62
     1
 10
782.8048257883746
 20
337.8826074618755
 30
0.0
  0
VERTEX
  5
2E2
  8
020
  6
CONTINUOUS
 62
     1
 10
760.4027853330043
 20
337.8826074618755
 30
0.0
  0
SEQEND
  5
2E3
  8
020
  6
CONTINUOUS
 62
     1
  0
POLYLINE
  5
2E4
  8
020
  6
CONTINUOUS
 62
     1
 66
     1
 10
0.0
 20
0.0
 30
0.0
 70
   129
  0
VERTEX
  5
2E5
  8
020
  6
CONTINUOUS
 62
     1
 10
782.8048257883746
 20
343.0826074618756
 30
0.0
  0
VERTEX
  5
2E6
  8
020
  6
CONTINUOUS
 62
     1
 10
813.4548257883746
 20
343.0826074618756
 30
0.0
  0
VERTEX
  5
2E7
  8
020
  6
CONTINUOUS
 62
     1
 10
813.4548257883746
 20
337.8826074618755
 30
0.0
  0
VERTEX
  5
2E8
  8
020
  6
CONTINUOUS
 62
     1
 10
782.8048257883746
 20
337.8826074618755
 30
0.0
  0
SEQEND
  5
2E9
  8
020
  6
CONTINUOUS
 62
     1
  0
TEXT
  5
2EA
  8
SAKUZU
 62
     1
 10
754.1113490455264
 20
329.2678131722171
 30
0.0
 40
2.124016203703704
  1
3
  7
YUGOTHIC_MEDIUM
 72
     1
 11
755.1227853330043
 21
329.2678131722171
 31
0.0
  0
TEXT
  5
2EB
  8
SAKUZU
 62
     1
 10
770.6424926742741
 20
323.6626074618752
 30
0.0
 40
2.124016203703704
  1
脚
  7
YUGOTHIC_MEDIUM
 72
     1
 11
771.5527853330043
 21
323.6626074618752
 31
0.0
  0
TEXT
  5
2EC
  8
SAKUZU
 62
     1
 10
767.1533624947238
 20
334.2101630174311
 30
0.0
 40
2.124016203703704
  1
トップ補強
  7
YUGOTHIC_MEDIUM
 72
     1
 11
771.7048257883746
 21
334.2101630174311
 31
0.0
  0
TEXT
  5
2ED
  8
SAKUZU
 62
     1
 10
754.2435129019592
 20
334.2101630174311
 30
0.0
 40
2.124016203703704
  1
２
  7
YUGOTHIC_MEDIUM
 72
     1
 11
755.1538055606894
 21
334.2101630174311
 31
0.0
  0
TEXT
  5
2EE
  8
SAKUZU
 62
     1
 10
754.2435129019592
 20
339.4101630174312
 30
0.0
 40
2.124016203703704
  1
１
  7
YUGOTHIC_MEDIUM
 72
     1
 11
755.1538055606894
 21
339.4101630174312
 31
0.0
  0
TEXT
  5
2EF
  8
SAKUZU
 62
     1
 10
768.9739478121841
 20
339.4101630174312
 30
0.0
 40
2.124016203703704
  1
トップ
  7
YUGOTHIC_MEDIUM
 72
     1
 11
771.7048257883746
 21
339.4101630174312
 31
0.0
  0
TEXT
  5
2F0
  8
SAKUZU
 62
     1
 10
792.6680698359936
 20
339.4101630174312
 30
0.0
 40
2.124016203703704
  1
ＳＵＳ４３０
  7
YUGOTHIC_MEDIUM
 72
     1
 11
798.1298257883745
 21
339.4101630174312
 31
0.0
  0
TEXT
  5
2F1
  8
SAKUZU
 62
     1
 10
754.0917974588376
 20
323.7478863284324
 30
0.0
 40
2.124016203703704
  1
4
  7
YUGOTHIC_MEDIUM
 72
     1
 11
755.1538055606894
 21
323.7478863284324
 31
0.0
  0
TEXT
  5
2F2
  8
SAKUZU
 62
     1
 10
792.6680698359936
 20
323.810163017431
 30
0.0
 40
2.124016203703704
  1
ＳＵＳ３０４
  7
YUGOTHIC_MEDIUM
 72
     1
 11
798.1298257883745
 21
323.810163017431
 31
0.0
  0
TEXT
  5
2F3
  8
SAKUZU
 62
     1
 10
767.0523422670386
 20
318.610163017431
 30
0.0
 40
2.124016203703704
  1
アジャスト
  7
YUGOTHIC_MEDIUM
 72
     1
 11
771.6038055606895
 21
318.610163017431
 31
0.0
  0
TEXT
  5
2F4
  8
SAKUZU
 62
     1
 10
754.1423692732114
 20
318.610163017431
 30
0.0
 40
2.124016203703704
  1
5
  7
YUGOTHIC_MEDIUM
 72
     1
 11
755.1538055606894
 21
318.610163017431
 31
0.0
  0
TEXT
  5
2F5
  8
SAKUZU
 62
     1
 10
792.6680698359936
 20
318.3915068609244
 30
0.0
 40
2.124016203703704
  1
ＳＵＳ３０４
  7
YUGOTHIC_MEDIUM
 72
     1
 11
798.1298257883745
 21
318.3915068609244
 31
0.0
  0
POLYLINE
  5
2F6
  8
020
  6
CONTINUOUS
 62
     1
 66
     1
 10
0.0
 20
0.0
 30
0.0
 70
   129
  0
VERTEX
  5
2F7
  8
020
  6
CONTINUOUS
 62
     1
 10
813.4548257883746
 20
348.2826074618756
 30
0.0
  0
VERTEX
  5
2F8
  8
020
  6
CONTINUOUS
 62
     1
 10
846.5048257883745
 20
348.2826074618756
 30
0.0
  0
VERTEX
  5
2F9
  8
020
  6
CONTINUOUS
 62
     1
 10
846.5048257883745
 20
343.0826074618756
 30
0.0
  0
VERTEX
  5
2FA
  8
020
  6
CONTINUOUS
 62
     1
 10
813.4548257883746
 20
343.0826074618756
 30
0.0
  0
SEQEND
  5
2FB
  8
020
  6
CONTINUOUS
 62
     1
  0
TEXT
  5
2FC
  8
020
 62
     1
 10
827.3687146772635
 20
344.8157185729867
 30
0.0
 40
2.124016203703704
  1
仕様
  7
YUGOTHIC_MEDIUM
 11
827.3687146772635
 21
346.9397347766904
 31
0.0
 73
     3
  0
POLYLINE
  5
2FD
  8
020
  6
CONTINUOUS
 62
     1
 66
     1
 10
0.0
 20
0.0
 30
0.0
 70
   129
  0
VERTEX
  5
2FE
  8
020
  6
CONTINUOUS
 62
     1
 10
813.4548257883746
 20
343.0826074618756
 30
0.0
  0
VERTEX
  5
2FF
  8
020
  6
CONTINUOUS
 62
     1
 10
846.5048257883745
 20
343.0826074618756
 30
0.0
  0
VERTEX
  5
300
  8
020
  6
CONTINUOUS
 62
     1
 10
846.5048257883745
 20
337.8826074618755
 30
0.0
  0
VERTEX
  5
301
  8
020
  6
CONTINUOUS
 62
     1
 10
813.4548257883746
 20
337.8826074618755
 30
0.0
  0
SEQEND
  5
302
  8
020
  6
CONTINUOUS
 62
     1
  0
POLYLINE
  5
303
  8
020
  6
CONTINUOUS
 62
     1
 66
     1
 10
0.0
 20
0.0
 30
0.0
 70
   129
  0
VERTEX
  5
304
  8
020
  6
CONTINUOUS
 62
     1
 10
749.9048257883746
 20
337.8826074618755
 30
0.0
  0
VERTEX
  5
305
  8
020
  6
CONTINUOUS
 62
     1
 10
760.4027853330043
 20
337.8826074618755
 30
0.0
  0
VERTEX
  5
306
  8
020
  6
CONTINUOUS
 62
     1
 10
760.4027853330043
 20
332.6826074618755
 30
0.0
  0
VERTEX
  5
307
  8
020
  6
CONTINUOUS
 62
     1
 10
749.9048257883746
 20
332.6826074618755
 30
0.0
  0
SEQEND
  5
308
  8
020
  6
CONTINUOUS
 62
     1
  0
POLYLINE
  5
309
  8
020
  6
CONTINUOUS
 62
     1
 66
     1
 10
0.0
 20
0.0
 30
0.0
 70
   129
  0
VERTEX
  5
30A
  8
020
  6
CONTINUOUS
 62
     1
 10
760.4027853330043
 20
337.8826074618755
 30
0.0
  0
VERTEX
  5
30B
  8
020
  6
CONTINUOUS
 62
     1
 10
782.8048257883746
 20
337.8826074618755
 30
0.0
  0
VERTEX
  5
30C
  8
020
  6
CONTINUOUS
 62
     1
 10
782.8048257883746
 20
332.6826074618755
 30
0.0
  0
VERTEX
  5
30D
  8
020
  6
CONTINUOUS
 62
     1
 10
760.4027853330043
 20
332.6826074618755
 30
0.0
  0
SEQEND
  5
30E
  8
020
  6
CONTINUOUS
 62
     1
  0
POLYLINE
  5
30F
  8
020
  6
CONTINUOUS
 62
     1
 66
     1
 10
0.0
 20
0.0
 30
0.0
 70
   129
  0
VERTEX
  5
310
  8
020
  6
CONTINUOUS
 62
     1
 10
782.8048257883746
 20
337.8826074618755
 30
0.0
  0
VERTEX
  5
311
  8
020
  6
CONTINUOUS
 62
     1
 10
813.4548257883746
 20
337.8826074618755
 30
0.0
  0
VERTEX
  5
312
  8
020
  6
CONTINUOUS
 62
     1
 10
813.4548257883746
 20
332.6826074618755
 30
0.0
  0
VERTEX
  5
313
  8
020
  6
CONTINUOUS
 62
     1
 10
782.8048257883746
 20
332.6826074618755
 30
0.0
  0
SEQEND
  5
314
  8
020
  6
CONTINUOUS
 62
     1
  0
POLYLINE
  5
315
  8
020
  6
CONTINUOUS
 62
     1
 66
     1
 10
0.0
 20
0.0
 30
0.0
 70
   129
  0
VERTEX
  5
316
  8
020
  6
CONTINUOUS
 62
     1
 10
813.4548257883746
 20
337.8826074618755
 30
0.0
  0
VERTEX
  5
317
  8
020
  6
CONTINUOUS
 62
     1
 10
846.5048257883745
 20
337.8826074618755
 30
0.0
  0
VERTEX
  5
318
  8
020
  6
CONTINUOUS
 62
     1
 10
846.5048257883745
 20
332.6826074618755
 30
0.0
  0
VERTEX
  5
319
  8
020
  6
CONTINUOUS
 62
     1
 10
813.4548257883746
 20
332.6826074618755
 30
0.0
  0
SEQEND
  5
31A
  8
020
  6
CONTINUOUS
 62
     1
  0
POLYLINE
  5
31B
  8
020
  6
CONTINUOUS
 62
     1
 66
     1
 10
0.0
 20
0.0
 30
0.0
 70
   129
  0
VERTEX
  5
31C
  8
020
  6
CONTINUOUS
 62
     1
 10
749.9048257883746
 20
332.6826074618755
 30
0.0
  0
VERTEX
  5
31D
  8
020
  6
CONTINUOUS
 62
     1
 10
760.4027853330043
 20
332.6826074618755
 30
0.0
  0
VERTEX
  5
31E
  8
020
  6
CONTINUOUS
 62
     1
 10
760.4027853330043
 20
327.4826074618754
 30
0.0
  0
VERTEX
  5
31F
  8
020
  6
CONTINUOUS
 62
     1
 10
749.9048257883746
 20
327.4826074618754
 30
0.0
  0
SEQEND
  5
320
  8
020
  6
CONTINUOUS
 62
     1
  0
POLYLINE
  5
321
  8
020
  6
CONTINUOUS
 62
     1
 66
     1
 10
0.0
 20
0.0
 30
0.0
 70
   129
  0
VERTEX
  5
322
  8
020
  6
CONTINUOUS
 62
     1
 10
760.4027853330043
 20
332.6826074618755
 30
0.0
  0
VERTEX
  5
323
  8
020
  6
CONTINUOUS
 62
     1
 10
782.8048257883746
 20
332.6826074618755
 30
0.0
  0
VERTEX
  5
324
  8
020
  6
CONTINUOUS
 62
     1
 10
782.8048257883746
 20
327.4826074618754
 30
0.0
  0
VERTEX
  5
325
  8
020
  6
CONTINUOUS
 62
     1
 10
760.4027853330043
 20
327.4826074618754
 30
0.0
  0
SEQEND
  5
326
  8
020
  6
CONTINUOUS
 62
     1
  0
POLYLINE
  5
327
  8
020
  6
CONTINUOUS
 62
     1
 66
     1
 10
0.0
 20
0.0
 30
0.0
 70
   129
  0
VERTEX
  5
328
  8
020
  6
CONTINUOUS
 62
     1
 10
782.8048257883746
 20
332.6826074618755
 30
0.0
  0
VERTEX
  5
329
  8
020
  6
CONTINUOUS
 62
     1
 10
813.4548257883746
 20
332.6826074618755
 30
0.0
  0
VERTEX
  5
32A
  8
020
  6
CONTINUOUS
 62
     1
 10
813.4548257883746
 20
327.4826074618754
 30
0.0
  0
VERTEX
  5
32B
  8
020
  6
CONTINUOUS
 62
     1
 10
782.8048257883746
 20
327.4826074618754
 30
0.0
  0
SEQEND
  5
32C
  8
020
  6
CONTINUOUS
 62
     1
  0
POLYLINE
  5
32D
  8
020
  6
CONTINUOUS
 62
     1
 66
     1
 10
0.0
 20
0.0
 30
0.0
 70
   129
  0
VERTEX
  5
32E
  8
020
  6
CONTINUOUS
 62
     1
 10
813.4548257883746
 20
332.6826074618755
 30
0.0
  0
VERTEX
  5
32F
  8
020
  6
CONTINUOUS
 62
     1
 10
846.5048257883745
 20
332.6826074618755
 30
0.0
  0
VERTEX
  5
330
  8
020
  6
CONTINUOUS
 62
     1
 10
846.5048257883745
 20
327.4826074618754
 30
0.0
  0
VERTEX
  5
331
  8
020
  6
CONTINUOUS
 62
     1
 10
813.4548257883746
 20
327.4826074618754
 30
0.0
  0
SEQEND
  5
332
  8
020
  6
CONTINUOUS
 62
     1
  0
POLYLINE
  5
333
  8
020
  6
CONTINUOUS
 62
     1
 66
     1
 10
0.0
 20
0.0
 30
0.0
 70
   129
  0
VERTEX
  5
334
  8
020
  6
CONTINUOUS
 62
     1
 10
749.9048257883746
 20
327.4826074618755
 30
0.0
  0
VERTEX
  5
335
  8
020
  6
CONTINUOUS
 62
     1
 10
760.4027853330043
 20
327.4826074618755
 30
0.0
  0
VERTEX
  5
336
  8
020
  6
CONTINUOUS
 62
     1
 10
760.4027853330043
 20
322.2826074618755
 30
0.0
  0
VERTEX
  5
337
  8
020
  6
CONTINUOUS
 62
     1
 10
749.9048257883746
 20
322.2826074618755
 30
0.0
  0
SEQEND
  5
338
  8
020
  6
CONTINUOUS
 62
     1
  0
POLYLINE
  5
339
  8
020
  6
CONTINUOUS
 62
     1
 66
     1
 10
0.0
 20
0.0
 30
0.0
 70
   129
  0
VERTEX
  5
33A
  8
020
  6
CONTINUOUS
 62
     1
 10
760.4027853330043
 20
327.4826074618755
 30
0.0
  0
VERTEX
  5
33B
  8
020
  6
CONTINUOUS
 62
     1
 10
782.8048257883746
 20
327.4826074618755
 30
0.0
  0
VERTEX
  5
33C
  8
020
  6
CONTINUOUS
 62
     1
 10
782.8048257883746
 20
322.2826074618755
 30
0.0
  0
VERTEX
  5
33D
  8
020
  6
CONTINUOUS
 62
     1
 10
760.4027853330043
 20
322.2826074618755
 30
0.0
  0
SEQEND
  5
33E
  8
020
  6
CONTINUOUS
 62
     1
  0
POLYLINE
  5
33F
  8
020
  6
CONTINUOUS
 62
     1
 66
     1
 10
0.0
 20
0.0
 30
0.0
 70
   129
  0
VERTEX
  5
340
  8
020
  6
CONTINUOUS
 62
     1
 10
782.8048257883746
 20
327.4826074618754
 30
0.0
  0
VERTEX
  5
341
  8
020
  6
CONTINUOUS
 62
     1
 10
813.4548257883746
 20
327.4826074618754
 30
0.0
  0
VERTEX
  5
342
  8
020
  6
CONTINUOUS
 62
     1
 10
813.4548257883746
 20
322.2826074618754
 30
0.0
  0
VERTEX
  5
343
  8
020
  6
CONTINUOUS
 62
     1
 10
782.8048257883746
 20
322.2826074618754
 30
0.0
  0
SEQEND
  5
344
  8
020
  6
CONTINUOUS
 62
     1
  0
POLYLINE
  5
345
  8
020
  6
CONTINUOUS
 62
     1
 66
     1
 10
0.0
 20
0.0
 30
0.0
 70
   129
  0
VERTEX
  5
346
  8
020
  6
CONTINUOUS
 62
     1
 10
813.4548257883746
 20
327.4826074618754
 30
0.0
  0
VERTEX
  5
347
  8
020
  6
CONTINUOUS
 62
     1
 10
846.5048257883745
 20
327.4826074618754
 30
0.0
  0
VERTEX
  5
348
  8
020
  6
CONTINUOUS
 62
     1
 10
846.5048257883745
 20
322.2826074618754
 30
0.0
  0
VERTEX
  5
349
  8
020
  6
CONTINUOUS
 62
     1
 10
813.4548257883746
 20
322.2826074618754
 30
0.0
  0
SEQEND
  5
34A
  8
020
  6
CONTINUOUS
 62
     1
  0
POLYLINE
  5
34B
  8
020
  6
CONTINUOUS
 62
     1
 66
     1
 10
0.0
 20
0.0
 30
0.0
 70
   129
  0
VERTEX
  5
34C
  8
020
  6
CONTINUOUS
 62
     1
 10
749.9048257883746
 20
322.2826074618755
 30
0.0
  0
VERTEX
  5
34D
  8
020
  6
CONTINUOUS
 62
     1
 10
760.4027853330043
 20
322.2826074618755
 30
0.0
  0
VERTEX
  5
34E
  8
020
  6
CONTINUOUS
 62
     1
 10
760.4027853330043
 20
317.0826074618755
 30
0.0
  0
VERTEX
  5
34F
  8
020
  6
CONTINUOUS
 62
     1
 10
749.9048257883746
 20
317.0826074618755
 30
0.0
  0
SEQEND
  5
350
  8
020
  6
CONTINUOUS
 62
     1
  0
POLYLINE
  5
351
  8
020
  6
CONTINUOUS
 62
     1
 66
     1
 10
0.0
 20
0.0
 30
0.0
 70
   129
  0
VERTEX
  5
352
  8
020
  6
CONTINUOUS
 62
     1
 10
760.4027853330043
 20
322.2826074618755
 30
0.0
  0
VERTEX
  5
353
  8
020
  6
CONTINUOUS
 62
     1
 10
782.8048257883746
 20
322.2826074618755
 30
0.0
  0
VERTEX
  5
354
  8
020
  6
CONTINUOUS
 62
     1
 10
782.8048257883746
 20
317.0826074618755
 30
0.0
  0
VERTEX
  5
355
  8
020
  6
CONTINUOUS
 62
     1
 10
760.4027853330043
 20
317.0826074618755
 30
0.0
  0
SEQEND
  5
356
  8
020
  6
CONTINUOUS
 62
     1
  0
POLYLINE
  5
357
  8
020
  6
CONTINUOUS
 62
     1
 66
     1
 10
0.0
 20
0.0
 30
0.0
 70
   129
  0
VERTEX
  5
358
  8
020
  6
CONTINUOUS
 62
     1
 10
782.8048257883746
 20
322.2826074618755
 30
0.0
  0
VERTEX
  5
359
  8
020
  6
CONTINUOUS
 62
     1
 10
813.4548257883746
 20
322.2826074618755
 30
0.0
  0
VERTEX
  5
35A
  8
020
  6
CONTINUOUS
 62
     1
 10
813.4548257883746
 20
317.0826074618755
 30
0.0
  0
VERTEX
  5
35B
  8
020
  6
CONTINUOUS
 62
     1
 10
782.8048257883746
 20
317.0826074618755
 30
0.0
  0
SEQEND
  5
35C
  8
020
  6
CONTINUOUS
 62
     1
  0
POLYLINE
  5
35D
  8
020
  6
CONTINUOUS
 62
     1
 66
     1
 10
0.0
 20
0.0
 30
0.0
 70
   129
  0
VERTEX
  5
35E
  8
020
  6
CONTINUOUS
 62
     1
 10
813.4548257883746
 20
322.2826074618755
 30
0.0
  0
VERTEX
  5
35F
  8
020
  6
CONTINUOUS
 62
     1
 10
846.5048257883745
 20
322.2826074618755
 30
0.0
  0
VERTEX
  5
360
  8
020
  6
CONTINUOUS
 62
     1
 10
846.5048257883745
 20
317.0826074618755
 30
0.0
  0
VERTEX
  5
361
  8
020
  6
CONTINUOUS
 62
     1
 10
813.4548257883746
 20
317.0826074618755
 30
0.0
  0
SEQEND
  5
362
  8
020
  6
CONTINUOUS
 62
     1
  0
TEXT
  5
363
  8
SAKUZU
 62
     1
 10
795.398947812184
 20
334.2714465039128
 30
0.0
 40
2.124016203703704
  1
ホンデ
  7
YUGOTHIC_MEDIUM
 72
     1
 11
798.1298257883745
 21
334.2714465039128
 31
0.0
  0
TEXT
  5
364
  8
SAKUZU
 62
     1
 10
820.6876590678783
 20
339.4101630174312
 30
0.0
 40
2.124016203703704
  1
t 1.0 NO.4仕上
  7
YUGOTHIC_MEDIUM
  0
TEXT
  5
365
  8
SAKUZU
 62
     1
 10
820.6876590678783
 20
334.2101630174311
 30
0.0
 40
2.124016203703704
  1
t 1.0
  7
YUGOTHIC_MEDIUM
  0
TEXT
  5
366
  8
SAKUZU
 62
     1
 10
823.7709367649117
 20
323.810163017431
 30
0.0
 40
2.124016203703704
  1
t 1.0 φ38
  7
YUGOTHIC_MEDIUM
  0
TEXT
  5
367
  8
SAKUZU
 62
     1
 10
762.7136551534539
 20
308.2101630174309
 30
0.0
 40
2.124016203703704
  1
製品重量
  7
YUGOTHIC_MEDIUM
 72
     1
 11
766.3548257883746
 21
308.2101630174309
 31
0.0
  0
POLYLINE
  5
368
  8
020
  6
CONTINUOUS
 62
     1
 66
     1
 10
0.0
 20
0.0
 30
0.0
 70
   129
  0
VERTEX
  5
369
  8
020
  6
CONTINUOUS
 62
     1
 10
749.9048257883746
 20
311.8826074618754
 30
0.0
  0
VERTEX
  5
36A
  8
020
  6
CONTINUOUS
 62
     1
 10
782.8048257883746
 20
311.8826074618754
 30
0.0
  0
VERTEX
  5
36B
  8
020
  6
CONTINUOUS
 62
     1
 10
782.8048257883746
 20
306.6826074618754
 30
0.0
  0
VERTEX
  5
36C
  8
020
  6
CONTINUOUS
 62
     1
 10
749.9048257883746
 20
306.6826074618754
 30
0.0
  0
SEQEND
  5
36D
  8
020
  6
CONTINUOUS
 62
     1
  0
POLYLINE
  5
36E
  8
020
  6
CONTINUOUS
 62
     1
 66
     1
 10
0.0
 20
0.0
 30
0.0
 70
   129
  0
VERTEX
  5
36F
  8
020
  6
CONTINUOUS
 62
     1
 10
782.8048257883746
 20
311.8826074618754
 30
0.0
  0
VERTEX
  5
370
  8
020
  6
CONTINUOUS
 62
     1
 10
846.5048257883745
 20
311.8826074618754
 30
0.0
  0
VERTEX
  5
371
  8
020
  6
CONTINUOUS
 62
     1
 10
846.5048257883745
 20
306.6826074618754
 30
0.0
  0
VERTEX
  5
372
  8
020
  6
CONTINUOUS
 62
     1
 10
782.8048257883746
 20
306.6826074618754
 30
0.0
  0
SEQEND
  5
373
  8
020
  6
CONTINUOUS
 62
     1
  0
TEXT
  5
374
  8
LAYER0002
 62
     1
 10
809.3447852791154
 20
308.0937185729864
 30
0.0
 40
2.124016203703704
  1
26.5kg
  7
YUGOTHIC_MEDIUM
 72
     1
 11
814.6548257883746
 21
308.0937185729864
 31
0.0
  0
TEXT
  5
375
  8
SAKUZU
 62
     1
 10
768.063655153454
 20
328.6714963507644
 30
0.0
 40
2.124016203703704
  1
スノコ板
  7
YUGOTHIC_MEDIUM
 72
     1
 11
771.7048257883746
 21
328.6714963507644
 31
0.0
  0
TEXT
  5
376
  8
SAKUZU
 62
     1
 10
792.6680698359936
 20
328.6714963507644
 30
0.0
 40
2.124016203703704
  1
ＳＵＳ４３０
  7
YUGOTHIC_MEDIUM
 72
     1
 11
798.1298257883745
 21
328.6714963507644
 31
0.0
  0
TEXT
  5
377
  8
SAKUZU
 62
     1
 10
820.6876590678783
 20
328.6714963507644
 30
0.0
 40
2.124016203703704
  1
t 1.0 NO.4仕上
  7
YUGOTHIC_MEDIUM
  0
POLYLINE
  5
378
  8
020
  6
CONTINUOUS
 62
     1
 66
     1
 10
0.0
 20
0.0
 30
0.0
 70
   129
  0
VERTEX
  5
379
  8
020
  6
CONTINUOUS
 62
     1
 10
749.9048257883746
 20
146.8606074618757
 30
0.0
  0
VERTEX
  5
37A
  8
020
  6
CONTINUOUS
 62
     1
 10
760.4027853330043
 20
146.8606074618757
 30
0.0
  0
VERTEX
  5
37B
  8
020
  6
CONTINUOUS
 62
     1
 10
760.4027853330043
 20
141.6606074618756
 30
0.0
  0
VERTEX
  5
37C
  8
020
  6
CONTINUOUS
 62
     1
 10
749.9048257883746
 20
141.6606074618756
 30
0.0
  0
SEQEND
  5
37D
  8
020
  6
CONTINUOUS
 62
     1
  0
TEXT
  5
37E
  8
020
 62
     1
 10
753.1544014544509
 20
143.4103852396534
 30
0.0
 40
2.124016203703704
  1
NO
  7
YUGOTHIC_MEDIUM
 11
753.1544014544509
 21
145.5344014433571
 31
0.0
 73
     3
  0
TEXT
  5
37F
  8
020
 62
     1
 10
768.7815833384673
 20
143.3837185729868
 30
0.0
 40
2.124016203703704
  1
名称
  7
YUGOTHIC_MEDIUM
 11
768.7815833384673
 21
145.5077347766905
 31
0.0
 73
     3
  0
POLYLINE
  5
380
  8
020
  6
CONTINUOUS
 62
     1
 66
     1
 10
0.0
 20
0.0
 30
0.0
 70
   129
  0
VERTEX
  5
381
  8
020
  6
CONTINUOUS
 62
     1
 10
760.4027853330043
 20
146.8606074618757
 30
0.0
  0
VERTEX
  5
382
  8
020
  6
CONTINUOUS
 62
     1
 10
782.8048257883746
 20
146.8606074618757
 30
0.0
  0
VERTEX
  5
383
  8
020
  6
CONTINUOUS
 62
     1
 10
782.8048257883746
 20
141.6606074618756
 30
0.0
  0
VERTEX
  5
384
  8
020
  6
CONTINUOUS
 62
     1
 10
760.4027853330043
 20
141.6606074618756
 30
0.0
  0
SEQEND
  5
385
  8
020
  6
CONTINUOUS
 62
     1
  0
POLYLINE
  5
386
  8
020
  6
CONTINUOUS
 62
     1
 66
     1
 10
0.0
 20
0.0
 30
0.0
 70
   129
  0
VERTEX
  5
387
  8
020
  6
CONTINUOUS
 62
     1
 10
782.8048257883746
 20
146.8606074618757
 30
0.0
  0
VERTEX
  5
388
  8
020
  6
CONTINUOUS
 62
     1
 10
813.4548257883746
 20
146.8606074618757
 30
0.0
  0
VERTEX
  5
389
  8
020
  6
CONTINUOUS
 62
     1
 10
813.4548257883746
 20
141.6606074618756
 30
0.0
  0
VERTEX
  5
38A
  8
020
  6
CONTINUOUS
 62
     1
 10
782.8048257883746
 20
141.6606074618756
 30
0.0
  0
SEQEND
  5
38B
  8
020
  6
CONTINUOUS
 62
     1
  0
TEXT
  5
38C
  8
020
 62
     1
 10
795.1437146772635
 20
143.3937185729868
 30
0.0
 40
2.124016203703704
  1
材質
  7
YUGOTHIC_MEDIUM
 11
795.1437146772635
 21
145.5177347766904
 31
0.0
 73
     3
  0
POLYLINE
  5
38D
  8
020
  6
CONTINUOUS
 62
     1
 66
     1
 10
0.0
 20
0.0
 30
0.0
 70
   129
  0
VERTEX
  5
38E
  8
020
  6
CONTINUOUS
 62
     1
 10
749.9048257883746
 20
141.6606074618756
 30
0.0
  0
VERTEX
  5
38F
  8
020
  6
CONTINUOUS
 62
     1
 10
760.4027853330043
 20
141.6606074618756
 30
0.0
  0
VERTEX
  5
390
  8
020
  6
CONTINUOUS
 62
     1
 10
760.4027853330043
 20
136.4606074618756
 30
0.0
  0
VERTEX
  5
391
  8
020
  6
CONTINUOUS
 62
     1
 10
749.9048257883746
 20
136.4606074618756
 30
0.0
  0
SEQEND
  5
392
  8
020
  6
CONTINUOUS
 62
     1
  0
POLYLINE
  5
393
  8
020
  6
CONTINUOUS
 62
     1
 66
     1
 10
0.0
 20
0.0
 30
0.0
 70
   129
  0
VERTEX
  5
394
  8
020
  6
CONTINUOUS
 62
     1
 10
760.4027853330043
 20
141.6606074618756
 30
0.0
  0
VERTEX
  5
395
  8
020
  6
CONTINUOUS
 62
     1
 10
782.8048257883746
 20
141.6606074618756
 30
0.0
  0
VERTEX
  5
396
  8
020
  6
CONTINUOUS
 62
     1
 10
782.8048257883746
 20
136.4606074618756
 30
0.0
  0
VERTEX
  5
397
  8
020
  6
CONTINUOUS
 62
     1
 10
760.4027853330043
 20
136.4606074618756
 30
0.0
  0
SEQEND
  5
398
  8
020
  6
CONTINUOUS
 62
     1
  0
POLYLINE
  5
399
  8
020
  6
CONTINUOUS
 62
     1
 66
     1
 10
0.0
 20
0.0
 30
0.0
 70
   129
  0
VERTEX
  5
39A
  8
020
  6
CONTINUOUS
 62
     1
 10
782.8048257883746
 20
141.6606074618756
 30
0.0
  0
VERTEX
  5
39B
  8
020
  6
CONTINUOUS
 62
     1
 10
813.4548257883746
 20
141.6606074618756
 30
0.0
  0
VERTEX
  5
39C
  8
020
  6
CONTINUOUS
 62
     1
 10
813.4548257883746
 20
136.4606074618756
 30
0.0
  0
VERTEX
  5
39D
  8
020
  6
CONTINUOUS
 62
     1
 10
782.8048257883746
 20
136.4606074618756
 30
0.0
  0
SEQEND
  5
39E
  8
020
  6
CONTINUOUS
 62
     1
  0
TEXT
  5
39F
  8
SAKUZU
 62
     1
 10
754.1113490455264
 20
127.8458131722171
 30
0.0
 40
2.124016203703704
  1
3
  7
YUGOTHIC_MEDIUM
 72
     1
 11
755.1227853330043
 21
127.8458131722171
 31
0.0
  0
TEXT
  5
3A0
  8
SAKUZU
 62
     1
 10
770.6424926742741
 20
122.2406074618752
 30
0.0
 40
2.124016203703704
  1
脚
  7
YUGOTHIC_MEDIUM
 72
     1
 11
771.5527853330043
 21
122.2406074618752
 31
0.0
  0
TEXT
  5
3A1
  8
SAKUZU
 62
     1
 10
767.1533624947238
 20
132.7881630174311
 30
0.0
 40
2.124016203703704
  1
トップ補強
  7
YUGOTHIC_MEDIUM
 72
     1
 11
771.7048257883746
 21
132.7881630174311
 31
0.0
  0
TEXT
  5
3A2
  8
SAKUZU
 62
     1
 10
754.2435129019592
 20
132.7881630174311
 30
0.0
 40
2.124016203703704
  1
２
  7
YUGOTHIC_MEDIUM
 72
     1
 11
755.1538055606894
 21
132.7881630174311
 31
0.0
  0
TEXT
  5
3A3
  8
SAKUZU
 62
     1
 10
754.2435129019592
 20
137.9881630174312
 30
0.0
 40
2.124016203703704
  1
１
  7
YUGOTHIC_MEDIUM
 72
     1
 11
755.1538055606894
 21
137.9881630174312
 31
0.0
  0
TEXT
  5
3A4
  8
SAKUZU
 62
     1
 10
768.9739478121841
 20
137.9881630174312
 30
0.0
 40
2.124016203703704
  1
トップ
  7
YUGOTHIC_MEDIUM
 72
     1
 11
771.7048257883746
 21
137.9881630174312
 31
0.0
  0
TEXT
  5
3A5
  8
SAKUZU
 62
     1
 10
792.6680698359936
 20
137.9881630174312
 30
0.0
 40
2.124016203703704
  1
ＳＵＳ４３０
  7
YUGOTHIC_MEDIUM
 72
     1
 11
798.1298257883745
 21
137.9881630174312
 31
0.0
  0
TEXT
  5
3A6
  8
SAKUZU
 62
     1
 10
754.0917974588376
 20
122.3258863284324
 30
0.0
 40
2.124016203703704
  1
4
  7
YUGOTHIC_MEDIUM
 72
     1
 11
755.1538055606894
 21
122.3258863284324
 31
0.0
  0
TEXT
  5
3A7
  8
SAKUZU
 62
     1
 10
792.6680698359936
 20
122.388163017431
 30
0.0
 40
2.124016203703704
  1
ＳＵＳ３０４
  7
YUGOTHIC_MEDIUM
 72
     1
 11
798.1298257883745
 21
122.388163017431
 31
0.0
  0
TEXT
  5
3A8
  8
SAKUZU
 62
     1
 10
767.0523422670386
 20
117.188163017431
 30
0.0
 40
2.124016203703704
  1
アジャスト
  7
YUGOTHIC_MEDIUM
 72
     1
 11
771.6038055606895
 21
117.188163017431
 31
0.0
  0
TEXT
  5
3A9
  8
SAKUZU
 62
     1
 10
754.1423692732114
 20
117.188163017431
 30
0.0
 40
2.124016203703704
  1
5
  7
YUGOTHIC_MEDIUM
 72
     1
 11
755.1538055606894
 21
117.188163017431
 31
0.0
  0
TEXT
  5
3AA
  8
SAKUZU
 62
     1
 10
792.6680698359936
 20
116.9695068609244
 30
0.0
 40
2.124016203703704
  1
ＳＵＳ３０４
  7
YUGOTHIC_MEDIUM
 72
     1
 11
798.1298257883745
 21
116.9695068609244
 31
0.0
  0
POLYLINE
  5
3AB
  8
020
  6
CONTINUOUS
 62
     1
 66
     1
 10
0.0
 20
0.0
 30
0.0
 70
   129
  0
VERTEX
  5
3AC
  8
020
  6
CONTINUOUS
 62
     1
 10
813.4548257883746
 20
146.8606074618757
 30
0.0
  0
VERTEX
  5
3AD
  8
020
  6
CONTINUOUS
 62
     1
 10
846.5048257883745
 20
146.8606074618757
 30
0.0
  0
VERTEX
  5
3AE
  8
020
  6
CONTINUOUS
 62
     1
 10
846.5048257883745
 20
141.6606074618756
 30
0.0
  0
VERTEX
  5
3AF
  8
020
  6
CONTINUOUS
 62
     1
 10
813.4548257883746
 20
141.6606074618756
 30
0.0
  0
SEQEND
  5
3B0
  8
020
  6
CONTINUOUS
 62
     1
  0
TEXT
  5
3B1
  8
020
 62
     1
 10
827.3687146772635
 20
143.3937185729868
 30
0.0
 40
2.124016203703704
  1
仕様
  7
YUGOTHIC_MEDIUM
 11
827.3687146772635
 21
145.5177347766904
 31
0.0
 73
     3
  0
POLYLINE
  5
3B2
  8
020
  6
CONTINUOUS
 62
     1
 66
     1
 10
0.0
 20
0.0
 30
0.0
 70
   129
  0
VERTEX
  5
3B3
  8
020
  6
CONTINUOUS
 62
     1
 10
813.4548257883746
 20
141.6606074618756
 30
0.0
  0
VERTEX
  5
3B4
  8
020
  6
CONTINUOUS
 62
     1
 10
846.5048257883745
 20
141.6606074618756
 30
0.0
  0
VERTEX
  5
3B5
  8
020
  6
CONTINUOUS
 62
     1
 10
846.5048257883745
 20
136.4606074618756
 30
0.0
  0
VERTEX
  5
3B6
  8
020
  6
CONTINUOUS
 62
     1
 10
813.4548257883746
 20
136.4606074618756
 30
0.0
  0
SEQEND
  5
3B7
  8
020
  6
CONTINUOUS
 62
     1
  0
POLYLINE
  5
3B8
  8
020
  6
CONTINUOUS
 62
     1
 66
     1
 10
0.0
 20
0.0
 30
0.0
 70
   129
  0
VERTEX
  5
3B9
  8
020
  6
CONTINUOUS
 62
     1
 10
749.9048257883746
 20
136.4606074618756
 30
0.0
  0
VERTEX
  5
3BA
  8
020
  6
CONTINUOUS
 62
     1
 10
760.4027853330043
 20
136.4606074618756
 30
0.0
  0
VERTEX
  5
3BB
  8
020
  6
CONTINUOUS
 62
     1
 10
760.4027853330043
 20
131.2606074618755
 30
0.0
  0
VERTEX
  5
3BC
  8
020
  6
CONTINUOUS
 62
     1
 10
749.9048257883746
 20
131.2606074618755
 30
0.0
  0
SEQEND
  5
3BD
  8
020
  6
CONTINUOUS
 62
     1
  0
POLYLINE
  5
3BE
  8
020
  6
CONTINUOUS
 62
     1
 66
     1
 10
0.0
 20
0.0
 30
0.0
 70
   129
  0
VERTEX
  5
3BF
  8
020
  6
CONTINUOUS
 62
     1
 10
760.4027853330043
 20
136.4606074618756
 30
0.0
  0
VERTEX
  5
3C0
  8
020
  6
CONTINUOUS
 62
     1
 10
782.8048257883746
 20
136.4606074618756
 30
0.0
  0
VERTEX
  5
3C1
  8
020
  6
CONTINUOUS
 62
     1
 10
782.8048257883746
 20
131.2606074618755
 30
0.0
  0
VERTEX
  5
3C2
  8
020
  6
CONTINUOUS
 62
     1
 10
760.4027853330043
 20
131.2606074618755
 30
0.0
  0
SEQEND
  5
3C3
  8
020
  6
CONTINUOUS
 62
     1
  0
POLYLINE
  5
3C4
  8
020
  6
CONTINUOUS
 62
     1
 66
     1
 10
0.0
 20
0.0
 30
0.0
 70
   129
  0
VERTEX
  5
3C5
  8
020
  6
CONTINUOUS
 62
     1
 10
782.8048257883746
 20
136.4606074618756
 30
0.0
  0
VERTEX
  5
3C6
  8
020
  6
CONTINUOUS
 62
     1
 10
813.4548257883746
 20
136.4606074618756
 30
0.0
  0
VERTEX
  5
3C7
  8
020
  6
CONTINUOUS
 62
     1
 10
813.4548257883746
 20
131.2606074618755
 30
0.0
  0
VERTEX
  5
3C8
  8
020
  6
CONTINUOUS
 62
     1
 10
782.8048257883746
 20
131.2606074618755
 30
0.0
  0
SEQEND
  5
3C9
  8
020
  6
CONTINUOUS
 62
     1
  0
POLYLINE
  5
3CA
  8
020
  6
CONTINUOUS
 62
     1
 66
     1
 10
0.0
 20
0.0
 30
0.0
 70
   129
  0
VERTEX
  5
3CB
  8
020
  6
CONTINUOUS
 62
     1
 10
813.4548257883746
 20
136.4606074618756
 30
0.0
  0
VERTEX
  5
3CC
  8
020
  6
CONTINUOUS
 62
     1
 10
846.5048257883745
 20
136.4606074618756
 30
0.0
  0
VERTEX
  5
3CD
  8
020
  6
CONTINUOUS
 62
     1
 10
846.5048257883745
 20
131.2606074618755
 30
0.0
  0
VERTEX
  5
3CE
  8
020
  6
CONTINUOUS
 62
     1
 10
813.4548257883746
 20
131.2606074618755
 30
0.0
  0
SEQEND
  5
3CF
  8
020
  6
CONTINUOUS
 62
     1
  0
POLYLINE
  5
3D0
  8
020
  6
CONTINUOUS
 62
     1
 66
     1
 10
0.0
 20
0.0
 30
0.0
 70
   129
  0
VERTEX
  5
3D1
  8
020
  6
CONTINUOUS
 62
     1
 10
749.9048257883746
 20
131.2606074618755
 30
0.0
  0
VERTEX
  5
3D2
  8
020
  6
CONTINUOUS
 62
     1
 10
760.4027853330043
 20
131.2606074618755
 30
0.0
  0
VERTEX
  5
3D3
  8
020
  6
CONTINUOUS
 62
     1
 10
760.4027853330043
 20
126.0606074618755
 30
0.0
  0
VERTEX
  5
3D4
  8
020
  6
CONTINUOUS
 62
     1
 10
749.9048257883746
 20
126.0606074618755
 30
0.0
  0
SEQEND
  5
3D5
  8
020
  6
CONTINUOUS
 62
     1
  0
POLYLINE
  5
3D6
  8
020
  6
CONTINUOUS
 62
     1
 66
     1
 10
0.0
 20
0.0
 30
0.0
 70
   129
  0
VERTEX
  5
3D7
  8
020
  6
CONTINUOUS
 62
     1
 10
760.4027853330043
 20
131.2606074618755
 30
0.0
  0
VERTEX
  5
3D8
  8
020
  6
CONTINUOUS
 62
     1
 10
782.8048257883746
 20
131.2606074618755
 30
0.0
  0
VERTEX
  5
3D9
  8
020
  6
CONTINUOUS
 62
     1
 10
782.8048257883746
 20
126.0606074618755
 30
0.0
  0
VERTEX
  5
3DA
  8
020
  6
CONTINUOUS
 62
     1
 10
760.4027853330043
 20
126.0606074618755
 30
0.0
  0
SEQEND
  5
3DB
  8
020
  6
CONTINUOUS
 62
     1
  0
POLYLINE
  5
3DC
  8
020
  6
CONTINUOUS
 62
     1
 66
     1
 10
0.0
 20
0.0
 30
0.0
 70
   129
  0
VERTEX
  5
3DD
  8
020
  6
CONTINUOUS
 62
     1
 10
782.8048257883746
 20
131.2606074618755
 30
0.0
  0
VERTEX
  5
3DE
  8
020
  6
CONTINUOUS
 62
     1
 10
813.4548257883746
 20
131.2606074618755
 30
0.0
  0
VERTEX
  5
3DF
  8
020
  6
CONTINUOUS
 62
     1
 10
813.4548257883746
 20
126.0606074618755
 30
0.0
  0
VERTEX
  5
3E0
  8
020
  6
CONTINUOUS
 62
     1
 10
782.8048257883746
 20
126.0606074618755
 30
0.0
  0
SEQEND
  5
3E1
  8
020
  6
CONTINUOUS
 62
     1
  0
POLYLINE
  5
3E2
  8
020
  6
CONTINUOUS
 62
     1
 66
     1
 10
0.0
 20
0.0
 30
0.0
 70
   129
  0
VERTEX
  5
3E3
  8
020
  6
CONTINUOUS
 62
     1
 10
813.4548257883746
 20
131.2606074618755
 30
0.0
  0
VERTEX
  5
3E4
  8
020
  6
CONTINUOUS
 62
     1
 10
846.5048257883745
 20
131.2606074618755
 30
0.0
  0
VERTEX
  5
3E5
  8
020
  6
CONTINUOUS
 62
     1
 10
846.5048257883745
 20
126.0606074618755
 30
0.0
  0
VERTEX
  5
3E6
  8
020
  6
CONTINUOUS
 62
     1
 10
813.4548257883746
 20
126.0606074618755
 30
0.0
  0
SEQEND
  5
3E7
  8
020
  6
CONTINUOUS
 62
     1
  0
POLYLINE
  5
3E8
  8
020
  6
CONTINUOUS
 62
     1
 66
     1
 10
0.0
 20
0.0
 30
0.0
 70
   129
  0
VERTEX
  5
3E9
  8
020
  6
CONTINUOUS
 62
     1
 10
749.9048257883746
 20
126.0606074618755
 30
0.0
  0
VERTEX
  5
3EA
  8
020
  6
CONTINUOUS
 62
     1
 10
760.4027853330043
 20
126.0606074618755
 30
0.0
  0
VERTEX
  5
3EB
  8
020
  6
CONTINUOUS
 62
     1
 10
760.4027853330043
 20
120.8606074618755
 30
0.0
  0
VERTEX
  5
3EC
  8
020
  6
CONTINUOUS
 62
     1
 10
749.9048257883746
 20
120.8606074618755
 30
0.0
  0
SEQEND
  5
3ED
  8
020
  6
CONTINUOUS
 62
     1
  0
POLYLINE
  5
3EE
  8
020
  6
CONTINUOUS
 62
     1
 66
     1
 10
0.0
 20
0.0
 30
0.0
 70
   129
  0
VERTEX
  5
3EF
  8
020
  6
CONTINUOUS
 62
     1
 10
760.4027853330043
 20
126.0606074618755
 30
0.0
  0
VERTEX
  5
3F0
  8
020
  6
CONTINUOUS
 62
     1
 10
782.8048257883746
 20
126.0606074618755
 30
0.0
  0
VERTEX
  5
3F1
  8
020
  6
CONTINUOUS
 62
     1
 10
782.8048257883746
 20
120.8606074618755
 30
0.0
  0
VERTEX
  5
3F2
  8
020
  6
CONTINUOUS
 62
     1
 10
760.4027853330043
 20
120.8606074618755
 30
0.0
  0
SEQEND
  5
3F3
  8
020
  6
CONTINUOUS
 62
     1
  0
POLYLINE
  5
3F4
  8
020
  6
CONTINUOUS
 62
     1
 66
     1
 10
0.0
 20
0.0
 30
0.0
 70
   129
  0
VERTEX
  5
3F5
  8
020
  6
CONTINUOUS
 62
     1
 10
782.8048257883746
 20
126.0606074618755
 30
0.0
  0
VERTEX
  5
3F6
  8
020
  6
CONTINUOUS
 62
     1
 10
813.4548257883746
 20
126.0606074618755
 30
0.0
  0
VERTEX
  5
3F7
  8
020
  6
CONTINUOUS
 62
     1
 10
813.4548257883746
 20
120.8606074618754
 30
0.0
  0
VERTEX
  5
3F8
  8
020
  6
CONTINUOUS
 62
     1
 10
782.8048257883746
 20
120.8606074618754
 30
0.0
  0
SEQEND
  5
3F9
  8
020
  6
CONTINUOUS
 62
     1
  0
POLYLINE
  5
3FA
  8
020
  6
CONTINUOUS
 62
     1
 66
     1
 10
0.0
 20
0.0
 30
0.0
 70
   129
  0
VERTEX
  5
3FB
  8
020
  6
CONTINUOUS
 62
     1
 10
813.4548257883746
 20
126.0606074618755
 30
0.0
  0
VERTEX
  5
3FC
  8
020
  6
CONTINUOUS
 62
     1
 10
846.5048257883745
 20
126.0606074618755
 30
0.0
  0
VERTEX
  5
3FD
  8
020
  6
CONTINUOUS
 62
     1
 10
846.5048257883745
 20
120.8606074618754
 30
0.0
  0
VERTEX
  5
3FE
  8
020
  6
CONTINUOUS
 62
     1
 10
813.4548257883746
 20
120.8606074618754
 30
0.0
  0
SEQEND
  5
3FF
  8
020
  6
CONTINUOUS
 62
     1
  0
POLYLINE
  5
400
  8
020
  6
CONTINUOUS
 62
     1
 66
     1
 10
0.0
 20
0.0
 30
0.0
 70
   129
  0
VERTEX
  5
401
  8
020
  6
CONTINUOUS
 62
     1
 10
749.9048257883746
 20
120.8606074618755
 30
0.0
  0
VERTEX
  5
402
  8
020
  6
CONTINUOUS
 62
     1
 10
760.4027853330043
 20
120.8606074618755
 30
0.0
  0
VERTEX
  5
403
  8
020
  6
CONTINUOUS
 62
     1
 10
760.4027853330043
 20
115.6606074618755
 30
0.0
  0
VERTEX
  5
404
  8
020
  6
CONTINUOUS
 62
     1
 10
749.9048257883746
 20
115.6606074618755
 30
0.0
  0
SEQEND
  5
405
  8
020
  6
CONTINUOUS
 62
     1
  0
POLYLINE
  5
406
  8
020
  6
CONTINUOUS
 62
     1
 66
     1
 10
0.0
 20
0.0
 30
0.0
 70
   129
  0
VERTEX
  5
407
  8
020
  6
CONTINUOUS
 62
     1
 10
760.4027853330043
 20
120.8606074618755
 30
0.0
  0
VERTEX
  5
408
  8
020
  6
CONTINUOUS
 62
     1
 10
782.8048257883746
 20
120.8606074618755
 30
0.0
  0
VERTEX
  5
409
  8
020
  6
CONTINUOUS
 62
     1
 10
782.8048257883746
 20
115.6606074618755
 30
0.0
  0
VERTEX
  5
40A
  8
020
  6
CONTINUOUS
 62
     1
 10
760.4027853330043
 20
115.6606074618755
 30
0.0
  0
SEQEND
  5
40B
  8
020
  6
CONTINUOUS
 62
     1
  0
POLYLINE
  5
40C
  8
020
  6
CONTINUOUS
 62
     1
 66
     1
 10
0.0
 20
0.0
 30
0.0
 70
   129
  0
VERTEX
  5
40D
  8
020
  6
CONTINUOUS
 62
     1
 10
782.8048257883746
 20
120.8606074618755
 30
0.0
  0
VERTEX
  5
40E
  8
020
  6
CONTINUOUS
 62
     1
 10
813.4548257883746
 20
120.8606074618755
 30
0.0
  0
VERTEX
  5
40F
  8
020
  6
CONTINUOUS
 62
     1
 10
813.4548257883746
 20
115.6606074618755
 30
0.0
  0
VERTEX
  5
410
  8
020
  6
CONTINUOUS
 62
     1
 10
782.8048257883746
 20
115.6606074618755
 30
0.0
  0
SEQEND
  5
411
  8
020
  6
CONTINUOUS
 62
     1
  0
POLYLINE
  5
412
  8
020
  6
CONTINUOUS
 62
     1
 66
     1
 10
0.0
 20
0.0
 30
0.0
 70
   129
  0
VERTEX
  5
413
  8
020
  6
CONTINUOUS
 62
     1
 10
813.4548257883746
 20
120.8606074618755
 30
0.0
  0
VERTEX
  5
414
  8
020
  6
CONTINUOUS
 62
     1
 10
846.5048257883745
 20
120.8606074618755
 30
0.0
  0
VERTEX
  5
415
  8
020
  6
CONTINUOUS
 62
     1
 10
846.5048257883745
 20
115.6606074618755
 30
0.0
  0
VERTEX
  5
416
  8
020
  6
CONTINUOUS
 62
     1
 10
813.4548257883746
 20
115.6606074618755
 30
0.0
  0
SEQEND
  5
417
  8
020
  6
CONTINUOUS
 62
     1
  0
TEXT
  5
418
  8
SAKUZU
 62
     1
 10
795.398947812184
 20
132.8494465039128
 30
0.0
 40
2.124016203703704
  1
ホンデ
  7
YUGOTHIC_MEDIUM
 72
     1
 11
798.1298257883745
 21
132.8494465039128
 31
0.0
  0
TEXT
  5
419
  8
SAKUZU
 62
     1
 10
820.6876590678783
 20
137.9881630174312
 30
0.0
 40
2.124016203703704
  1
t 1.0 NO.4仕上
  7
YUGOTHIC_MEDIUM
  0
TEXT
  5
41A
  8
SAKUZU
 62
     1
 10
820.6876590678783
 20
132.7881630174311
 30
0.0
 40
2.124016203703704
  1
t 1.0
  7
YUGOTHIC_MEDIUM
  0
TEXT
  5
41B
  8
SAKUZU
 62
     1
 10
823.7709367649117
 20
122.388163017431
 30
0.0
 40
2.124016203703704
  1
t 1.0 φ38
  7
YUGOTHIC_MEDIUM
  0
TEXT
  5
41C
  8
SAKUZU
 62
     1
 10
762.7136551534539
 20
106.7881630174309
 30
0.0
 40
2.124016203703704
  1
製品重量
  7
YUGOTHIC_MEDIUM
 72
     1
 11
766.3548257883746
 21
106.7881630174309
 31
0.0
  0
POLYLINE
  5
41D
  8
020
  6
CONTINUOUS
 62
     1
 66
     1
 10
0.0
 20
0.0
 30
0.0
 70
   129
  0
VERTEX
  5
41E
  8
020
  6
CONTINUOUS
 62
     1
 10
749.9048257883746
 20
110.4606074618754
 30
0.0
  0
VERTEX
  5
41F
  8
020
  6
CONTINUOUS
 62
     1
 10
782.8048257883746
 20
110.4606074618754
 30
0.0
  0
VERTEX
  5
420
  8
020
  6
CONTINUOUS
 62
     1
 10
782.8048257883746
 20
105.2606074618754
 30
0.0
  0
VERTEX
  5
421
  8
020
  6
CONTINUOUS
 62
     1
 10
749.9048257883746
 20
105.2606074618754
 30
0.0
  0
SEQEND
  5
422
  8
020
  6
CONTINUOUS
 62
     1
  0
POLYLINE
  5
423
  8
020
  6
CONTINUOUS
 62
     1
 66
     1
 10
0.0
 20
0.0
 30
0.0
 70
   129
  0
VERTEX
  5
424
  8
020
  6
CONTINUOUS
 62
     1
 10
782.8048257883746
 20
110.4606074618754
 30
0.0
  0
VERTEX
  5
425
  8
020
  6
CONTINUOUS
 62
     1
 10
846.5048257883745
 20
110.4606074618754
 30
0.0
  0
VERTEX
  5
426
  8
020
  6
CONTINUOUS
 62
     1
 10
846.5048257883745
 20
105.2606074618754
 30
0.0
  0
VERTEX
  5
427
  8
020
  6
CONTINUOUS
 62
     1
 10
782.8048257883746
 20
105.2606074618754
 30
0.0
  0
SEQEND
  5
428
  8
020
  6
CONTINUOUS
 62
     1
  0
TEXT
  5
429
  8
LAYER0002
 62
     1
 10
809.3447852791154
 20
106.6717185729865
 30
0.0
 40
2.124016203703704
  1
25.6kg
  7
YUGOTHIC_MEDIUM
 72
     1
 11
814.6548257883746
 21
106.6717185729865
 31
0.0
  0
TEXT
  5
42A
  8
SAKUZU
 62
     1
 10
768.063655153454
 20
127.2494963507644
 30
0.0
 40
2.124016203703704
  1
スノコ板
  7
YUGOTHIC_MEDIUM
 72
     1
 11
771.7048257883746
 21
127.2494963507644
 31
0.0
  0
TEXT
  5
42B
  8
SAKUZU
 62
     1
 10
792.6680698359936
 20
127.2494963507644
 30
0.0
 40
2.124016203703704
  1
ＳＵＳ４３０
  7
YUGOTHIC_MEDIUM
 72
     1
 11
798.1298257883745
 21
127.2494963507644
 31
0.0
  0
TEXT
  5
42C
  8
SAKUZU
 62
     1
 10
820.6876590678783
 20
127.2494963507644
 30
0.0
 40
2.124016203703704
  1
t 1.0 NO.4仕上
  7
YUGOTHIC_MEDIUM
  0
INSERT
  5
42D
  8
__-3
 62
    17
  2
____-2-1
 10
711.2328257883746
 20
-148.5000416295412
 30
0.0
  0
INSERT
  5
42E
  8
__-3
 62
    17
  2
____-4-1
 10
711.2328257883746
 20
-148.5000416295412
 30
0.0
  0
LINE
  5
42F
  8
SAKUZU
  6
CONTINUOUS
 62
     1
 10
-979.0494277441692
 20
4192.88050507989
 30
0.0
 11
-129.0494067633342
 21
4192.88050507989
 31
0.0
  0
LINE
  5
430
  8
SAKUZU
  6
CONTINUOUS
 62
     1
 10
-129.0494067633342
 20
4192.88050507989
 30
0.0
 11
-129.0494067633342
 21
3592.880505079891
 31
0.0
  0
LINE
  5
431
  8
SAKUZU
  6
CONTINUOUS
 62
     1
 10
-129.0494067633342
 20
3592.880505079891
 30
0.0
 11
-379.0494124853801
 21
3342.880505079891
 31
0.0
  0
LINE
  5
432
  8
SAKUZU
  6
CONTINUOUS
 62
     1
 10
-979.0494277441692
 20
3342.880505079891
 30
0.0
 11
-379.0494124853801
 21
3342.880505079891
 31
0.0
  0
LINE
  5
433
  8
SAKUZU
  6
CONTINUOUS
 62
     1
 10
-979.0494277441692
 20
3342.880505079891
 30
0.0
 11
-979.0494277441692
 21
4192.88050507989
 31
0.0
  0
LINE
  5
434
  8
SAKUZU
  6
CONTINUOUS
 62
     1
 10
-912.0494286978435
 20
2504.728644503294
 30
0.0
 11
-912.0494286978435
 21
1894.72865166308
 31
0.0
  0
LINE
  5
435
  8
SAKUZU
  6
CONTINUOUS
 62
     1
 10
-874.0494286978435
 20
1894.72865166308
 30
0.0
 11
-874.0494286978417
 21
2504.728644503294
 31
0.0
  0
LINE
  5
436
  8
SAKUZU
  6
CONTINUOUS
 62
     1
 10
-912.0494286978435
 20
1849.728651663082
 30
0.0
 11
-912.0494286978435
 21
1739.72865166308
 31
0.0
  0
LINE
  5
437
  8
SAKUZU
  6
CONTINUOUS
 62
     1
 10
-874.0494286978435
 20
1739.72865166308
 30
0.0
 11
-874.0494286978435
 21
1849.728651663082
 31
0.0
  0
LINE
  5
438
  8
SAKUZU
  6
CONTINUOUS
 62
     1
 10
-908.4494283163738
 20
1732.72865166308
 30
0.0
 11
-908.4494283163738
 21
1709.72865166308
 31
0.0
  0
LINE
  5
439
  8
SAKUZU
  6
CONTINUOUS
 62
     1
 10
-908.4494283163738
 20
1709.72865166308
 30
0.0
 11
-877.6494271719646
 21
1709.72865166308
 31
0.0
  0
LINE
  5
43A
  8
SAKUZU
  6
CONTINUOUS
 62
     1
 10
-877.6494271719646
 20
1709.72865166308
 30
0.0
 11
-877.6494271719646
 21
1732.72865166308
 31
0.0
  0
LINE
  5
43B
  8
SAKUZU
  6
CONTINUOUS
 62
     1
 10
-906.6494290793132
 20
1709.72865166308
 30
0.0
 11
-906.6494290793132
 21
1694.72865166308
 31
0.0
  0
LINE
  5
43C
  8
SAKUZU
  6
CONTINUOUS
 62
     1
 10
-906.6494290793132
 20
1694.72865166308
 30
0.0
 11
-879.4494264090251
 21
1694.72865166308
 31
0.0
  0
LINE
  5
43D
  8
SAKUZU
  6
CONTINUOUS
 62
     1
 10
-879.4494264090251
 20
1694.72865166308
 30
0.0
 11
-879.4494264090251
 21
1709.72865166308
 31
0.0
  0
LINE
  5
43E
  8
SAKUZU
  6
CONTINUOUS
 62
     1
 10
-427.0494124853815
 20
2504.728644503294
 30
0.0
 11
-427.0494124853801
 21
1894.728651663077
 31
0.0
  0
LINE
  5
43F
  8
SAKUZU
  6
CONTINUOUS
 62
     1
 10
-389.0494124853801
 20
1894.72865166308
 30
0.0
 11
-389.0494124853783
 21
2504.728644503294
 31
0.0
  0
LINE
  5
440
  8
SAKUZU
  6
CONTINUOUS
 62
     1
 10
-427.0494124853801
 20
1849.728651663082
 30
0.0
 11
-427.0494124853801
 21
1739.72865166308
 31
0.0
  0
LINE
  5
441
  8
SAKUZU
  6
CONTINUOUS
 62
     1
 10
-389.0494124853801
 20
1739.72865166308
 30
0.0
 11
-389.0494124853801
 21
1849.728651663082
 31
0.0
  0
LINE
  5
442
  8
SAKUZU
  6
CONTINUOUS
 62
     1
 10
-423.4494368994426
 20
1732.72865166308
 30
0.0
 11
-423.4494368994426
 21
1709.72865166308
 31
0.0
  0
LINE
  5
443
  8
SAKUZU
  6
CONTINUOUS
 62
     1
 10
-423.4494368994426
 20
1709.72865166308
 30
0.0
 11
-392.6493880713176
 21
1709.72865166308
 31
0.0
  0
LINE
  5
444
  8
SAKUZU
  6
CONTINUOUS
 62
     1
 10
-392.6493880713176
 20
1709.72865166308
 30
0.0
 11
-392.6493880713176
 21
1732.72865166308
 31
0.0
  0
LINE
  5
445
  8
SAKUZU
  6
CONTINUOUS
 62
     1
 10
-421.6493880713176
 20
1709.72865166308
 30
0.0
 11
-421.6493880713176
 21
1694.72865166308
 31
0.0
  0
LINE
  5
446
  8
SAKUZU
  6
CONTINUOUS
 62
     1
 10
-421.6493880713176
 20
1694.72865166308
 30
0.0
 11
-394.4494368994426
 21
1694.72865166308
 31
0.0
  0
LINE
  5
447
  8
SAKUZU
  6
CONTINUOUS
 62
     1
 10
-394.4494368994426
 20
1694.72865166308
 30
0.0
 11
-394.4494368994426
 21
1709.72865166308
 31
0.0
  0
LINE
  5
448
  8
SAKUZU
  6
CONTINUOUS
 62
     1
 10
-979.0494277441692
 20
2504.728644503294
 30
0.0
 11
-129.0494067633342
 21
2504.728644503294
 31
0.0
  0
LINE
  5
449
  8
SAKUZU
  6
CONTINUOUS
 62
     1
 10
-129.0494067633342
 20
2504.728644503294
 30
0.0
 11
-129.0494067633342
 21
2544.728644503294
 31
0.0
  0
LINE
  5
44A
  8
SAKUZU
  6
CONTINUOUS
 62
     1
 10
-129.0494067633342
 20
2544.728644503294
 30
0.0
 11
-979.0494277441692
 21
2544.728644503294
 31
0.0
  0
LINE
  5
44B
  8
SAKUZU
  6
CONTINUOUS
 62
     1
 10
-379.0494124853801
 20
2539.728644503294
 30
0.0
 11
-379.0494124853801
 21
2504.728644503294
 31
0.0
  0
ARC
  5
44C
  8
SAKUZU
  6
CONTINUOUS
 62
     1
 10
-384.0494124853801
 20
2539.728644503294
 30
0.0
 40
5.0
 50
0.0
 51
90.0
  0
LINE
  5
44D
  8
SAKUZU
  6
CONTINUOUS
 62
     1
 10
-177.0494277441683
 20
2504.728644503294
 30
0.0
 11
-177.0494277441683
 21
1894.72865166308
 31
0.0
  0
LINE
  5
44E
  8
SAKUZU
  6
CONTINUOUS
 62
     1
 10
-139.0494277441692
 20
1894.72865166308
 30
0.0
 11
-139.0494277441683
 21
2504.728644503294
 31
0.0
  0
LINE
  5
44F
  8
SAKUZU
  6
CONTINUOUS
 62
     1
 10
-177.0494277441692
 20
1849.728651663082
 30
0.0
 11
-177.0494277441692
 21
1739.728644503294
 31
0.0
  0
LINE
  5
450
  8
SAKUZU
  6
CONTINUOUS
 62
     1
 10
-139.0494277441692
 20
1849.728651663082
 30
0.0
 11
-139.0494277441692
 21
1739.728644503294
 31
0.0
  0
LINE
  5
451
  8
SAKUZU
  6
CONTINUOUS
 62
     1
 10
-173.4494521582317
 20
1732.728644503294
 30
0.0
 11
-173.4494521582317
 21
1709.728644503294
 31
0.0
  0
LINE
  5
452
  8
SAKUZU
  6
CONTINUOUS
 62
     1
 10
-173.4494521582317
 20
1709.728644503294
 30
0.0
 11
-142.6494033301067
 21
1709.728644503294
 31
0.0
  0
LINE
  5
453
  8
SAKUZU
  6
CONTINUOUS
 62
     1
 10
-142.6494033301067
 20
1709.728644503294
 30
0.0
 11
-142.6494033301067
 21
1732.728644503294
 31
0.0
  0
LINE
  5
454
  8
SAKUZU
  6
CONTINUOUS
 62
     1
 10
-171.6494033301067
 20
1709.728644503294
 30
0.0
 11
-171.6494033301067
 21
1694.728644503294
 31
0.0
  0
LINE
  5
455
  8
SAKUZU
  6
CONTINUOUS
 62
     1
 10
-171.6494033301067
 20
1694.728644503294
 30
0.0
 11
-144.4494521582317
 21
1694.728644503294
 31
0.0
  0
LINE
  5
456
  8
SAKUZU
  6
CONTINUOUS
 62
     1
 10
-144.4494521582317
 20
1694.728644503294
 30
0.0
 11
-144.4494521582317
 21
1709.728644503294
 31
0.0
  0
LINE
  5
457
  8
SAKUZU
  6
CONTINUOUS
 62
     1
 10
-979.0494277441692
 20
2544.728644503294
 30
0.0
 11
-979.0494277441692
 21
2504.728644503294
 31
0.0
  0
LINE
  5
458
  8
SAKUZU
  6
CONTINUOUS
 62
     1
 10
2085.950562719087
 20
2544.728644503294
 30
0.0
 11
2085.950562719087
 21
2504.728644503294
 31
0.0
  0
LINE
  5
459
  8
SAKUZU
  6
CONTINUOUS
 62
     1
 10
2085.950562719087
 20
2504.728644503294
 30
0.0
 11
1235.950593236666
 21
2504.728644503294
 31
0.0
  0
LINE
  5
45A
  8
SAKUZU
  6
CONTINUOUS
 62
     1
 10
1235.950593236666
 20
2504.728644503294
 30
0.0
 11
1235.950593236666
 21
2544.728644503294
 31
0.0
  0
LINE
  5
45B
  8
SAKUZU
  6
CONTINUOUS
 62
     1
 10
1235.950593236666
 20
2544.728644503294
 30
0.0
 11
2085.950562719087
 21
2544.728644503294
 31
0.0
  0
LINE
  5
45C
  8
SAKUZU
  6
CONTINUOUS
 62
     1
 10
1485.950562719088
 20
2539.728644503294
 30
0.0
 11
1485.950562719088
 21
2504.728644503294
 31
0.0
  0
ARC
  5
45D
  8
SAKUZU
  6
CONTINUOUS
 62
     1
 10
1490.950562719088
 20
2539.728644503294
 30
0.0
 40
5.0
 50
90.0
 51
180.0
  0
LINE
  5
45E
  8
SAKUZU
  6
CONTINUOUS
 62
     1
 10
1283.950593236666
 20
2504.728644503294
 30
0.0
 11
1283.950593236666
 21
1894.728651663082
 31
0.0
  0
LINE
  5
45F
  8
SAKUZU
  6
CONTINUOUS
 62
     1
 10
1245.950593236666
 20
2504.728644503294
 30
0.0
 11
1245.950593236666
 21
1894.728651663082
 31
0.0
  0
LINE
  5
460
  8
SAKUZU
  6
CONTINUOUS
 62
     1
 10
1533.950562719088
 20
2504.728644503294
 30
0.0
 11
1533.950562719088
 21
1894.728651663079
 31
0.0
  0
LINE
  5
461
  8
SAKUZU
  6
CONTINUOUS
 62
     1
 10
1495.950562719088
 20
2504.728644503294
 30
0.0
 11
1495.950562719088
 21
1894.72865166308
 31
0.0
  0
LINE
  5
462
  8
SAKUZU
  6
CONTINUOUS
 62
     1
 10
2018.950562719088
 20
2504.728644503294
 30
0.0
 11
2018.950562719088
 21
1894.728651663075
 31
0.0
  0
LINE
  5
463
  8
SAKUZU
  6
CONTINUOUS
 62
     1
 10
1980.950562719088
 20
2504.728644503294
 30
0.0
 11
1980.950562719088
 21
1894.728651663076
 31
0.0
  0
LINE
  5
464
  8
SAKUZU
  6
CONTINUOUS
 62
     1
 10
1495.950546506624
 20
1849.728651663082
 30
0.0
 11
1495.950546506624
 21
1739.72865166308
 31
0.0
  0
LINE
  5
465
  8
SAKUZU
  6
CONTINUOUS
 62
     1
 10
1533.950546506624
 20
1739.72865166308
 30
0.0
 11
1533.950546506624
 21
1849.728651663082
 31
0.0
  0
LINE
  5
466
  8
SAKUZU
  6
CONTINUOUS
 62
     1
 10
1499.550546888094
 20
1732.72865166308
 30
0.0
 11
1499.550546888094
 21
1709.72865166308
 31
0.0
  0
LINE
  5
467
  8
SAKUZU
  6
CONTINUOUS
 62
     1
 10
1499.550546888094
 20
1709.72865166308
 30
0.0
 11
1530.350548032503
 21
1709.72865166308
 31
0.0
  0
LINE
  5
468
  8
SAKUZU
  6
CONTINUOUS
 62
     1
 10
1530.350548032503
 20
1709.72865166308
 30
0.0
 11
1530.350548032503
 21
1732.72865166308
 31
0.0
  0
LINE
  5
469
  8
SAKUZU
  6
CONTINUOUS
 62
     1
 10
1501.350546125155
 20
1709.72865166308
 30
0.0
 11
1501.350546125155
 21
1694.72865166308
 31
0.0
  0
LINE
  5
46A
  8
SAKUZU
  6
CONTINUOUS
 62
     1
 10
1501.350546125155
 20
1694.72865166308
 30
0.0
 11
1528.550548795443
 21
1694.72865166308
 31
0.0
  0
LINE
  5
46B
  8
SAKUZU
  6
CONTINUOUS
 62
     1
 10
1528.550548795443
 20
1694.72865166308
 30
0.0
 11
1528.550548795443
 21
1709.72865166308
 31
0.0
  0
LINE
  5
46C
  8
SAKUZU
  6
CONTINUOUS
 62
     1
 10
1980.950562719088
 20
1849.728651663082
 30
0.0
 11
1980.950562719088
 21
1739.72865166308
 31
0.0
  0
LINE
  5
46D
  8
SAKUZU
  6
CONTINUOUS
 62
     1
 10
2018.950562719088
 20
1739.72865166308
 30
0.0
 11
2018.950562719088
 21
1849.728651663082
 31
0.0
  0
LINE
  5
46E
  8
SAKUZU
  6
CONTINUOUS
 62
     1
 10
1984.550538305025
 20
1732.72865166308
 30
0.0
 11
1984.550538305025
 21
1709.72865166308
 31
0.0
  0
LINE
  5
46F
  8
SAKUZU
  6
CONTINUOUS
 62
     1
 10
1984.550538305025
 20
1709.72865166308
 30
0.0
 11
2015.35058713315
 21
1709.72865166308
 31
0.0
  0
LINE
  5
470
  8
SAKUZU
  6
CONTINUOUS
 62
     1
 10
2015.35058713315
 20
1709.72865166308
 30
0.0
 11
2015.35058713315
 21
1732.72865166308
 31
0.0
  0
LINE
  5
471
  8
SAKUZU
  6
CONTINUOUS
 62
     1
 10
1986.35058713315
 20
1709.72865166308
 30
0.0
 11
1986.35058713315
 21
1694.72865166308
 31
0.0
  0
LINE
  5
472
  8
SAKUZU
  6
CONTINUOUS
 62
     1
 10
1986.35058713315
 20
1694.72865166308
 30
0.0
 11
2013.550538305025
 21
1694.72865166308
 31
0.0
  0
LINE
  5
473
  8
SAKUZU
  6
CONTINUOUS
 62
     1
 10
2013.550538305025
 20
1694.72865166308
 30
0.0
 11
2013.550538305025
 21
1709.72865166308
 31
0.0
  0
LINE
  5
474
  8
SAKUZU
  6
CONTINUOUS
 62
     1
 10
1245.950592282991
 20
1849.728651663082
 30
0.0
 11
1245.950592282991
 21
1739.728644503294
 31
0.0
  0
LINE
  5
475
  8
SAKUZU
  6
CONTINUOUS
 62
     1
 10
1283.950592282991
 20
1739.728644503294
 30
0.0
 11
1283.950592282991
 21
1849.728651663082
 31
0.0
  0
LINE
  5
476
  8
SAKUZU
  6
CONTINUOUS
 62
     1
 10
1249.550592664461
 20
1732.728644503294
 30
0.0
 11
1249.550592664461
 21
1709.728644503294
 31
0.0
  0
LINE
  5
477
  8
SAKUZU
  6
CONTINUOUS
 62
     1
 10
1249.550592664461
 20
1709.728644503294
 30
0.0
 11
1280.35059380887
 21
1709.728644503294
 31
0.0
  0
LINE
  5
478
  8
SAKUZU
  6
CONTINUOUS
 62
     1
 10
1280.35059380887
 20
1709.728644503294
 30
0.0
 11
1280.35059380887
 21
1732.728644503294
 31
0.0
  0
LINE
  5
479
  8
SAKUZU
  6
CONTINUOUS
 62
     1
 10
1251.350591901522
 20
1709.728644503294
 30
0.0
 11
1251.350591901522
 21
1694.728644503294
 31
0.0
  0
LINE
  5
47A
  8
SAKUZU
  6
CONTINUOUS
 62
     1
 10
1251.350591901522
 20
1694.728644503294
 30
0.0
 11
1278.55059457181
 21
1694.728644503294
 31
0.0
  0
LINE
  5
47B
  8
SAKUZU
  6
CONTINUOUS
 62
     1
 10
1278.55059457181
 20
1694.728644503294
 30
0.0
 11
1278.55059457181
 21
1709.728644503294
 31
0.0
  0
LINE
  5
47C
  8
SAKUZU
  6
CONTINUOUS
 62
     1
 10
-912.0494286978435
 20
1739.72865166308
 30
0.0
 11
-874.0494286978435
 21
1739.72865166308
 31
0.0
  0
ARC
  5
47D
  8
SAKUZU
  6
CONTINUOUS
 62
     1
 10
-912.0494286978435
 20
1737.72865166308
 30
0.0
 40
2.0
 50
90.0
 51
180.0
  0
ARC
  5
47E
  8
SAKUZU
  6
CONTINUOUS
 62
     1
 10
-874.0494286978435
 20
1737.72865166308
 30
0.0
 40
2.0
 50
0.0
 51
90.0
  0
LINE
  5
47F
  8
SAKUZU
  6
CONTINUOUS
 62
     1
 10
-872.0494286978435
 20
1737.72865166308
 30
0.0
 11
-872.0494286978435
 21
1732.72865166308
 31
0.0
  0
LINE
  5
480
  8
SAKUZU
  6
CONTINUOUS
 62
     1
 10
-872.0494286978435
 20
1732.72865166308
 30
0.0
 11
-914.0494286978435
 21
1732.72865166308
 31
0.0
  0
LINE
  5
481
  8
SAKUZU
  6
CONTINUOUS
 62
     1
 10
-914.0494286978435
 20
1732.72865166308
 30
0.0
 11
-914.0494286978435
 21
1737.72865166308
 31
0.0
  0
LINE
  5
482
  8
SAKUZU
  6
CONTINUOUS
 62
     1
 10
-427.0494124853801
 20
1739.72865166308
 30
0.0
 11
-389.0494124853801
 21
1739.72865166308
 31
0.0
  0
ARC
  5
483
  8
SAKUZU
  6
CONTINUOUS
 62
     1
 10
-427.0494124853801
 20
1737.72865166308
 30
0.0
 40
2.0
 50
90.0
 51
180.0
  0
ARC
  5
484
  8
SAKUZU
  6
CONTINUOUS
 62
     1
 10
-389.0494124853801
 20
1737.72865166308
 30
0.0
 40
2.0
 50
0.0
 51
90.0
  0
LINE
  5
485
  8
SAKUZU
  6
CONTINUOUS
 62
     1
 10
-387.0494124853801
 20
1737.72865166308
 30
0.0
 11
-387.0494124853801
 21
1732.72865166308
 31
0.0
  0
LINE
  5
486
  8
SAKUZU
  6
CONTINUOUS
 62
     1
 10
-387.0494124853801
 20
1732.72865166308
 30
0.0
 11
-429.0494124853801
 21
1732.72865166308
 31
0.0
  0
LINE
  5
487
  8
SAKUZU
  6
CONTINUOUS
 62
     1
 10
-429.0494124853801
 20
1732.72865166308
 30
0.0
 11
-429.0494124853801
 21
1737.72865166308
 31
0.0
  0
LINE
  5
488
  8
SAKUZU
  6
CONTINUOUS
 62
     1
 10
-177.0494277441692
 20
1739.728644503294
 30
0.0
 11
-139.0494277441692
 21
1739.728644503294
 31
0.0
  0
ARC
  5
489
  8
SAKUZU
  6
CONTINUOUS
 62
     1
 10
-177.0494277441692
 20
1737.728644503294
 30
0.0
 40
2.0
 50
90.0
 51
180.0
  0
ARC
  5
48A
  8
SAKUZU
  6
CONTINUOUS
 62
     1
 10
-139.0494277441692
 20
1737.728644503294
 30
0.0
 40
2.0
 50
0.0
 51
90.0
  0
LINE
  5
48B
  8
SAKUZU
  6
CONTINUOUS
 62
     1
 10
-137.0494277441692
 20
1737.728644503294
 30
0.0
 11
-137.0494277441692
 21
1732.728644503294
 31
0.0
  0
LINE
  5
48C
  8
SAKUZU
  6
CONTINUOUS
 62
     1
 10
-137.0494277441692
 20
1732.728644503294
 30
0.0
 11
-179.0494277441692
 21
1732.728644503294
 31
0.0
  0
LINE
  5
48D
  8
SAKUZU
  6
CONTINUOUS
 62
     1
 10
-179.0494277441692
 20
1732.728644503294
 30
0.0
 11
-179.0494277441692
 21
1737.728644503294
 31
0.0
  0
LINE
  5
48E
  8
SAKUZU
  6
CONTINUOUS
 62
     1
 10
1495.950546506624
 20
1739.72865166308
 30
0.0
 11
1533.950546506624
 21
1739.72865166308
 31
0.0
  0
ARC
  5
48F
  8
SAKUZU
  6
CONTINUOUS
 62
     1
 10
1495.950546506624
 20
1737.72865166308
 30
0.0
 40
2.0
 50
90.0
 51
180.0
  0
ARC
  5
490
  8
SAKUZU
  6
CONTINUOUS
 62
     1
 10
1533.950546506624
 20
1737.72865166308
 30
0.0
 40
2.0
 50
0.0
 51
90.0
  0
LINE
  5
491
  8
SAKUZU
  6
CONTINUOUS
 62
     1
 10
1535.950546506624
 20
1737.72865166308
 30
0.0
 11
1535.950546506624
 21
1732.72865166308
 31
0.0
  0
LINE
  5
492
  8
SAKUZU
  6
CONTINUOUS
 62
     1
 10
1535.950546506624
 20
1732.72865166308
 30
0.0
 11
1493.950546506624
 21
1732.72865166308
 31
0.0
  0
LINE
  5
493
  8
SAKUZU
  6
CONTINUOUS
 62
     1
 10
1493.950546506624
 20
1732.72865166308
 30
0.0
 11
1493.950546506624
 21
1737.72865166308
 31
0.0
  0
LINE
  5
494
  8
SAKUZU
  6
CONTINUOUS
 62
     1
 10
1980.950562719088
 20
1739.72865166308
 30
0.0
 11
2018.950562719088
 21
1739.72865166308
 31
0.0
  0
ARC
  5
495
  8
SAKUZU
  6
CONTINUOUS
 62
     1
 10
1980.950562719088
 20
1737.72865166308
 30
0.0
 40
2.0
 50
90.0
 51
180.0
  0
ARC
  5
496
  8
SAKUZU
  6
CONTINUOUS
 62
     1
 10
2018.950562719088
 20
1737.72865166308
 30
0.0
 40
2.0
 50
0.0
 51
90.0
  0
LINE
  5
497
  8
SAKUZU
  6
CONTINUOUS
 62
     1
 10
2020.950562719088
 20
1737.72865166308
 30
0.0
 11
2020.950562719088
 21
1732.72865166308
 31
0.0
  0
LINE
  5
498
  8
SAKUZU
  6
CONTINUOUS
 62
     1
 10
2020.950562719088
 20
1732.72865166308
 30
0.0
 11
1978.950562719088
 21
1732.72865166308
 31
0.0
  0
LINE
  5
499
  8
SAKUZU
  6
CONTINUOUS
 62
     1
 10
1978.950562719088
 20
1732.72865166308
 30
0.0
 11
1978.950562719088
 21
1737.72865166308
 31
0.0
  0
LINE
  5
49A
  8
SAKUZU
  6
CONTINUOUS
 62
     1
 10
1245.950592282991
 20
1739.728644503294
 30
0.0
 11
1283.950592282991
 21
1739.728644503294
 31
0.0
  0
ARC
  5
49B
  8
SAKUZU
  6
CONTINUOUS
 62
     1
 10
1245.950592282991
 20
1737.728644503294
 30
0.0
 40
2.0
 50
90.0
 51
180.0
  0
ARC
  5
49C
  8
SAKUZU
  6
CONTINUOUS
 62
     1
 10
1283.950592282991
 20
1737.728644503294
 30
0.0
 40
2.0
 50
0.0
 51
90.0
  0
LINE
  5
49D
  8
SAKUZU
  6
CONTINUOUS
 62
     1
 10
1285.950592282991
 20
1737.728644503294
 30
0.0
 11
1285.950592282991
 21
1732.728644503294
 31
0.0
  0
LINE
  5
49E
  8
SAKUZU
  6
CONTINUOUS
 62
     1
 10
1285.950592282991
 20
1732.728644503294
 30
0.0
 11
1243.950592282991
 21
1732.728644503294
 31
0.0
  0
LINE
  5
49F
  8
SAKUZU
  6
CONTINUOUS
 62
     1
 10
1243.950592282991
 20
1732.728644503294
 30
0.0
 11
1243.950592282991
 21
1737.728644503294
 31
0.0
  0
LINE
  5
4A0
  8
SAKUZU
  6
CONTINUOUS
 62
    17
 10
1487.415028813155
 20
2543.264178409227
 30
0.0
 11
1447.492310621658
 21
2652.950945163615
 31
0.0
  0
LINE
  5
4A1
  8
SAKUZU
  6
CONTINUOUS
 62
    17
 10
-380.5138728574018
 20
2543.264178409227
 30
0.0
 11
-340.5911546659052
 21
2652.950945163615
 31
0.0
  0
LINE
  5
4A2
  8
SAKUZU
  6
CONTINUOUS
 62
    17
 10
-380.5138728574018
 20
2543.264178409227
 30
0.0
 11
-359.8651414008852
 21
2572.753693762618
 31
0.0
  0
LINE
  5
4A3
  8
SAKUZU
  6
CONTINUOUS
 62
    17
 10
-380.5138728574018
 20
2543.264178409227
 30
0.0
 11
-377.3762237623012
 21
2579.127206511957
 31
0.0
  0
LINE
  5
4A4
  8
SAKUZU
  6
CONTINUOUS
 62
    17
 10
1487.415028813155
 20
2543.264178409227
 30
0.0
 11
1484.277379718055
 21
2579.127206511957
 31
0.0
  0
LINE
  5
4A5
  8
SAKUZU
  6
CONTINUOUS
 62
    17
 10
1487.415028813155
 20
2543.264178409227
 30
0.0
 11
1466.766297356639
 21
2572.753693762618
 31
0.0
  0
LINE
  5
4A6
  8
SAKUZU
  6
CONTINUOUS
 62
    17
 10
1447.492310621658
 20
2652.950945163615
 30
0.0
 11
1356.292310621659
 21
2652.950945163615
 31
0.0
  0
TEXT
  5
4A7
  8
SAKUZU
 62
    17
 10
1370.032067566102
 20
2667.020823635837
 30
0.0
 40
31.86024305555555
  1
R5
  7
YUGOTHIC_MEDIUM
 72
     1
 11
1401.892310621658
 21
2682.950945163615
 31
0.0
 73
     2
  0
LINE
  5
4A8
  8
SAKUZU
  6
CONTINUOUS
 62
    17
 10
-249.3911546659062
 20
2652.950945163615
 30
0.0
 11
-340.5911546659052
 21
2652.950945163615
 31
0.0
  0
TEXT
  5
4A9
  8
SAKUZU
 62
    17
 10
-326.8513977214621
 20
2667.020823635837
 30
0.0
 40
31.86024305555555
  1
R5
  7
YUGOTHIC_MEDIUM
 72
     1
 11
-294.9911546659066
 21
2682.950945163615
 31
0.0
 73
     2
  0
DIMENSION
  5
4AA
  8
SAKUZU
  6
CONTINUOUS
 62
    17
  2
*D5
 10
1115.950593236665
 20
2544.728644503294
 30
0.0
 11
1099.820471709633
 21
2524.728644503294
 31
0.0
 70
    32
  3
SPEAC
 13
1235.950593236666
 23
2504.728644503294
 33
0.0
 14
1235.950593236666
 24
2544.728644503294
 34
0.0
 50
-90.0
  0
DIMENSION
  5
4AD
  8
SAKUZU
  6
CONTINUOUS
 62
    17
  2
*D6
 10
1115.950593236666
 20
1894.728644503291
 30
0.0
 11
1099.820471709633
 21
1794.728644503293
 31
0.0
 70
    32
  3
SPEAC
 13
1251.350591901522
 23
1694.728644503294
 33
0.0
 14
1244.450592282991
 24
1894.728644503291
 34
0.0
 50
-90.0
  0
DIMENSION
  5
4AE
  8
SAKUZU
  6
CONTINUOUS
 62
    17
  2
*D7
 10
1015.950593236666
 20
1694.728644503294
 30
0.0
 11
999.820471709633
 21
2119.728644503294
 31
0.0
 70
    32
  3
SPEAC
 13
1235.950593236666
 23
2544.728644503294
 33
0.0
 14
1251.350591901522
 24
1694.728644503294
 34
0.0
 50
-90.0
  0
DIMENSION
  5
4AF
  8
SAKUZU
  6
CONTINUOUS
 62
    17
  2
*D8
 10
-979.0494277441692
 20
3222.880505079891
 30
0.0
 11
-949.0494277441692
 21
3239.010626606923
 31
0.0
 70
    32
  3
SPEAC
 13
-919.0494277441692
 23
3342.880505079891
 33
0.0
 14
-979.0494277441692
 24
3342.880505079891
 34
0.0
  0
DIMENSION
  5
4B0
  8
SAKUZU
  6
CONTINUOUS
 62
    17
  2
*D9
 10
-919.0494277441692
 20
3222.880505079891
 30
0.0
 11
-649.0494201147746
 21
3239.010626606923
 31
0.0
 70
    32
  3
SPEAC
 13
-379.0494124853801
 23
3342.880505079891
 33
0.0
 14
-919.0494277441692
 24
3342.880505079891
 34
0.0
  0
DIMENSION
  5
4B1
  8
SAKUZU
  6
CONTINUOUS
 62
    17
  2
*D10
 10
-979.0494277441692
 20
3122.880505079891
 30
0.0
 11
-679.0494201147746
 21
3139.010626606923
 31
0.0
 70
    32
  3
SPEAC
 13
-379.0494124853801
 23
3342.880505079891
 33
0.0
 14
-979.0494277441692
 24
3342.880505079891
 34
0.0
  0
DIMENSION
  5
4B2
  8
SAKUZU
  6
CONTINUOUS
 62
    17
  2
*D11
 10
-379.0494124853801
 20
3122.880505079891
 30
0.0
 11
-254.0494096243572
 21
3139.010626606923
 31
0.0
 70
    32
  3
SPEAC
 13
-129.0494067633342
 23
3592.880505079891
 33
0.0
 14
-379.0494124853801
 24
3342.880505079891
 34
0.0
  0
DIMENSION
  5
4B3
  8
SAKUZU
  6
CONTINUOUS
 62
    17
  2
*D12
 10
-979.0494277441692
 20
3022.880505079891
 30
0.0
 11
-554.0494172537517
 21
3039.010626606923
 31
0.0
 70
    32
  3
SPEAC
 13
-129.0494067633342
 23
3592.880505079891
 33
0.0
 14
-979.0494277441692
 24
3342.880505079891
 34
0.0
  0
DIMENSION
  5
4B4
  8
SAKUZU
  6
CONTINUOUS
 62
    17
  2
*D13
 10
-9.049406763334218
 20
4192.88050507989
 30
0.0
 11
-25.17952829036653
 21
4162.88050507989
 31
0.0
 70
    32
  3
SPEAC
 13
-129.0494067633342
 23
4132.88050507989
 33
0.0
 14
-129.0494067633342
 24
4192.88050507989
 34
0.0
 50
-90.0
  0
DIMENSION
  5
4B5
  8
SAKUZU
  6
CONTINUOUS
 62
    17
  2
*D14
 10
-9.049406763334446
 20
4132.88050507989
 30
0.0
 11
-25.1795282903672
 21
3862.88050507989
 31
0.0
 70
    32
  3
SPEAC
 13
-129.0494067633342
 23
3592.880505079891
 33
0.0
 14
-129.0494067633342
 24
4132.88050507989
 34
0.0
 50
-90.0
  0
DIMENSION
  5
4B6
  8
SAKUZU
  6
CONTINUOUS
 62
    17
  2
*D15
 10
90.95059323666578
 20
4192.88050507989
 30
0.0
 11
74.82047170963304
 21
3892.88050507989
 31
0.0
 70
    32
  3
SPEAC
 13
-129.0494067633342
 23
3592.880505079891
 33
0.0
 14
-129.0494067633342
 24
4192.88050507989
 34
0.0
 50
-90.0
  0
DIMENSION
  5
4B7
  8
SAKUZU
  6
CONTINUOUS
 62
    17
  2
*D16
 10
90.95059323666578
 20
3592.880505079891
 30
0.0
 11
74.82047170963301
 21
3467.880505079891
 31
0.0
 70
    32
  3
SPEAC
 13
-379.0494124853801
 23
3342.880505079891
 33
0.0
 14
-129.0494067633342
 24
3592.880505079891
 34
0.0
 50
-90.0
  0
DIMENSION
  5
4B8
  8
SAKUZU
  6
CONTINUOUS
 62
    17
  2
*D17
 10
190.9505932366658
 20
4192.88050507989
 30
0.0
 11
174.820471709633
 21
3767.88050507989
 31
0.0
 70
    32
  3
SPEAC
 13
-379.0494124853801
 23
3342.880505079891
 33
0.0
 14
-129.0494067633342
 24
4192.88050507989
 34
0.0
 50
-90.0
  0
LINE
  5
4B9
  8
0
  6
CONTINUOUS
 62
     1
 10
-913.5494286978435
 20
1894.728651663082
 30
0.0
 11
-913.5494286978435
 21
1849.728651663082
 31
0.0
  0
LINE
  5
4BA
  8
0
  6
CONTINUOUS
 62
     1
 10
-872.5494286978435
 20
1849.728651663082
 30
0.0
 11
-872.5494286978435
 21
1862.728651663082
 31
0.0
  0
LINE
  5
4BB
  8
0
  6
CONTINUOUS
 62
     1
 10
-872.5494286978435
 20
1894.728651663122
 30
0.0
 11
-873.5494286978435
 21
1894.728651663122
 31
0.0
  0
LINE
  5
4BC
  8
0
  6
CONTINUOUS
 62
     1
 10
-873.5494286978435
 20
1894.728651663084
 30
0.0
 11
-913.5494286978435
 21
1894.728651663082
 31
0.0
  0
LINE
  5
4BD
  8
0
  6
CONTINUOUS
 62
     1
 10
-913.5494286978435
 20
1849.728651663082
 30
0.0
 11
-872.5494286978435
 21
1849.728651663082
 31
0.0
  0
LINE
  5
4BE
  8
0
  6
CONTINUOUS
 62
     1
 10
-177.5494286978435
 20
1894.728651663086
 30
0.0
 11
-177.5494286978435
 21
1862.728651663082
 31
0.0
  0
LINE
  5
4BF
  8
0
  6
CONTINUOUS
 62
     1
 10
-137.5494286978435
 20
1894.728651663082
 30
0.0
 11
-137.5494286978435
 21
1849.728651663082
 31
0.0
  0
LINE
  5
4C0
  8
0
  6
CONTINUOUS
 62
     1
 10
-178.5494286978435
 20
1849.728651663082
 30
0.0
 11
-178.5494286978435
 21
1862.728651663082
 31
0.0
  0
LINE
  5
4C1
  8
0
  6
CONTINUOUS
 62
     1
 10
-872.5494286978435
 20
1894.728651663121
 30
0.0
 11
-912.5494296515178
 21
1894.728651663121
 31
0.0
  0
LINE
  5
4C2
  8
0
  6
CONTINUOUS
 62
     1
 10
-873.5494296515178
 20
1862.728651663082
 30
0.0
 11
-427.5494134390544
 21
1862.728651663082
 31
0.0
  0
LINE
  5
4C3
  8
0
  6
CONTINUOUS
 62
     1
 10
-388.5494134390544
 20
1862.728651663082
 30
0.0
 11
-177.5494286978435
 21
1862.728651663082
 31
0.0
  0
LINE
  5
4C4
  8
0
  6
CONTINUOUS
 62
     1
 10
-873.5494286978435
 20
1894.728651663122
 30
0.0
 11
-137.5494286978435
 21
1894.728651663082
 31
0.0
  0
LINE
  5
4C5
  8
0
  6
CONTINUOUS
 62
     1
 10
-137.5494286978435
 20
1849.728651663082
 30
0.0
 11
-178.5494286978435
 21
1849.728651663082
 31
0.0
  0
LINE
  5
4C6
  8
0
  6
CONTINUOUS
 62
     1
 10
-873.5494296515178
 20
1894.728651663122
 30
0.0
 11
-873.5494296515178
 21
1862.728651663082
 31
0.0
  0
LINE
  5
4C7
  8
0
  6
CONTINUOUS
 62
     1
 10
-913.5494296515178
 20
1862.728651663082
 30
0.0
 11
-913.5494296515178
 21
1849.728651663082
 31
0.0
  0
LINE
  5
4C8
  8
0
  6
CONTINUOUS
 62
     1
 10
-872.5494296515178
 20
1849.728651663082
 30
0.0
 11
-872.5494296515178
 21
1862.728651663082
 31
0.0
  0
LINE
  5
4C9
  8
0
  6
CONTINUOUS
 62
     1
 10
-872.5494296515178
 20
1862.728651663082
 30
0.0
 11
-873.5494296515178
 21
1862.728651663082
 31
0.0
  0
LINE
  5
4CA
  8
0
  6
CONTINUOUS
 62
     1
 10
-913.5494296515178
 20
1849.728651663082
 30
0.0
 11
-872.5494296515178
 21
1849.728651663082
 31
0.0
  0
LINE
  5
4CB
  8
0
  6
CONTINUOUS
 62
     1
 10
1244.450592282991
 20
1894.728651663082
 30
0.0
 11
1244.450592282991
 21
1849.728651663082
 31
0.0
  0
LINE
  5
4CC
  8
0
  6
CONTINUOUS
 62
     1
 10
1285.450592282991
 20
1849.728651663082
 30
0.0
 11
1285.450592282991
 21
1862.728651663082
 31
0.0
  0
LINE
  5
4CD
  8
0
  6
CONTINUOUS
 62
     1
 10
1285.450592282991
 20
1894.728651663122
 30
0.0
 11
1284.450592282991
 21
1894.728651663122
 31
0.0
  0
LINE
  5
4CE
  8
0
  6
CONTINUOUS
 62
     1
 10
1284.450592282991
 20
1894.728651663084
 30
0.0
 11
1244.450592282991
 21
1894.728651663082
 31
0.0
  0
LINE
  5
4CF
  8
0
  6
CONTINUOUS
 62
     1
 10
1244.450592282991
 20
1849.728651663082
 30
0.0
 11
1285.450592282991
 21
1849.728651663082
 31
0.0
  0
LINE
  5
4D0
  8
0
  6
CONTINUOUS
 62
     1
 10
1980.450592282991
 20
1894.728651663086
 30
0.0
 11
1980.450592282991
 21
1862.728651663082
 31
0.0
  0
LINE
  5
4D1
  8
0
  6
CONTINUOUS
 62
     1
 10
2020.450592282991
 20
1894.728651663082
 30
0.0
 11
2020.450592282991
 21
1849.728651663082
 31
0.0
  0
LINE
  5
4D2
  8
0
  6
CONTINUOUS
 62
     1
 10
1979.450592282991
 20
1849.728651663082
 30
0.0
 11
1979.450592282991
 21
1862.728651663082
 31
0.0
  0
LINE
  5
4D3
  8
0
  6
CONTINUOUS
 62
     1
 10
1285.450592282991
 20
1894.728651663121
 30
0.0
 11
1245.450591329317
 21
1894.728651663121
 31
0.0
  0
LINE
  5
4D4
  8
0
  6
CONTINUOUS
 62
     1
 10
1284.450591329317
 20
1862.728651663082
 30
0.0
 11
1495.450549367647
 21
1862.728651663082
 31
0.0
  0
LINE
  5
4D5
  8
0
  6
CONTINUOUS
 62
     1
 10
1534.45054555295
 20
1862.728651663082
 30
0.0
 11
1980.450592282991
 21
1862.728651663082
 31
0.0
  0
LINE
  5
4D6
  8
0
  6
CONTINUOUS
 62
     1
 10
1284.450592282991
 20
1894.728651663122
 30
0.0
 11
2020.450592282991
 21
1894.728651663082
 31
0.0
  0
LINE
  5
4D7
  8
0
  6
CONTINUOUS
 62
     1
 10
2020.450592282991
 20
1849.728651663082
 30
0.0
 11
1979.450592282991
 21
1849.728651663082
 31
0.0
  0
LINE
  5
4D8
  8
0
  6
CONTINUOUS
 62
     1
 10
1284.450591329317
 20
1894.728651663122
 30
0.0
 11
1284.450591329317
 21
1862.728651663082
 31
0.0
  0
LINE
  5
4D9
  8
0
  6
CONTINUOUS
 62
     1
 10
1244.450591329317
 20
1862.728651663082
 30
0.0
 11
1244.450591329317
 21
1849.728651663082
 31
0.0
  0
LINE
  5
4DA
  8
0
  6
CONTINUOUS
 62
     1
 10
1285.450591329317
 20
1849.728651663082
 30
0.0
 11
1285.450591329317
 21
1862.728651663082
 31
0.0
  0
LINE
  5
4DB
  8
0
  6
CONTINUOUS
 62
     1
 10
1285.450591329317
 20
1862.728651663082
 30
0.0
 11
1284.450591329317
 21
1862.728651663082
 31
0.0
  0
LINE
  5
4DC
  8
0
  6
CONTINUOUS
 62
     1
 10
1244.450591329317
 20
1849.728651663082
 30
0.0
 11
1285.450591329317
 21
1849.728651663082
 31
0.0
  0
LINE
  5
4DD
  8
0
  6
CONTINUOUS
 62
     1
 10
1494.45054555295
 20
1862.728651663082
 30
0.0
 11
1494.450546506624
 21
1849.728651663082
 31
0.0
  0
LINE
  5
4DE
  8
0
  6
CONTINUOUS
 62
     1
 10
1535.450546506624
 20
1849.728651663082
 30
0.0
 11
1535.450546506624
 21
1862.728651663082
 31
0.0
  0
LINE
  5
4DF
  8
0
  6
CONTINUOUS
 62
     1
 10
1535.450546506624
 20
1894.728651663122
 30
0.0
 11
1534.450546506624
 21
1894.728651663122
 31
0.0
  0
LINE
  5
4E0
  8
0
  6
CONTINUOUS
 62
     1
 10
1534.450546506624
 20
1894.728651663084
 30
0.0
 11
1494.450546506624
 21
1894.728651663082
 31
0.0
  0
LINE
  5
4E1
  8
0
  6
CONTINUOUS
 62
     1
 10
1494.450546506624
 20
1849.728651663082
 30
0.0
 11
1535.450546506624
 21
1849.728651663082
 31
0.0
  0
LINE
  5
4E2
  8
0
  6
CONTINUOUS
 62
     1
 10
1535.450546506624
 20
1894.728651663121
 30
0.0
 11
1495.45054555295
 21
1894.728651663121
 31
0.0
  0
LINE
  5
4E3
  8
0
  6
CONTINUOUS
 62
     1
 10
1534.45054555295
 20
1894.728651663122
 30
0.0
 11
1534.45054555295
 21
1862.728651663082
 31
0.0
  0
LINE
  5
4E4
  8
0
  6
CONTINUOUS
 62
     1
 10
1494.45054555295
 20
1862.728651663082
 30
0.0
 11
1494.45054555295
 21
1849.728651663082
 31
0.0
  0
LINE
  5
4E5
  8
0
  6
CONTINUOUS
 62
     1
 10
1535.45054555295
 20
1849.728651663082
 30
0.0
 11
1535.45054555295
 21
1862.728651663082
 31
0.0
  0
LINE
  5
4E6
  8
0
  6
CONTINUOUS
 62
     1
 10
1535.45054555295
 20
1862.728651663082
 30
0.0
 11
1534.45054555295
 21
1862.728651663082
 31
0.0
  0
LINE
  5
4E7
  8
0
  6
CONTINUOUS
 62
     1
 10
1494.45054555295
 20
1849.728651663082
 30
0.0
 11
1535.45054555295
 21
1849.728651663082
 31
0.0
  0
LINE
  5
4E8
  8
0
  6
CONTINUOUS
 62
     1
 10
1535.450549367647
 20
1862.728651663082
 30
0.0
 11
1535.450548413973
 21
1849.728651663082
 31
0.0
  0
LINE
  5
4E9
  8
0
  6
CONTINUOUS
 62
     1
 10
1494.450548413973
 20
1849.728651663082
 30
0.0
 11
1494.450548413973
 21
1862.728651663082
 31
0.0
  0
LINE
  5
4EA
  8
0
  6
CONTINUOUS
 62
     1
 10
1494.450548413973
 20
1894.728651663122
 30
0.0
 11
1495.450548413973
 21
1894.728651663122
 31
0.0
  0
LINE
  5
4EB
  8
0
  6
CONTINUOUS
 62
     1
 10
1495.450548413973
 20
1894.728651663084
 30
0.0
 11
1535.450548413973
 21
1894.728651663082
 31
0.0
  0
LINE
  5
4EC
  8
0
  6
CONTINUOUS
 62
     1
 10
1535.450548413973
 20
1849.728651663082
 30
0.0
 11
1494.450548413973
 21
1849.728651663082
 31
0.0
  0
LINE
  5
4ED
  8
0
  6
CONTINUOUS
 62
     1
 10
1494.450548413973
 20
1894.728651663121
 30
0.0
 11
1534.450549367647
 21
1894.728651663121
 31
0.0
  0
LINE
  5
4EE
  8
0
  6
CONTINUOUS
 62
     1
 10
1495.450549367647
 20
1894.728651663122
 30
0.0
 11
1495.450549367647
 21
1862.728651663082
 31
0.0
  0
LINE
  5
4EF
  8
0
  6
CONTINUOUS
 62
     1
 10
1535.450549367647
 20
1862.728651663082
 30
0.0
 11
1535.450549367647
 21
1849.728651663082
 31
0.0
  0
LINE
  5
4F0
  8
0
  6
CONTINUOUS
 62
     1
 10
1494.450549367647
 20
1849.728651663082
 30
0.0
 11
1494.450549367647
 21
1862.728651663082
 31
0.0
  0
LINE
  5
4F1
  8
0
  6
CONTINUOUS
 62
     1
 10
1494.450549367647
 20
1862.728651663082
 30
0.0
 11
1495.450549367647
 21
1862.728651663082
 31
0.0
  0
LINE
  5
4F2
  8
0
  6
CONTINUOUS
 62
     1
 10
1535.450549367647
 20
1849.728651663082
 30
0.0
 11
1494.450549367647
 21
1849.728651663082
 31
0.0
  0
LINE
  5
4F3
  8
0
  6
CONTINUOUS
 62
     1
 10
-427.5494134390544
 20
1894.728651663086
 30
0.0
 11
-427.5494134390544
 21
1862.728651663082
 31
0.0
  0
LINE
  5
4F4
  8
0
  6
CONTINUOUS
 62
     1
 10
-387.5494134390544
 20
1862.728651663082
 30
0.0
 11
-387.5494134390544
 21
1849.728651663082
 31
0.0
  0
LINE
  5
4F5
  8
0
  6
CONTINUOUS
 62
     1
 10
-428.5494134390544
 20
1849.728651663082
 30
0.0
 11
-428.5494134390544
 21
1862.728651663082
 31
0.0
  0
LINE
  5
4F6
  8
0
  6
CONTINUOUS
 62
     1
 10
-387.5494134390544
 20
1849.728651663082
 30
0.0
 11
-428.5494134390544
 21
1849.728651663082
 31
0.0
  0
LINE
  5
4F7
  8
0
  6
CONTINUOUS
 62
     1
 10
-388.5494134390544
 20
1894.728651663086
 30
0.0
 11
-388.5494134390544
 21
1862.728651663082
 31
0.0
  0
LINE
  5
4F8
  8
0
  6
CONTINUOUS
 62
     1
 10
-428.5494134390544
 20
1862.728651663082
 30
0.0
 11
-428.5494134390544
 21
1849.728651663082
 31
0.0
  0
LINE
  5
4F9
  8
0
  6
CONTINUOUS
 62
     1
 10
-387.5494134390544
 20
1849.728651663082
 30
0.0
 11
-387.5494134390544
 21
1862.728651663082
 31
0.0
  0
LINE
  5
4FA
  8
0
  6
CONTINUOUS
 62
     1
 10
-428.5494134390544
 20
1849.728651663082
 30
0.0
 11
-387.5494134390544
 21
1849.728651663082
 31
0.0
  0
LINE
  5
4FB
  8
SAKUZU
  6
CONTINUOUS
 62
     1
 10
-874.9999790191655
 20
7252.604459634489
 30
0.0
 11
-24.99995803833076
 21
7252.604459634489
 31
0.0
  0
LINE
  5
4FC
  8
SAKUZU
  6
CONTINUOUS
 62
     1
 10
-24.99995803833076
 20
7252.604459634489
 30
0.0
 11
-24.99995803833076
 21
6652.604459634489
 31
0.0
  0
LINE
  5
4FD
  8
SAKUZU
  6
CONTINUOUS
 62
     1
 10
-24.99995803833076
 20
6652.604459634489
 30
0.0
 11
-274.9999637603764
 21
6402.604459634489
 31
0.0
  0
LINE
  5
4FE
  8
SAKUZU
  6
CONTINUOUS
 62
     1
 10
-874.9999790191655
 20
6402.604459634489
 30
0.0
 11
-274.9999637603764
 21
6402.604459634489
 31
0.0
  0
LINE
  5
4FF
  8
SAKUZU
  6
CONTINUOUS
 62
     1
 10
-874.9999790191655
 20
6402.604459634489
 30
0.0
 11
-874.9999790191655
 21
7252.604459634489
 31
0.0
  0
LINE
  5
500
  8
SAKUZU
  6
CONTINUOUS
 62
     1
 10
-24.99995803833076
 20
7192.604459634489
 30
0.0
 11
-786.9999790191655
 21
7192.604459634489
 31
0.0
  0
ARC
  5
501
  8
SAKUZU
  6
CONTINUOUS
 62
     1
 10
-786.9999790191655
 20
7164.604459634489
 30
0.0
 40
28.0
 50
90.0
 51
180.0
  0
LINE
  5
502
  8
SAKUZU
  6
CONTINUOUS
 62
     1
 10
-814.9999790191655
 20
7164.604459634489
 30
0.0
 11
-814.9999790191655
 21
6402.604459634489
 31
0.0
  0
LINE
  5
503
  8
SAKUZU
  6
CONTINUOUS
 62
     1
 10
-807.9999799728398
 20
5512.604459634489
 30
0.0
 11
-807.9999799728398
 21
4902.604466794275
 31
0.0
  0
LINE
  5
504
  8
SAKUZU
  6
CONTINUOUS
 62
     1
 10
-769.9999799728398
 20
4902.604466794275
 30
0.0
 11
-769.999979972838
 21
5512.604459634489
 31
0.0
  0
LINE
  5
505
  8
SAKUZU
  6
CONTINUOUS
 62
     1
 10
-807.9999799728398
 20
4857.604466794277
 30
0.0
 11
-807.9999799728398
 21
4747.604466794275
 31
0.0
  0
LINE
  5
506
  8
SAKUZU
  6
CONTINUOUS
 62
     1
 10
-769.9999799728398
 20
4747.604466794275
 30
0.0
 11
-769.9999799728398
 21
4857.604466794277
 31
0.0
  0
LINE
  5
507
  8
SAKUZU
  6
CONTINUOUS
 62
     1
 10
-804.3999795913701
 20
4740.604466794275
 30
0.0
 11
-804.3999795913701
 21
4717.604466794275
 31
0.0
  0
LINE
  5
508
  8
SAKUZU
  6
CONTINUOUS
 62
     1
 10
-804.3999795913701
 20
4717.604466794275
 30
0.0
 11
-773.5999784469609
 21
4717.604466794275
 31
0.0
  0
LINE
  5
509
  8
SAKUZU
  6
CONTINUOUS
 62
     1
 10
-773.5999784469609
 20
4717.604466794275
 30
0.0
 11
-773.5999784469609
 21
4740.604466794275
 31
0.0
  0
LINE
  5
50A
  8
SAKUZU
  6
CONTINUOUS
 62
     1
 10
-802.5999803543095
 20
4717.604466794275
 30
0.0
 11
-802.5999803543095
 21
4702.604466794275
 31
0.0
  0
LINE
  5
50B
  8
SAKUZU
  6
CONTINUOUS
 62
     1
 10
-802.5999803543095
 20
4702.604466794275
 30
0.0
 11
-775.3999776840215
 21
4702.604466794275
 31
0.0
  0
LINE
  5
50C
  8
SAKUZU
  6
CONTINUOUS
 62
     1
 10
-775.3999776840215
 20
4702.604466794275
 30
0.0
 11
-775.3999776840215
 21
4717.604466794275
 31
0.0
  0
LINE
  5
50D
  8
SAKUZU
  6
CONTINUOUS
 62
     1
 10
-322.9999637603778
 20
5512.604459634489
 30
0.0
 11
-322.9999637603767
 21
4902.604466794272
 31
0.0
  0
LINE
  5
50E
  8
SAKUZU
  6
CONTINUOUS
 62
     1
 10
-284.9999637603764
 20
4902.604466794275
 30
0.0
 11
-284.9999637603746
 21
5512.604459634489
 31
0.0
  0
LINE
  5
50F
  8
SAKUZU
  6
CONTINUOUS
 62
     1
 10
-322.9999637603767
 20
4857.604466794277
 30
0.0
 11
-322.9999637603767
 21
4747.604466794275
 31
0.0
  0
LINE
  5
510
  8
SAKUZU
  6
CONTINUOUS
 62
     1
 10
-284.9999637603764
 20
4747.604466794275
 30
0.0
 11
-284.9999637603764
 21
4857.604466794277
 31
0.0
  0
LINE
  5
511
  8
SAKUZU
  6
CONTINUOUS
 62
     1
 10
-319.3999881744392
 20
4740.604466794275
 30
0.0
 11
-319.3999881744392
 21
4717.604466794275
 31
0.0
  0
LINE
  5
512
  8
SAKUZU
  6
CONTINUOUS
 62
     1
 10
-319.3999881744392
 20
4717.604466794275
 30
0.0
 11
-288.5999393463139
 21
4717.604466794275
 31
0.0
  0
LINE
  5
513
  8
SAKUZU
  6
CONTINUOUS
 62
     1
 10
-288.5999393463139
 20
4717.604466794275
 30
0.0
 11
-288.5999393463139
 21
4740.604466794275
 31
0.0
  0
LINE
  5
514
  8
SAKUZU
  6
CONTINUOUS
 62
     1
 10
-317.5999393463142
 20
4717.604466794275
 30
0.0
 11
-317.5999393463142
 21
4702.604466794275
 31
0.0
  0
LINE
  5
515
  8
SAKUZU
  6
CONTINUOUS
 62
     1
 10
-317.5999393463142
 20
4702.604466794275
 30
0.0
 11
-290.3999881744389
 21
4702.604466794275
 31
0.0
  0
LINE
  5
516
  8
SAKUZU
  6
CONTINUOUS
 62
     1
 10
-290.3999881744389
 20
4702.604466794275
 30
0.0
 11
-290.3999881744389
 21
4717.604466794275
 31
0.0
  0
LINE
  5
517
  8
SAKUZU
  6
CONTINUOUS
 62
     1
 10
-874.9999790191655
 20
5702.604459634489
 30
0.0
 11
-874.9999790191655
 21
5512.604459634489
 31
0.0
  0
LINE
  5
518
  8
SAKUZU
  6
CONTINUOUS
 62
     1
 10
-874.9999790191655
 20
5512.604459634489
 30
0.0
 11
-24.99995803833076
 21
5512.604459634489
 31
0.0
  0
LINE
  5
519
  8
SAKUZU
  6
CONTINUOUS
 62
     1
 10
-24.99995803833076
 20
5512.604459634489
 30
0.0
 11
-24.99995803833076
 21
5702.604459634489
 31
0.0
  0
LINE
  5
51A
  8
SAKUZU
  6
CONTINUOUS
 62
     1
 10
-24.99995803833076
 20
5552.604459634489
 30
0.0
 11
-809.9999790191655
 21
5552.604459634489
 31
0.0
  0
ARC
  5
51B
  8
SAKUZU
  6
CONTINUOUS
 62
     1
 10
-809.9999790191655
 20
5557.604459634489
 30
0.0
 40
5.0
 50
180.0
 51
270.0
  0
LINE
  5
51C
  8
SAKUZU
  6
CONTINUOUS
 62
     1
 10
-814.9999790191655
 20
5557.604459634489
 30
0.0
 11
-814.9999790191655
 21
5697.604459634489
 31
0.0
  0
ARC
  5
51D
  8
SAKUZU
  6
CONTINUOUS
 62
     1
 10
-819.9999790191655
 20
5697.604459634489
 30
0.0
 40
5.0
 50
0.0
 51
90.0
  0
LINE
  5
51E
  8
SAKUZU
  6
CONTINUOUS
 62
     1
 10
-874.9999790191655
 20
5702.604459634489
 30
0.0
 11
-24.99995803833076
 21
5702.604459634489
 31
0.0
  0
LINE
  5
51F
  8
SAKUZU
  6
CONTINUOUS
 62
     1
 10
-274.9999637603764
 20
5547.604459634489
 30
0.0
 11
-274.9999637603764
 21
5512.604459634489
 31
0.0
  0
ARC
  5
520
  8
SAKUZU
  6
CONTINUOUS
 62
     1
 10
-279.9999637603764
 20
5547.604459634489
 30
0.0
 40
5.0
 50
0.0
 51
90.0
  0
LINE
  5
521
  8
SAKUZU
  6
CONTINUOUS
 62
     1
 10
-72.99997901916481
 20
5512.604459634489
 30
0.0
 11
-72.99997901916481
 21
4902.604466794275
 31
0.0
  0
LINE
  5
522
  8
SAKUZU
  6
CONTINUOUS
 62
     1
 10
-34.99997901916572
 20
4902.604466794275
 30
0.0
 11
-34.99997901916458
 21
5512.604459634489
 31
0.0
  0
LINE
  5
523
  8
SAKUZU
  6
CONTINUOUS
 62
     1
 10
-72.99997901916572
 20
4857.604466794277
 30
0.0
 11
-72.99997901916572
 21
4747.604459634489
 31
0.0
  0
LINE
  5
524
  8
SAKUZU
  6
CONTINUOUS
 62
     1
 10
-34.99997901916572
 20
4857.604466794277
 30
0.0
 11
-34.99997901916572
 21
4747.604459634489
 31
0.0
  0
LINE
  5
525
  8
SAKUZU
  6
CONTINUOUS
 62
     1
 10
-69.40000343322822
 20
4740.604459634489
 30
0.0
 11
-69.40000343322822
 21
4717.604459634489
 31
0.0
  0
LINE
  5
526
  8
SAKUZU
  6
CONTINUOUS
 62
     1
 10
-69.40000343322822
 20
4717.604459634489
 30
0.0
 11
-38.59995460510322
 21
4717.604459634489
 31
0.0
  0
LINE
  5
527
  8
SAKUZU
  6
CONTINUOUS
 62
     1
 10
-38.59995460510322
 20
4717.604459634489
 30
0.0
 11
-38.59995460510322
 21
4740.604459634489
 31
0.0
  0
LINE
  5
528
  8
SAKUZU
  6
CONTINUOUS
 62
     1
 10
-67.59995460510322
 20
4717.604459634489
 30
0.0
 11
-67.59995460510322
 21
4702.604459634489
 31
0.0
  0
LINE
  5
529
  8
SAKUZU
  6
CONTINUOUS
 62
     1
 10
-67.59995460510322
 20
4702.604459634489
 30
0.0
 11
-40.40000343322822
 21
4702.604459634489
 31
0.0
  0
LINE
  5
52A
  8
SAKUZU
  6
CONTINUOUS
 62
     1
 10
-40.40000343322822
 20
4702.604459634489
 30
0.0
 11
-40.40000343322822
 21
4717.604459634489
 31
0.0
  0
LINE
  5
52B
  8
SAKUZU
  6
CONTINUOUS
 62
     1
 10
-874.9999790191655
 20
5702.604459634489
 30
0.0
 11
-874.9999790191655
 21
5512.604459634489
 31
0.0
  0
LINE
  5
52C
  8
SAKUZU
  6
CONTINUOUS
 62
     1
 10
2190.000011444091
 20
5702.604459634489
 30
0.0
 11
2190.000011444091
 21
5512.604459634489
 31
0.0
  0
LINE
  5
52D
  8
SAKUZU
  6
CONTINUOUS
 62
     1
 10
2190.000011444091
 20
5512.604459634489
 30
0.0
 11
1340.000041961669
 21
5512.604459634489
 31
0.0
  0
LINE
  5
52E
  8
SAKUZU
  6
CONTINUOUS
 62
     1
 10
1340.000041961669
 20
5512.604459634489
 30
0.0
 11
1340.000041961669
 21
5702.604459634489
 31
0.0
  0
LINE
  5
52F
  8
SAKUZU
  6
CONTINUOUS
 62
     1
 10
1340.000041961669
 20
5552.604459634489
 30
0.0
 11
2125.000011444091
 21
5552.604459634489
 31
0.0
  0
ARC
  5
530
  8
SAKUZU
  6
CONTINUOUS
 62
     1
 10
2125.000011444091
 20
5557.604459634489
 30
0.0
 40
5.0
 50
270.0
 51
0.0
  0
LINE
  5
531
  8
SAKUZU
  6
CONTINUOUS
 62
     1
 10
2130.000011444091
 20
5557.604459634489
 30
0.0
 11
2130.000011444091
 21
5697.604459634489
 31
0.0
  0
ARC
  5
532
  8
SAKUZU
  6
CONTINUOUS
 62
     1
 10
2135.000011444091
 20
5697.604459634489
 30
0.0
 40
5.0
 50
90.0
 51
180.0
  0
LINE
  5
533
  8
SAKUZU
  6
CONTINUOUS
 62
     1
 10
1340.000041961669
 20
5702.604459634489
 30
0.0
 11
2190.000011444091
 21
5702.604459634489
 31
0.0
  0
LINE
  5
534
  8
SAKUZU
  6
CONTINUOUS
 62
     1
 10
1590.000011444091
 20
5547.604459634489
 30
0.0
 11
1590.000011444091
 21
5512.604459634489
 31
0.0
  0
ARC
  5
535
  8
SAKUZU
  6
CONTINUOUS
 62
     1
 10
1595.000011444091
 20
5547.604459634489
 30
0.0
 40
5.0
 50
90.0
 51
180.0
  0
LINE
  5
536
  8
SAKUZU
  6
CONTINUOUS
 62
     1
 10
1388.000041961669
 20
5512.604459634489
 30
0.0
 11
1388.000041961669
 21
4902.604466794277
 31
0.0
  0
LINE
  5
537
  8
SAKUZU
  6
CONTINUOUS
 62
     1
 10
1350.000041961669
 20
5512.604459634489
 30
0.0
 11
1350.000041961669
 21
4902.604466794277
 31
0.0
  0
LINE
  5
538
  8
SAKUZU
  6
CONTINUOUS
 62
     1
 10
1638.000011444091
 20
5512.604459634489
 30
0.0
 11
1638.000011444091
 21
4902.604466794274
 31
0.0
  0
LINE
  5
539
  8
SAKUZU
  6
CONTINUOUS
 62
     1
 10
1600.000011444091
 20
5512.604459634489
 30
0.0
 11
1600.000011444091
 21
4902.604466794275
 31
0.0
  0
LINE
  5
53A
  8
SAKUZU
  6
CONTINUOUS
 62
     1
 10
2123.000011444091
 20
5512.604459634489
 30
0.0
 11
2123.000011444091
 21
4902.60446679427
 31
0.0
  0
LINE
  5
53B
  8
SAKUZU
  6
CONTINUOUS
 62
     1
 10
2085.000011444091
 20
5512.604459634489
 30
0.0
 11
2085.000011444091
 21
4902.604466794271
 31
0.0
  0
LINE
  5
53C
  8
SAKUZU
  6
CONTINUOUS
 62
     1
 10
1599.999995231628
 20
4857.604466794277
 30
0.0
 11
1599.999995231628
 21
4747.604466794275
 31
0.0
  0
LINE
  5
53D
  8
SAKUZU
  6
CONTINUOUS
 62
     1
 10
1637.999995231628
 20
4747.604466794275
 30
0.0
 11
1637.999995231628
 21
4857.604466794277
 31
0.0
  0
LINE
  5
53E
  8
SAKUZU
  6
CONTINUOUS
 62
     1
 10
1603.599995613098
 20
4740.604466794275
 30
0.0
 11
1603.599995613098
 21
4717.604466794275
 31
0.0
  0
LINE
  5
53F
  8
SAKUZU
  6
CONTINUOUS
 62
     1
 10
1603.599995613098
 20
4717.604466794275
 30
0.0
 11
1634.399996757507
 21
4717.604466794275
 31
0.0
  0
LINE
  5
540
  8
SAKUZU
  6
CONTINUOUS
 62
     1
 10
1634.399996757507
 20
4717.604466794275
 30
0.0
 11
1634.399996757507
 21
4740.604466794275
 31
0.0
  0
LINE
  5
541
  8
SAKUZU
  6
CONTINUOUS
 62
     1
 10
1605.399994850158
 20
4717.604466794275
 30
0.0
 11
1605.399994850158
 21
4702.604466794275
 31
0.0
  0
LINE
  5
542
  8
SAKUZU
  6
CONTINUOUS
 62
     1
 10
1605.399994850158
 20
4702.604466794275
 30
0.0
 11
1632.599997520446
 21
4702.604466794275
 31
0.0
  0
LINE
  5
543
  8
SAKUZU
  6
CONTINUOUS
 62
     1
 10
1632.599997520446
 20
4702.604466794275
 30
0.0
 11
1632.599997520446
 21
4717.604466794275
 31
0.0
  0
LINE
  5
544
  8
SAKUZU
  6
CONTINUOUS
 62
     1
 10
2085.000011444091
 20
4857.604466794277
 30
0.0
 11
2085.000011444091
 21
4747.604466794275
 31
0.0
  0
LINE
  5
545
  8
SAKUZU
  6
CONTINUOUS
 62
     1
 10
2123.000011444091
 20
4747.604466794275
 30
0.0
 11
2123.000011444091
 21
4857.604466794277
 31
0.0
  0
LINE
  5
546
  8
SAKUZU
  6
CONTINUOUS
 62
     1
 10
2088.599987030029
 20
4740.604466794275
 30
0.0
 11
2088.599987030029
 21
4717.604466794275
 31
0.0
  0
LINE
  5
547
  8
SAKUZU
  6
CONTINUOUS
 62
     1
 10
2088.599987030029
 20
4717.604466794275
 30
0.0
 11
2119.400035858154
 21
4717.604466794275
 31
0.0
  0
LINE
  5
548
  8
SAKUZU
  6
CONTINUOUS
 62
     1
 10
2119.400035858154
 20
4717.604466794275
 30
0.0
 11
2119.400035858154
 21
4740.604466794275
 31
0.0
  0
LINE
  5
549
  8
SAKUZU
  6
CONTINUOUS
 62
     1
 10
2090.400035858154
 20
4717.604466794275
 30
0.0
 11
2090.400035858154
 21
4702.604466794275
 31
0.0
  0
LINE
  5
54A
  8
SAKUZU
  6
CONTINUOUS
 62
     1
 10
2090.400035858154
 20
4702.604466794275
 30
0.0
 11
2117.599987030029
 21
4702.604466794275
 31
0.0
  0
LINE
  5
54B
  8
SAKUZU
  6
CONTINUOUS
 62
     1
 10
2117.599987030029
 20
4702.604466794275
 30
0.0
 11
2117.599987030029
 21
4717.604466794275
 31
0.0
  0
LINE
  5
54C
  8
SAKUZU
  6
CONTINUOUS
 62
     1
 10
1350.000041007995
 20
4857.604466794277
 30
0.0
 11
1350.000041007995
 21
4747.604459634489
 31
0.0
  0
LINE
  5
54D
  8
SAKUZU
  6
CONTINUOUS
 62
     1
 10
1388.000041007995
 20
4747.604459634489
 30
0.0
 11
1388.000041007995
 21
4857.604466794277
 31
0.0
  0
LINE
  5
54E
  8
SAKUZU
  6
CONTINUOUS
 62
     1
 10
1353.600041389465
 20
4740.604459634489
 30
0.0
 11
1353.600041389465
 21
4717.604459634489
 31
0.0
  0
LINE
  5
54F
  8
SAKUZU
  6
CONTINUOUS
 62
     1
 10
1353.600041389465
 20
4717.604459634489
 30
0.0
 11
1384.400042533874
 21
4717.604459634489
 31
0.0
  0
LINE
  5
550
  8
SAKUZU
  6
CONTINUOUS
 62
     1
 10
1384.400042533874
 20
4717.604459634489
 30
0.0
 11
1384.400042533874
 21
4740.604459634489
 31
0.0
  0
LINE
  5
551
  8
SAKUZU
  6
CONTINUOUS
 62
     1
 10
1355.400040626525
 20
4717.604459634489
 30
0.0
 11
1355.400040626525
 21
4702.604459634489
 31
0.0
  0
LINE
  5
552
  8
SAKUZU
  6
CONTINUOUS
 62
     1
 10
1355.400040626525
 20
4702.604459634489
 30
0.0
 11
1382.600043296814
 21
4702.604459634489
 31
0.0
  0
LINE
  5
553
  8
SAKUZU
  6
CONTINUOUS
 62
     1
 10
1382.600043296814
 20
4702.604459634489
 30
0.0
 11
1382.600043296814
 21
4717.604459634489
 31
0.0
  0
LINE
  5
554
  8
SAKUZU
  6
CONTINUOUS
 62
     1
 10
-807.9999799728398
 20
4747.604466794275
 30
0.0
 11
-769.9999799728398
 21
4747.604466794275
 31
0.0
  0
ARC
  5
555
  8
SAKUZU
  6
CONTINUOUS
 62
     1
 10
-807.9999799728398
 20
4745.604466794275
 30
0.0
 40
2.0
 50
90.0
 51
180.0
  0
ARC
  5
556
  8
SAKUZU
  6
CONTINUOUS
 62
     1
 10
-769.9999799728398
 20
4745.604466794275
 30
0.0
 40
2.0
 50
0.0
 51
90.0
  0
LINE
  5
557
  8
SAKUZU
  6
CONTINUOUS
 62
     1
 10
-767.9999799728398
 20
4745.604466794275
 30
0.0
 11
-767.9999799728398
 21
4740.604466794275
 31
0.0
  0
LINE
  5
558
  8
SAKUZU
  6
CONTINUOUS
 62
     1
 10
-767.9999799728398
 20
4740.604466794275
 30
0.0
 11
-809.9999799728398
 21
4740.604466794275
 31
0.0
  0
LINE
  5
559
  8
SAKUZU
  6
CONTINUOUS
 62
     1
 10
-809.9999799728398
 20
4740.604466794275
 30
0.0
 11
-809.9999799728398
 21
4745.604466794275
 31
0.0
  0
LINE
  5
55A
  8
SAKUZU
  6
CONTINUOUS
 62
     1
 10
-322.9999637603767
 20
4747.604466794275
 30
0.0
 11
-284.9999637603764
 21
4747.604466794275
 31
0.0
  0
ARC
  5
55B
  8
SAKUZU
  6
CONTINUOUS
 62
     1
 10
-322.9999637603767
 20
4745.604466794275
 30
0.0
 40
2.0
 50
90.0
 51
180.0
  0
ARC
  5
55C
  8
SAKUZU
  6
CONTINUOUS
 62
     1
 10
-284.9999637603764
 20
4745.604466794275
 30
0.0
 40
2.0
 50
0.0
 51
90.0
  0
LINE
  5
55D
  8
SAKUZU
  6
CONTINUOUS
 62
     1
 10
-282.9999637603764
 20
4745.604466794275
 30
0.0
 11
-282.9999637603764
 21
4740.604466794275
 31
0.0
  0
LINE
  5
55E
  8
SAKUZU
  6
CONTINUOUS
 62
     1
 10
-282.9999637603764
 20
4740.604466794275
 30
0.0
 11
-324.9999637603767
 21
4740.604466794275
 31
0.0
  0
LINE
  5
55F
  8
SAKUZU
  6
CONTINUOUS
 62
     1
 10
-324.9999637603767
 20
4740.604466794275
 30
0.0
 11
-324.9999637603767
 21
4745.604466794275
 31
0.0
  0
LINE
  5
560
  8
SAKUZU
  6
CONTINUOUS
 62
     1
 10
-72.99997901916572
 20
4747.604459634489
 30
0.0
 11
-34.99997901916572
 21
4747.604459634489
 31
0.0
  0
ARC
  5
561
  8
SAKUZU
  6
CONTINUOUS
 62
     1
 10
-72.99997901916572
 20
4745.604459634489
 30
0.0
 40
2.0
 50
90.0
 51
180.0
  0
ARC
  5
562
  8
SAKUZU
  6
CONTINUOUS
 62
     1
 10
-34.99997901916572
 20
4745.604459634489
 30
0.0
 40
2.0
 50
0.0
 51
90.0
  0
LINE
  5
563
  8
SAKUZU
  6
CONTINUOUS
 62
     1
 10
-32.99997901916572
 20
4745.604459634489
 30
0.0
 11
-32.99997901916572
 21
4740.604459634489
 31
0.0
  0
LINE
  5
564
  8
SAKUZU
  6
CONTINUOUS
 62
     1
 10
-32.99997901916572
 20
4740.604459634489
 30
0.0
 11
-74.99997901916572
 21
4740.604459634489
 31
0.0
  0
LINE
  5
565
  8
SAKUZU
  6
CONTINUOUS
 62
     1
 10
-74.99997901916572
 20
4740.604459634489
 30
0.0
 11
-74.99997901916572
 21
4745.604459634489
 31
0.0
  0
LINE
  5
566
  8
SAKUZU
  6
CONTINUOUS
 62
     1
 10
1599.999995231628
 20
4747.604466794275
 30
0.0
 11
1637.999995231628
 21
4747.604466794275
 31
0.0
  0
ARC
  5
567
  8
SAKUZU
  6
CONTINUOUS
 62
     1
 10
1599.999995231628
 20
4745.604466794275
 30
0.0
 40
2.0
 50
90.0
 51
180.0
  0
ARC
  5
568
  8
SAKUZU
  6
CONTINUOUS
 62
     1
 10
1637.999995231628
 20
4745.604466794275
 30
0.0
 40
2.0
 50
0.0
 51
90.0
  0
LINE
  5
569
  8
SAKUZU
  6
CONTINUOUS
 62
     1
 10
1639.999995231628
 20
4745.604466794275
 30
0.0
 11
1639.999995231628
 21
4740.604466794275
 31
0.0
  0
LINE
  5
56A
  8
SAKUZU
  6
CONTINUOUS
 62
     1
 10
1639.999995231628
 20
4740.604466794275
 30
0.0
 11
1597.999995231628
 21
4740.604466794275
 31
0.0
  0
LINE
  5
56B
  8
SAKUZU
  6
CONTINUOUS
 62
     1
 10
1597.999995231628
 20
4740.604466794275
 30
0.0
 11
1597.999995231628
 21
4745.604466794275
 31
0.0
  0
LINE
  5
56C
  8
SAKUZU
  6
CONTINUOUS
 62
     1
 10
2085.000011444091
 20
4747.604466794275
 30
0.0
 11
2123.000011444091
 21
4747.604466794275
 31
0.0
  0
ARC
  5
56D
  8
SAKUZU
  6
CONTINUOUS
 62
     1
 10
2085.000011444091
 20
4745.604466794275
 30
0.0
 40
2.0
 50
90.0
 51
180.0
  0
ARC
  5
56E
  8
SAKUZU
  6
CONTINUOUS
 62
     1
 10
2123.000011444091
 20
4745.604466794275
 30
0.0
 40
2.0
 50
0.0
 51
90.0
  0
LINE
  5
56F
  8
SAKUZU
  6
CONTINUOUS
 62
     1
 10
2125.000011444091
 20
4745.604466794275
 30
0.0
 11
2125.000011444091
 21
4740.604466794275
 31
0.0
  0
LINE
  5
570
  8
SAKUZU
  6
CONTINUOUS
 62
     1
 10
2125.000011444091
 20
4740.604466794275
 30
0.0
 11
2083.000011444091
 21
4740.604466794275
 31
0.0
  0
LINE
  5
571
  8
SAKUZU
  6
CONTINUOUS
 62
     1
 10
2083.000011444091
 20
4740.604466794275
 30
0.0
 11
2083.000011444091
 21
4745.604466794275
 31
0.0
  0
LINE
  5
572
  8
SAKUZU
  6
CONTINUOUS
 62
     1
 10
1350.000041007995
 20
4747.604459634489
 30
0.0
 11
1388.000041007995
 21
4747.604459634489
 31
0.0
  0
ARC
  5
573
  8
SAKUZU
  6
CONTINUOUS
 62
     1
 10
1350.000041007995
 20
4745.604459634489
 30
0.0
 40
2.0
 50
90.0
 51
180.0
  0
ARC
  5
574
  8
SAKUZU
  6
CONTINUOUS
 62
     1
 10
1388.000041007995
 20
4745.604459634489
 30
0.0
 40
2.0
 50
0.0
 51
90.0
  0
LINE
  5
575
  8
SAKUZU
  6
CONTINUOUS
 62
     1
 10
1390.000041007995
 20
4745.604459634489
 30
0.0
 11
1390.000041007995
 21
4740.604459634489
 31
0.0
  0
LINE
  5
576
  8
SAKUZU
  6
CONTINUOUS
 62
     1
 10
1390.000041007995
 20
4740.604459634489
 30
0.0
 11
1348.000041007995
 21
4740.604459634489
 31
0.0
  0
LINE
  5
577
  8
SAKUZU
  6
CONTINUOUS
 62
     1
 10
1348.000041007995
 20
4740.604459634489
 30
0.0
 11
1348.000041007995
 21
4745.604459634489
 31
0.0
  0
LINE
  5
578
  8
SAKUZU
  6
CONTINUOUS
 62
    17
 10
2030.796604165481
 20
5822.604459634489
 30
0.0
 11
2131.464477538159
 21
5701.139993540422
 31
0.0
  0
LINE
  5
579
  8
SAKUZU
  6
CONTINUOUS
 62
    17
 10
-715.7965507597214
 20
5822.604459634489
 30
0.0
 11
-816.4644241323981
 21
5701.139993540422
 31
0.0
  0
LINE
  5
57A
  8
SAKUZU
  6
CONTINUOUS
 62
    17
 10
1591.464477538159
 20
5551.139993540422
 30
0.0
 11
1492.659492218951
 21
5822.604459634489
 31
0.0
  0
LINE
  5
57B
  8
SAKUZU
  6
CONTINUOUS
 62
    17
 10
2128.535545350024
 20
5554.068925728557
 30
0.0
 11
2030.796604165481
 21
5822.604459634489
 31
0.0
  0
LINE
  5
57C
  8
SAKUZU
  6
CONTINUOUS
 62
    17
 10
-276.4644241323981
 20
5551.139993540422
 30
0.0
 11
-177.6594388131909
 21
5822.604459634489
 31
0.0
  0
LINE
  5
57D
  8
SAKUZU
  6
CONTINUOUS
 62
    17
 10
-813.5354919442639
 20
5554.068925728557
 30
0.0
 11
-715.7965507597214
 21
5822.604459634489
 31
0.0
  0
LINE
  5
57E
  8
SAKUZU
  6
CONTINUOUS
 62
    17
 10
-816.4644241323981
 20
5701.139993540422
 30
0.0
 11
-787.1011267936756
 21
5721.967820982068
 31
0.0
  0
LINE
  5
57F
  8
SAKUZU
  6
CONTINUOUS
 62
    17
 10
-816.4644241323981
 20
5701.139993540422
 30
0.0
 11
-801.4489027256695
 21
5733.859036060418
 31
0.0
  0
LINE
  5
580
  8
SAKUZU
  6
CONTINUOUS
 62
    17
 10
2131.464477538159
 20
5701.139993540422
 30
0.0
 11
2116.44895613143
 21
5733.859036060418
 31
0.0
  0
LINE
  5
581
  8
SAKUZU
  6
CONTINUOUS
 62
    17
 10
2131.464477538159
 20
5701.139993540422
 30
0.0
 11
2102.101180199436
 21
5721.967820982068
 31
0.0
  0
LINE
  5
582
  8
SAKUZU
  6
CONTINUOUS
 62
    17
 10
-813.5354919442639
 20
5554.068925728557
 30
0.0
 11
-792.8867604877473
 21
5583.558441081947
 31
0.0
  0
LINE
  5
583
  8
SAKUZU
  6
CONTINUOUS
 62
    17
 10
-813.5354919442639
 20
5554.068925728557
 30
0.0
 11
-810.3978428491632
 21
5589.931953831287
 31
0.0
  0
LINE
  5
584
  8
SAKUZU
  6
CONTINUOUS
 62
    17
 10
-276.4644241323981
 20
5551.139993540422
 30
0.0
 11
-255.8156926758818
 21
5580.629508893813
 31
0.0
  0
LINE
  5
585
  8
SAKUZU
  6
CONTINUOUS
 62
    17
 10
-276.4644241323981
 20
5551.139993540422
 30
0.0
 11
-273.3267750372977
 21
5587.003021643152
 31
0.0
  0
LINE
  5
586
  8
SAKUZU
  6
CONTINUOUS
 62
    17
 10
2128.535545350024
 20
5554.068925728557
 30
0.0
 11
2125.397896254923
 21
5589.931953831287
 31
0.0
  0
LINE
  5
587
  8
SAKUZU
  6
CONTINUOUS
 62
    17
 10
2128.535545350024
 20
5554.068925728557
 30
0.0
 11
2107.886813893507
 21
5583.558441081947
 31
0.0
  0
LINE
  5
588
  8
SAKUZU
  6
CONTINUOUS
 62
    17
 10
1591.464477538159
 20
5551.139993540422
 30
0.0
 11
1588.326828443058
 21
5587.003021643152
 31
0.0
  0
LINE
  5
589
  8
SAKUZU
  6
CONTINUOUS
 62
    17
 10
1591.464477538159
 20
5551.139993540422
 30
0.0
 11
1570.815746081642
 21
5580.629508893813
 31
0.0
  0
LINE
  5
58A
  8
SAKUZU
  6
CONTINUOUS
 62
    17
 10
2030.796604165482
 20
5822.604459634489
 30
0.0
 11
1939.596604165483
 21
5822.604459634489
 31
0.0
  0
TEXT
  5
58B
  8
SAKUZU
 62
    17
 10
1953.336361109926
 20
5836.674338106712
 30
0.0
 40
31.86024305555555
  1
R5
  7
YUGOTHIC_MEDIUM
 72
     1
 11
1985.196604165482
 21
5852.604459634489
 31
0.0
 73
     2
  0
LINE
  5
58C
  8
SAKUZU
  6
CONTINUOUS
 62
    17
 10
1492.659492218951
 20
5822.604459634489
 30
0.0
 11
1401.459492218952
 21
5822.604459634489
 31
0.0
  0
TEXT
  5
58D
  8
SAKUZU
 62
    17
 10
1415.199249163395
 20
5836.674338106712
 30
0.0
 40
31.86024305555555
  1
R5
  7
YUGOTHIC_MEDIUM
 72
     1
 11
1447.059492218951
 21
5852.604459634489
 31
0.0
 73
     2
  0
LINE
  5
58E
  8
SAKUZU
  6
CONTINUOUS
 62
    17
 10
-86.45943881319204
 20
5822.604459634489
 30
0.0
 11
-177.6594388131909
 21
5822.604459634489
 31
0.0
  0
TEXT
  5
58F
  8
SAKUZU
 62
     1
 10
-163.9196818687479
 20
5836.674338106712
 30
0.0
 40
31.86024305555555
  1
R5
  7
YUGOTHIC_MEDIUM
 72
     1
 11
-132.0594388131924
 21
5852.604459634489
 31
0.0
 73
     2
  0
LINE
  5
590
  8
SAKUZU
  6
CONTINUOUS
 62
    17
 10
-624.5965507597225
 20
5822.604459634489
 30
0.0
 11
-715.7965507597214
 21
5822.604459634489
 31
0.0
  0
TEXT
  5
591
  8
SAKUZU
 62
     1
 10
-702.0567938152784
 20
5836.674338106712
 30
0.0
 40
31.86024305555555
  1
R5
  7
YUGOTHIC_MEDIUM
 72
     1
 11
-670.1965507597229
 21
5852.604459634489
 31
0.0
 73
     2
  0
DIMENSION
  5
592
  8
SAKUZU
  6
CONTINUOUS
 62
    17
  2
*D18
 10
1220.000041961669
 20
5552.604459634489
 30
0.0
 11
1203.869920434637
 21
5532.604459634489
 31
0.0
 70
    32
  3
SPEAC
 13
1340.000041961669
 23
5512.604459634489
 33
0.0
 14
1340.000041961669
 24
5552.604459634489
 34
0.0
 50
-90.0
  0
DIMENSION
  5
595
  8
SAKUZU
  6
CONTINUOUS
 62
    17
  2
*D19
 10
1220.000041961669
 20
4902.604459634486
 30
0.0
 11
1203.869920434637
 21
4802.604459634487
 31
0.0
 70
    32
  3
SPEAC
 13
1355.400040626525
 23
4702.604459634489
 33
0.0
 14
1348.500041007995
 24
4902.604459634486
 34
0.0
 50
-90.0
  0
DIMENSION
  5
596
  8
SAKUZU
  6
CONTINUOUS
 62
    17
  2
*D20
 10
1120.000041961669
 20
4702.604459634489
 30
0.0
 11
1103.869920434637
 21
5127.604459634489
 31
0.0
 70
    32
  3
SPEAC
 13
1340.000041961669
 23
5552.604459634489
 33
0.0
 14
1355.400040626525
 24
4702.604459634489
 34
0.0
 50
-90.0
  0
DIMENSION
  5
597
  8
SAKUZU
  6
CONTINUOUS
 62
    17
  2
*D21
 10
1120.000041961669
 20
5552.604459634489
 30
0.0
 11
1103.869920434637
 21
5627.604459634489
 31
0.0
 70
    32
  3
SPEAC
 13
1340.000041961669
 23
5702.604459634489
 33
0.0
 14
1340.000041961669
 24
5552.604459634489
 34
0.0
 50
-90.0
  0
DIMENSION
  5
598
  8
SAKUZU
  6
CONTINUOUS
 62
    17
  2
*D22
 10
-874.9999790191655
 20
6282.604459634489
 30
0.0
 11
-844.9999790191655
 21
6298.734581161521
 31
0.0
 70
    32
  3
SPEAC
 13
-814.9999790191655
 23
6402.604459634489
 33
0.0
 14
-874.9999790191655
 24
6402.604459634489
 34
0.0
  0
DIMENSION
  5
599
  8
SAKUZU
  6
CONTINUOUS
 62
    17
  2
*D23
 10
-814.9999790191655
 20
6282.604459634489
 30
0.0
 11
-544.999971389771
 21
6298.734581161521
 31
0.0
 70
    32
  3
SPEAC
 13
-274.9999637603764
 23
6402.604459634489
 33
0.0
 14
-814.9999790191655
 24
6402.604459634489
 34
0.0
  0
DIMENSION
  5
59A
  8
SAKUZU
  6
CONTINUOUS
 62
    17
  2
*D24
 10
-874.9999790191655
 20
6182.604459634489
 30
0.0
 11
-574.999971389771
 21
6198.734581161521
 31
0.0
 70
    32
  3
SPEAC
 13
-274.9999637603764
 23
6402.604459634489
 33
0.0
 14
-874.9999790191655
 24
6402.604459634489
 34
0.0
  0
DIMENSION
  5
59B
  8
SAKUZU
  6
CONTINUOUS
 62
    17
  2
*D25
 10
-274.9999637603764
 20
6182.604459634489
 30
0.0
 11
-149.9999608993536
 21
6198.734581161521
 31
0.0
 70
    32
  3
SPEAC
 13
-24.99995803833076
 23
6652.604459634489
 33
0.0
 14
-274.9999637603764
 24
6402.604459634489
 34
0.0
  0
DIMENSION
  5
59C
  8
SAKUZU
  6
CONTINUOUS
 62
    17
  2
*D26
 10
-874.9999790191655
 20
6082.604459634489
 30
0.0
 11
-449.9999685287481
 21
6098.734581161521
 31
0.0
 70
    32
  3
SPEAC
 13
-24.99995803833076
 23
6652.604459634489
 33
0.0
 14
-874.9999790191655
 24
6402.604459634489
 34
0.0
  0
DIMENSION
  5
59D
  8
SAKUZU
  6
CONTINUOUS
 62
    17
  2
*D27
 10
95.00004196166924
 20
7252.604459634489
 30
0.0
 11
78.86992043463692
 21
7222.604459634489
 31
0.0
 70
    32
  3
SPEAC
 13
-24.99995803833076
 23
7192.604459634489
 33
0.0
 14
-24.99995803833076
 24
7252.604459634489
 34
0.0
 50
-90.0
  0
DIMENSION
  5
59E
  8
SAKUZU
  6
CONTINUOUS
 62
    17
  2
*D28
 10
95.00004196166901
 20
7192.604459634489
 30
0.0
 11
78.86992043463671
 21
6922.604459634489
 31
0.0
 70
    32
  3
SPEAC
 13
-24.99995803833076
 23
6652.604459634489
 33
0.0
 14
-24.99995803833076
 24
7192.604459634489
 34
0.0
 50
-90.0
  0
DIMENSION
  5
59F
  8
SAKUZU
  6
CONTINUOUS
 62
    17
  2
*D29
 10
195.0000419616692
 20
7252.604459634489
 30
0.0
 11
178.8699204346369
 21
6952.604459634489
 31
0.0
 70
    32
  3
SPEAC
 13
-24.99995803833076
 23
6652.604459634489
 33
0.0
 14
-24.99995803833076
 24
7252.604459634489
 34
0.0
 50
-90.0
  0
DIMENSION
  5
5A0
  8
SAKUZU
  6
CONTINUOUS
 62
    17
  2
*D30
 10
195.0000419616692
 20
6652.604459634489
 30
0.0
 11
178.8699204346369
 21
6527.604459634489
 31
0.0
 70
    32
  3
SPEAC
 13
-274.9999637603764
 23
6402.604459634489
 33
0.0
 14
-24.99995803833076
 24
6652.604459634489
 34
0.0
 50
-90.0
  0
DIMENSION
  5
5A1
  8
SAKUZU
  6
CONTINUOUS
 62
    17
  2
*D31
 10
295.0000419616693
 20
7252.604459634489
 30
0.0
 11
278.869920434637
 21
6827.604459634489
 31
0.0
 70
    32
  3
SPEAC
 13
-274.9999637603764
 23
6402.604459634489
 33
0.0
 14
-24.99995803833076
 24
7252.604459634489
 34
0.0
 50
-90.0
  0
LINE
  5
5A2
  8
0
  6
CONTINUOUS
 62
     1
 10
-809.4999799728398
 20
4902.604466794277
 30
0.0
 11
-809.4999799728398
 21
4857.604466794277
 31
0.0
  0
LINE
  5
5A3
  8
0
  6
CONTINUOUS
 62
     1
 10
-768.4999799728398
 20
4857.604466794277
 30
0.0
 11
-768.4999799728398
 21
4870.604466794277
 31
0.0
  0
LINE
  5
5A4
  8
0
  6
CONTINUOUS
 62
     1
 10
-768.4999799728398
 20
4902.604466794317
 30
0.0
 11
-769.4999799728398
 21
4902.604466794317
 31
0.0
  0
LINE
  5
5A5
  8
0
  6
CONTINUOUS
 62
     1
 10
-769.4999799728398
 20
4902.604466794279
 30
0.0
 11
-809.4999799728398
 21
4902.604466794277
 31
0.0
  0
LINE
  5
5A6
  8
0
  6
CONTINUOUS
 62
     1
 10
-809.4999799728398
 20
4857.604466794277
 30
0.0
 11
-768.4999799728398
 21
4857.604466794277
 31
0.0
  0
LINE
  5
5A7
  8
0
  6
CONTINUOUS
 62
     1
 10
-73.49997997284026
 20
4902.604466794281
 30
0.0
 11
-73.49997997284026
 21
4870.604466794277
 31
0.0
  0
LINE
  5
5A8
  8
0
  6
CONTINUOUS
 62
     1
 10
-33.49997997284026
 20
4902.604466794277
 30
0.0
 11
-33.49997997284026
 21
4857.604466794277
 31
0.0
  0
LINE
  5
5A9
  8
0
  6
CONTINUOUS
 62
     1
 10
-74.49997997284026
 20
4857.604466794277
 30
0.0
 11
-74.49997997284026
 21
4870.604466794277
 31
0.0
  0
LINE
  5
5AA
  8
0
  6
CONTINUOUS
 62
     1
 10
-768.4999799728398
 20
4902.604466794316
 30
0.0
 11
-808.4999809265141
 21
4902.604466794316
 31
0.0
  0
LINE
  5
5AB
  8
0
  6
CONTINUOUS
 62
     1
 10
-769.4999809265141
 20
4870.604466794277
 30
0.0
 11
-323.499964714051
 21
4870.604466794277
 31
0.0
  0
LINE
  5
5AC
  8
0
  6
CONTINUOUS
 62
     1
 10
-284.499964714051
 20
4870.604466794277
 30
0.0
 11
-73.49997997284026
 21
4870.604466794277
 31
0.0
  0
LINE
  5
5AD
  8
0
  6
CONTINUOUS
 62
     1
 10
-769.4999799728398
 20
4902.604466794317
 30
0.0
 11
-33.49997997284026
 21
4902.604466794277
 31
0.0
  0
LINE
  5
5AE
  8
0
  6
CONTINUOUS
 62
     1
 10
-33.49997997284026
 20
4857.604466794277
 30
0.0
 11
-74.49997997284026
 21
4857.604466794277
 31
0.0
  0
LINE
  5
5AF
  8
0
  6
CONTINUOUS
 62
     1
 10
-769.4999809265141
 20
4902.604466794317
 30
0.0
 11
-769.4999809265141
 21
4870.604466794277
 31
0.0
  0
LINE
  5
5B0
  8
0
  6
CONTINUOUS
 62
     1
 10
-809.4999809265141
 20
4870.604466794277
 30
0.0
 11
-809.4999809265141
 21
4857.604466794277
 31
0.0
  0
LINE
  5
5B1
  8
0
  6
CONTINUOUS
 62
     1
 10
-768.4999809265141
 20
4857.604466794277
 30
0.0
 11
-768.4999809265141
 21
4870.604466794277
 31
0.0
  0
LINE
  5
5B2
  8
0
  6
CONTINUOUS
 62
     1
 10
-768.4999809265141
 20
4870.604466794277
 30
0.0
 11
-769.4999809265141
 21
4870.604466794277
 31
0.0
  0
LINE
  5
5B3
  8
0
  6
CONTINUOUS
 62
     1
 10
-809.4999809265141
 20
4857.604466794277
 30
0.0
 11
-768.4999809265141
 21
4857.604466794277
 31
0.0
  0
LINE
  5
5B4
  8
0
  6
CONTINUOUS
 62
     1
 10
1348.500041007995
 20
4902.604466794277
 30
0.0
 11
1348.500041007995
 21
4857.604466794277
 31
0.0
  0
LINE
  5
5B5
  8
0
  6
CONTINUOUS
 62
     1
 10
1389.500041007995
 20
4857.604466794277
 30
0.0
 11
1389.500041007995
 21
4870.604466794277
 31
0.0
  0
LINE
  5
5B6
  8
0
  6
CONTINUOUS
 62
     1
 10
1389.500041007995
 20
4902.604466794317
 30
0.0
 11
1388.500041007995
 21
4902.604466794317
 31
0.0
  0
LINE
  5
5B7
  8
0
  6
CONTINUOUS
 62
     1
 10
1388.500041007995
 20
4902.604466794279
 30
0.0
 11
1348.500041007995
 21
4902.604466794277
 31
0.0
  0
LINE
  5
5B8
  8
0
  6
CONTINUOUS
 62
     1
 10
1348.500041007995
 20
4857.604466794277
 30
0.0
 11
1389.500041007995
 21
4857.604466794277
 31
0.0
  0
LINE
  5
5B9
  8
0
  6
CONTINUOUS
 62
     1
 10
2084.500041007995
 20
4902.604466794281
 30
0.0
 11
2084.500041007995
 21
4870.604466794277
 31
0.0
  0
LINE
  5
5BA
  8
0
  6
CONTINUOUS
 62
     1
 10
2124.500041007995
 20
4902.604466794277
 30
0.0
 11
2124.500041007995
 21
4857.604466794277
 31
0.0
  0
LINE
  5
5BB
  8
0
  6
CONTINUOUS
 62
     1
 10
2083.500041007995
 20
4857.604466794277
 30
0.0
 11
2083.500041007995
 21
4870.604466794277
 31
0.0
  0
LINE
  5
5BC
  8
0
  6
CONTINUOUS
 62
     1
 10
1389.500041007995
 20
4902.604466794316
 30
0.0
 11
1349.500040054321
 21
4902.604466794316
 31
0.0
  0
LINE
  5
5BD
  8
0
  6
CONTINUOUS
 62
     1
 10
1388.500040054321
 20
4870.604466794277
 30
0.0
 11
1599.499998092651
 21
4870.604466794277
 31
0.0
  0
LINE
  5
5BE
  8
0
  6
CONTINUOUS
 62
     1
 10
1638.499994277954
 20
4870.604466794277
 30
0.0
 11
2084.500041007995
 21
4870.604466794277
 31
0.0
  0
LINE
  5
5BF
  8
0
  6
CONTINUOUS
 62
     1
 10
1388.500041007995
 20
4902.604466794317
 30
0.0
 11
2124.500041007995
 21
4902.604466794277
 31
0.0
  0
LINE
  5
5C0
  8
0
  6
CONTINUOUS
 62
     1
 10
2124.500041007995
 20
4857.604466794277
 30
0.0
 11
2083.500041007995
 21
4857.604466794277
 31
0.0
  0
LINE
  5
5C1
  8
0
  6
CONTINUOUS
 62
     1
 10
1388.500040054321
 20
4902.604466794317
 30
0.0
 11
1388.500040054321
 21
4870.604466794277
 31
0.0
  0
LINE
  5
5C2
  8
0
  6
CONTINUOUS
 62
     1
 10
1348.500040054321
 20
4870.604466794277
 30
0.0
 11
1348.500040054321
 21
4857.604466794277
 31
0.0
  0
LINE
  5
5C3
  8
0
  6
CONTINUOUS
 62
     1
 10
1389.500040054321
 20
4857.604466794277
 30
0.0
 11
1389.500040054321
 21
4870.604466794277
 31
0.0
  0
LINE
  5
5C4
  8
0
  6
CONTINUOUS
 62
     1
 10
1389.500040054321
 20
4870.604466794277
 30
0.0
 11
1388.500040054321
 21
4870.604466794277
 31
0.0
  0
LINE
  5
5C5
  8
0
  6
CONTINUOUS
 62
     1
 10
1348.500040054321
 20
4857.604466794277
 30
0.0
 11
1389.500040054321
 21
4857.604466794277
 31
0.0
  0
LINE
  5
5C6
  8
0
  6
CONTINUOUS
 62
     1
 10
1598.499994277954
 20
4870.604466794277
 30
0.0
 11
1598.499995231628
 21
4857.604466794277
 31
0.0
  0
LINE
  5
5C7
  8
0
  6
CONTINUOUS
 62
     1
 10
1639.499995231628
 20
4857.604466794277
 30
0.0
 11
1639.499995231628
 21
4870.604466794277
 31
0.0
  0
LINE
  5
5C8
  8
0
  6
CONTINUOUS
 62
     1
 10
1639.499995231628
 20
4902.604466794317
 30
0.0
 11
1638.499995231628
 21
4902.604466794317
 31
0.0
  0
LINE
  5
5C9
  8
0
  6
CONTINUOUS
 62
     1
 10
1638.499995231628
 20
4902.604466794279
 30
0.0
 11
1598.499995231628
 21
4902.604466794277
 31
0.0
  0
LINE
  5
5CA
  8
0
  6
CONTINUOUS
 62
     1
 10
1598.499995231628
 20
4857.604466794277
 30
0.0
 11
1639.499995231628
 21
4857.604466794277
 31
0.0
  0
LINE
  5
5CB
  8
0
  6
CONTINUOUS
 62
     1
 10
1639.499995231628
 20
4902.604466794316
 30
0.0
 11
1599.499994277954
 21
4902.604466794316
 31
0.0
  0
LINE
  5
5CC
  8
0
  6
CONTINUOUS
 62
     1
 10
1638.499994277954
 20
4902.604466794317
 30
0.0
 11
1638.499994277954
 21
4870.604466794277
 31
0.0
  0
LINE
  5
5CD
  8
0
  6
CONTINUOUS
 62
     1
 10
1598.499994277954
 20
4870.604466794277
 30
0.0
 11
1598.499994277954
 21
4857.604466794277
 31
0.0
  0
LINE
  5
5CE
  8
0
  6
CONTINUOUS
 62
     1
 10
1639.499994277954
 20
4857.604466794277
 30
0.0
 11
1639.499994277954
 21
4870.604466794277
 31
0.0
  0
LINE
  5
5CF
  8
0
  6
CONTINUOUS
 62
     1
 10
1639.499994277954
 20
4870.604466794277
 30
0.0
 11
1638.499994277954
 21
4870.604466794277
 31
0.0
  0
LINE
  5
5D0
  8
0
  6
CONTINUOUS
 62
     1
 10
1598.499994277954
 20
4857.604466794277
 30
0.0
 11
1639.499994277954
 21
4857.604466794277
 31
0.0
  0
LINE
  5
5D1
  8
0
  6
CONTINUOUS
 62
     1
 10
1639.499998092651
 20
4870.604466794277
 30
0.0
 11
1639.499997138977
 21
4857.604466794277
 31
0.0
  0
LINE
  5
5D2
  8
0
  6
CONTINUOUS
 62
     1
 10
1598.499997138977
 20
4857.604466794277
 30
0.0
 11
1598.499997138977
 21
4870.604466794277
 31
0.0
  0
LINE
  5
5D3
  8
0
  6
CONTINUOUS
 62
     1
 10
1598.499997138977
 20
4902.604466794317
 30
0.0
 11
1599.499997138977
 21
4902.604466794317
 31
0.0
  0
LINE
  5
5D4
  8
0
  6
CONTINUOUS
 62
     1
 10
1599.499997138977
 20
4902.604466794279
 30
0.0
 11
1639.499997138977
 21
4902.604466794277
 31
0.0
  0
LINE
  5
5D5
  8
0
  6
CONTINUOUS
 62
     1
 10
1639.499997138977
 20
4857.604466794277
 30
0.0
 11
1598.499997138977
 21
4857.604466794277
 31
0.0
  0
LINE
  5
5D6
  8
0
  6
CONTINUOUS
 62
     1
 10
1598.499997138977
 20
4902.604466794316
 30
0.0
 11
1638.499998092651
 21
4902.604466794316
 31
0.0
  0
LINE
  5
5D7
  8
0
  6
CONTINUOUS
 62
     1
 10
1599.499998092651
 20
4902.604466794317
 30
0.0
 11
1599.499998092651
 21
4870.604466794277
 31
0.0
  0
LINE
  5
5D8
  8
0
  6
CONTINUOUS
 62
     1
 10
1639.499998092651
 20
4870.604466794277
 30
0.0
 11
1639.499998092651
 21
4857.604466794277
 31
0.0
  0
LINE
  5
5D9
  8
0
  6
CONTINUOUS
 62
     1
 10
1598.499998092651
 20
4857.604466794277
 30
0.0
 11
1598.499998092651
 21
4870.604466794277
 31
0.0
  0
LINE
  5
5DA
  8
0
  6
CONTINUOUS
 62
     1
 10
1598.499998092651
 20
4870.604466794277
 30
0.0
 11
1599.499998092651
 21
4870.604466794277
 31
0.0
  0
LINE
  5
5DB
  8
0
  6
CONTINUOUS
 62
     1
 10
1639.499998092651
 20
4857.604466794277
 30
0.0
 11
1598.499998092651
 21
4857.604466794277
 31
0.0
  0
LINE
  5
5DC
  8
0
  6
CONTINUOUS
 62
     1
 10
-323.499964714051
 20
4902.604466794281
 30
0.0
 11
-323.499964714051
 21
4870.604466794277
 31
0.0
  0
LINE
  5
5DD
  8
0
  6
CONTINUOUS
 62
     1
 10
-283.499964714051
 20
4870.604466794277
 30
0.0
 11
-283.499964714051
 21
4857.604466794277
 31
0.0
  0
LINE
  5
5DE
  8
0
  6
CONTINUOUS
 62
     1
 10
-324.499964714051
 20
4857.604466794277
 30
0.0
 11
-324.499964714051
 21
4870.604466794277
 31
0.0
  0
LINE
  5
5DF
  8
0
  6
CONTINUOUS
 62
     1
 10
-283.499964714051
 20
4857.604466794277
 30
0.0
 11
-324.499964714051
 21
4857.604466794277
 31
0.0
  0
LINE
  5
5E0
  8
0
  6
CONTINUOUS
 62
     1
 10
-284.499964714051
 20
4902.604466794281
 30
0.0
 11
-284.499964714051
 21
4870.604466794277
 31
0.0
  0
LINE
  5
5E1
  8
0
  6
CONTINUOUS
 62
     1
 10
-324.499964714051
 20
4870.604466794277
 30
0.0
 11
-324.499964714051
 21
4857.604466794277
 31
0.0
  0
LINE
  5
5E2
  8
0
  6
CONTINUOUS
 62
     1
 10
-283.499964714051
 20
4857.604466794277
 30
0.0
 11
-283.499964714051
 21
4870.604466794277
 31
0.0
  0
LINE
  5
5E3
  8
0
  6
CONTINUOUS
 62
     1
 10
-324.499964714051
 20
4857.604466794277
 30
0.0
 11
-283.499964714051
 21
4857.604466794277
 31
0.0
  0
VIEWPORT
  5
5E4
 67
     1
  8
0
 10
128.5
 20
97.5
 30
0.0
 40
314.226
 41
222.18
 68
     1
 69
     1
1001
ACAD
1000
MVIEW
1002
{
1070
    16
1010
0.0
1020
0.0
1030
0.0
1010
0.0
1020
0.0
1030
1.0
1040
0.0
1040
222.18
1040
128.5
1040
97.5
1040
50.0
1040
0.0
1040
0.0
1070
     0
1070
   100
1070
     0
1070
     3
1070
     0
1070
     0
1070
     0
1070
     0
1040
0.0
1040
0.0
1040
0.0
1040
10.0
1040
10.0
1040
10.0
1040
10.0
1070
     0
1002
{
1002
}
1002
}
  0
ENDSEC
  0
EOF
