  0
SECTION
  2
HEADER
  9
$ACADVER
  1
AC1009
  9
$DWGCODEPAGE
  3
dos932
  9
$INSBASE
 10
0.0
 20
0.0
 30
0.0
  9
$EXTMIN
 10
-605.5376215763681
 20
-45.346540875306
 30
0.0
  9
$EXTMAX
 10
2067.641967762806
 20
6958.775230029994
 30
0.0
  9
$LIMMIN
 10
0.0
 20
0.0
  9
$LIMMAX
 10
12.0
 20
9.0
  9
$ORTHOMODE
 70
     0
  9
$REGENMODE
 70
     1
  9
$FILLMODE
 70
     1
  9
$QTEXTMODE
 70
     0
  9
$MIRRTEXT
 70
     1
  9
$DRAGMODE
 70
     2
  9
$LTSCALE
 40
12.7
  9
$OSMODE
 70
    37
  9
$ATTMODE
 70
     1
  9
$TEXTSIZE
 40
0.2
  9
$TRACEWID
 40
1.0
  9
$TEXTSTYLE
  7
STANDARD
  9
$CLAYER
  8
020
  9
$CELTYPE
  6
BYLAYER
  9
$CECOLOR
 62
   256
  9
$DIMSCALE
 40
1.0
  9
$DIMASZ
 40
0.5007446289062499
  9
$DIMEXO
 40
3.0
  9
$DIMDLI
 40
10.16
  9
$DIMRND
 40
0.0
  9
$DIMDLE
 40
0.0
  9
$DIMEXE
 40
0.0
  9
$DIMTP
 40
0.0
  9
$DIMTM
 40
0.0
  9
$DIMTXT
 40
31.75824175824177
  9
$DIMCEN
 40
0.0
  9
$DIMTSZ
 40
0.0
  9
$DIMTOL
 70
     0
  9
$DIMLIM
 70
     0
  9
$DIMTIH
 70
     0
  9
$DIMTOH
 70
     0
  9
$DIMSE1
 70
     0
  9
$DIMSE2
 70
     0
  9
$DIMTAD
 70
     1
  9
$DIMZIN
 70
     8
  9
$DIMBLK
  1
DOT
  9
$DIMASO
 70
     1
  9
$DIMSHO
 70
     1
  9
$DIMPOST
  1
<>
  9
$DIMAPOST
  1
[]
  9
$DIMALT
 70
     0
  9
$DIMALTD
 70
     3
  9
$DIMALTF
 40
0.0393700787401575
  9
$DIMLFAC
 40
1.0
  9
$DIMTOFL
 70
     1
  9
$DIMTVP
 40
0.0
  9
$DIMTIX
 70
     1
  9
$DIMSOXD
 70
     0
  9
$DIMSAH
 70
     0
  9
$DIMBLK1
  1
DOT
  9
$DIMBLK2
  1
DOT
  9
$DIMSTYLE
  2
SPEAC
  9
$DIMCLRD
 70
     0
  9
$DIMCLRE
 70
     0
  9
$DIMCLRT
 70
     0
  9
$DIMTFAC
 40
1.0
  9
$DIMGAP
 40
0.1999999992549419
  9
$LUNITS
 70
     2
  9
$LUPREC
 70
     1
  9
$SKETCHINC
 40
0.1
  9
$FILLETRAD
 40
0.5
  9
$AUNITS
 70
     0
  9
$AUPREC
 70
     2
  9
$MENU
  1
.
  9
$ELEVATION
 40
0.0
  9
$PELEVATION
 40
0.0
  9
$THICKNESS
 40
0.0
  9
$LIMCHECK
 70
     0
  9
$CHAMFERA
 40
0.0
  9
$CHAMFERB
 40
0.0
  9
$SKPOLY
 70
     0
  9
$TDCREATE
 40
2459829.599883229
  9
$TDUPDATE
 40
2459829.599894769
  9
$TDINDWG
 40
0.0000000116
  9
$TDUSRTIMER
 40
0.0000000116
  9
$USRTIMER
 70
     1
  9
$ANGBASE
 50
0.0
  9
$ANGDIR
 70
     0
  9
$PDMODE
 70
     1
  9
$PDSIZE
 40
-2.0
  9
$PLINEWID
 40
0.0
  9
$COORDS
 70
     1
  9
$SPLFRAME
 70
     0
  9
$SPLINETYPE
 70
     6
  9
$SPLINESEGS
 70
     8
  9
$ATTDIA
 70
     0
  9
$ATTREQ
 70
     1
  9
$HANDLING
 70
     1
  9
$HANDSEED
  5
810
  9
$SURFTAB1
 70
     6
  9
$SURFTAB2
 70
     6
  9
$SURFTYPE
 70
     6
  9
$SURFU
 70
     6
  9
$SURFV
 70
     6
  9
$UCSNAME
  2

  9
$UCSORG
 10
0.0
 20
0.0
 30
0.0
  9
$UCSXDIR
 10
1.0
 20
0.0
 30
0.0
  9
$UCSYDIR
 10
0.0
 20
1.0
 30
0.0
  9
$PUCSNAME
  2

  9
$PUCSORG
 10
0.0
 20
0.0
 30
0.0
  9
$PUCSXDIR
 10
1.0
 20
0.0
 30
0.0
  9
$PUCSYDIR
 10
0.0
 20
1.0
 30
0.0
  9
$USERI1
 70
     0
  9
$USERI2
 70
     0
  9
$USERI3
 70
     0
  9
$USERI4
 70
     0
  9
$USERI5
 70
     0
  9
$USERR1
 40
0.0
  9
$USERR2
 40
0.0
  9
$USERR3
 40
0.0
  9
$USERR4
 40
0.0
  9
$USERR5
 40
0.0
  9
$WORLDVIEW
 70
     1
  9
$SHADEDGE
 70
     3
  9
$SHADEDIF
 70
    70
  9
$TILEMODE
 70
     1
  9
$MAXACTVP
 70
    64
  9
$PLIMCHECK
 70
     0
  9
$PEXTMIN
 10
1.000000000000000E+20
 20
1.000000000000000E+20
 30
1.000000000000000E+20
  9
$PEXTMAX
 10
-1.000000000000000E+20
 20
-1.000000000000000E+20
 30
-1.000000000000000E+20
  9
$PLIMMIN
 10
-20.0
 20
-7.5
  9
$PLIMMAX
 10
277.0
 20
202.5
  9
$UNITMODE
 70
     0
  9
$VISRETAIN
 70
     1
  9
$PLINEGEN
 70
     0
  9
$PSLTSCALE
 70
     1
  0
ENDSEC
  0
SECTION
  2
TABLES
  0
TABLE
  2
VPORT
 70
     1
  0
VPORT
  2
*ACTIVE
 70
     0
 10
0.0
 20
0.0
 11
1.0
 21
1.0
 12
731.0521730932187
 22
3456.714344577344
 13
0.0
 23
0.0
 14
0.5
 24
0.5
 15
0.5
 25
0.5
 16
0.0
 26
0.0
 36
1.0
 17
0.0
 27
0.0
 37
0.0
 40
7004.1217709053
 41
0.3816580688878655
 42
2000.0
 43
0.0
 44
0.0
 50
0.0
 51
0.0
 71
     0
 72
   100
 73
     1
 74
     3
 75
     0
 76
     0
 77
     0
 78
     0
  0
ENDTAB
  0
TABLE
  2
LTYPE
 70
   198
  0
LTYPE
  2
CONTINUOUS
 70
     0
  3
Solid line
 72
    65
 73
     0
 40
0.0
  0
LTYPE
  2
ISO-04______
 70
     0
  3

 72
    65
 73
     4
 40
0.48
 49
0.48
 49
-0.0600000000000001
 49
0.01
 49
-0.0600000000000001
  0
LTYPE
  2
ISO-02___
 70
     0
  3

 72
    65
 73
     2
 40
0.24
 49
0.24
 49
-0.06
  0
LTYPE
  2
AI-LINETYPE-180
 70
     0
  3

 72
    65
 73
     2
 40
2.462962962847222
 49
0.462962962847222
 49
-2.222222309969844
  0
LTYPE
  2
AI-LINETYPE-179
 70
     0
  3

 72
    65
 73
     2
 40
2.462962962847222
 49
0.462962962847222
 49
-2.222222309969844
  0
LTYPE
  2
AI-LINETYPE-178
 70
     0
  3

 72
    65
 73
     2
 40
2.462962962847222
 49
0.462962962847222
 49
-2.222222309969844
  0
LTYPE
  2
AI-LINETYPE-177
 70
     0
  3

 72
    65
 73
     2
 40
2.462962962847222
 49
0.462962962847222
 49
-2.222222309969844
  0
LTYPE
  2
AI-LINETYPE-176
 70
     0
  3

 72
    65
 73
     2
 40
2.462962962847222
 49
0.462962962847222
 49
-2.222222309969844
  0
LTYPE
  2
AI-LINETYPE-175
 70
     0
  3

 72
    65
 73
     2
 40
2.462962962847222
 49
0.462962962847222
 49
-2.222222309969844
  0
LTYPE
  2
AI-LINETYPE-174
 70
     0
  3

 72
    65
 73
     2
 40
2.462962962847222
 49
0.462962962847222
 49
-2.222222309969844
  0
LTYPE
  2
AI-LINETYPE-173
 70
     0
  3

 72
    65
 73
     2
 40
2.462962962847222
 49
0.462962962847222
 49
-2.222222309969844
  0
LTYPE
  2
AI-LINETYPE-172
 70
     0
  3

 72
    65
 73
     2
 40
0.462962962847222
 49
0.462962962847222
 49
-1.851851851388889
  0
LTYPE
  2
AI-LINETYPE-171
 70
     0
  3

 72
    65
 73
     2
 40
2.462962962847222
 49
0.462962962847222
 49
-2.222222309969844
  0
LTYPE
  2
AI-LINETYPE-170
 70
     0
  3

 72
    65
 73
     2
 40
2.462962962847222
 49
0.462962962847222
 49
-2.222222309969844
  0
LTYPE
  2
AI-LINETYPE-169
 70
     0
  3

 72
    65
 73
     2
 40
2.462962962847222
 49
0.462962962847222
 49
-2.222222309969844
  0
LTYPE
  2
AI-LINETYPE-168
 70
     0
  3

 72
    65
 73
     2
 40
2.462962962847222
 49
0.462962962847222
 49
-2.222222309969844
  0
LTYPE
  2
AI-LINETYPE-167
 70
     0
  3

 72
    65
 73
     2
 40
2.462962962847222
 49
0.462962962847222
 49
-2.222222309969844
  0
LTYPE
  2
AI-LINETYPE-166
 70
     0
  3

 72
    65
 73
     2
 40
2.462962962847222
 49
0.462962962847222
 49
-2.222222309969844
  0
LTYPE
  2
AI-LINETYPE-165
 70
     0
  3

 72
    65
 73
     2
 40
2.462962962847222
 49
0.462962962847222
 49
-2.222222309969844
  0
LTYPE
  2
AI-LINETYPE-164
 70
     0
  3

 72
    65
 73
     2
 40
2.462962962847222
 49
0.462962962847222
 49
-2.222222309969844
  0
LTYPE
  2
AI-LINETYPE-163
 70
     0
  3

 72
    65
 73
     2
 40
2.462962962847222
 49
0.462962962847222
 49
-2.222222309969844
  0
LTYPE
  2
AI-LINETYPE-162
 70
     0
  3

 72
    65
 73
     2
 40
2.462962962847222
 49
0.462962962847222
 49
-2.222222309969844
  0
LTYPE
  2
AI-LINETYPE-161
 70
     0
  3

 72
    65
 73
     2
 40
2.462962962847222
 49
0.462962962847222
 49
-2.222222309969844
  0
LTYPE
  2
AI-LINETYPE-160
 70
     0
  3

 72
    65
 73
     2
 40
2.462962962847222
 49
0.462962962847222
 49
-2.222222309969844
  0
LTYPE
  2
AI-LINETYPE-159
 70
     0
  3

 72
    65
 73
     2
 40
2.462962962847222
 49
0.462962962847222
 49
-2.222222309969844
  0
LTYPE
  2
AI-LINETYPE-158
 70
     0
  3

 72
    65
 73
     2
 40
0.462962962847222
 49
0.462962962847222
 49
-1.851851851388889
  0
LTYPE
  2
AI-LINETYPE-157
 70
     0
  3

 72
    65
 73
     2
 40
2.462962962847222
 49
0.462962962847222
 49
-2.222222309969844
  0
LTYPE
  2
AI-LINETYPE-156
 70
     0
  3

 72
    65
 73
     2
 40
2.462962962847222
 49
0.462962962847222
 49
-2.222222309969844
  0
LTYPE
  2
AI-LINETYPE-155
 70
     0
  3

 72
    65
 73
     2
 40
2.462962962847222
 49
0.462962962847222
 49
-2.222222309969844
  0
LTYPE
  2
AI-LINETYPE-154
 70
     0
  3

 72
    65
 73
     2
 40
2.462962962847222
 49
0.462962962847222
 49
-2.222222309969844
  0
LTYPE
  2
AI-LINETYPE-153
 70
     0
  3

 72
    65
 73
     2
 40
2.462962962847222
 49
0.462962962847222
 49
-2.222222309969844
  0
LTYPE
  2
ISO-08_____
 70
     0
  3

 72
    65
 73
     4
 40
0.48
 49
0.48
 49
-0.0600000000000001
 49
0.12
 49
-0.0599999999999999
  0
LTYPE
  2
ISO-10______
 70
     0
  3

 72
    65
 73
     4
 40
0.24
 49
0.24
 49
-0.06
 49
0.01
 49
-0.06
  0
LTYPE
  2
VW-01____
 70
     0
  3

 72
    65
 73
     2
 40
0.083312
 49
0.083312
 49
-0.083312
  0
LTYPE
  2
AI-LINETYPE-152
 70
     0
  3

 72
    65
 73
     2
 40
1.333333385981906
 49
1.333333385981906
 49
-1.333333385981906
  0
LTYPE
  2
AI-LINETYPE-151
 70
     0
  3

 72
    65
 73
     2
 40
1.333333385981906
 49
1.333333385981906
 49
-1.333333385981906
  0
LTYPE
  2
AI-LINETYPE-150
 70
     0
  3

 72
    65
 73
     2
 40
1.333333385981906
 49
1.333333385981906
 49
-1.333333385981906
  0
LTYPE
  2
AI-LINETYPE-149
 70
     0
  3

 72
    65
 73
     2
 40
1.333333385981906
 49
1.333333385981906
 49
-1.333333385981906
  0
LTYPE
  2
AI-LINETYPE-148
 70
     0
  3

 72
    65
 73
     2
 40
1.333333385981906
 49
1.333333385981906
 49
-1.333333385981906
  0
LTYPE
  2
AI-LINETYPE-147
 70
     0
  3

 72
    65
 73
     2
 40
1.333333385981906
 49
1.333333385981906
 49
-1.333333385981906
  0
LTYPE
  2
AI-LINETYPE-146
 70
     0
  3

 72
    65
 73
     2
 40
1.333333385981906
 49
1.333333385981906
 49
-1.333333385981906
  0
LTYPE
  2
AI-LINETYPE-145
 70
     0
  3

 72
    65
 73
     2
 40
1.333333385981906
 49
1.333333385981906
 49
-1.333333385981906
  0
LTYPE
  2
AI-LINETYPE-144
 70
     0
  3

 72
    65
 73
     2
 40
5.333333332500001
 49
3.3333333325
 49
-3.3333333325
  0
LTYPE
  2
AI-LINETYPE-143
 70
     0
  3

 72
    65
 73
     2
 40
5.333333332500001
 49
3.3333333325
 49
-3.3333333325
  0
LTYPE
  2
AI-LINETYPE-142
 70
     0
  3

 72
    65
 73
     2
 40
5.333333332500001
 49
3.3333333325
 49
-3.3333333325
  0
LTYPE
  2
AI-LINETYPE-141
 70
     0
  3

 72
    65
 73
     2
 40
5.333333332500001
 49
3.3333333325
 49
-3.3333333325
  0
LTYPE
  2
AI-LINETYPE-140
 70
     0
  3

 72
    65
 73
     2
 40
5.333333332500001
 49
3.3333333325
 49
-3.3333333325
  0
LTYPE
  2
AI-LINETYPE-139
 70
     0
  3

 72
    65
 73
     2
 40
5.333333332500001
 49
3.3333333325
 49
-3.3333333325
  0
LTYPE
  2
AI-LINETYPE-138
 70
     0
  3

 72
    65
 73
     2
 40
5.333333332500001
 49
3.3333333325
 49
-3.3333333325
  0
LTYPE
  2
AI-LINETYPE-137
 70
     0
  3

 72
    65
 73
     2
 40
5.333333332500001
 49
3.3333333325
 49
-3.3333333325
  0
LTYPE
  2
AI-LINETYPE-136
 70
     0
  3

 72
    65
 73
     2
 40
5.333333332500001
 49
3.3333333325
 49
-3.3333333325
  0
LTYPE
  2
AI-LINETYPE-135
 70
     0
  3

 72
    65
 73
     2
 40
5.333333332500001
 49
3.3333333325
 49
-3.3333333325
  0
LTYPE
  2
AI-LINETYPE-134
 70
     0
  3

 72
    65
 73
     2
 40
5.333333332500001
 49
3.3333333325
 49
-3.3333333325
  0
LTYPE
  2
AI-LINETYPE-133
 70
     0
  3

 72
    65
 73
     2
 40
5.333333332500001
 49
3.3333333325
 49
-3.3333333325
  0
LTYPE
  2
AI-LINETYPE-132
 70
     0
  3

 72
    65
 73
     2
 40
5.333333332500001
 49
3.3333333325
 49
-3.3333333325
  0
LTYPE
  2
AI-LINETYPE-131
 70
     0
  3

 72
    65
 73
     2
 40
5.333333332500001
 49
3.3333333325
 49
-3.3333333325
  0
LTYPE
  2
AI-LINETYPE-130
 70
     0
  3

 72
    65
 73
     2
 40
5.333333332500001
 49
3.3333333325
 49
-3.3333333325
  0
LTYPE
  2
AI-LINETYPE-129
 70
     0
  3

 72
    65
 73
     2
 40
5.333333332500001
 49
3.3333333325
 49
-3.3333333325
  0
LTYPE
  2
AI-LINETYPE-128
 70
     0
  3

 72
    65
 73
     2
 40
5.333333332500001
 49
3.3333333325
 49
-3.3333333325
  0
LTYPE
  2
AI-LINETYPE-127
 70
     0
  3

 72
    65
 73
     2
 40
5.333333332500001
 49
3.3333333325
 49
-3.3333333325
  0
LTYPE
  2
AI-LINETYPE-126
 70
     0
  3

 72
    65
 73
     2
 40
5.333333332500001
 49
3.3333333325
 49
-3.3333333325
  0
LTYPE
  2
AI-LINETYPE-125
 70
     0
  3

 72
    65
 73
     2
 40
5.333333332500001
 49
3.3333333325
 49
-3.3333333325
  0
LTYPE
  2
AI-LINETYPE-124
 70
     0
  3

 72
    65
 73
     2
 40
5.333333332500001
 49
3.3333333325
 49
-3.3333333325
  0
LTYPE
  2
AI-LINETYPE-123
 70
     0
  3

 72
    65
 73
     2
 40
5.333333332500001
 49
3.3333333325
 49
-3.3333333325
  0
LTYPE
  2
AI-LINETYPE-122
 70
     0
  3

 72
    65
 73
     2
 40
5.333333332500001
 49
3.3333333325
 49
-3.3333333325
  0
LTYPE
  2
AI-LINETYPE-121
 70
     0
  3

 72
    65
 73
     2
 40
5.333333332500001
 49
3.3333333325
 49
-3.3333333325
  0
LTYPE
  2
AI-LINETYPE-120
 70
     0
  3

 72
    65
 73
     2
 40
5.333333332500001
 49
3.3333333325
 49
-3.3333333325
  0
LTYPE
  2
AI-LINETYPE-119
 70
     0
  3

 72
    65
 73
     2
 40
5.333333332500001
 49
3.3333333325
 49
-3.3333333325
  0
LTYPE
  2
AI-LINETYPE-118
 70
     0
  3

 72
    65
 73
     2
 40
5.333333332500001
 49
3.3333333325
 49
-3.3333333325
  0
LTYPE
  2
AI-LINETYPE-117
 70
     0
  3

 72
    65
 73
     2
 40
5.333333332500001
 49
3.3333333325
 49
-3.3333333325
  0
LTYPE
  2
AI-LINETYPE-116
 70
     0
  3

 72
    65
 73
     2
 40
5.333333332500001
 49
3.3333333325
 49
-3.3333333325
  0
LTYPE
  2
AI-LINETYPE-115
 70
     0
  3

 72
    65
 73
     2
 40
5.333333332500001
 49
3.3333333325
 49
-3.3333333325
  0
LTYPE
  2
AI-LINETYPE-114
 70
     0
  3

 72
    65
 73
     2
 40
5.333333332500001
 49
3.3333333325
 49
-3.3333333325
  0
LTYPE
  2
AI-LINETYPE-113
 70
     0
  3

 72
    65
 73
     2
 40
5.333333332500001
 49
3.3333333325
 49
-3.3333333325
  0
LTYPE
  2
AI-LINETYPE-112
 70
     0
  3

 72
    65
 73
     2
 40
5.333333332500001
 49
3.3333333325
 49
-3.3333333325
  0
LTYPE
  2
AI-LINETYPE-111
 70
     0
  3

 72
    65
 73
     2
 40
5.333333332500001
 49
3.3333333325
 49
-3.3333333325
  0
LTYPE
  2
AI-LINETYPE-110
 70
     0
  3

 72
    65
 73
     2
 40
5.333333332500001
 49
3.3333333325
 49
-3.3333333325
  0
LTYPE
  2
AI-LINETYPE-109
 70
     0
  3

 72
    65
 73
     2
 40
5.333333332500001
 49
3.3333333325
 49
-3.3333333325
  0
LTYPE
  2
AI-LINETYPE-108
 70
     0
  3

 72
    65
 73
     2
 40
5.333333332500001
 49
3.3333333325
 49
-3.3333333325
  0
LTYPE
  2
AI-LINETYPE-107
 70
     0
  3

 72
    65
 73
     2
 40
5.333333332500001
 49
3.3333333325
 49
-3.3333333325
  0
LTYPE
  2
AI-LINETYPE-106
 70
     0
  3

 72
    65
 73
     2
 40
5.333333332500001
 49
3.3333333325
 49
-3.3333333325
  0
LTYPE
  2
AI-LINETYPE-105
 70
     0
  3

 72
    65
 73
     2
 40
5.333333332500001
 49
3.3333333325
 49
-3.3333333325
  0
LTYPE
  2
AI-LINETYPE-104
 70
     0
  3

 72
    65
 73
     2
 40
5.333333332500001
 49
3.3333333325
 49
-3.3333333325
  0
LTYPE
  2
AI-LINETYPE-103
 70
     0
  3

 72
    65
 73
     2
 40
5.333333332500001
 49
3.3333333325
 49
-3.3333333325
  0
LTYPE
  2
AI-LINETYPE-102
 70
     0
  3

 72
    65
 73
     2
 40
5.333333332500001
 49
3.3333333325
 49
-3.3333333325
  0
LTYPE
  2
AI-LINETYPE-101
 70
     0
  3

 72
    65
 73
     2
 40
5.333333332500001
 49
3.3333333325
 49
-3.3333333325
  0
LTYPE
  2
AI-LINETYPE-100
 70
     0
  3

 72
    65
 73
     2
 40
5.333333332500001
 49
3.3333333325
 49
-3.3333333325
  0
LTYPE
  2
AI-LINETYPE-99
 70
     0
  3

 72
    65
 73
     2
 40
5.333333332500001
 49
3.3333333325
 49
-3.3333333325
  0
LTYPE
  2
AI-LINETYPE-98
 70
     0
  3

 72
    65
 73
     2
 40
5.333333332500001
 49
3.3333333325
 49
-3.3333333325
  0
LTYPE
  2
AI-LINETYPE-97
 70
     0
  3

 72
    65
 73
     2
 40
5.333333332500001
 49
3.3333333325
 49
-3.3333333325
  0
LTYPE
  2
AI-LINETYPE-96
 70
     0
  3

 72
    65
 73
     2
 40
5.333333332500001
 49
3.3333333325
 49
-3.3333333325
  0
LTYPE
  2
AI-LINETYPE-95
 70
     0
  3

 72
    65
 73
     2
 40
5.333333332500001
 49
3.3333333325
 49
-3.3333333325
  0
LTYPE
  2
AI-LINETYPE-94
 70
     0
  3

 72
    65
 73
     2
 40
5.333333332500001
 49
3.3333333325
 49
-3.3333333325
  0
LTYPE
  2
AI-LINETYPE-93
 70
     0
  3

 72
    65
 73
     2
 40
5.333333332500001
 49
3.3333333325
 49
-3.3333333325
  0
LTYPE
  2
AI-LINETYPE-92
 70
     0
  3

 72
    65
 73
     2
 40
5.333333332500001
 49
3.3333333325
 49
-3.3333333325
  0
LTYPE
  2
AI-LINETYPE-91
 70
     0
  3

 72
    65
 73
     2
 40
5.333333332500001
 49
3.3333333325
 49
-3.3333333325
  0
LTYPE
  2
AI-LINETYPE-90
 70
     0
  3

 72
    65
 73
     2
 40
5.333333332500001
 49
3.3333333325
 49
-3.3333333325
  0
LTYPE
  2
AI-LINETYPE-89
 70
     0
  3

 72
    65
 73
     2
 40
5.333333332500001
 49
3.3333333325
 49
-3.3333333325
  0
LTYPE
  2
AI-LINETYPE-88
 70
     0
  3

 72
    65
 73
     2
 40
5.333333332500001
 49
3.3333333325
 49
-3.3333333325
  0
LTYPE
  2
AI-LINETYPE-87
 70
     0
  3

 72
    65
 73
     2
 40
5.333333332500001
 49
3.3333333325
 49
-3.3333333325
  0
LTYPE
  2
AI-LINETYPE-86
 70
     0
  3

 72
    65
 73
     2
 40
5.333333332500001
 49
3.3333333325
 49
-3.3333333325
  0
LTYPE
  2
AI-LINETYPE-85
 70
     0
  3

 72
    65
 73
     2
 40
5.333333332500001
 49
3.3333333325
 49
-3.3333333325
  0
LTYPE
  2
AI-LINETYPE-84
 70
     0
  3

 72
    65
 73
     2
 40
5.333333332500001
 49
3.3333333325
 49
-3.3333333325
  0
LTYPE
  2
AI-LINETYPE-83
 70
     0
  3

 72
    65
 73
     2
 40
5.333333332500001
 49
3.3333333325
 49
-3.3333333325
  0
LTYPE
  2
AI-LINETYPE-82
 70
     0
  3

 72
    65
 73
     2
 40
5.333333332500001
 49
3.3333333325
 49
-3.3333333325
  0
LTYPE
  2
AI-LINETYPE-81
 70
     0
  3

 72
    65
 73
     2
 40
5.333333332500001
 49
3.3333333325
 49
-3.3333333325
  0
LTYPE
  2
AI-LINETYPE-80
 70
     0
  3

 72
    65
 73
     2
 40
5.333333332500001
 49
3.3333333325
 49
-3.3333333325
  0
LTYPE
  2
AI-LINETYPE-79
 70
     0
  3

 72
    65
 73
     2
 40
5.333333332500001
 49
3.3333333325
 49
-3.3333333325
  0
LTYPE
  2
AI-LINETYPE-78
 70
     0
  3

 72
    65
 73
     2
 40
5.333333332500001
 49
3.3333333325
 49
-3.3333333325
  0
LTYPE
  2
AI-LINETYPE-77
 70
     0
  3

 72
    65
 73
     2
 40
5.333333332500001
 49
3.3333333325
 49
-3.3333333325
  0
LTYPE
  2
AI-LINETYPE-76
 70
     0
  3

 72
    65
 73
     2
 40
5.333333332500001
 49
3.3333333325
 49
-3.3333333325
  0
LTYPE
  2
AI-LINETYPE-75
 70
     0
  3

 72
    65
 73
     2
 40
5.333333332500001
 49
3.3333333325
 49
-3.3333333325
  0
LTYPE
  2
AI-LINETYPE-74
 70
     0
  3

 72
    65
 73
     2
 40
5.333333332500001
 49
3.3333333325
 49
-3.3333333325
  0
LTYPE
  2
AI-LINETYPE-73
 70
     0
  3

 72
    65
 73
     2
 40
5.333333332500001
 49
3.3333333325
 49
-3.3333333325
  0
LTYPE
  2
AI-LINETYPE-72
 70
     0
  3

 72
    65
 73
     2
 40
5.333333332500001
 49
3.3333333325
 49
-3.3333333325
  0
LTYPE
  2
AI-LINETYPE-71
 70
     0
  3

 72
    65
 73
     2
 40
5.333333332500001
 49
3.3333333325
 49
-3.3333333325
  0
LTYPE
  2
AI-LINETYPE-70
 70
     0
  3

 72
    65
 73
     2
 40
5.333333332500001
 49
3.3333333325
 49
-3.3333333325
  0
LTYPE
  2
AI-LINETYPE-69
 70
     0
  3

 72
    65
 73
     2
 40
5.333333332500001
 49
3.3333333325
 49
-3.3333333325
  0
LTYPE
  2
AI-LINETYPE-68
 70
     0
  3

 72
    65
 73
     2
 40
5.333333332500001
 49
3.3333333325
 49
-3.3333333325
  0
LTYPE
  2
AI-LINETYPE-67
 70
     0
  3

 72
    65
 73
     2
 40
5.333333332500001
 49
3.3333333325
 49
-3.3333333325
  0
LTYPE
  2
AI-LINETYPE-66
 70
     0
  3

 72
    65
 73
     2
 40
5.333333332500001
 49
3.3333333325
 49
-3.3333333325
  0
LTYPE
  2
AI-LINETYPE-65
 70
     0
  3

 72
    65
 73
     2
 40
5.333333332500001
 49
3.3333333325
 49
-3.3333333325
  0
LTYPE
  2
AI-LINETYPE-64
 70
     0
  3

 72
    65
 73
     2
 40
5.333333332500001
 49
3.3333333325
 49
-3.3333333325
  0
LTYPE
  2
AI-LINETYPE-63
 70
     0
  3

 72
    65
 73
     2
 40
5.333333332500001
 49
3.3333333325
 49
-3.3333333325
  0
LTYPE
  2
AI-LINETYPE-62
 70
     0
  3

 72
    65
 73
     2
 40
5.333333332500001
 49
3.3333333325
 49
-3.3333333325
  0
LTYPE
  2
AI-LINETYPE-61
 70
     0
  3

 72
    65
 73
     2
 40
5.333333332500001
 49
3.3333333325
 49
-3.3333333325
  0
LTYPE
  2
AI-LINETYPE-60
 70
     0
  3

 72
    65
 73
     2
 40
5.333333332500001
 49
3.3333333325
 49
-3.3333333325
  0
LTYPE
  2
AI-LINETYPE-59
 70
     0
  3

 72
    65
 73
     2
 40
5.333333332500001
 49
3.3333333325
 49
-3.3333333325
  0
LTYPE
  2
AI-LINETYPE-58
 70
     0
  3

 72
    65
 73
     2
 40
5.333333332500001
 49
3.3333333325
 49
-3.3333333325
  0
LTYPE
  2
AI-LINETYPE-57
 70
     0
  3

 72
    65
 73
     2
 40
5.333333332500001
 49
3.3333333325
 49
-3.3333333325
  0
LTYPE
  2
AI-LINETYPE-56
 70
     0
  3

 72
    65
 73
     2
 40
5.333333332500001
 49
3.3333333325
 49
-3.3333333325
  0
LTYPE
  2
AI-LINETYPE-55
 70
     0
  3

 72
    65
 73
     2
 40
5.333333332500001
 49
3.3333333325
 49
-3.3333333325
  0
LTYPE
  2
AI-LINETYPE-54
 70
     0
  3

 72
    65
 73
     2
 40
5.333333332500001
 49
3.3333333325
 49
-3.3333333325
  0
LTYPE
  2
AI-LINETYPE-53
 70
     0
  3

 72
    65
 73
     2
 40
5.333333332500001
 49
3.3333333325
 49
-3.3333333325
  0
LTYPE
  2
AI-LINETYPE-52
 70
     0
  3

 72
    65
 73
     2
 40
5.333333332500001
 49
3.3333333325
 49
-3.3333333325
  0
LTYPE
  2
AI-LINETYPE-51
 70
     0
  3

 72
    65
 73
     2
 40
5.333333332500001
 49
3.3333333325
 49
-3.3333333325
  0
LTYPE
  2
AI-LINETYPE-50
 70
     0
  3

 72
    65
 73
     2
 40
5.333333332500001
 49
3.3333333325
 49
-3.3333333325
  0
LTYPE
  2
AI-LINETYPE-49
 70
     0
  3

 72
    65
 73
     2
 40
5.333333332500001
 49
3.3333333325
 49
-3.3333333325
  0
LTYPE
  2
AI-LINETYPE-48
 70
     0
  3

 72
    65
 73
     2
 40
5.333333332500001
 49
3.3333333325
 49
-3.3333333325
  0
LTYPE
  2
AI-LINETYPE-47
 70
     0
  3

 72
    65
 73
     2
 40
5.333333332500001
 49
3.3333333325
 49
-3.3333333325
  0
LTYPE
  2
AI-LINETYPE-46
 70
     0
  3

 72
    65
 73
     2
 40
5.333333332500001
 49
3.3333333325
 49
-3.3333333325
  0
LTYPE
  2
AI-LINETYPE-45
 70
     0
  3

 72
    65
 73
     2
 40
5.333333332500001
 49
3.3333333325
 49
-3.3333333325
  0
LTYPE
  2
AI-LINETYPE-44
 70
     0
  3

 72
    65
 73
     2
 40
5.333333332500001
 49
3.3333333325
 49
-3.3333333325
  0
LTYPE
  2
AI-LINETYPE-43
 70
     0
  3

 72
    65
 73
     2
 40
5.333333332500001
 49
3.3333333325
 49
-3.3333333325
  0
LTYPE
  2
AI-LINETYPE-42
 70
     0
  3

 72
    65
 73
     2
 40
5.333333332500001
 49
3.3333333325
 49
-3.3333333325
  0
LTYPE
  2
AI-LINETYPE-41
 70
     0
  3

 72
    65
 73
     2
 40
5.333333332500001
 49
3.3333333325
 49
-3.3333333325
  0
LTYPE
  2
AI-LINETYPE-40
 70
     0
  3

 72
    65
 73
     2
 40
5.333333332500001
 49
3.3333333325
 49
-3.3333333325
  0
LTYPE
  2
AI-LINETYPE-39
 70
     0
  3

 72
    65
 73
     2
 40
5.333333332500001
 49
3.3333333325
 49
-3.3333333325
  0
LTYPE
  2
AI-LINETYPE-38
 70
     0
  3

 72
    65
 73
     2
 40
5.333333332500001
 49
3.3333333325
 49
-3.3333333325
  0
LTYPE
  2
AI-LINETYPE-37
 70
     0
  3

 72
    65
 73
     2
 40
5.333333332500001
 49
3.3333333325
 49
-3.3333333325
  0
LTYPE
  2
AI-LINETYPE-36
 70
     0
  3

 72
    65
 73
     2
 40
5.333333332500001
 49
3.3333333325
 49
-3.3333333325
  0
LTYPE
  2
AI-LINETYPE-35
 70
     0
  3

 72
    65
 73
     2
 40
5.333333332500001
 49
3.3333333325
 49
-3.3333333325
  0
LTYPE
  2
AI-LINETYPE-34
 70
     0
  3

 72
    65
 73
     2
 40
5.333333332500001
 49
3.3333333325
 49
-3.3333333325
  0
LTYPE
  2
AI-LINETYPE-33
 70
     0
  3

 72
    65
 73
     2
 40
5.333333332500001
 49
3.3333333325
 49
-3.3333333325
  0
LTYPE
  2
AI-LINETYPE-32
 70
     0
  3

 72
    65
 73
     2
 40
5.333333332500001
 49
3.3333333325
 49
-3.3333333325
  0
LTYPE
  2
AI-LINETYPE-31
 70
     0
  3

 72
    65
 73
     2
 40
5.333333332500001
 49
3.3333333325
 49
-3.3333333325
  0
LTYPE
  2
AI-LINETYPE-30
 70
     0
  3

 72
    65
 73
     2
 40
5.333333332500001
 49
3.3333333325
 49
-3.3333333325
  0
LTYPE
  2
AI-LINETYPE-29
 70
     0
  3

 72
    65
 73
     2
 40
5.333333332500001
 49
3.3333333325
 49
-3.3333333325
  0
LTYPE
  2
AI-LINETYPE-28
 70
     0
  3

 72
    65
 73
     2
 40
5.333333332500001
 49
3.3333333325
 49
-3.3333333325
  0
LTYPE
  2
AI-LINETYPE-27
 70
     0
  3

 72
    65
 73
     2
 40
5.333333332500001
 49
3.3333333325
 49
-3.3333333325
  0
LTYPE
  2
AI-LINETYPE-26
 70
     0
  3

 72
    65
 73
     2
 40
5.333333332500001
 49
3.3333333325
 49
-3.3333333325
  0
LTYPE
  2
AI-LINETYPE-25
 70
     0
  3

 72
    65
 73
     2
 40
5.333333332500001
 49
3.3333333325
 49
-3.3333333325
  0
LTYPE
  2
AI-LINETYPE-24
 70
     0
  3

 72
    65
 73
     2
 40
5.333333332500001
 49
3.3333333325
 49
-3.3333333325
  0
LTYPE
  2
AI-LINETYPE-23
 70
     0
  3

 72
    65
 73
     2
 40
5.333333332500001
 49
3.3333333325
 49
-3.3333333325
  0
LTYPE
  2
AI-LINETYPE-22
 70
     0
  3

 72
    65
 73
     2
 40
5.333333332500001
 49
3.3333333325
 49
-3.3333333325
  0
LTYPE
  2
AI-LINETYPE-21
 70
     0
  3

 72
    65
 73
     2
 40
5.333333332500001
 49
3.3333333325
 49
-3.3333333325
  0
LTYPE
  2
AI-LINETYPE-20
 70
     0
  3

 72
    65
 73
     2
 40
5.333333332500001
 49
3.3333333325
 49
-3.3333333325
  0
LTYPE
  2
AI-LINETYPE-19
 70
     0
  3

 72
    65
 73
     2
 40
5.333333332500001
 49
3.3333333325
 49
-3.3333333325
  0
LTYPE
  2
AI-LINETYPE-18
 70
     0
  3

 72
    65
 73
     2
 40
5.333333332500001
 49
3.3333333325
 49
-3.3333333325
  0
LTYPE
  2
AI-LINETYPE-17
 70
     0
  3

 72
    65
 73
     2
 40
5.333333332500001
 49
3.3333333325
 49
-3.3333333325
  0
LTYPE
  2
AI-LINETYPE-16
 70
     0
  3

 72
    65
 73
     2
 40
5.333333332500001
 49
3.3333333325
 49
-3.3333333325
  0
LTYPE
  2
AI-LINETYPE-15
 70
     0
  3

 72
    65
 73
     2
 40
5.333333332500001
 49
3.3333333325
 49
-3.3333333325
  0
LTYPE
  2
AI-LINETYPE-14
 70
     0
  3

 72
    65
 73
     2
 40
5.333333332500001
 49
3.3333333325
 49
-3.3333333325
  0
LTYPE
  2
AI-LINETYPE-13
 70
     0
  3

 72
    65
 73
     2
 40
5.333333332500001
 49
3.3333333325
 49
-3.3333333325
  0
LTYPE
  2
AI-LINETYPE-12
 70
     0
  3

 72
    65
 73
     2
 40
5.333333332500001
 49
3.3333333325
 49
-3.3333333325
  0
LTYPE
  2
AI-LINETYPE-11
 70
     0
  3

 72
    65
 73
     2
 40
5.333333332500001
 49
3.3333333325
 49
-3.3333333325
  0
LTYPE
  2
AI-LINETYPE-10
 70
     0
  3

 72
    65
 73
     2
 40
5.333333332500001
 49
3.3333333325
 49
-3.3333333325
  0
LTYPE
  2
AI-LINETYPE-9
 70
     0
  3

 72
    65
 73
     2
 40
5.333333332500001
 49
3.3333333325
 49
-3.3333333325
  0
LTYPE
  2
AI-LINETYPE-8
 70
     0
  3

 72
    65
 73
     2
 40
5.333333332500001
 49
3.3333333325
 49
-3.3333333325
  0
LTYPE
  2
AI-LINETYPE-7
 70
     0
  3

 72
    65
 73
     2
 40
5.333333332500001
 49
3.3333333325
 49
-3.3333333325
  0
LTYPE
  2
AI-LINETYPE-6
 70
     0
  3

 72
    65
 73
     2
 40
5.333333332500001
 49
3.3333333325
 49
-3.3333333325
  0
LTYPE
  2
AI-LINETYPE-5
 70
     0
  3

 72
    65
 73
     2
 40
5.333333332500001
 49
3.3333333325
 49
-3.3333333325
  0
LTYPE
  2
AI-LINETYPE-4
 70
     0
  3

 72
    65
 73
     2
 40
5.333333332500001
 49
3.3333333325
 49
-3.3333333325
  0
LTYPE
  2
AI-LINETYPE-3
 70
     0
  3

 72
    65
 73
     2
 40
5.333333332500001
 49
3.3333333325
 49
-3.3333333325
  0
LTYPE
  2
AI-LINETYPE-2
 70
     0
  3

 72
    65
 73
     2
 40
5.333333332500001
 49
3.3333333325
 49
-3.3333333325
  0
LTYPE
  2
AI-LINETYPE-1
 70
     0
  3

 72
    65
 73
     2
 40
5.333333332500001
 49
3.3333333325
 49
-3.3333333325
  0
LTYPE
  2
______-12
 70
     0
  3

 72
    65
 73
     2
 40
0.015748031496063
 49
0.015748031496063
 49
-0.031496062992126
  0
LTYPE
  2
______-11
 70
     0
  3

 72
    65
 73
     4
 40
0.1968503937007874
 49
0.1968503937007874
 49
-0.031496062992126
 49
0.015748031496063
 49
-0.031496062992126
  0
LTYPE
  2
______-10
 70
     0
  3

 72
    65
 73
     6
 40
1.5
 49
1.5
 49
-0.1111139999999999
 49
0.2777720000000001
 49
-0.1111139999999999
 49
0.25
 49
-0.125
  0
LTYPE
  2
______-9
 70
     0
  3

 72
    65
 73
     4
 40
1.5
 49
1.5
 49
-0.1111139999999999
 49
0.2777720000000001
 49
-0.1111139999999999
  0
LTYPE
  2
______-8
 70
     0
  3

 72
    65
 73
     6
 40
0.25
 49
0.25
 49
-0.083312
 49
0.027772
 49
-0.055572
 49
0.027772
 49
-0.055572
  0
LTYPE
  2
______-7
 70
     0
  3

 72
    65
 73
     6
 40
0.25
 49
0.25
 49
-0.083312
 49
0.2500000000000001
 49
-0.083344
 49
0.027772
 49
-0.055572
  0
LTYPE
  2
______-6
 70
     0
  3

 72
    65
 73
     4
 40
0.25
 49
0.25
 49
-0.083312
 49
0.027772
 49
-0.055572
  0
LTYPE
  2
______-5
 70
     0
  3

 72
    65
 73
     2
 40
0.02777
 49
0.02777
 49
-0.055542
  0
LTYPE
  2
______-4
 70
     0
  3

 72
    65
 73
     2
 40
0.52777
 49
0.52777
 49
-0.083314
  0
LTYPE
  2
______-3
 70
     0
  3

 72
    65
 73
     2
 40
0.416656
 49
0.416656
 49
-0.083344
  0
LTYPE
  2
______-2
 70
     0
  3

 72
    65
 73
     2
 40
0.194428
 49
0.194428
 49
-0.083342
  0
LTYPE
  2
______-1
 70
     0
  3

 72
    65
 73
     2
 40
0.083312
 49
0.083312
 49
-0.083344
  0
ENDTAB
  0
TABLE
  2
LAYER
 70
    36
  0
LAYER
  2
0
 70
     0
 62
     7
  6
CONTINUOUS
  0
LAYER
  2
020
 70
     0
 62
     1
  6
CONTINUOUS
  0
LAYER
  2
SAKUZU
 70
     0
 62
     7
  6
CONTINUOUS
  0
LAYER
  2
__-3
 70
     0
 62
     7
  6
CONTINUOUS
  0
LAYER
  2
LAYER0002
 70
     0
 62
     7
  6
CONTINUOUS
  0
LAYER
  2
DEFPOINTS
 70
     0
 62
     7
  6
CONTINUOUS
  0
ENDTAB
  0
TABLE
  2
STYLE
 70
     2
  0
STYLE
  2
STANDARD
 70
     0
 40
0.0
 41
1.0
 50
0.0
 71
     0
 42
0.2
  3
txt
  4
BIGFONT.SHX
  0
STYLE
  2
YUGOTHIC_MEDIUM
 70
     0
 40
0.0
 41
1.0
 50
0.0
 71
     0
 42
0.2
  3

  4
YuGothic Medium
  0
ENDTAB
  0
TABLE
  2
VIEW
 70
     0
  0
ENDTAB
  0
TABLE
  2
UCS
 70
     0
  0
ENDTAB
  0
TABLE
  2
APPID
 70
     3
  0
APPID
  2
ACAD
 70
     0
  0
APPID
  2
ACCMTRANSPARENCY
 70
     0
  0
APPID
  2
ACAECLAYERSTANDARD
 70
     0
  0
ENDTAB
  0
TABLE
  2
DIMSTYLE
 70
     2
  0
DIMSTYLE
  2
STANDARD
 70
     0
  3

  4

  5

  6

  7

 40
1.0
 41
0.18
 42
0.0625
 43
0.38
 44
0.18
 45
0.0
 46
0.0
 47
0.0
 48
0.0
140
0.18
141
0.09
142
0.0
143
25.4
144
1.0
145
0.0
146
1.0
147
0.09
 71
     0
 72
     0
 73
     1
 74
     1
 75
     0
 76
     0
 77
     0
 78
     0
170
     0
171
     2
172
     0
173
     0
174
     0
175
     0
176
     0
177
     0
178
     0
  0
DIMSTYLE
  2
SPEAC
 70
     0
  3
<>
  4
[]
  5
DOT
  6
DOT
  7
DOT
 40
1.0
 41
0.5007446289062499
 42
3.0
 43
10.16
 44
0.0
 45
0.0
 46
0.0
 47
0.0
 48
0.0
140
31.75824175824177
141
0.0
142
0.0
143
0.0393700787401575
144
1.0
145
0.0
146
1.0
147
0.1999999992549419
 71
     0
 72
     0
 73
     0
 74
     0
 75
     0
 76
     0
 77
     1
 78
     8
170
     0
171
     3
172
     1
173
     0
174
     1
175
     0
176
     0
177
     0
178
     0
  0
ENDTAB
  0
ENDSEC
  0
SECTION
  2
BLOCKS
  0
BLOCK
  8
0
  2
$MODEL_SPACE
 70
     0
 10
0.0
 20
0.0
 30
0.0
  3
$MODEL_SPACE
  1

  0
ENDBLK
  5
21
  8
0
  0
BLOCK
 67
     1
  8
0
  2
$PAPER_SPACE
 70
     0
 10
0.0
 20
0.0
 30
0.0
  3
$PAPER_SPACE
  1

  0
ENDBLK
  5
1D
 67
     1
  8
0
  0
BLOCK
  8
0
  2
____-1
 70
     0
 10
0.0
 20
0.0
 30
0.0
  3
____-1
  1

  0
ENDBLK
  5
71
  8
0
  0
BLOCK
  8
0
  2
____-2-1
 70
     0
 10
0.0
 20
0.0
 30
0.0
  3
____-2-1
  1

  0
LINE
  5
1DE
  8
__-3
  6
CONTINUOUS
 62
     7
 10
144.272
 20
310.5308544574551
 30
0.0
 11
-144.272
 21
310.5308544574551
 31
0.0
  0
TEXT
  5
1DF
  8
__-3
 62
     3
 10
94.48727566194626
 20
306.1956939473636
 30
0.0
 40
2.389518229166667
  1
2022.08.31
  7
YUGOTHIC_MEDIUM
 11
94.48727566194626
 21
307.390453061947
 31
0.0
 73
     2
  0
TEXT
  5
1E0
  8
__-3
 62
     3
 10
129.4375369899762
 20
306.1956939473636
 30
0.0
 40
2.389518229166667
  1
1:15(A4)
  7
YUGOTHIC_MEDIUM
 11
129.4375369899762
 21
307.390453061947
 31
0.0
 73
     2
  0
INSERT
  5
1E1
  8
__-3
 62
    17
  2
____-1
 10
0.0
 20
0.0
 30
0.0
  0
TEXT
  5
1E2
  8
__-3
 62
     3
 10
116.8075934565349
 20
306.9777030619469
 30
0.0
 40
2.389518229166667
  1
SCALE:
  7
YUGOTHIC_MEDIUM
 11
116.8075934565349
 21
309.3672212911135
 31
0.0
 73
     3
  0
TEXT
  5
1E3
  8
__-3
 62
     3
 10
-49.28778269347822
 20
306.9777030619469
 30
0.0
 40
2.389518229166667
  1
NAME:
  7
YUGOTHIC_MEDIUM
 11
-49.28778269347822
 21
309.3672212911135
 31
0.0
 73
     3
  0
TEXT
  5
1E4
  8
__-3
 62
     3
 10
83.83485407521394
 20
306.9777030619469
 30
0.0
 40
2.389518229166667
  1
DATE:
  7
YUGOTHIC_MEDIUM
 11
83.83485407521394
 21
309.3672212911135
 31
0.0
 73
     3
  0
TEXT
  5
1E5
  8
__-3
 62
     3
 10
49.94351325906834
 20
306.9777030619469
 30
0.0
 40
2.389518229166667
  1
ID:
  7
YUGOTHIC_MEDIUM
 11
49.94351325906834
 21
309.3672212911135
 31
0.0
 73
     3
  0
TEXT
  5
1E6
  8
__-3
 62
     3
 10
54.87692605681511
 20
306.1956939473636
 30
0.0
 40
2.389518229166667
  1
KB-KC025-02
  7
YUGOTHIC_MEDIUM
 11
54.87692605681511
 21
307.390453061947
 31
0.0
 73
     2
  0
TEXT
  5
1E7
  8
__-3
 62
     3
 10
-36.90650480634042
 20
306.1956939473636
 30
0.0
 40
2.389518229166667
  1
業務用キッチン  二槽シンク バックガードあり
  7
YUGOTHIC_MEDIUM
 11
-36.90650480634042
 21
307.390453061947
 31
0.0
 73
     2
  0
ENDBLK
  5
74
  8
0
  0
BLOCK
  8
0
  2
____-3-1
 70
     0
 10
0.0
 20
0.0
 30
0.0
  3
____-3-1
  1

  0
ENDBLK
  5
77
  8
0
  0
BLOCK
  8
0
  2
____-4-1
 70
     0
 10
0.0
 20
0.0
 30
0.0
  3
____-4-1
  1

  0
LINE
  5
1E8
  8
__-3
  6
CONTINUOUS
 62
     7
 10
144.272
 20
109.2480892083655
 30
0.0
 11
-144.272
 21
109.2480892083655
 31
0.0
  0
TEXT
  5
1E9
  8
__-3
 62
     3
 10
94.48727566194626
 20
104.9129286982741
 30
0.0
 40
2.389518229166667
  1
2022.08.31
  7
YUGOTHIC_MEDIUM
 11
94.48727566194626
 21
106.1076878128574
 31
0.0
 73
     2
  0
TEXT
  5
1EA
  8
__-3
 62
     3
 10
129.4375369899762
 20
104.9129286982741
 30
0.0
 40
2.389518229166667
  1
1:15(A4)
  7
YUGOTHIC_MEDIUM
 11
129.4375369899762
 21
106.1076878128574
 31
0.0
 73
     2
  0
INSERT
  5
1EB
  8
__-3
 62
    17
  2
____-3-1
 10
0.0
 20
0.0
 30
0.0
  0
TEXT
  5
1EC
  8
__-3
 62
     3
 10
116.8075934565349
 20
105.6949378128574
 30
0.0
 40
2.389518229166667
  1
SCALE:
  7
YUGOTHIC_MEDIUM
 11
116.8075934565349
 21
108.084456042024
 31
0.0
 73
     3
  0
TEXT
  5
1ED
  8
__-3
 62
     3
 10
-49.28778269347822
 20
105.6949378128574
 30
0.0
 40
2.389518229166667
  1
NAME:
  7
YUGOTHIC_MEDIUM
 11
-49.28778269347822
 21
108.084456042024
 31
0.0
 73
     3
  0
TEXT
  5
1EE
  8
__-3
 62
     3
 10
83.83485407521394
 20
105.6949378128574
 30
0.0
 40
2.389518229166667
  1
DATE:
  7
YUGOTHIC_MEDIUM
 11
83.83485407521394
 21
108.084456042024
 31
0.0
 73
     3
  0
TEXT
  5
1EF
  8
__-3
 62
     3
 10
49.94351325906834
 20
105.6949378128574
 30
0.0
 40
2.389518229166667
  1
ID:
  7
YUGOTHIC_MEDIUM
 11
49.94351325906834
 21
108.084456042024
 31
0.0
 73
     3
  0
TEXT
  5
1F0
  8
__-3
 62
     3
 10
54.87692605681511
 20
104.9129286982741
 30
0.0
 40
2.389518229166667
  1
KB-KC025-02
  7
YUGOTHIC_MEDIUM
 11
54.87692605681511
 21
106.1076878128574
 31
0.0
 73
     2
  0
TEXT
  5
1F1
  8
__-3
 62
     3
 10
-36.90650480634042
 20
104.9129286982741
 30
0.0
 40
2.389518229166667
  1
業務用キッチン  二槽シンク バックガードなし
  7
YUGOTHIC_MEDIUM
 11
-36.90650480634042
 21
106.1076878128574
 31
0.0
 73
     2
  0
ENDBLK
  5
7A
  8
0
  0
BLOCK
  8
0
  2
*D5
 70
     1
 10
0.0
 20
0.0
 30
0.0
  3
*D5
  1

  0
LINE
  5
1F2
  8
SAKUZU
 62
     0
 10
297.8820966891662
 20
6695.478526744466
 30
0.0
 11
297.8820966891662
 21
6892.478526744466
 31
0.0
  0
LINE
  5
1F3
  8
SAKUZU
 62
     0
 10
-602.1178422756784
 20
6695.478526744466
 30
0.0
 11
-602.1178422756784
 21
6892.478526744466
 31
0.0
  0
LINE
  5
1F4
  8
SAKUZU
 62
     0
 10
297.38135206026
 20
6892.478526744466
 30
0.0
 11
-601.6170976467722
 21
6892.478526744466
 31
0.0
  0
INSERT
  5
1F5
  8
SAKUZU
 62
     0
  2
_DOT
 10
297.8820966891662
 20
6892.478526744466
 30
0.0
 41
0.5007446289062499
 42
0.5007446289062499
 43
0.5007446289062499
  0
INSERT
  5
1F6
  8
SAKUZU
 62
     0
  2
_DOT
 10
-602.1178422756784
 20
6892.478526744466
 30
0.0
 41
0.5007446289062499
 42
0.5007446289062499
 43
0.5007446289062499
 50
180.0
  0
TEXT
  5
1F7
  8
SAKUZU
  6
CONTINUOUS
 62
     0
 10
-264.7840161736852
 20
6892.678526743721
 30
0.0
 40
31.75824175824177
  1
899.9999
  7
YUGOTHIC_MEDIUM
  0
POINT
  5
1F8
  8
DEFPOINTS
 62
     0
 10
297.8820966891662
 20
6692.478526744466
 30
0.0
  0
POINT
  5
1F9
  8
DEFPOINTS
 62
     0
 10
-602.1178422756784
 20
6692.478526744466
 30
0.0
  0
POINT
  5
1FA
  8
DEFPOINTS
 62
     0
 10
-602.1178422756784
 20
6892.478526744466
 30
0.0
  0
ENDBLK
  5
7D
  8
0
  0
BLOCK
  8
0
  2
*D6
 70
     1
 10
0.0
 20
0.0
 30
0.0
  3
*D6
  1

  0
LINE
  5
1FB
  8
SAKUZU
 62
     0
 10
-562.1178422756784
 20
6695.478526744466
 30
0.0
 11
-562.1178422756784
 21
6792.478526744466
 31
0.0
  0
LINE
  5
1FC
  8
SAKUZU
 62
     0
 10
-602.1178422756784
 20
6695.478526744466
 30
0.0
 11
-602.1178422756784
 21
6792.478526744466
 31
0.0
  0
LINE
  5
1FD
  8
SAKUZU
 62
     0
 10
-562.1178422756784
 20
6792.478526744466
 30
0.0
 11
-602.1178422756784
 21
6792.478526744466
 31
0.0
  0
LINE
  5
1FE
  8
SAKUZU
 62
     0
 10
-561.6170976467722
 20
6792.478526744466
 30
0.0
 11
-561.116353017866
 21
6792.478526744466
 31
0.0
  0
LINE
  5
1FF
  8
SAKUZU
 62
     0
 10
-602.6185869045846
 20
6792.478526744466
 30
0.0
 11
-603.1193315334908
 21
6792.478526744466
 31
0.0
  0
INSERT
  5
200
  8
SAKUZU
 62
     0
  2
_DOT
 10
-562.1178422756784
 20
6792.478526744466
 30
0.0
 41
0.5007446289062499
 42
0.5007446289062499
 43
0.5007446289062499
 50
180.0
  0
INSERT
  5
201
  8
SAKUZU
 62
     0
  2
_DOT
 10
-602.1178422756784
 20
6792.478526744466
 30
0.0
 41
0.5007446289062499
 42
0.5007446289062499
 43
0.5007446289062499
  0
TEXT
  5
202
  8
SAKUZU
  6
CONTINUOUS
 62
     0
 10
-612.3637868073372
 20
6792.678526743721
 30
0.0
 40
31.75824175824177
  1
40
  7
YUGOTHIC_MEDIUM
  0
POINT
  5
203
  8
DEFPOINTS
 62
     0
 10
-562.1178422756784
 20
6692.478526744466
 30
0.0
  0
POINT
  5
5A1
  8
DEFPOINTS
 62
     0
 10
-602.1178422756784
 20
6692.478526744466
 30
0.0
  0
POINT
  5
5A2
  8
DEFPOINTS
 62
     0
 10
-602.1178422756784
 20
6792.478526744466
 30
0.0
  0
ENDBLK
  5
80
  8
0
  0
BLOCK
  8
0
  2
*D7
 70
     1
 10
0.0
 20
0.0
 30
0.0
  3
*D7
  1

  0
LINE
  5
204
  8
SAKUZU
 62
     0
 10
-167.1178727932561
 20
6695.478526744466
 30
0.0
 11
-167.1178727932561
 21
6792.478526744466
 31
0.0
  0
LINE
  5
205
  8
SAKUZU
 62
     0
 10
-562.1178422756784
 20
6695.478526744466
 30
0.0
 11
-562.1178422756784
 21
6792.478526744466
 31
0.0
  0
LINE
  5
206
  8
SAKUZU
 62
     0
 10
-167.6186174221623
 20
6792.478526744466
 30
0.0
 11
-561.6170976467722
 21
6792.478526744466
 31
0.0
  0
INSERT
  5
207
  8
SAKUZU
 62
     0
  2
_DOT
 10
-167.1178727932561
 20
6792.478526744466
 30
0.0
 41
0.5007446289062499
 42
0.5007446289062499
 43
0.5007446289062499
  0
INSERT
  5
208
  8
SAKUZU
 62
     0
  2
_DOT
 10
-562.1178422756784
 20
6792.478526744466
 30
0.0
 41
0.5007446289062499
 42
0.5007446289062499
 43
0.5007446289062499
 50
180.0
  0
TEXT
  5
209
  8
SAKUZU
  6
CONTINUOUS
 62
     0
 10
-409.9867743319555
 20
6792.678526743721
 30
0.0
 40
31.75824175824177
  1
395
  7
YUGOTHIC_MEDIUM
  0
POINT
  5
20A
  8
DEFPOINTS
 62
     0
 10
-167.1178727932561
 20
6692.478526744466
 30
0.0
  0
POINT
  5
20B
  8
DEFPOINTS
 62
     0
 10
-562.1178422756784
 20
6692.478526744466
 30
0.0
  0
POINT
  5
20C
  8
DEFPOINTS
 62
     0
 10
-562.1178422756784
 20
6792.478526744466
 30
0.0
  0
ENDBLK
  5
83
  8
0
  0
BLOCK
  8
0
  2
*D8
 70
     1
 10
0.0
 20
0.0
 30
0.0
  3
*D8
  1

  0
LINE
  5
20D
  8
SAKUZU
 62
     0
 10
297.8820966891662
 20
6695.478526744466
 30
0.0
 11
297.8820966891662
 21
6792.478526744466
 31
0.0
  0
LINE
  5
20E
  8
SAKUZU
 62
     0
 10
257.882096689166
 20
6695.478526744466
 30
0.0
 11
257.882096689166
 21
6792.478526744466
 31
0.0
  0
LINE
  5
20F
  8
SAKUZU
 62
     0
 10
297.8820966891662
 20
6792.478526744466
 30
0.0
 11
257.882096689166
 21
6792.478526744466
 31
0.0
  0
LINE
  5
210
  8
SAKUZU
 62
     0
 10
298.3828413180725
 20
6792.478526744466
 30
0.0
 11
298.8835859469787
 21
6792.478526744466
 31
0.0
  0
LINE
  5
211
  8
SAKUZU
 62
     0
 10
257.3813520602598
 20
6792.478526744466
 30
0.0
 11
256.8806074313535
 21
6792.478526744466
 31
0.0
  0
INSERT
  5
212
  8
SAKUZU
 62
     0
  2
_DOT
 10
297.8820966891662
 20
6792.478526744466
 30
0.0
 41
0.5007446289062499
 42
0.5007446289062499
 43
0.5007446289062499
 50
180.0
  0
INSERT
  5
213
  8
SAKUZU
 62
     0
  2
_DOT
 10
257.882096689166
 20
6792.478526744466
 30
0.0
 41
0.5007446289062499
 42
0.5007446289062499
 43
0.5007446289062499
  0
TEXT
  5
214
  8
SAKUZU
  6
CONTINUOUS
 62
     0
 10
247.6361521575073
 20
6792.678526743721
 30
0.0
 40
31.75824175824177
  1
40
  7
YUGOTHIC_MEDIUM
  0
POINT
  5
215
  8
DEFPOINTS
 62
     0
 10
297.8820966891662
 20
6692.478526744466
 30
0.0
  0
POINT
  5
5A5
  8
DEFPOINTS
 62
     0
 10
257.882096689166
 20
6692.478526744466
 30
0.0
  0
POINT
  5
5A6
  8
DEFPOINTS
 62
     0
 10
257.882096689166
 20
6792.478526744466
 30
0.0
  0
ENDBLK
  5
86
  8
0
  0
BLOCK
  8
0
  2
*D9
 70
     1
 10
0.0
 20
0.0
 30
0.0
  3
*D9
  1

  0
LINE
  5
216
  8
SAKUZU
 62
     0
 10
300.8820966891662
 20
6092.478404674153
 30
0.0
 11
497.8820966891663
 21
6092.478404674153
 31
0.0
  0
LINE
  5
217
  8
SAKUZU
 62
     0
 10
300.8820966891662
 20
6692.478526744466
 30
0.0
 11
497.8820966891662
 21
6692.478526744466
 31
0.0
  0
LINE
  5
218
  8
SAKUZU
 62
     0
 10
497.8820966891663
 20
6092.97914930306
 30
0.0
 11
497.8820966891662
 21
6691.977782115559
 31
0.0
  0
INSERT
  5
219
  8
SAKUZU
 62
     0
  2
_DOT
 10
497.8820966891663
 20
6092.478404674153
 30
0.0
 41
0.5007446289062499
 42
0.5007446289062499
 43
0.5007446289062499
 50
270.0
  0
INSERT
  5
21A
  8
SAKUZU
 62
     0
  2
_DOT
 10
497.8820966891662
 20
6692.478526744466
 30
0.0
 41
0.5007446289062499
 42
0.5007446289062499
 43
0.5007446289062499
 50
90.0
  0
TEXT
  5
21B
  8
SAKUZU
  6
CONTINUOUS
 62
     0
 10
497.6820966899113
 20
6282.836916782047
 30
0.0
 40
31.75824175824177
  1
600.0001
 50
90.0
  7
YUGOTHIC_MEDIUM
  0
POINT
  5
21C
  8
DEFPOINTS
 62
     0
 10
297.8820966891662
 20
6092.478404674153
 30
0.0
  0
POINT
  5
21D
  8
DEFPOINTS
 62
     0
 10
297.8820966891662
 20
6692.478526744466
 30
0.0
  0
POINT
  5
21E
  8
DEFPOINTS
 62
     0
 10
497.8820966891662
 20
6692.478526744466
 30
0.0
  0
ENDBLK
  5
89
  8
0
  0
BLOCK
  8
0
  2
*D10
 70
     1
 10
0.0
 20
0.0
 30
0.0
  3
*D10
  1

  0
LINE
  5
21F
  8
SAKUZU
 62
     0
 10
300.8820966891662
 20
6632.478526744466
 30
0.0
 11
397.8820966891662
 21
6632.478526744466
 31
0.0
  0
LINE
  5
220
  8
SAKUZU
 62
     0
 10
300.8820966891662
 20
6692.478526744466
 30
0.0
 11
397.8820966891662
 21
6692.478526744466
 31
0.0
  0
LINE
  5
221
  8
SAKUZU
 62
     0
 10
397.8820966891662
 20
6632.979271373372
 30
0.0
 11
397.8820966891662
 21
6691.977782115559
 31
0.0
  0
INSERT
  5
222
  8
SAKUZU
 62
     0
  2
_DOT
 10
397.8820966891662
 20
6632.478526744466
 30
0.0
 41
0.5007446289062499
 42
0.5007446289062499
 43
0.5007446289062499
 50
270.0
  0
INSERT
  5
223
  8
SAKUZU
 62
     0
  2
_DOT
 10
397.8820966891662
 20
6692.478526744466
 30
0.0
 41
0.5007446289062499
 42
0.5007446289062499
 43
0.5007446289062499
 50
90.0
  0
TEXT
  5
224
  8
SAKUZU
  6
CONTINUOUS
 62
     0
 10
397.6820966899113
 20
6631.476433599515
 30
0.0
 40
31.75824175824177
  1
60
 50
90.0
  7
YUGOTHIC_MEDIUM
  0
POINT
  5
225
  8
DEFPOINTS
 62
     0
 10
297.8820966891662
 20
6632.478526744466
 30
0.0
  0
POINT
  5
226
  8
DEFPOINTS
 62
     0
 10
297.8820966891662
 20
6692.478526744466
 30
0.0
  0
POINT
  5
227
  8
DEFPOINTS
 62
     0
 10
397.8820966891662
 20
6692.478526744466
 30
0.0
  0
ENDBLK
  5
8C
  8
0
  0
BLOCK
  8
0
  2
*D11
 70
     1
 10
0.0
 20
0.0
 30
0.0
  3
*D11
  1

  0
LINE
  5
228
  8
SAKUZU
 62
     0
 10
300.8820966891662
 20
6592.478526744466
 30
0.0
 11
397.8820966891662
 21
6592.478526744466
 31
0.0
  0
LINE
  5
229
  8
SAKUZU
 62
     0
 10
300.8820966891662
 20
6632.478526744466
 30
0.0
 11
397.8820966891662
 21
6632.478526744466
 31
0.0
  0
LINE
  5
22A
  8
SAKUZU
 62
     0
 10
397.8820966891662
 20
6592.478526744466
 30
0.0
 11
397.8820966891662
 21
6632.478526744466
 31
0.0
  0
LINE
  5
22B
  8
SAKUZU
 62
     0
 10
397.8820966891662
 20
6591.977782115559
 30
0.0
 11
397.8820966891662
 21
6591.477037486653
 31
0.0
  0
LINE
  5
22C
  8
SAKUZU
 62
     0
 10
397.8820966891662
 20
6632.979271373372
 30
0.0
 11
397.8820966891662
 21
6633.480016002279
 31
0.0
  0
INSERT
  5
22D
  8
SAKUZU
 62
     0
  2
_DOT
 10
397.8820966891662
 20
6592.478526744466
 30
0.0
 41
0.5007446289062499
 42
0.5007446289062499
 43
0.5007446289062499
 50
90.0
  0
INSERT
  5
22E
  8
SAKUZU
 62
     0
  2
_DOT
 10
397.8820966891662
 20
6632.478526744466
 30
0.0
 41
0.5007446289062499
 42
0.5007446289062499
 43
0.5007446289062499
 50
270.0
  0
TEXT
  5
22F
  8
SAKUZU
  6
CONTINUOUS
 62
     0
 10
397.6820966899113
 20
6582.232582212807
 30
0.0
 40
31.75824175824177
  1
40
 50
90.0
  7
YUGOTHIC_MEDIUM
  0
POINT
  5
230
  8
DEFPOINTS
 62
     0
 10
297.8820966891662
 20
6592.478526744466
 30
0.0
  0
POINT
  5
5AA
  8
DEFPOINTS
 62
     0
 10
297.8820966891662
 20
6632.478526744466
 30
0.0
  0
POINT
  5
5AB
  8
DEFPOINTS
 62
     0
 10
397.8820966891662
 20
6632.478526744466
 30
0.0
  0
ENDBLK
  5
8F
  8
0
  0
BLOCK
  8
0
  2
*D12
 70
     1
 10
0.0
 20
0.0
 30
0.0
  3
*D12
  1

  0
LINE
  5
231
  8
SAKUZU
 62
     0
 10
300.8820966891662
 20
6132.478404674153
 30
0.0
 11
397.8820966891662
 21
6132.478404674153
 31
0.0
  0
LINE
  5
232
  8
SAKUZU
 62
     0
 10
300.8820966891662
 20
6592.478526744466
 30
0.0
 11
397.8820966891662
 21
6592.478526744466
 31
0.0
  0
LINE
  5
233
  8
SAKUZU
 62
     0
 10
397.8820966891662
 20
6132.97914930306
 30
0.0
 11
397.8820966891662
 21
6591.977782115559
 31
0.0
  0
INSERT
  5
234
  8
SAKUZU
 62
     0
  2
_DOT
 10
397.8820966891662
 20
6132.478404674153
 30
0.0
 41
0.5007446289062499
 42
0.5007446289062499
 43
0.5007446289062499
 50
270.0
  0
INSERT
  5
235
  8
SAKUZU
 62
     0
  2
_DOT
 10
397.8820966891662
 20
6592.478526744466
 30
0.0
 41
0.5007446289062499
 42
0.5007446289062499
 43
0.5007446289062499
 50
90.0
  0
TEXT
  5
236
  8
SAKUZU
  6
CONTINUOUS
 62
     0
 10
397.6820966899113
 20
6253.593065395338
 30
0.0
 40
31.75824175824177
  1
460.0001
 50
90.0
  7
YUGOTHIC_MEDIUM
  0
POINT
  5
237
  8
DEFPOINTS
 62
     0
 10
297.8820966891662
 20
6132.478404674153
 30
0.0
  0
POINT
  5
238
  8
DEFPOINTS
 62
     0
 10
297.8820966891662
 20
6592.478526744466
 30
0.0
  0
POINT
  5
239
  8
DEFPOINTS
 62
     0
 10
397.8820966891662
 20
6592.478526744466
 30
0.0
  0
ENDBLK
  5
92
  8
0
  0
BLOCK
  8
0
  2
*D13
 70
     1
 10
0.0
 20
0.0
 30
0.0
  3
*D13
  1

  0
LINE
  5
23A
  8
SAKUZU
 62
     0
 10
300.8820966891662
 20
6092.478404674153
 30
0.0
 11
397.8820966891662
 21
6092.478404674153
 31
0.0
  0
LINE
  5
23B
  8
SAKUZU
 62
     0
 10
300.8820966891662
 20
6132.478404674153
 30
0.0
 11
397.8820966891662
 21
6132.478404674153
 31
0.0
  0
LINE
  5
23C
  8
SAKUZU
 62
     0
 10
397.8820966891662
 20
6092.478404674153
 30
0.0
 11
397.8820966891662
 21
6132.478404674153
 31
0.0
  0
LINE
  5
23D
  8
SAKUZU
 62
     0
 10
397.8820966891662
 20
6091.977660045247
 30
0.0
 11
397.8820966891662
 21
6091.47691541634
 31
0.0
  0
LINE
  5
23E
  8
SAKUZU
 62
     0
 10
397.8820966891662
 20
6132.97914930306
 30
0.0
 11
397.8820966891662
 21
6133.479893931966
 31
0.0
  0
INSERT
  5
23F
  8
SAKUZU
 62
     0
  2
_DOT
 10
397.8820966891662
 20
6092.478404674153
 30
0.0
 41
0.5007446289062499
 42
0.5007446289062499
 43
0.5007446289062499
 50
90.0
  0
INSERT
  5
240
  8
SAKUZU
 62
     0
  2
_DOT
 10
397.8820966891662
 20
6132.478404674153
 30
0.0
 41
0.5007446289062499
 42
0.5007446289062499
 43
0.5007446289062499
 50
270.0
  0
TEXT
  5
241
  8
SAKUZU
  6
CONTINUOUS
 62
     0
 10
397.6820966899113
 20
6082.232460142494
 30
0.0
 40
31.75824175824177
  1
40
 50
90.0
  7
YUGOTHIC_MEDIUM
  0
POINT
  5
242
  8
DEFPOINTS
 62
     0
 10
297.8820966891662
 20
6092.478404674153
 30
0.0
  0
POINT
  5
5AE
  8
DEFPOINTS
 62
     0
 10
297.8820966891662
 20
6132.478404674153
 30
0.0
  0
POINT
  5
5AF
  8
DEFPOINTS
 62
     0
 10
397.8820966891662
 20
6132.478404674153
 30
0.0
  0
ENDBLK
  5
95
  8
0
  0
BLOCK
  8
0
  2
*D14
 70
     1
 10
0.0
 20
0.0
 30
0.0
  3
*D14
  1

  0
LINE
  5
243
  8
SAKUZU
 62
     0
 10
-364.6178727932565
 20
6319.478526744466
 30
0.0
 11
-364.6178727932565
 21
5992.478404674153
 31
0.0
  0
LINE
  5
244
  8
SAKUZU
 62
     0
 10
-602.1178422756784
 20
6089.478404674153
 30
0.0
 11
-602.1178422756784
 21
5992.478404674153
 31
0.0
  0
LINE
  5
245
  8
SAKUZU
 62
     0
 10
-365.1186174221628
 20
5992.478404674153
 30
0.0
 11
-601.6170976467722
 21
5992.478404674153
 31
0.0
  0
INSERT
  5
246
  8
SAKUZU
 62
     0
  2
_DOT
 10
-364.6178727932565
 20
5992.478404674153
 30
0.0
 41
0.5007446289062499
 42
0.5007446289062499
 43
0.5007446289062499
  0
INSERT
  5
247
  8
SAKUZU
 62
     0
  2
_DOT
 10
-602.1178422756784
 20
5992.478404674153
 30
0.0
 41
0.5007446289062499
 42
0.5007446289062499
 43
0.5007446289062499
 50
180.0
  0
TEXT
  5
248
  8
SAKUZU
  6
CONTINUOUS
 62
     0
 10
-551.4212327306998
 20
5992.678404673408
 30
0.0
 40
31.75824175824177
  1
237.5
  7
YUGOTHIC_MEDIUM
  0
POINT
  5
249
  8
DEFPOINTS
 62
     0
 10
-364.6178727932565
 20
6322.478526744466
 30
0.0
  0
POINT
  5
24A
  8
DEFPOINTS
 62
     0
 10
-602.1178422756784
 20
6092.478404674153
 30
0.0
  0
POINT
  5
24B
  8
DEFPOINTS
 62
     0
 10
-602.1178422756784
 20
5992.478404674153
 30
0.0
  0
ENDBLK
  5
98
  8
0
  0
BLOCK
  8
0
  2
*D15
 70
     1
 10
0.0
 20
0.0
 30
0.0
  3
*D15
  1

  0
LINE
  5
24C
  8
SAKUZU
 62
     0
 10
297.8820966891662
 20
6089.478404674153
 30
0.0
 11
297.8820966891662
 21
5992.478404674153
 31
0.0
  0
LINE
  5
24D
  8
SAKUZU
 62
     0
 10
60.38212720674392
 20
6319.478526744466
 30
0.0
 11
60.38212720674392
 21
5992.478404674153
 31
0.0
  0
LINE
  5
24E
  8
SAKUZU
 62
     0
 10
297.3813520602599
 20
5992.478404674153
 30
0.0
 11
60.88287183565016
 21
5992.478404674153
 31
0.0
  0
INSERT
  5
24F
  8
SAKUZU
 62
     0
  2
_DOT
 10
297.8820966891662
 20
5992.478404674153
 30
0.0
 41
0.5007446289062499
 42
0.5007446289062499
 43
0.5007446289062499
  0
INSERT
  5
250
  8
SAKUZU
 62
     0
  2
_DOT
 10
60.38212720674392
 20
5992.478404674153
 30
0.0
 41
0.5007446289062499
 42
0.5007446289062499
 43
0.5007446289062499
 50
180.0
  0
TEXT
  5
251
  8
SAKUZU
  6
CONTINUOUS
 62
     0
 10
111.0787367517227
 20
5992.678404673408
 30
0.0
 40
31.75824175824177
  1
237.5
  7
YUGOTHIC_MEDIUM
  0
POINT
  5
252
  8
DEFPOINTS
 62
     0
 10
297.8820966891662
 20
6092.478404674153
 30
0.0
  0
POINT
  5
253
  8
DEFPOINTS
 62
     0
 10
60.38212720674392
 20
6322.478526744466
 30
0.0
  0
POINT
  5
254
  8
DEFPOINTS
 62
     0
 10
60.38212720674392
 20
5992.478404674153
 30
0.0
  0
ENDBLK
  5
9B
  8
0
  0
BLOCK
  8
0
  2
*D16
 70
     1
 10
0.0
 20
0.0
 30
0.0
  3
*D16
  1

  0
LINE
  5
255
  8
SAKUZU
 62
     0
 10
1369.641967762806
 20
5617.501259954786
 30
0.0
 11
1167.641967762806
 21
5617.501259954786
 31
0.0
  0
LINE
  5
256
  8
SAKUZU
 62
     0
 10
1380.041966427662
 20
4767.501320989943
 30
0.0
 11
1167.641967762806
 21
4767.501320989943
 31
0.0
  0
LINE
  5
257
  8
SAKUZU
 62
     0
 10
1167.641967762806
 20
5617.00051532588
 30
0.0
 11
1167.641967762806
 21
4768.002065618849
 31
0.0
  0
INSERT
  5
258
  8
SAKUZU
 62
     0
  2
_DOT
 10
1167.641967762806
 20
5617.501259954786
 30
0.0
 41
0.5007446289062499
 42
0.5007446289062499
 43
0.5007446289062499
 50
90.0
  0
INSERT
  5
259
  8
SAKUZU
 62
     0
  2
_DOT
 10
1167.641967762806
 20
4767.501320989943
 30
0.0
 41
0.5007446289062499
 42
0.5007446289062499
 43
0.5007446289062499
 50
270.0
  0
TEXT
  5
25A
  8
SAKUZU
  6
CONTINUOUS
 62
     0
 10
1167.441967763551
 20
5079.835147091935
 30
0.0
 40
31.75824175824177
  1
849.9999
 50
90.0
  7
YUGOTHIC_MEDIUM
  0
POINT
  5
25B
  8
DEFPOINTS
 62
     0
 10
1372.641967762806
 20
5617.501259954786
 30
0.0
  0
POINT
  5
25C
  8
DEFPOINTS
 62
     0
 10
1383.041966427662
 20
4767.501320989943
 30
0.0
  0
POINT
  5
25D
  8
DEFPOINTS
 62
     0
 10
1167.641967762806
 20
4767.501320989943
 30
0.0
  0
ENDBLK
  5
9E
  8
0
  0
BLOCK
  8
0
  2
*D17
 70
     1
 10
0.0
 20
0.0
 30
0.0
  3
*D17
  1

  0
LINE
  5
25E
  8
SAKUZU
 62
     0
 10
1364.641967762806
 20
5577.501259954786
 30
0.0
 11
1267.641967762806
 21
5577.501259954786
 31
0.0
  0
LINE
  5
25F
  8
SAKUZU
 62
     0
 10
1369.641967762806
 20
5617.501259954786
 30
0.0
 11
1267.641967762806
 21
5617.501259954786
 31
0.0
  0
LINE
  5
260
  8
SAKUZU
 62
     0
 10
1267.641967762806
 20
5577.501259954786
 30
0.0
 11
1267.641967762806
 21
5617.501259954786
 31
0.0
  0
LINE
  5
261
  8
SAKUZU
 62
     0
 10
1267.641967762806
 20
5577.00051532588
 30
0.0
 11
1267.641967762806
 21
5576.499770696973
 31
0.0
  0
LINE
  5
262
  8
SAKUZU
 62
     0
 10
1267.641967762806
 20
5618.002004583693
 30
0.0
 11
1267.641967762806
 21
5618.502749212599
 31
0.0
  0
INSERT
  5
263
  8
SAKUZU
 62
     0
  2
_DOT
 10
1267.641967762806
 20
5577.501259954786
 30
0.0
 41
0.5007446289062499
 42
0.5007446289062499
 43
0.5007446289062499
 50
90.0
  0
INSERT
  5
264
  8
SAKUZU
 62
     0
  2
_DOT
 10
1267.641967762806
 20
5617.501259954786
 30
0.0
 41
0.5007446289062499
 42
0.5007446289062499
 43
0.5007446289062499
 50
270.0
  0
TEXT
  5
265
  8
SAKUZU
  6
CONTINUOUS
 62
     0
 10
1267.441967763551
 20
5567.255315423128
 30
0.0
 40
31.75824175824177
  1
40
 50
90.0
  7
YUGOTHIC_MEDIUM
  0
POINT
  5
266
  8
DEFPOINTS
 62
     0
 10
1367.641967762806
 20
5577.501259954786
 30
0.0
  0
POINT
  5
5B4
  8
DEFPOINTS
 62
     0
 10
1372.641967762806
 20
5617.501259954786
 30
0.0
  0
POINT
  5
5B5
  8
DEFPOINTS
 62
     0
 10
1267.641967762806
 20
5617.501259954786
 30
0.0
  0
ENDBLK
  5
A1
  8
0
  0
BLOCK
  8
0
  2
*D18
 70
     1
 10
0.0
 20
0.0
 30
0.0
  3
*D18
  1

  0
LINE
  5
267
  8
SAKUZU
 62
     0
 10
1373.141967762806
 20
4967.501320989941
 30
0.0
 11
1267.641967762806
 21
4967.501320989941
 31
0.0
  0
LINE
  5
268
  8
SAKUZU
 62
     0
 10
1380.041966427662
 20
4767.501320989943
 30
0.0
 11
1267.641967762806
 21
4767.501320989943
 31
0.0
  0
LINE
  5
269
  8
SAKUZU
 62
     0
 10
1267.641967762806
 20
4967.000576361034
 30
0.0
 11
1267.641967762806
 21
4768.002065618849
 31
0.0
  0
INSERT
  5
26A
  8
SAKUZU
 62
     0
  2
_DOT
 10
1267.641967762806
 20
4967.501320989941
 30
0.0
 41
0.5007446289062499
 42
0.5007446289062499
 43
0.5007446289062499
 50
90.0
  0
INSERT
  5
26B
  8
SAKUZU
 62
     0
  2
_DOT
 10
1267.641967762806
 20
4767.501320989943
 30
0.0
 41
0.5007446289062499
 42
0.5007446289062499
 43
0.5007446289062499
 50
270.0
  0
TEXT
  5
26C
  8
SAKUZU
  6
CONTINUOUS
 62
     0
 10
1267.441967763551
 20
4822.132404192454
 30
0.0
 40
31.75824175824177
  1
200
 50
90.0
  7
YUGOTHIC_MEDIUM
  0
POINT
  5
26D
  8
DEFPOINTS
 62
     0
 10
1376.141967762806
 20
4967.501320989941
 30
0.0
  0
POINT
  5
26E
  8
DEFPOINTS
 62
     0
 10
1383.041966427662
 20
4767.501320989943
 30
0.0
  0
POINT
  5
26F
  8
DEFPOINTS
 62
     0
 10
1267.641967762806
 20
4767.501320989943
 30
0.0
  0
ENDBLK
  5
A4
  8
0
  0
BLOCK
  8
0
  2
*D19
 70
     1
 10
0.0
 20
0.0
 30
0.0
  3
*D19
  1

  0
LINE
  5
270
  8
SAKUZU
 62
     0
 10
1722.641967762806
 20
5118.501336248732
 30
0.0
 11
1722.641967762806
 21
4667.501320989943
 31
0.0
  0
LINE
  5
271
  8
SAKUZU
 62
     0
 10
1967.641967762806
 20
5574.501259954786
 30
0.0
 11
1967.641967762806
 21
4667.501320989943
 31
0.0
  0
LINE
  5
272
  8
SAKUZU
 62
     0
 10
1723.142712391712
 20
4667.501320989943
 30
0.0
 11
1967.141223133899
 21
4667.501320989943
 31
0.0
  0
INSERT
  5
273
  8
SAKUZU
 62
     0
  2
_DOT
 10
1722.641967762806
 20
4667.501320989943
 30
0.0
 41
0.5007446289062499
 42
0.5007446289062499
 43
0.5007446289062499
 50
180.0
  0
INSERT
  5
274
  8
SAKUZU
 62
     0
  2
_DOT
 10
1967.641967762806
 20
4667.501320989943
 30
0.0
 41
0.5007446289062499
 42
0.5007446289062499
 43
0.5007446289062499
  0
TEXT
  5
275
  8
SAKUZU
  6
CONTINUOUS
 62
     0
 10
1799.773050965317
 20
4667.701320989198
 30
0.0
 40
31.75824175824177
  1
245
  7
YUGOTHIC_MEDIUM
  0
POINT
  5
276
  8
DEFPOINTS
 62
     0
 10
1722.641967762806
 20
5121.501336248732
 30
0.0
  0
POINT
  5
277
  8
DEFPOINTS
 62
     0
 10
1967.641967762806
 20
5577.501259954786
 30
0.0
  0
POINT
  5
278
  8
DEFPOINTS
 62
     0
 10
1967.641967762806
 20
4667.501320989943
 30
0.0
  0
ENDBLK
  5
A7
  8
0
  0
BLOCK
  8
0
  2
*D20
 70
     1
 10
0.0
 20
0.0
 30
0.0
  3
*D20
  1

  0
LINE
  5
279
  8
SAKUZU
 62
     0
 10
1910.641967762806
 20
5367.501259954786
 30
0.0
 11
2067.641967762806
 21
5367.501259954786
 31
0.0
  0
LINE
  5
27A
  8
SAKUZU
 62
     0
 10
1970.641967762806
 20
5617.501259954786
 30
0.0
 11
2067.641967762806
 21
5617.501259954786
 31
0.0
  0
LINE
  5
27B
  8
SAKUZU
 62
     0
 10
2067.641967762806
 20
5368.002004583693
 30
0.0
 11
2067.641967762806
 21
5617.00051532588
 31
0.0
  0
INSERT
  5
27C
  8
SAKUZU
 62
     0
  2
_DOT
 10
2067.641967762806
 20
5367.501259954786
 30
0.0
 41
0.5007446289062499
 42
0.5007446289062499
 43
0.5007446289062499
 50
270.0
  0
INSERT
  5
27D
  8
SAKUZU
 62
     0
  2
_DOT
 10
2067.641967762806
 20
5617.501259954786
 30
0.0
 41
0.5007446289062499
 42
0.5007446289062499
 43
0.5007446289062499
 50
90.0
  0
TEXT
  5
27E
  8
SAKUZU
  6
CONTINUOUS
 62
     0
 10
2067.441967763551
 20
5447.132343157298
 30
0.0
 40
31.75824175824177
  1
250
 50
90.0
  7
YUGOTHIC_MEDIUM
  0
POINT
  5
27F
  8
DEFPOINTS
 62
     0
 10
1907.641967762806
 20
5367.501259954786
 30
0.0
  0
POINT
  5
280
  8
DEFPOINTS
 62
     0
 10
1967.641967762806
 20
5617.501259954786
 30
0.0
  0
POINT
  5
281
  8
DEFPOINTS
 62
     0
 10
2067.641967762806
 20
5617.501259954786
 30
0.0
  0
ENDBLK
  5
AA
  8
0
  0
BLOCK
  8
0
  2
*D21
 70
     1
 10
0.0
 20
0.0
 30
0.0
  3
*D21
  1

  0
LINE
  5
282
  8
SAKUZU
 62
     0
 10
1909.641967762806
 20
5767.501259954786
 30
0.0
 11
1167.641967762806
 21
5767.501259954786
 31
0.0
  0
LINE
  5
283
  8
SAKUZU
 62
     0
 10
1369.641967762806
 20
5617.501259954786
 30
0.0
 11
1167.641967762806
 21
5617.501259954786
 31
0.0
  0
LINE
  5
284
  8
SAKUZU
 62
     0
 10
1167.641967762806
 20
5767.00051532588
 30
0.0
 11
1167.641967762806
 21
5618.002004583693
 31
0.0
  0
INSERT
  5
285
  8
SAKUZU
 62
     0
  2
_DOT
 10
1167.641967762806
 20
5767.501259954786
 30
0.0
 41
0.5007446289062499
 42
0.5007446289062499
 43
0.5007446289062499
 50
90.0
  0
INSERT
  5
286
  8
SAKUZU
 62
     0
  2
_DOT
 10
1167.641967762806
 20
5617.501259954786
 30
0.0
 41
0.5007446289062499
 42
0.5007446289062499
 43
0.5007446289062499
 50
270.0
  0
TEXT
  5
287
  8
SAKUZU
  6
CONTINUOUS
 62
     0
 10
1167.441967763551
 20
5644.863897317424
 30
0.0
 40
31.75824175824177
  1
150
 50
90.0
  7
YUGOTHIC_MEDIUM
  0
POINT
  5
288
  8
DEFPOINTS
 62
     0
 10
1912.641967762806
 20
5767.501259954786
 30
0.0
  0
POINT
  5
289
  8
DEFPOINTS
 62
     0
 10
1372.641967762806
 20
5617.501259954786
 30
0.0
  0
POINT
  5
28A
  8
DEFPOINTS
 62
     0
 10
1167.641967762806
 20
5617.501259954786
 30
0.0
  0
ENDBLK
  5
AD
  8
0
  0
BLOCK
  8
0
  2
*D22
 70
     1
 10
0.0
 20
0.0
 30
0.0
  3
*D22
  1

  0
LINE
  5
28B
  8
SAKUZU
 62
     0
 10
-137.1178727932561
 20
6695.478526744466
 30
0.0
 11
-137.1178727932561
 21
6792.478526744466
 31
0.0
  0
LINE
  5
28C
  8
SAKUZU
 62
     0
 10
-167.1178727932561
 20
6695.478526744466
 30
0.0
 11
-167.1178727932561
 21
6792.478526744466
 31
0.0
  0
LINE
  5
28D
  8
SAKUZU
 62
     0
 10
-137.1178727932561
 20
6792.478526744466
 30
0.0
 11
-167.1178727932561
 21
6792.478526744466
 31
0.0
  0
LINE
  5
28E
  8
SAKUZU
 62
     0
 10
-136.6171281643498
 20
6792.478526744466
 30
0.0
 11
-136.1163835354436
 21
6792.478526744466
 31
0.0
  0
LINE
  5
28F
  8
SAKUZU
 62
     0
 10
-167.6186174221623
 20
6792.478526744466
 30
0.0
 11
-168.1193620510686
 21
6792.478526744466
 31
0.0
  0
INSERT
  5
290
  8
SAKUZU
 62
     0
  2
_DOT
 10
-137.1178727932561
 20
6792.478526744466
 30
0.0
 41
0.5007446289062499
 42
0.5007446289062499
 43
0.5007446289062499
 50
180.0
  0
INSERT
  5
291
  8
SAKUZU
 62
     0
  2
_DOT
 10
-167.1178727932561
 20
6792.478526744466
 30
0.0
 41
0.5007446289062499
 42
0.5007446289062499
 43
0.5007446289062499
  0
TEXT
  5
292
  8
SAKUZU
  6
CONTINUOUS
 62
     0
 10
-182.3638173249149
 20
6792.678526743721
 30
0.0
 40
31.75824175824177
  1
30
  7
YUGOTHIC_MEDIUM
  0
POINT
  5
293
  8
DEFPOINTS
 62
     0
 10
-137.1178727932561
 20
6692.478526744466
 30
0.0
  0
POINT
  5
660
  8
DEFPOINTS
 62
     0
 10
-167.1178727932561
 20
6692.478526744466
 30
0.0
  0
POINT
  5
661
  8
DEFPOINTS
 62
     0
 10
-167.1178727932561
 20
6792.478526744466
 30
0.0
  0
ENDBLK
  5
B0
  8
0
  0
BLOCK
  8
0
  2
*D23
 70
     1
 10
0.0
 20
0.0
 30
0.0
  3
*D23
  1

  0
LINE
  5
294
  8
SAKUZU
 62
     0
 10
-137.1178727932561
 20
6695.478526744466
 30
0.0
 11
-137.1178727932561
 21
6792.478526744466
 31
0.0
  0
LINE
  5
295
  8
SAKUZU
 62
     0
 10
257.882096689166
 20
6695.478526744466
 30
0.0
 11
257.882096689166
 21
6792.478526744466
 31
0.0
  0
LINE
  5
296
  8
SAKUZU
 62
     0
 10
-136.6171281643498
 20
6792.478526744466
 30
0.0
 11
257.3813520602598
 21
6792.478526744466
 31
0.0
  0
INSERT
  5
297
  8
SAKUZU
 62
     0
  2
_DOT
 10
-137.1178727932561
 20
6792.478526744466
 30
0.0
 41
0.5007446289062499
 42
0.5007446289062499
 43
0.5007446289062499
 50
180.0
  0
INSERT
  5
298
  8
SAKUZU
 62
     0
  2
_DOT
 10
257.882096689166
 20
6792.478526744466
 30
0.0
 41
0.5007446289062499
 42
0.5007446289062499
 43
0.5007446289062499
  0
TEXT
  5
299
  8
SAKUZU
  6
CONTINUOUS
 62
     0
 10
15.01319515046673
 20
6792.678526743721
 30
0.0
 40
31.75824175824177
  1
395
  7
YUGOTHIC_MEDIUM
  0
POINT
  5
29A
  8
DEFPOINTS
 62
     0
 10
-137.1178727932561
 20
6692.478526744466
 30
0.0
  0
POINT
  5
29B
  8
DEFPOINTS
 62
     0
 10
257.882096689166
 20
6692.478526744466
 30
0.0
  0
POINT
  5
29C
  8
DEFPOINTS
 62
     0
 10
257.882096689166
 20
6792.478526744466
 30
0.0
  0
ENDBLK
  5
B3
  8
0
  0
BLOCK
  8
0
  2
*D24
 70
     1
 10
0.0
 20
0.0
 30
0.0
  3
*D24
  1

  0
LINE
  5
29D
  8
SAKUZU
 62
     0
 10
-364.6178727932565
 20
6319.478526744466
 30
0.0
 11
-364.6178727932565
 21
5992.478404674153
 31
0.0
  0
LINE
  5
29E
  8
SAKUZU
 62
     0
 10
60.38212720674392
 20
6319.478526744466
 30
0.0
 11
60.38212720674392
 21
5992.478404674153
 31
0.0
  0
LINE
  5
29F
  8
SAKUZU
 62
     0
 10
-364.1171281643503
 20
5992.478404674153
 30
0.0
 11
59.88138257783767
 21
5992.478404674153
 31
0.0
  0
INSERT
  5
2A0
  8
SAKUZU
 62
     0
  2
_DOT
 10
-364.6178727932565
 20
5992.478404674153
 30
0.0
 41
0.5007446289062499
 42
0.5007446289062499
 43
0.5007446289062499
 50
180.0
  0
INSERT
  5
2A1
  8
SAKUZU
 62
     0
  2
_DOT
 10
60.38212720674392
 20
5992.478404674153
 30
0.0
 41
0.5007446289062499
 42
0.5007446289062499
 43
0.5007446289062499
  0
TEXT
  5
2A2
  8
SAKUZU
  6
CONTINUOUS
 62
     0
 10
-197.4867895907446
 20
5992.678404673408
 30
0.0
 40
31.75824175824177
  1
425
  7
YUGOTHIC_MEDIUM
  0
POINT
  5
2A3
  8
DEFPOINTS
 62
     0
 10
-364.6178727932565
 20
6322.478526744466
 30
0.0
  0
POINT
  5
2A4
  8
DEFPOINTS
 62
     0
 10
60.38212720674392
 20
6322.478526744466
 30
0.0
  0
POINT
  5
2A5
  8
DEFPOINTS
 62
     0
 10
60.38212720674392
 20
5992.478404674153
 30
0.0
  0
ENDBLK
  5
B6
  8
0
  0
BLOCK
  8
0
  2
*D25
 70
     1
 10
0.0
 20
0.0
 30
0.0
  3
*D25
  1

  0
LINE
  5
2A6
  8
SAKUZU
 62
     0
 10
297.8820966891652
 20
3623.556961531397
 30
0.0
 11
297.8820966891652
 21
3820.556961531397
 31
0.0
  0
LINE
  5
2A7
  8
SAKUZU
 62
     0
 10
-602.1178422756784
 20
3623.556961531397
 30
0.0
 11
-602.1178422756784
 21
3820.556961531397
 31
0.0
  0
LINE
  5
2A8
  8
SAKUZU
 62
     0
 10
297.381352060259
 20
3820.556961531397
 30
0.0
 11
-601.6170976467722
 21
3820.556961531397
 31
0.0
  0
INSERT
  5
2A9
  8
SAKUZU
 62
     0
  2
_DOT
 10
297.8820966891652
 20
3820.556961531397
 30
0.0
 41
0.5007446289062499
 42
0.5007446289062499
 43
0.5007446289062499
  0
INSERT
  5
2AA
  8
SAKUZU
 62
     0
  2
_DOT
 10
-602.1178422756784
 20
3820.556961531397
 30
0.0
 41
0.5007446289062499
 42
0.5007446289062499
 43
0.5007446289062499
 50
180.0
  0
TEXT
  5
2AB
  8
SAKUZU
  6
CONTINUOUS
 62
     0
 10
-264.7840161736857
 20
3820.756961530652
 30
0.0
 40
31.75824175824177
  1
899.9999
  7
YUGOTHIC_MEDIUM
  0
POINT
  5
2AC
  8
DEFPOINTS
 62
     0
 10
297.8820966891652
 20
3620.556961531397
 30
0.0
  0
POINT
  5
2AD
  8
DEFPOINTS
 62
     0
 10
-602.1178422756784
 20
3620.556961531397
 30
0.0
  0
POINT
  5
2AE
  8
DEFPOINTS
 62
     0
 10
-602.1178422756784
 20
3820.556961531397
 30
0.0
  0
ENDBLK
  5
B9
  8
0
  0
BLOCK
  8
0
  2
*D26
 70
     1
 10
0.0
 20
0.0
 30
0.0
  3
*D26
  1

  0
LINE
  5
2AF
  8
SAKUZU
 62
     0
 10
-562.1178422756784
 20
3623.556961531397
 30
0.0
 11
-562.1178422756784
 21
3720.556961531397
 31
0.0
  0
LINE
  5
2B0
  8
SAKUZU
 62
     0
 10
-602.1178422756784
 20
3623.556961531397
 30
0.0
 11
-602.1178422756784
 21
3720.556961531397
 31
0.0
  0
LINE
  5
2B1
  8
SAKUZU
 62
     0
 10
-562.1178422756784
 20
3720.556961531397
 30
0.0
 11
-602.1178422756784
 21
3720.556961531397
 31
0.0
  0
LINE
  5
2B2
  8
SAKUZU
 62
     0
 10
-561.6170976467722
 20
3720.556961531397
 30
0.0
 11
-561.116353017866
 21
3720.556961531397
 31
0.0
  0
LINE
  5
2B3
  8
SAKUZU
 62
     0
 10
-602.6185869045846
 20
3720.556961531397
 30
0.0
 11
-603.1193315334908
 21
3720.556961531397
 31
0.0
  0
INSERT
  5
2B4
  8
SAKUZU
 62
     0
  2
_DOT
 10
-562.1178422756784
 20
3720.556961531397
 30
0.0
 41
0.5007446289062499
 42
0.5007446289062499
 43
0.5007446289062499
 50
180.0
  0
INSERT
  5
2B5
  8
SAKUZU
 62
     0
  2
_DOT
 10
-602.1178422756784
 20
3720.556961531397
 30
0.0
 41
0.5007446289062499
 42
0.5007446289062499
 43
0.5007446289062499
  0
TEXT
  5
2B6
  8
SAKUZU
  6
CONTINUOUS
 62
     0
 10
-612.3637868073372
 20
3720.756961530652
 30
0.0
 40
31.75824175824177
  1
40
  7
YUGOTHIC_MEDIUM
  0
POINT
  5
2B7
  8
DEFPOINTS
 62
     0
 10
-562.1178422756784
 20
3620.556961531397
 30
0.0
  0
POINT
  5
6F7
  8
DEFPOINTS
 62
     0
 10
-602.1178422756784
 20
3620.556961531397
 30
0.0
  0
POINT
  5
6F8
  8
DEFPOINTS
 62
     0
 10
-602.1178422756784
 20
3720.556961531397
 30
0.0
  0
ENDBLK
  5
BC
  8
0
  0
BLOCK
  8
0
  2
*D27
 70
     1
 10
0.0
 20
0.0
 30
0.0
  3
*D27
  1

  0
LINE
  5
2B8
  8
SAKUZU
 62
     0
 10
-167.1178727932565
 20
3623.556961531397
 30
0.0
 11
-167.1178727932565
 21
3720.556961531397
 31
0.0
  0
LINE
  5
2B9
  8
SAKUZU
 62
     0
 10
-562.1178422756784
 20
3623.556961531397
 30
0.0
 11
-562.1178422756784
 21
3720.556961531397
 31
0.0
  0
LINE
  5
2BA
  8
SAKUZU
 62
     0
 10
-167.6186174221628
 20
3720.556961531397
 30
0.0
 11
-561.6170976467722
 21
3720.556961531397
 31
0.0
  0
INSERT
  5
2BB
  8
SAKUZU
 62
     0
  2
_DOT
 10
-167.1178727932565
 20
3720.556961531397
 30
0.0
 41
0.5007446289062499
 42
0.5007446289062499
 43
0.5007446289062499
  0
INSERT
  5
2BC
  8
SAKUZU
 62
     0
  2
_DOT
 10
-562.1178422756784
 20
3720.556961531397
 30
0.0
 41
0.5007446289062499
 42
0.5007446289062499
 43
0.5007446289062499
 50
180.0
  0
TEXT
  5
2BD
  8
SAKUZU
  6
CONTINUOUS
 62
     0
 10
-409.9867743319557
 20
3720.756961530652
 30
0.0
 40
31.75824175824177
  1
395
  7
YUGOTHIC_MEDIUM
  0
POINT
  5
2BE
  8
DEFPOINTS
 62
     0
 10
-167.1178727932565
 20
3620.556961531397
 30
0.0
  0
POINT
  5
2BF
  8
DEFPOINTS
 62
     0
 10
-562.1178422756784
 20
3620.556961531397
 30
0.0
  0
POINT
  5
2C0
  8
DEFPOINTS
 62
     0
 10
-562.1178422756784
 20
3720.556961531397
 30
0.0
  0
ENDBLK
  5
BF
  8
0
  0
BLOCK
  8
0
  2
*D28
 70
     1
 10
0.0
 20
0.0
 30
0.0
  3
*D28
  1

  0
LINE
  5
2C1
  8
SAKUZU
 62
     0
 10
297.8820966891652
 20
3623.556961531397
 30
0.0
 11
297.8820966891652
 21
3720.556961531397
 31
0.0
  0
LINE
  5
2C2
  8
SAKUZU
 62
     0
 10
257.8820966891652
 20
3623.556961531397
 30
0.0
 11
257.8820966891652
 21
3720.556961531397
 31
0.0
  0
LINE
  5
2C3
  8
SAKUZU
 62
     0
 10
297.8820966891652
 20
3720.556961531397
 30
0.0
 11
257.8820966891652
 21
3720.556961531397
 31
0.0
  0
LINE
  5
2C4
  8
SAKUZU
 62
     0
 10
298.3828413180715
 20
3720.556961531397
 30
0.0
 11
298.8835859469777
 21
3720.556961531397
 31
0.0
  0
LINE
  5
2C5
  8
SAKUZU
 62
     0
 10
257.381352060259
 20
3720.556961531397
 30
0.0
 11
256.8806074313527
 21
3720.556961531397
 31
0.0
  0
INSERT
  5
2C6
  8
SAKUZU
 62
     0
  2
_DOT
 10
297.8820966891652
 20
3720.556961531397
 30
0.0
 41
0.5007446289062499
 42
0.5007446289062499
 43
0.5007446289062499
 50
180.0
  0
INSERT
  5
2C7
  8
SAKUZU
 62
     0
  2
_DOT
 10
257.8820966891652
 20
3720.556961531397
 30
0.0
 41
0.5007446289062499
 42
0.5007446289062499
 43
0.5007446289062499
  0
TEXT
  5
2C8
  8
SAKUZU
  6
CONTINUOUS
 62
     0
 10
247.6361521575064
 20
3720.756961530652
 30
0.0
 40
31.75824175824177
  1
40
  7
YUGOTHIC_MEDIUM
  0
POINT
  5
2C9
  8
DEFPOINTS
 62
     0
 10
297.8820966891652
 20
3620.556961531397
 30
0.0
  0
POINT
  5
6FB
  8
DEFPOINTS
 62
     0
 10
257.8820966891652
 20
3620.556961531397
 30
0.0
  0
POINT
  5
6FC
  8
DEFPOINTS
 62
     0
 10
257.8820966891652
 20
3720.556961531397
 30
0.0
  0
ENDBLK
  5
C2
  8
0
  0
BLOCK
  8
0
  2
*D29
 70
     1
 10
0.0
 20
0.0
 30
0.0
  3
*D29
  1

  0
LINE
  5
2CA
  8
SAKUZU
 62
     0
 10
300.8820966891652
 20
3020.556839461085
 30
0.0
 11
497.8820966891653
 21
3020.556839461085
 31
0.0
  0
LINE
  5
2CB
  8
SAKUZU
 62
     0
 10
300.8820966891652
 20
3620.556961531397
 30
0.0
 11
497.8820966891652
 21
3620.556961531397
 31
0.0
  0
LINE
  5
2CC
  8
SAKUZU
 62
     0
 10
497.8820966891653
 20
3021.057584089991
 30
0.0
 11
497.8820966891652
 21
3620.056216902491
 31
0.0
  0
INSERT
  5
2CD
  8
SAKUZU
 62
     0
  2
_DOT
 10
497.8820966891653
 20
3020.556839461085
 30
0.0
 41
0.5007446289062499
 42
0.5007446289062499
 43
0.5007446289062499
 50
270.0
  0
INSERT
  5
2CE
  8
SAKUZU
 62
     0
  2
_DOT
 10
497.8820966891652
 20
3620.556961531397
 30
0.0
 41
0.5007446289062499
 42
0.5007446289062499
 43
0.5007446289062499
 50
90.0
  0
TEXT
  5
2CF
  8
SAKUZU
  6
CONTINUOUS
 62
     0
 10
497.6820966899104
 20
3210.915351568978
 30
0.0
 40
31.75824175824177
  1
600.0001
 50
90.0
  7
YUGOTHIC_MEDIUM
  0
POINT
  5
2D0
  8
DEFPOINTS
 62
     0
 10
297.8820966891652
 20
3020.556839461085
 30
0.0
  0
POINT
  5
2D1
  8
DEFPOINTS
 62
     0
 10
297.8820966891652
 20
3620.556961531397
 30
0.0
  0
POINT
  5
2D2
  8
DEFPOINTS
 62
     0
 10
497.8820966891652
 20
3620.556961531397
 30
0.0
  0
ENDBLK
  5
C5
  8
0
  0
BLOCK
  8
0
  2
*D30
 70
     1
 10
0.0
 20
0.0
 30
0.0
  3
*D30
  1

  0
LINE
  5
2D3
  8
SAKUZU
 62
     0
 10
300.8820966891652
 20
3560.556961531397
 30
0.0
 11
397.8820966891652
 21
3560.556961531397
 31
0.0
  0
LINE
  5
2D4
  8
SAKUZU
 62
     0
 10
300.8820966891652
 20
3620.556961531397
 30
0.0
 11
397.8820966891652
 21
3620.556961531397
 31
0.0
  0
LINE
  5
2D5
  8
SAKUZU
 62
     0
 10
397.8820966891652
 20
3561.057706160303
 30
0.0
 11
397.8820966891652
 21
3620.056216902491
 31
0.0
  0
INSERT
  5
2D6
  8
SAKUZU
 62
     0
  2
_DOT
 10
397.8820966891652
 20
3560.556961531397
 30
0.0
 41
0.5007446289062499
 42
0.5007446289062499
 43
0.5007446289062499
 50
270.0
  0
INSERT
  5
2D7
  8
SAKUZU
 62
     0
  2
_DOT
 10
397.8820966891652
 20
3620.556961531397
 30
0.0
 41
0.5007446289062499
 42
0.5007446289062499
 43
0.5007446289062499
 50
90.0
  0
TEXT
  5
2D8
  8
SAKUZU
  6
CONTINUOUS
 62
     0
 10
397.6820966899104
 20
3559.554868386447
 30
0.0
 40
31.75824175824177
  1
60
 50
90.0
  7
YUGOTHIC_MEDIUM
  0
POINT
  5
2D9
  8
DEFPOINTS
 62
     0
 10
297.8820966891652
 20
3560.556961531397
 30
0.0
  0
POINT
  5
2DA
  8
DEFPOINTS
 62
     0
 10
297.8820966891652
 20
3620.556961531397
 30
0.0
  0
POINT
  5
2DB
  8
DEFPOINTS
 62
     0
 10
397.8820966891652
 20
3620.556961531397
 30
0.0
  0
ENDBLK
  5
C8
  8
0
  0
BLOCK
  8
0
  2
*D31
 70
     1
 10
0.0
 20
0.0
 30
0.0
  3
*D31
  1

  0
LINE
  5
2DC
  8
SAKUZU
 62
     0
 10
300.8820966891652
 20
3060.556839461085
 30
0.0
 11
397.8820966891652
 21
3060.556839461085
 31
0.0
  0
LINE
  5
2DD
  8
SAKUZU
 62
     0
 10
300.8820966891652
 20
3520.556961531397
 30
0.0
 11
397.8820966891652
 21
3520.556961531397
 31
0.0
  0
LINE
  5
2DE
  8
SAKUZU
 62
     0
 10
397.8820966891652
 20
3061.057584089991
 30
0.0
 11
397.8820966891652
 21
3520.056216902491
 31
0.0
  0
INSERT
  5
2DF
  8
SAKUZU
 62
     0
  2
_DOT
 10
397.8820966891652
 20
3060.556839461085
 30
0.0
 41
0.5007446289062499
 42
0.5007446289062499
 43
0.5007446289062499
 50
270.0
  0
INSERT
  5
2E0
  8
SAKUZU
 62
     0
  2
_DOT
 10
397.8820966891652
 20
3520.556961531397
 30
0.0
 41
0.5007446289062499
 42
0.5007446289062499
 43
0.5007446289062499
 50
90.0
  0
TEXT
  5
2E1
  8
SAKUZU
  6
CONTINUOUS
 62
     0
 10
397.6820966899104
 20
3181.671500182269
 30
0.0
 40
31.75824175824177
  1
460.0001
 50
90.0
  7
YUGOTHIC_MEDIUM
  0
POINT
  5
2E2
  8
DEFPOINTS
 62
     0
 10
297.8820966891652
 20
3060.556839461085
 30
0.0
  0
POINT
  5
2E3
  8
DEFPOINTS
 62
     0
 10
297.8820966891652
 20
3520.556961531397
 30
0.0
  0
POINT
  5
2E4
  8
DEFPOINTS
 62
     0
 10
397.8820966891652
 20
3520.556961531397
 30
0.0
  0
ENDBLK
  5
CB
  8
0
  0
BLOCK
  8
0
  2
*D32
 70
     1
 10
0.0
 20
0.0
 30
0.0
  3
*D32
  1

  0
LINE
  5
2E5
  8
SAKUZU
 62
     0
 10
300.8820966891652
 20
3020.556839461085
 30
0.0
 11
397.8820966891652
 21
3020.556839461085
 31
0.0
  0
LINE
  5
2E6
  8
SAKUZU
 62
     0
 10
300.8820966891652
 20
3060.556839461085
 30
0.0
 11
397.8820966891652
 21
3060.556839461085
 31
0.0
  0
LINE
  5
2E7
  8
SAKUZU
 62
     0
 10
397.8820966891652
 20
3020.556839461085
 30
0.0
 11
397.8820966891652
 21
3060.556839461085
 31
0.0
  0
LINE
  5
2E8
  8
SAKUZU
 62
     0
 10
397.8820966891652
 20
3020.056094832178
 30
0.0
 11
397.8820966891652
 21
3019.555350203272
 31
0.0
  0
LINE
  5
2E9
  8
SAKUZU
 62
     0
 10
397.8820966891652
 20
3061.057584089991
 30
0.0
 11
397.8820966891652
 21
3061.558328718897
 31
0.0
  0
INSERT
  5
2EA
  8
SAKUZU
 62
     0
  2
_DOT
 10
397.8820966891652
 20
3020.556839461085
 30
0.0
 41
0.5007446289062499
 42
0.5007446289062499
 43
0.5007446289062499
 50
90.0
  0
INSERT
  5
2EB
  8
SAKUZU
 62
     0
  2
_DOT
 10
397.8820966891652
 20
3060.556839461085
 30
0.0
 41
0.5007446289062499
 42
0.5007446289062499
 43
0.5007446289062499
 50
270.0
  0
TEXT
  5
2EC
  8
SAKUZU
  6
CONTINUOUS
 62
     0
 10
397.6820966899104
 20
3010.310894929426
 30
0.0
 40
31.75824175824177
  1
40
 50
90.0
  7
YUGOTHIC_MEDIUM
  0
POINT
  5
2ED
  8
DEFPOINTS
 62
     0
 10
297.8820966891652
 20
3020.556839461085
 30
0.0
  0
POINT
  5
701
  8
DEFPOINTS
 62
     0
 10
297.8820966891652
 20
3060.556839461085
 30
0.0
  0
POINT
  5
702
  8
DEFPOINTS
 62
     0
 10
397.8820966891652
 20
3060.556839461085
 30
0.0
  0
ENDBLK
  5
CE
  8
0
  0
BLOCK
  8
0
  2
*D33
 70
     1
 10
0.0
 20
0.0
 30
0.0
  3
*D33
  1

  0
LINE
  5
2EE
  8
SAKUZU
 62
     0
 10
-364.6178727932568
 20
3247.556961531397
 30
0.0
 11
-364.6178727932568
 21
2920.556839461085
 31
0.0
  0
LINE
  5
2EF
  8
SAKUZU
 62
     0
 10
-602.1178422756784
 20
3017.556839461085
 30
0.0
 11
-602.1178422756784
 21
2920.556839461085
 31
0.0
  0
LINE
  5
2F0
  8
SAKUZU
 62
     0
 10
-365.118617422163
 20
2920.556839461085
 30
0.0
 11
-601.6170976467722
 21
2920.556839461085
 31
0.0
  0
INSERT
  5
2F1
  8
SAKUZU
 62
     0
  2
_DOT
 10
-364.6178727932568
 20
2920.556839461085
 30
0.0
 41
0.5007446289062499
 42
0.5007446289062499
 43
0.5007446289062499
  0
INSERT
  5
2F2
  8
SAKUZU
 62
     0
  2
_DOT
 10
-602.1178422756784
 20
2920.556839461085
 30
0.0
 41
0.5007446289062499
 42
0.5007446289062499
 43
0.5007446289062499
 50
180.0
  0
TEXT
  5
2F3
  8
SAKUZU
  6
CONTINUOUS
 62
     0
 10
-551.4212327306999
 20
2920.75683946034
 30
0.0
 40
31.75824175824177
  1
237.5
  7
YUGOTHIC_MEDIUM
  0
POINT
  5
2F4
  8
DEFPOINTS
 62
     0
 10
-364.6178727932568
 20
3250.556961531397
 30
0.0
  0
POINT
  5
2F5
  8
DEFPOINTS
 62
     0
 10
-602.1178422756784
 20
3020.556839461085
 30
0.0
  0
POINT
  5
2F6
  8
DEFPOINTS
 62
     0
 10
-602.1178422756784
 20
2920.556839461085
 30
0.0
  0
ENDBLK
  5
D1
  8
0
  0
BLOCK
  8
0
  2
*D34
 70
     1
 10
0.0
 20
0.0
 30
0.0
  3
*D34
  1

  0
LINE
  5
2F7
  8
SAKUZU
 62
     0
 10
297.8820966891652
 20
3017.556839461085
 30
0.0
 11
297.8820966891652
 21
2920.556839461085
 31
0.0
  0
LINE
  5
2F8
  8
SAKUZU
 62
     0
 10
60.38212720674335
 20
3247.556961531397
 30
0.0
 11
60.38212720674335
 21
2920.556839461085
 31
0.0
  0
LINE
  5
2F9
  8
SAKUZU
 62
     0
 10
297.381352060259
 20
2920.556839461085
 30
0.0
 11
60.8828718356496
 21
2920.556839461085
 31
0.0
  0
INSERT
  5
2FA
  8
SAKUZU
 62
     0
  2
_DOT
 10
297.8820966891652
 20
2920.556839461085
 30
0.0
 41
0.5007446289062499
 42
0.5007446289062499
 43
0.5007446289062499
  0
INSERT
  5
2FB
  8
SAKUZU
 62
     0
  2
_DOT
 10
60.38212720674335
 20
2920.556839461085
 30
0.0
 41
0.5007446289062499
 42
0.5007446289062499
 43
0.5007446289062499
 50
180.0
  0
TEXT
  5
2FC
  8
SAKUZU
  6
CONTINUOUS
 62
     0
 10
111.0787367517219
 20
2920.75683946034
 30
0.0
 40
31.75824175824177
  1
237.5
  7
YUGOTHIC_MEDIUM
  0
POINT
  5
2FD
  8
DEFPOINTS
 62
     0
 10
297.8820966891652
 20
3020.556839461085
 30
0.0
  0
POINT
  5
2FE
  8
DEFPOINTS
 62
     0
 10
60.38212720674335
 20
3250.556961531397
 30
0.0
  0
POINT
  5
2FF
  8
DEFPOINTS
 62
     0
 10
60.38212720674335
 20
2920.556839461085
 30
0.0
  0
ENDBLK
  5
D4
  8
0
  0
BLOCK
  8
0
  2
*D35
 70
     1
 10
0.0
 20
0.0
 30
0.0
  3
*D35
  1

  0
LINE
  5
300
  8
SAKUZU
 62
     0
 10
1369.641967762806
 20
2595.579694741717
 30
0.0
 11
1167.641967762805
 21
2595.579694741717
 31
0.0
  0
LINE
  5
301
  8
SAKUZU
 62
     0
 10
1380.041966427661
 20
1745.579755776873
 30
0.0
 11
1167.641967762805
 21
1745.579755776873
 31
0.0
  0
LINE
  5
302
  8
SAKUZU
 62
     0
 10
1167.641967762805
 20
2595.07895011281
 30
0.0
 11
1167.641967762805
 21
1746.080500405779
 31
0.0
  0
INSERT
  5
303
  8
SAKUZU
 62
     0
  2
_DOT
 10
1167.641967762805
 20
2595.579694741717
 30
0.0
 41
0.5007446289062499
 42
0.5007446289062499
 43
0.5007446289062499
 50
90.0
  0
INSERT
  5
304
  8
SAKUZU
 62
     0
  2
_DOT
 10
1167.641967762805
 20
1745.579755776873
 30
0.0
 41
0.5007446289062499
 42
0.5007446289062499
 43
0.5007446289062499
 50
270.0
  0
TEXT
  5
305
  8
SAKUZU
  6
CONTINUOUS
 62
     0
 10
1167.441967763551
 20
2057.913581878865
 30
0.0
 40
31.75824175824177
  1
849.9999
 50
90.0
  7
YUGOTHIC_MEDIUM
  0
POINT
  5
306
  8
DEFPOINTS
 62
     0
 10
1372.641967762806
 20
2595.579694741717
 30
0.0
  0
POINT
  5
307
  8
DEFPOINTS
 62
     0
 10
1383.041966427661
 20
1745.579755776873
 30
0.0
  0
POINT
  5
308
  8
DEFPOINTS
 62
     0
 10
1167.641967762805
 20
1745.579755776873
 30
0.0
  0
ENDBLK
  5
D7
  8
0
  0
BLOCK
  8
0
  2
*D36
 70
     1
 10
0.0
 20
0.0
 30
0.0
  3
*D36
  1

  0
LINE
  5
309
  8
SAKUZU
 62
     0
 10
1364.641967762806
 20
2555.579694741717
 30
0.0
 11
1267.641967762806
 21
2555.579694741717
 31
0.0
  0
LINE
  5
30A
  8
SAKUZU
 62
     0
 10
1369.641967762806
 20
2595.579694741717
 30
0.0
 11
1267.641967762806
 21
2595.579694741717
 31
0.0
  0
LINE
  5
30B
  8
SAKUZU
 62
     0
 10
1267.641967762806
 20
2555.579694741717
 30
0.0
 11
1267.641967762806
 21
2595.579694741717
 31
0.0
  0
LINE
  5
30C
  8
SAKUZU
 62
     0
 10
1267.641967762806
 20
2555.07895011281
 30
0.0
 11
1267.641967762806
 21
2554.578205483904
 31
0.0
  0
LINE
  5
30D
  8
SAKUZU
 62
     0
 10
1267.641967762806
 20
2596.080439370623
 30
0.0
 11
1267.641967762806
 21
2596.581183999529
 31
0.0
  0
INSERT
  5
30E
  8
SAKUZU
 62
     0
  2
_DOT
 10
1267.641967762806
 20
2555.579694741717
 30
0.0
 41
0.5007446289062499
 42
0.5007446289062499
 43
0.5007446289062499
 50
90.0
  0
INSERT
  5
30F
  8
SAKUZU
 62
     0
  2
_DOT
 10
1267.641967762806
 20
2595.579694741717
 30
0.0
 41
0.5007446289062499
 42
0.5007446289062499
 43
0.5007446289062499
 50
270.0
  0
TEXT
  5
310
  8
SAKUZU
  6
CONTINUOUS
 62
     0
 10
1267.441967763551
 20
2545.333750210058
 30
0.0
 40
31.75824175824177
  1
40
 50
90.0
  7
YUGOTHIC_MEDIUM
  0
POINT
  5
311
  8
DEFPOINTS
 62
     0
 10
1367.641967762806
 20
2555.579694741717
 30
0.0
  0
POINT
  5
707
  8
DEFPOINTS
 62
     0
 10
1372.641967762806
 20
2595.579694741717
 30
0.0
  0
POINT
  5
708
  8
DEFPOINTS
 62
     0
 10
1267.641967762806
 20
2595.579694741717
 30
0.0
  0
ENDBLK
  5
DA
  8
0
  0
BLOCK
  8
0
  2
*D37
 70
     1
 10
0.0
 20
0.0
 30
0.0
  3
*D37
  1

  0
LINE
  5
312
  8
SAKUZU
 62
     0
 10
1373.141967762806
 20
1945.579755776871
 30
0.0
 11
1267.641967762806
 21
1945.579755776871
 31
0.0
  0
LINE
  5
313
  8
SAKUZU
 62
     0
 10
1380.041966427661
 20
1745.579755776873
 30
0.0
 11
1267.641967762806
 21
1745.579755776873
 31
0.0
  0
LINE
  5
314
  8
SAKUZU
 62
     0
 10
1267.641967762806
 20
1945.079011147965
 30
0.0
 11
1267.641967762806
 21
1746.080500405779
 31
0.0
  0
INSERT
  5
315
  8
SAKUZU
 62
     0
  2
_DOT
 10
1267.641967762806
 20
1945.579755776871
 30
0.0
 41
0.5007446289062499
 42
0.5007446289062499
 43
0.5007446289062499
 50
90.0
  0
INSERT
  5
316
  8
SAKUZU
 62
     0
  2
_DOT
 10
1267.641967762806
 20
1745.579755776873
 30
0.0
 41
0.5007446289062499
 42
0.5007446289062499
 43
0.5007446289062499
 50
270.0
  0
TEXT
  5
317
  8
SAKUZU
  6
CONTINUOUS
 62
     0
 10
1267.441967763551
 20
1800.210838979383
 30
0.0
 40
31.75824175824177
  1
200
 50
90.0
  7
YUGOTHIC_MEDIUM
  0
POINT
  5
318
  8
DEFPOINTS
 62
     0
 10
1376.141967762806
 20
1945.579755776871
 30
0.0
  0
POINT
  5
319
  8
DEFPOINTS
 62
     0
 10
1383.041966427661
 20
1745.579755776873
 30
0.0
  0
POINT
  5
31A
  8
DEFPOINTS
 62
     0
 10
1267.641967762806
 20
1745.579755776873
 30
0.0
  0
ENDBLK
  5
DD
  8
0
  0
BLOCK
  8
0
  2
*D38
 70
     1
 10
0.0
 20
0.0
 30
0.0
  3
*D38
  1

  0
LINE
  5
31B
  8
SAKUZU
 62
     0
 10
1722.641967762806
 20
2096.579771035662
 30
0.0
 11
1722.641967762806
 21
1645.579755776873
 31
0.0
  0
LINE
  5
31C
  8
SAKUZU
 62
     0
 10
1967.641967762806
 20
2552.579694741717
 30
0.0
 11
1967.641967762806
 21
1645.579755776873
 31
0.0
  0
LINE
  5
31D
  8
SAKUZU
 62
     0
 10
1723.142712391712
 20
1645.579755776873
 30
0.0
 11
1967.141223133899
 21
1645.579755776873
 31
0.0
  0
INSERT
  5
31E
  8
SAKUZU
 62
     0
  2
_DOT
 10
1722.641967762806
 20
1645.579755776873
 30
0.0
 41
0.5007446289062499
 42
0.5007446289062499
 43
0.5007446289062499
 50
180.0
  0
INSERT
  5
31F
  8
SAKUZU
 62
     0
  2
_DOT
 10
1967.641967762806
 20
1645.579755776873
 30
0.0
 41
0.5007446289062499
 42
0.5007446289062499
 43
0.5007446289062499
  0
TEXT
  5
320
  8
SAKUZU
  6
CONTINUOUS
 62
     0
 10
1799.773050965317
 20
1645.779755776128
 30
0.0
 40
31.75824175824177
  1
245
  7
YUGOTHIC_MEDIUM
  0
POINT
  5
321
  8
DEFPOINTS
 62
     0
 10
1722.641967762806
 20
2099.579771035662
 30
0.0
  0
POINT
  5
322
  8
DEFPOINTS
 62
     0
 10
1967.641967762806
 20
2555.579694741717
 30
0.0
  0
POINT
  5
323
  8
DEFPOINTS
 62
     0
 10
1967.641967762806
 20
1645.579755776873
 30
0.0
  0
ENDBLK
  5
E0
  8
0
  0
BLOCK
  8
0
  2
*D39
 70
     1
 10
0.0
 20
0.0
 30
0.0
  3
*D39
  1

  0
LINE
  5
324
  8
SAKUZU
 62
     0
 10
1910.641967762806
 20
2345.579694741717
 30
0.0
 11
2067.641967762806
 21
2345.579694741717
 31
0.0
  0
LINE
  5
325
  8
SAKUZU
 62
     0
 10
1970.641967762806
 20
2595.579694741717
 30
0.0
 11
2067.641967762806
 21
2595.579694741717
 31
0.0
  0
LINE
  5
326
  8
SAKUZU
 62
     0
 10
2067.641967762806
 20
2346.080439370623
 30
0.0
 11
2067.641967762806
 21
2595.07895011281
 31
0.0
  0
INSERT
  5
327
  8
SAKUZU
 62
     0
  2
_DOT
 10
2067.641967762806
 20
2345.579694741717
 30
0.0
 41
0.5007446289062499
 42
0.5007446289062499
 43
0.5007446289062499
 50
270.0
  0
INSERT
  5
328
  8
SAKUZU
 62
     0
  2
_DOT
 10
2067.641967762806
 20
2595.579694741717
 30
0.0
 41
0.5007446289062499
 42
0.5007446289062499
 43
0.5007446289062499
 50
90.0
  0
TEXT
  5
329
  8
SAKUZU
  6
CONTINUOUS
 62
     0
 10
2067.441967763551
 20
2425.210777944229
 30
0.0
 40
31.75824175824177
  1
250
 50
90.0
  7
YUGOTHIC_MEDIUM
  0
POINT
  5
32A
  8
DEFPOINTS
 62
     0
 10
1907.641967762806
 20
2345.579694741717
 30
0.0
  0
POINT
  5
32B
  8
DEFPOINTS
 62
     0
 10
1967.641967762806
 20
2595.579694741717
 30
0.0
  0
POINT
  5
32C
  8
DEFPOINTS
 62
     0
 10
2067.641967762806
 20
2595.579694741717
 30
0.0
  0
ENDBLK
  5
E3
  8
0
  0
BLOCK
  8
0
  2
*D40
 70
     1
 10
0.0
 20
0.0
 30
0.0
  3
*D40
  1

  0
LINE
  5
32D
  8
SAKUZU
 62
     0
 10
-137.1178727932565
 20
3623.556961531397
 30
0.0
 11
-137.1178727932565
 21
3720.556961531397
 31
0.0
  0
LINE
  5
32E
  8
SAKUZU
 62
     0
 10
-167.1178727932565
 20
3623.556961531397
 30
0.0
 11
-167.1178727932565
 21
3720.556961531397
 31
0.0
  0
LINE
  5
32F
  8
SAKUZU
 62
     0
 10
-137.1178727932565
 20
3720.556961531397
 30
0.0
 11
-167.1178727932565
 21
3720.556961531397
 31
0.0
  0
LINE
  5
330
  8
SAKUZU
 62
     0
 10
-136.6171281643503
 20
3720.556961531397
 30
0.0
 11
-136.116383535444
 21
3720.556961531397
 31
0.0
  0
LINE
  5
331
  8
SAKUZU
 62
     0
 10
-167.6186174221628
 20
3720.556961531397
 30
0.0
 11
-168.1193620510691
 21
3720.556961531397
 31
0.0
  0
INSERT
  5
332
  8
SAKUZU
 62
     0
  2
_DOT
 10
-137.1178727932565
 20
3720.556961531397
 30
0.0
 41
0.5007446289062499
 42
0.5007446289062499
 43
0.5007446289062499
 50
180.0
  0
INSERT
  5
333
  8
SAKUZU
 62
     0
  2
_DOT
 10
-167.1178727932565
 20
3720.556961531397
 30
0.0
 41
0.5007446289062499
 42
0.5007446289062499
 43
0.5007446289062499
  0
TEXT
  5
334
  8
SAKUZU
  6
CONTINUOUS
 62
     0
 10
-182.3638173249154
 20
3720.756961530652
 30
0.0
 40
31.75824175824177
  1
30
  7
YUGOTHIC_MEDIUM
  0
POINT
  5
335
  8
DEFPOINTS
 62
     0
 10
-137.1178727932565
 20
3620.556961531397
 30
0.0
  0
POINT
  5
7B2
  8
DEFPOINTS
 62
     0
 10
-167.1178727932565
 20
3620.556961531397
 30
0.0
  0
POINT
  5
7B3
  8
DEFPOINTS
 62
     0
 10
-167.1178727932565
 20
3720.556961531397
 30
0.0
  0
ENDBLK
  5
E6
  8
0
  0
BLOCK
  8
0
  2
*D41
 70
     1
 10
0.0
 20
0.0
 30
0.0
  3
*D41
  1

  0
LINE
  5
336
  8
SAKUZU
 62
     0
 10
-137.1178727932565
 20
3623.556961531397
 30
0.0
 11
-137.1178727932565
 21
3720.556961531397
 31
0.0
  0
LINE
  5
337
  8
SAKUZU
 62
     0
 10
257.8820966891652
 20
3623.556961531397
 30
0.0
 11
257.8820966891652
 21
3720.556961531397
 31
0.0
  0
LINE
  5
338
  8
SAKUZU
 62
     0
 10
-136.6171281643503
 20
3720.556961531397
 30
0.0
 11
257.381352060259
 21
3720.556961531397
 31
0.0
  0
INSERT
  5
339
  8
SAKUZU
 62
     0
  2
_DOT
 10
-137.1178727932565
 20
3720.556961531397
 30
0.0
 41
0.5007446289062499
 42
0.5007446289062499
 43
0.5007446289062499
 50
180.0
  0
INSERT
  5
33A
  8
SAKUZU
 62
     0
  2
_DOT
 10
257.8820966891652
 20
3720.556961531397
 30
0.0
 41
0.5007446289062499
 42
0.5007446289062499
 43
0.5007446289062499
  0
TEXT
  5
33B
  8
SAKUZU
  6
CONTINUOUS
 62
     0
 10
15.01319515046611
 20
3720.756961530652
 30
0.0
 40
31.75824175824177
  1
395
  7
YUGOTHIC_MEDIUM
  0
POINT
  5
33C
  8
DEFPOINTS
 62
     0
 10
-137.1178727932565
 20
3620.556961531397
 30
0.0
  0
POINT
  5
33D
  8
DEFPOINTS
 62
     0
 10
257.8820966891652
 20
3620.556961531397
 30
0.0
  0
POINT
  5
33E
  8
DEFPOINTS
 62
     0
 10
257.8820966891652
 20
3720.556961531397
 30
0.0
  0
ENDBLK
  5
E9
  8
0
  0
BLOCK
  8
0
  2
*D42
 70
     1
 10
0.0
 20
0.0
 30
0.0
  3
*D42
  1

  0
LINE
  5
33F
  8
SAKUZU
 62
     0
 10
-364.6178727932565
 20
3247.556961531397
 30
0.0
 11
-364.6178727932565
 21
2920.556839461085
 31
0.0
  0
LINE
  5
340
  8
SAKUZU
 62
     0
 10
60.38212720674335
 20
3247.556961531397
 30
0.0
 11
60.38212720674335
 21
2920.556839461085
 31
0.0
  0
LINE
  5
341
  8
SAKUZU
 62
     0
 10
-364.1171281643503
 20
2920.556839461085
 30
0.0
 11
59.8813825778371
 21
2920.556839461085
 31
0.0
  0
INSERT
  5
342
  8
SAKUZU
 62
     0
  2
_DOT
 10
-364.6178727932565
 20
2920.556839461085
 30
0.0
 41
0.5007446289062499
 42
0.5007446289062499
 43
0.5007446289062499
 50
180.0
  0
INSERT
  5
343
  8
SAKUZU
 62
     0
  2
_DOT
 10
60.38212720674335
 20
2920.556839461085
 30
0.0
 41
0.5007446289062499
 42
0.5007446289062499
 43
0.5007446289062499
  0
TEXT
  5
344
  8
SAKUZU
  6
CONTINUOUS
 62
     0
 10
-197.4867895907448
 20
2920.75683946034
 30
0.0
 40
31.75824175824177
  1
425
  7
YUGOTHIC_MEDIUM
  0
POINT
  5
345
  8
DEFPOINTS
 62
     0
 10
-364.6178727932565
 20
3250.556961531397
 30
0.0
  0
POINT
  5
346
  8
DEFPOINTS
 62
     0
 10
60.38212720674335
 20
3250.556961531397
 30
0.0
  0
POINT
  5
347
  8
DEFPOINTS
 62
     0
 10
60.38212720674335
 20
2920.556839461085
 30
0.0
  0
ENDBLK
  5
EC
  8
0
  0
BLOCK
  8
0
  2
_DOT
 70
     0
 10
0.0
 20
0.0
 30
0.0
  3
_DOT
  1

  0
POLYLINE
  5
1DC
  8
0
  6
BYBLOCK
 62
     0
 66
     1
 10
0.0
 20
0.0
 30
0.0
 70
     1
 40
0.5
 41
0.5
  0
VERTEX
  5
80D
  8
0
  6
BYBLOCK
 62
     0
 10
-0.25
 20
0.0
 30
0.0
 42
1.0
  0
VERTEX
  5
80E
  8
0
  6
BYBLOCK
 62
     0
 10
0.25
 20
0.0
 30
0.0
 42
1.0
  0
SEQEND
  5
80F
  8
0
  6
BYBLOCK
 62
     0
  0
LINE
  5
1DD
  8
0
  6
BYBLOCK
 62
     0
 10
-0.5
 20
0.0
 30
0.0
 11
-1.0
 21
0.0
 31
0.0
  0
ENDBLK
  5
1DB
  8
0
  0
ENDSEC
  0
SECTION
  2
ENTITIES
  0
TEXT
  5
348
  8
SAKUZU
 62
     1
 10
763.623947812184
 20
85.98294040917372
 30
0.0
 40
2.124016203703704
  1
付属品
  7
YUGOTHIC_MEDIUM
 72
     1
 11
766.3548257883746
 21
85.98294040917372
 31
0.0
  0
POLYLINE
  5
349
  8
020
  6
CONTINUOUS
 62
     1
 66
     1
 10
0.0
 20
0.0
 30
0.0
 70
   129
  0
VERTEX
  5
34A
  8
020
  6
CONTINUOUS
 62
     1
 10
749.9048257883746
 20
89.65538485361819
 30
0.0
  0
VERTEX
  5
34B
  8
020
  6
CONTINUOUS
 62
     1
 10
782.8048257883746
 20
89.65538485361819
 30
0.0
  0
VERTEX
  5
34C
  8
020
  6
CONTINUOUS
 62
     1
 10
782.8048257883746
 20
84.45538485361814
 30
0.0
  0
VERTEX
  5
34D
  8
020
  6
CONTINUOUS
 62
     1
 10
749.9048257883746
 20
84.45538485361814
 30
0.0
  0
SEQEND
  5
34E
  8
020
  6
CONTINUOUS
 62
     1
  0
POLYLINE
  5
34F
  8
020
  6
CONTINUOUS
 62
     1
 66
     1
 10
0.0
 20
0.0
 30
0.0
 70
   129
  0
VERTEX
  5
350
  8
020
  6
CONTINUOUS
 62
     1
 10
782.8048257883746
 20
89.65538485361819
 30
0.0
  0
VERTEX
  5
351
  8
020
  6
CONTINUOUS
 62
     1
 10
846.5048257883745
 20
89.65538485361819
 30
0.0
  0
VERTEX
  5
352
  8
020
  6
CONTINUOUS
 62
     1
 10
846.5048257883745
 20
84.45538485361814
 30
0.0
  0
VERTEX
  5
353
  8
020
  6
CONTINUOUS
 62
     1
 10
782.8048257883746
 20
84.45538485361814
 30
0.0
  0
SEQEND
  5
354
  8
020
  6
CONTINUOUS
 62
     1
  0
TEXT
  5
355
  8
LAYER0002
 62
     1
 10
792.0770480105969
 20
85.98294040917372
 30
0.0
 40
2.124016203703704
  1
５０Ａ排水ホース　０．８ｍ　×2
  7
YUGOTHIC_MEDIUM
  0
TEXT
  5
356
  8
SAKUZU
 62
     1
 10
762.7136551534539
 20
80.78294040917368
 30
0.0
 40
2.124016203703704
  1
製品重量
  7
YUGOTHIC_MEDIUM
 72
     1
 11
766.3548257883746
 21
80.78294040917368
 31
0.0
  0
POLYLINE
  5
357
  8
020
  6
CONTINUOUS
 62
     1
 66
     1
 10
0.0
 20
0.0
 30
0.0
 70
   129
  0
VERTEX
  5
358
  8
020
  6
CONTINUOUS
 62
     1
 10
749.9048257883746
 20
84.45538485361814
 30
0.0
  0
VERTEX
  5
359
  8
020
  6
CONTINUOUS
 62
     1
 10
782.8048257883746
 20
84.45538485361814
 30
0.0
  0
VERTEX
  5
35A
  8
020
  6
CONTINUOUS
 62
     1
 10
782.8048257883746
 20
79.2553848536181
 30
0.0
  0
VERTEX
  5
35B
  8
020
  6
CONTINUOUS
 62
     1
 10
749.9048257883746
 20
79.2553848536181
 30
0.0
  0
SEQEND
  5
35C
  8
020
  6
CONTINUOUS
 62
     1
  0
POLYLINE
  5
35D
  8
020
  6
CONTINUOUS
 62
     1
 66
     1
 10
0.0
 20
0.0
 30
0.0
 70
   129
  0
VERTEX
  5
35E
  8
020
  6
CONTINUOUS
 62
     1
 10
782.8048257883746
 20
84.45538485361814
 30
0.0
  0
VERTEX
  5
35F
  8
020
  6
CONTINUOUS
 62
     1
 10
846.5048257883745
 20
84.45538485361814
 30
0.0
  0
VERTEX
  5
360
  8
020
  6
CONTINUOUS
 62
     1
 10
846.5048257883745
 20
79.2553848536181
 30
0.0
  0
VERTEX
  5
361
  8
020
  6
CONTINUOUS
 62
     1
 10
782.8048257883746
 20
79.2553848536181
 30
0.0
  0
SEQEND
  5
362
  8
020
  6
CONTINUOUS
 62
     1
  0
TEXT
  5
363
  8
LAYER0002
 62
     1
 10
809.3447852791154
 20
80.6664959647292
 30
0.0
 40
2.124016203703704
  1
26.1kg
  7
YUGOTHIC_MEDIUM
 72
     1
 11
814.6548257883746
 21
80.6664959647292
 31
0.0
  0
INSERT
  5
364
  8
__-3
 62
    17
  2
____-2-1
 10
711.2328257883746
 20
-148.5000416295412
 30
0.0
  0
INSERT
  5
365
  8
__-3
 62
    17
  2
____-4-1
 10
711.2328257883746
 20
-148.5000416295412
 30
0.0
  0
POLYLINE
  5
366
  8
020
  6
CONTINUOUS
 62
     1
 66
     1
 10
0.0
 20
0.0
 30
0.0
 70
   129
  0
VERTEX
  5
367
  8
020
  6
CONTINUOUS
 62
     1
 10
749.9048257883746
 20
348.2826074618756
 30
0.0
  0
VERTEX
  5
368
  8
020
  6
CONTINUOUS
 62
     1
 10
760.4027853330043
 20
348.2826074618756
 30
0.0
  0
VERTEX
  5
369
  8
020
  6
CONTINUOUS
 62
     1
 10
760.4027853330043
 20
343.0826074618756
 30
0.0
  0
VERTEX
  5
36A
  8
020
  6
CONTINUOUS
 62
     1
 10
749.9048257883746
 20
343.0826074618756
 30
0.0
  0
SEQEND
  5
36B
  8
020
  6
CONTINUOUS
 62
     1
  0
TEXT
  5
36C
  8
020
 62
     1
 10
753.1544014544509
 20
344.8323852396534
 30
0.0
 40
2.124016203703704
  1
NO
  7
YUGOTHIC_MEDIUM
 11
753.1544014544509
 21
346.9564014433571
 31
0.0
 73
     3
  0
TEXT
  5
36D
  8
020
 62
     1
 10
768.7815833384673
 20
344.8057185729867
 30
0.0
 40
2.124016203703704
  1
名称
  7
YUGOTHIC_MEDIUM
 11
768.7815833384673
 21
346.9297347766905
 31
0.0
 73
     3
  0
POLYLINE
  5
36E
  8
020
  6
CONTINUOUS
 62
     1
 66
     1
 10
0.0
 20
0.0
 30
0.0
 70
   129
  0
VERTEX
  5
36F
  8
020
  6
CONTINUOUS
 62
     1
 10
760.4027853330043
 20
348.2826074618756
 30
0.0
  0
VERTEX
  5
370
  8
020
  6
CONTINUOUS
 62
     1
 10
782.8048257883746
 20
348.2826074618756
 30
0.0
  0
VERTEX
  5
371
  8
020
  6
CONTINUOUS
 62
     1
 10
782.8048257883746
 20
343.0826074618756
 30
0.0
  0
VERTEX
  5
372
  8
020
  6
CONTINUOUS
 62
     1
 10
760.4027853330043
 20
343.0826074618756
 30
0.0
  0
SEQEND
  5
373
  8
020
  6
CONTINUOUS
 62
     1
  0
POLYLINE
  5
374
  8
020
  6
CONTINUOUS
 62
     1
 66
     1
 10
0.0
 20
0.0
 30
0.0
 70
   129
  0
VERTEX
  5
375
  8
020
  6
CONTINUOUS
 62
     1
 10
782.8048257883746
 20
348.2826074618756
 30
0.0
  0
VERTEX
  5
376
  8
020
  6
CONTINUOUS
 62
     1
 10
813.4548257883746
 20
348.2826074618756
 30
0.0
  0
VERTEX
  5
377
  8
020
  6
CONTINUOUS
 62
     1
 10
813.4548257883746
 20
343.0826074618756
 30
0.0
  0
VERTEX
  5
378
  8
020
  6
CONTINUOUS
 62
     1
 10
782.8048257883746
 20
343.0826074618756
 30
0.0
  0
SEQEND
  5
379
  8
020
  6
CONTINUOUS
 62
     1
  0
TEXT
  5
37A
  8
020
 62
     1
 10
795.1437146772635
 20
344.8157185729867
 30
0.0
 40
2.124016203703704
  1
材質
  7
YUGOTHIC_MEDIUM
 11
795.1437146772635
 21
346.9397347766904
 31
0.0
 73
     3
  0
POLYLINE
  5
37B
  8
020
  6
CONTINUOUS
 62
     1
 66
     1
 10
0.0
 20
0.0
 30
0.0
 70
   129
  0
VERTEX
  5
37C
  8
020
  6
CONTINUOUS
 62
     1
 10
749.9048257883746
 20
343.0826074618756
 30
0.0
  0
VERTEX
  5
37D
  8
020
  6
CONTINUOUS
 62
     1
 10
760.4027853330043
 20
343.0826074618756
 30
0.0
  0
VERTEX
  5
37E
  8
020
  6
CONTINUOUS
 62
     1
 10
760.4027853330043
 20
337.8826074618755
 30
0.0
  0
VERTEX
  5
37F
  8
020
  6
CONTINUOUS
 62
     1
 10
749.9048257883746
 20
337.8826074618755
 30
0.0
  0
SEQEND
  5
380
  8
020
  6
CONTINUOUS
 62
     1
  0
POLYLINE
  5
381
  8
020
  6
CONTINUOUS
 62
     1
 66
     1
 10
0.0
 20
0.0
 30
0.0
 70
   129
  0
VERTEX
  5
382
  8
020
  6
CONTINUOUS
 62
     1
 10
760.4027853330043
 20
343.0826074618756
 30
0.0
  0
VERTEX
  5
383
  8
020
  6
CONTINUOUS
 62
     1
 10
782.8048257883746
 20
343.0826074618756
 30
0.0
  0
VERTEX
  5
384
  8
020
  6
CONTINUOUS
 62
     1
 10
782.8048257883746
 20
337.8826074618755
 30
0.0
  0
VERTEX
  5
385
  8
020
  6
CONTINUOUS
 62
     1
 10
760.4027853330043
 20
337.8826074618755
 30
0.0
  0
SEQEND
  5
386
  8
020
  6
CONTINUOUS
 62
     1
  0
POLYLINE
  5
387
  8
020
  6
CONTINUOUS
 62
     1
 66
     1
 10
0.0
 20
0.0
 30
0.0
 70
   129
  0
VERTEX
  5
388
  8
020
  6
CONTINUOUS
 62
     1
 10
782.8048257883746
 20
343.0826074618756
 30
0.0
  0
VERTEX
  5
389
  8
020
  6
CONTINUOUS
 62
     1
 10
813.4548257883746
 20
343.0826074618756
 30
0.0
  0
VERTEX
  5
38A
  8
020
  6
CONTINUOUS
 62
     1
 10
813.4548257883746
 20
337.8826074618755
 30
0.0
  0
VERTEX
  5
38B
  8
020
  6
CONTINUOUS
 62
     1
 10
782.8048257883746
 20
337.8826074618755
 30
0.0
  0
SEQEND
  5
38C
  8
020
  6
CONTINUOUS
 62
     1
  0
TEXT
  5
38D
  8
SAKUZU
 62
     1
 10
765.2317569495783
 20
318.610163017431
 30
0.0
 40
2.124016203703704
  1
オーバーフロー
  7
YUGOTHIC_MEDIUM
 72
     1
 11
771.6038055606895
 21
318.610163017431
 31
0.0
  0
TEXT
  5
38E
  8
SAKUZU
 62
     1
 10
754.2124926742741
 20
318.867813172217
 30
0.0
 40
2.124016203703704
  1
４
  7
YUGOTHIC_MEDIUM
 72
     1
 11
755.1227853330043
 21
318.867813172217
 31
0.0
  0
TEXT
  5
38F
  8
SAKUZU
 62
     1
 10
770.6424926742741
 20
302.8626074618749
 30
0.0
 40
2.124016203703704
  1
脚
  7
YUGOTHIC_MEDIUM
 72
     1
 11
771.5527853330043
 21
302.8626074618749
 31
0.0
  0
TEXT
  5
390
  8
SAKUZU
 62
     1
 10
768.9739478121841
 20
334.2101630174311
 30
0.0
 40
2.124016203703704
  1
化粧板
  7
YUGOTHIC_MEDIUM
 72
     1
 11
771.7048257883746
 21
334.2101630174311
 31
0.0
  0
TEXT
  5
391
  8
SAKUZU
 62
     1
 10
754.2435129019592
 20
334.2101630174311
 30
0.0
 40
2.124016203703704
  1
２
  7
YUGOTHIC_MEDIUM
 72
     1
 11
755.1538055606894
 21
334.2101630174311
 31
0.0
  0
TEXT
  5
392
  8
SAKUZU
 62
     1
 10
754.2435129019592
 20
326.410163017431
 30
0.0
 40
2.124016203703704
  1
３
  7
YUGOTHIC_MEDIUM
 72
     1
 11
755.1538055606894
 21
326.410163017431
 31
0.0
  0
TEXT
  5
393
  8
SAKUZU
 62
     1
 10
754.2435129019592
 20
339.4101630174312
 30
0.0
 40
2.124016203703704
  1
１
  7
YUGOTHIC_MEDIUM
 72
     1
 11
755.1538055606894
 21
339.4101630174312
 31
0.0
  0
TEXT
  5
394
  8
SAKUZU
 62
     1
 10
768.063655153454
 20
325.8212619215423
 30
0.0
 40
2.124016203703704
  1
排水金具
  7
YUGOTHIC_MEDIUM
 72
     1
 11
771.7048257883746
 21
325.8212619215423
 31
0.0
  0
TEXT
  5
395
  8
SAKUZU
 62
     1
 10
764.4224845185333
 20
339.4101630174312
 30
0.0
 40
2.124016203703704
  1
トップ（シンク）
  7
YUGOTHIC_MEDIUM
 72
     1
 11
771.7048257883746
 21
339.4101630174312
 31
0.0
  0
TEXT
  5
396
  8
SAKUZU
 62
     1
 10
792.6680698359936
 20
339.4101630174312
 30
0.0
 40
2.124016203703704
  1
ＳＵＳ４３０
  7
YUGOTHIC_MEDIUM
 72
     1
 11
798.1298257883745
 21
339.4101630174312
 31
0.0
  0
TEXT
  5
397
  8
SAKUZU
 62
     1
 10
767.9626349257688
 20
310.8101630174309
 30
0.0
 40
2.124016203703704
  1
スノコ板
  7
YUGOTHIC_MEDIUM
 72
     1
 11
771.6038055606895
 21
310.8101630174309
 31
0.0
  0
TEXT
  5
398
  8
SAKUZU
 62
     1
 10
754.2435129019592
 20
310.8101630174309
 30
0.0
 40
2.124016203703704
  1
５
  7
YUGOTHIC_MEDIUM
 72
     1
 11
755.1538055606894
 21
310.8101630174309
 31
0.0
  0
TEXT
  5
399
  8
SAKUZU
 62
     1
 10
754.2435129019592
 20
302.9478863284321
 30
0.0
 40
2.124016203703704
  1
６
  7
YUGOTHIC_MEDIUM
 72
     1
 11
755.1538055606894
 21
302.9478863284321
 31
0.0
  0
TEXT
  5
39A
  8
SAKUZU
 62
     1
 10
792.6680698359936
 20
303.0101630174307
 30
0.0
 40
2.124016203703704
  1
ＳＵＳ３０４
  7
YUGOTHIC_MEDIUM
 72
     1
 11
798.1298257883745
 21
303.0101630174307
 31
0.0
  0
TEXT
  5
39B
  8
SAKUZU
 62
     1
 10
767.0523422670386
 20
297.8101630174308
 30
0.0
 40
2.124016203703704
  1
アジャスト
  7
YUGOTHIC_MEDIUM
 72
     1
 11
771.6038055606895
 21
297.8101630174308
 31
0.0
  0
TEXT
  5
39C
  8
SAKUZU
 62
     1
 10
754.2435129019592
 20
297.8101630174308
 30
0.0
 40
2.124016203703704
  1
７
  7
YUGOTHIC_MEDIUM
 72
     1
 11
755.1538055606894
 21
297.8101630174308
 31
0.0
  0
TEXT
  5
39D
  8
SAKUZU
 62
     1
 10
792.6680698359936
 20
297.5915068609241
 30
0.0
 40
2.124016203703704
  1
ＳＵＳ３０４
  7
YUGOTHIC_MEDIUM
 72
     1
 11
798.1298257883745
 21
297.5915068609241
 31
0.0
  0
POLYLINE
  5
39E
  8
020
  6
CONTINUOUS
 62
     1
 66
     1
 10
0.0
 20
0.0
 30
0.0
 70
   129
  0
VERTEX
  5
39F
  8
020
  6
CONTINUOUS
 62
     1
 10
813.4548257883746
 20
348.2826074618756
 30
0.0
  0
VERTEX
  5
3A0
  8
020
  6
CONTINUOUS
 62
     1
 10
846.5048257883745
 20
348.2826074618756
 30
0.0
  0
VERTEX
  5
3A1
  8
020
  6
CONTINUOUS
 62
     1
 10
846.5048257883745
 20
343.0826074618756
 30
0.0
  0
VERTEX
  5
3A2
  8
020
  6
CONTINUOUS
 62
     1
 10
813.4548257883746
 20
343.0826074618756
 30
0.0
  0
SEQEND
  5
3A3
  8
020
  6
CONTINUOUS
 62
     1
  0
TEXT
  5
3A4
  8
020
 62
     1
 10
827.3687146772635
 20
344.8157185729867
 30
0.0
 40
2.124016203703704
  1
仕様
  7
YUGOTHIC_MEDIUM
 11
827.3687146772635
 21
346.9397347766904
 31
0.0
 73
     3
  0
POLYLINE
  5
3A5
  8
020
  6
CONTINUOUS
 62
     1
 66
     1
 10
0.0
 20
0.0
 30
0.0
 70
   129
  0
VERTEX
  5
3A6
  8
020
  6
CONTINUOUS
 62
     1
 10
813.4548257883746
 20
343.0826074618756
 30
0.0
  0
VERTEX
  5
3A7
  8
020
  6
CONTINUOUS
 62
     1
 10
846.5048257883745
 20
343.0826074618756
 30
0.0
  0
VERTEX
  5
3A8
  8
020
  6
CONTINUOUS
 62
     1
 10
846.5048257883745
 20
337.8826074618755
 30
0.0
  0
VERTEX
  5
3A9
  8
020
  6
CONTINUOUS
 62
     1
 10
813.4548257883746
 20
337.8826074618755
 30
0.0
  0
SEQEND
  5
3AA
  8
020
  6
CONTINUOUS
 62
     1
  0
POLYLINE
  5
3AB
  8
020
  6
CONTINUOUS
 62
     1
 66
     1
 10
0.0
 20
0.0
 30
0.0
 70
   129
  0
VERTEX
  5
3AC
  8
020
  6
CONTINUOUS
 62
     1
 10
749.9048257883746
 20
337.8826074618755
 30
0.0
  0
VERTEX
  5
3AD
  8
020
  6
CONTINUOUS
 62
     1
 10
760.4027853330043
 20
337.8826074618755
 30
0.0
  0
VERTEX
  5
3AE
  8
020
  6
CONTINUOUS
 62
     1
 10
760.4027853330043
 20
332.6826074618755
 30
0.0
  0
VERTEX
  5
3AF
  8
020
  6
CONTINUOUS
 62
     1
 10
749.9048257883746
 20
332.6826074618755
 30
0.0
  0
SEQEND
  5
3B0
  8
020
  6
CONTINUOUS
 62
     1
  0
POLYLINE
  5
3B1
  8
020
  6
CONTINUOUS
 62
     1
 66
     1
 10
0.0
 20
0.0
 30
0.0
 70
   129
  0
VERTEX
  5
3B2
  8
020
  6
CONTINUOUS
 62
     1
 10
760.4027853330043
 20
337.8826074618755
 30
0.0
  0
VERTEX
  5
3B3
  8
020
  6
CONTINUOUS
 62
     1
 10
782.8048257883746
 20
337.8826074618755
 30
0.0
  0
VERTEX
  5
3B4
  8
020
  6
CONTINUOUS
 62
     1
 10
782.8048257883746
 20
332.6826074618755
 30
0.0
  0
VERTEX
  5
3B5
  8
020
  6
CONTINUOUS
 62
     1
 10
760.4027853330043
 20
332.6826074618755
 30
0.0
  0
SEQEND
  5
3B6
  8
020
  6
CONTINUOUS
 62
     1
  0
POLYLINE
  5
3B7
  8
020
  6
CONTINUOUS
 62
     1
 66
     1
 10
0.0
 20
0.0
 30
0.0
 70
   129
  0
VERTEX
  5
3B8
  8
020
  6
CONTINUOUS
 62
     1
 10
782.8048257883746
 20
337.8826074618755
 30
0.0
  0
VERTEX
  5
3B9
  8
020
  6
CONTINUOUS
 62
     1
 10
813.4548257883746
 20
337.8826074618755
 30
0.0
  0
VERTEX
  5
3BA
  8
020
  6
CONTINUOUS
 62
     1
 10
813.4548257883746
 20
332.6826074618755
 30
0.0
  0
VERTEX
  5
3BB
  8
020
  6
CONTINUOUS
 62
     1
 10
782.8048257883746
 20
332.6826074618755
 30
0.0
  0
SEQEND
  5
3BC
  8
020
  6
CONTINUOUS
 62
     1
  0
POLYLINE
  5
3BD
  8
020
  6
CONTINUOUS
 62
     1
 66
     1
 10
0.0
 20
0.0
 30
0.0
 70
   129
  0
VERTEX
  5
3BE
  8
020
  6
CONTINUOUS
 62
     1
 10
813.4548257883746
 20
337.8826074618755
 30
0.0
  0
VERTEX
  5
3BF
  8
020
  6
CONTINUOUS
 62
     1
 10
846.5048257883745
 20
337.8826074618755
 30
0.0
  0
VERTEX
  5
3C0
  8
020
  6
CONTINUOUS
 62
     1
 10
846.5048257883745
 20
332.6826074618755
 30
0.0
  0
VERTEX
  5
3C1
  8
020
  6
CONTINUOUS
 62
     1
 10
813.4548257883746
 20
332.6826074618755
 30
0.0
  0
SEQEND
  5
3C2
  8
020
  6
CONTINUOUS
 62
     1
  0
POLYLINE
  5
3C3
  8
020
  6
CONTINUOUS
 62
     1
 66
     1
 10
0.0
 20
0.0
 30
0.0
 70
   129
  0
VERTEX
  5
3C4
  8
020
  6
CONTINUOUS
 62
     1
 10
749.9048257883746
 20
332.6826074618755
 30
0.0
  0
VERTEX
  5
3C5
  8
020
  6
CONTINUOUS
 62
     1
 10
760.4027853330043
 20
332.6826074618755
 30
0.0
  0
VERTEX
  5
3C6
  8
020
  6
CONTINUOUS
 62
     1
 10
760.4027853330043
 20
322.2826074618754
 30
0.0
  0
VERTEX
  5
3C7
  8
020
  6
CONTINUOUS
 62
     1
 10
749.9048257883746
 20
322.2826074618754
 30
0.0
  0
SEQEND
  5
3C8
  8
020
  6
CONTINUOUS
 62
     1
  0
POLYLINE
  5
3C9
  8
020
  6
CONTINUOUS
 62
     1
 66
     1
 10
0.0
 20
0.0
 30
0.0
 70
   129
  0
VERTEX
  5
3CA
  8
020
  6
CONTINUOUS
 62
     1
 10
760.4027853330043
 20
332.6826074618755
 30
0.0
  0
VERTEX
  5
3CB
  8
020
  6
CONTINUOUS
 62
     1
 10
782.8048257883746
 20
332.6826074618755
 30
0.0
  0
VERTEX
  5
3CC
  8
020
  6
CONTINUOUS
 62
     1
 10
782.8048257883746
 20
322.2826074618754
 30
0.0
  0
VERTEX
  5
3CD
  8
020
  6
CONTINUOUS
 62
     1
 10
760.4027853330043
 20
322.2826074618754
 30
0.0
  0
SEQEND
  5
3CE
  8
020
  6
CONTINUOUS
 62
     1
  0
POLYLINE
  5
3CF
  8
020
  6
CONTINUOUS
 62
     1
 66
     1
 10
0.0
 20
0.0
 30
0.0
 70
   129
  0
VERTEX
  5
3D0
  8
020
  6
CONTINUOUS
 62
     1
 10
782.8048257883746
 20
332.6826074618755
 30
0.0
  0
VERTEX
  5
3D1
  8
020
  6
CONTINUOUS
 62
     1
 10
813.4548257883746
 20
332.6826074618755
 30
0.0
  0
VERTEX
  5
3D2
  8
020
  6
CONTINUOUS
 62
     1
 10
813.4548257883746
 20
322.2826074618754
 30
0.0
  0
VERTEX
  5
3D3
  8
020
  6
CONTINUOUS
 62
     1
 10
782.8048257883746
 20
322.2826074618754
 30
0.0
  0
SEQEND
  5
3D4
  8
020
  6
CONTINUOUS
 62
     1
  0
POLYLINE
  5
3D5
  8
020
  6
CONTINUOUS
 62
     1
 66
     1
 10
0.0
 20
0.0
 30
0.0
 70
   129
  0
VERTEX
  5
3D6
  8
020
  6
CONTINUOUS
 62
     1
 10
813.4548257883746
 20
332.6826074618755
 30
0.0
  0
VERTEX
  5
3D7
  8
020
  6
CONTINUOUS
 62
     1
 10
846.5048257883745
 20
332.6826074618755
 30
0.0
  0
VERTEX
  5
3D8
  8
020
  6
CONTINUOUS
 62
     1
 10
846.5048257883745
 20
322.2826074618754
 30
0.0
  0
VERTEX
  5
3D9
  8
020
  6
CONTINUOUS
 62
     1
 10
813.4548257883746
 20
322.2826074618754
 30
0.0
  0
SEQEND
  5
3DA
  8
020
  6
CONTINUOUS
 62
     1
  0
POLYLINE
  5
3DB
  8
020
  6
CONTINUOUS
 62
     1
 66
     1
 10
0.0
 20
0.0
 30
0.0
 70
   129
  0
VERTEX
  5
3DC
  8
020
  6
CONTINUOUS
 62
     1
 10
749.9048257883746
 20
322.2826074618754
 30
0.0
  0
VERTEX
  5
3DD
  8
020
  6
CONTINUOUS
 62
     1
 10
760.4027853330043
 20
322.2826074618754
 30
0.0
  0
VERTEX
  5
3DE
  8
020
  6
CONTINUOUS
 62
     1
 10
760.4027853330043
 20
317.0826074618753
 30
0.0
  0
VERTEX
  5
3DF
  8
020
  6
CONTINUOUS
 62
     1
 10
749.9048257883746
 20
317.0826074618753
 30
0.0
  0
SEQEND
  5
3E0
  8
020
  6
CONTINUOUS
 62
     1
  0
POLYLINE
  5
3E1
  8
020
  6
CONTINUOUS
 62
     1
 66
     1
 10
0.0
 20
0.0
 30
0.0
 70
   129
  0
VERTEX
  5
3E2
  8
020
  6
CONTINUOUS
 62
     1
 10
760.4027853330043
 20
322.2826074618754
 30
0.0
  0
VERTEX
  5
3E3
  8
020
  6
CONTINUOUS
 62
     1
 10
782.8048257883746
 20
322.2826074618754
 30
0.0
  0
VERTEX
  5
3E4
  8
020
  6
CONTINUOUS
 62
     1
 10
782.8048257883746
 20
317.0826074618753
 30
0.0
  0
VERTEX
  5
3E5
  8
020
  6
CONTINUOUS
 62
     1
 10
760.4027853330043
 20
317.0826074618753
 30
0.0
  0
SEQEND
  5
3E6
  8
020
  6
CONTINUOUS
 62
     1
  0
POLYLINE
  5
3E7
  8
020
  6
CONTINUOUS
 62
     1
 66
     1
 10
0.0
 20
0.0
 30
0.0
 70
   129
  0
VERTEX
  5
3E8
  8
020
  6
CONTINUOUS
 62
     1
 10
782.8048257883746
 20
322.2826074618754
 30
0.0
  0
VERTEX
  5
3E9
  8
020
  6
CONTINUOUS
 62
     1
 10
813.4548257883746
 20
322.2826074618754
 30
0.0
  0
VERTEX
  5
3EA
  8
020
  6
CONTINUOUS
 62
     1
 10
813.4548257883746
 20
317.0826074618753
 30
0.0
  0
VERTEX
  5
3EB
  8
020
  6
CONTINUOUS
 62
     1
 10
782.8048257883746
 20
317.0826074618753
 30
0.0
  0
SEQEND
  5
3EC
  8
020
  6
CONTINUOUS
 62
     1
  0
POLYLINE
  5
3ED
  8
020
  6
CONTINUOUS
 62
     1
 66
     1
 10
0.0
 20
0.0
 30
0.0
 70
   129
  0
VERTEX
  5
3EE
  8
020
  6
CONTINUOUS
 62
     1
 10
813.4548257883746
 20
322.2826074618754
 30
0.0
  0
VERTEX
  5
3EF
  8
020
  6
CONTINUOUS
 62
     1
 10
846.5048257883745
 20
322.2826074618754
 30
0.0
  0
VERTEX
  5
3F0
  8
020
  6
CONTINUOUS
 62
     1
 10
846.5048257883745
 20
317.0826074618753
 30
0.0
  0
VERTEX
  5
3F1
  8
020
  6
CONTINUOUS
 62
     1
 10
813.4548257883746
 20
317.0826074618753
 30
0.0
  0
SEQEND
  5
3F2
  8
020
  6
CONTINUOUS
 62
     1
  0
POLYLINE
  5
3F3
  8
020
  6
CONTINUOUS
 62
     1
 66
     1
 10
0.0
 20
0.0
 30
0.0
 70
   129
  0
VERTEX
  5
3F4
  8
020
  6
CONTINUOUS
 62
     1
 10
749.9048257883746
 20
306.6826074618753
 30
0.0
  0
VERTEX
  5
3F5
  8
020
  6
CONTINUOUS
 62
     1
 10
760.4027853330043
 20
306.6826074618753
 30
0.0
  0
VERTEX
  5
3F6
  8
020
  6
CONTINUOUS
 62
     1
 10
760.4027853330043
 20
301.4826074618752
 30
0.0
  0
VERTEX
  5
3F7
  8
020
  6
CONTINUOUS
 62
     1
 10
749.9048257883746
 20
301.4826074618752
 30
0.0
  0
SEQEND
  5
3F8
  8
020
  6
CONTINUOUS
 62
     1
  0
POLYLINE
  5
3F9
  8
020
  6
CONTINUOUS
 62
     1
 66
     1
 10
0.0
 20
0.0
 30
0.0
 70
   129
  0
VERTEX
  5
3FA
  8
020
  6
CONTINUOUS
 62
     1
 10
760.4027853330043
 20
306.6826074618753
 30
0.0
  0
VERTEX
  5
3FB
  8
020
  6
CONTINUOUS
 62
     1
 10
782.8048257883746
 20
306.6826074618753
 30
0.0
  0
VERTEX
  5
3FC
  8
020
  6
CONTINUOUS
 62
     1
 10
782.8048257883746
 20
301.4826074618752
 30
0.0
  0
VERTEX
  5
3FD
  8
020
  6
CONTINUOUS
 62
     1
 10
760.4027853330043
 20
301.4826074618752
 30
0.0
  0
SEQEND
  5
3FE
  8
020
  6
CONTINUOUS
 62
     1
  0
POLYLINE
  5
3FF
  8
020
  6
CONTINUOUS
 62
     1
 66
     1
 10
0.0
 20
0.0
 30
0.0
 70
   129
  0
VERTEX
  5
400
  8
020
  6
CONTINUOUS
 62
     1
 10
782.8048257883746
 20
317.0826074618753
 30
0.0
  0
VERTEX
  5
401
  8
020
  6
CONTINUOUS
 62
     1
 10
813.4548257883746
 20
317.0826074618753
 30
0.0
  0
VERTEX
  5
402
  8
020
  6
CONTINUOUS
 62
     1
 10
813.4548257883746
 20
306.6826074618753
 30
0.0
  0
VERTEX
  5
403
  8
020
  6
CONTINUOUS
 62
     1
 10
782.8048257883746
 20
306.6826074618753
 30
0.0
  0
SEQEND
  5
404
  8
020
  6
CONTINUOUS
 62
     1
  0
POLYLINE
  5
405
  8
020
  6
CONTINUOUS
 62
     1
 66
     1
 10
0.0
 20
0.0
 30
0.0
 70
   129
  0
VERTEX
  5
406
  8
020
  6
CONTINUOUS
 62
     1
 10
813.4548257883746
 20
317.0826074618753
 30
0.0
  0
VERTEX
  5
407
  8
020
  6
CONTINUOUS
 62
     1
 10
846.5048257883745
 20
317.0826074618753
 30
0.0
  0
VERTEX
  5
408
  8
020
  6
CONTINUOUS
 62
     1
 10
846.5048257883745
 20
306.6826074618753
 30
0.0
  0
VERTEX
  5
409
  8
020
  6
CONTINUOUS
 62
     1
 10
813.4548257883746
 20
306.6826074618753
 30
0.0
  0
SEQEND
  5
40A
  8
020
  6
CONTINUOUS
 62
     1
  0
POLYLINE
  5
40B
  8
020
  6
CONTINUOUS
 62
     1
 66
     1
 10
0.0
 20
0.0
 30
0.0
 70
   129
  0
VERTEX
  5
40C
  8
020
  6
CONTINUOUS
 62
     1
 10
749.9048257883746
 20
317.0826074618753
 30
0.0
  0
VERTEX
  5
40D
  8
020
  6
CONTINUOUS
 62
     1
 10
760.4027853330043
 20
317.0826074618753
 30
0.0
  0
VERTEX
  5
40E
  8
020
  6
CONTINUOUS
 62
     1
 10
760.4027853330043
 20
306.6826074618753
 30
0.0
  0
VERTEX
  5
40F
  8
020
  6
CONTINUOUS
 62
     1
 10
749.9048257883746
 20
306.6826074618753
 30
0.0
  0
SEQEND
  5
410
  8
020
  6
CONTINUOUS
 62
     1
  0
POLYLINE
  5
411
  8
020
  6
CONTINUOUS
 62
     1
 66
     1
 10
0.0
 20
0.0
 30
0.0
 70
   129
  0
VERTEX
  5
412
  8
020
  6
CONTINUOUS
 62
     1
 10
760.4027853330043
 20
317.0826074618753
 30
0.0
  0
VERTEX
  5
413
  8
020
  6
CONTINUOUS
 62
     1
 10
782.8048257883746
 20
317.0826074618753
 30
0.0
  0
VERTEX
  5
414
  8
020
  6
CONTINUOUS
 62
     1
 10
782.8048257883746
 20
306.6826074618753
 30
0.0
  0
VERTEX
  5
415
  8
020
  6
CONTINUOUS
 62
     1
 10
760.4027853330043
 20
306.6826074618753
 30
0.0
  0
SEQEND
  5
416
  8
020
  6
CONTINUOUS
 62
     1
  0
POLYLINE
  5
417
  8
020
  6
CONTINUOUS
 62
     1
 66
     1
 10
0.0
 20
0.0
 30
0.0
 70
   129
  0
VERTEX
  5
418
  8
020
  6
CONTINUOUS
 62
     1
 10
782.8048257883746
 20
306.6826074618753
 30
0.0
  0
VERTEX
  5
419
  8
020
  6
CONTINUOUS
 62
     1
 10
813.4548257883746
 20
306.6826074618753
 30
0.0
  0
VERTEX
  5
41A
  8
020
  6
CONTINUOUS
 62
     1
 10
813.4548257883746
 20
301.4826074618752
 30
0.0
  0
VERTEX
  5
41B
  8
020
  6
CONTINUOUS
 62
     1
 10
782.8048257883746
 20
301.4826074618752
 30
0.0
  0
SEQEND
  5
41C
  8
020
  6
CONTINUOUS
 62
     1
  0
POLYLINE
  5
41D
  8
020
  6
CONTINUOUS
 62
     1
 66
     1
 10
0.0
 20
0.0
 30
0.0
 70
   129
  0
VERTEX
  5
41E
  8
020
  6
CONTINUOUS
 62
     1
 10
813.4548257883746
 20
306.6826074618753
 30
0.0
  0
VERTEX
  5
41F
  8
020
  6
CONTINUOUS
 62
     1
 10
846.5048257883745
 20
306.6826074618753
 30
0.0
  0
VERTEX
  5
420
  8
020
  6
CONTINUOUS
 62
     1
 10
846.5048257883745
 20
301.4826074618752
 30
0.0
  0
VERTEX
  5
421
  8
020
  6
CONTINUOUS
 62
     1
 10
813.4548257883746
 20
301.4826074618752
 30
0.0
  0
SEQEND
  5
422
  8
020
  6
CONTINUOUS
 62
     1
  0
POLYLINE
  5
423
  8
020
  6
CONTINUOUS
 62
     1
 66
     1
 10
0.0
 20
0.0
 30
0.0
 70
   129
  0
VERTEX
  5
424
  8
020
  6
CONTINUOUS
 62
     1
 10
749.9048257883746
 20
301.4826074618752
 30
0.0
  0
VERTEX
  5
425
  8
020
  6
CONTINUOUS
 62
     1
 10
760.4027853330043
 20
301.4826074618752
 30
0.0
  0
VERTEX
  5
426
  8
020
  6
CONTINUOUS
 62
     1
 10
760.4027853330043
 20
296.2826074618752
 30
0.0
  0
VERTEX
  5
427
  8
020
  6
CONTINUOUS
 62
     1
 10
749.9048257883746
 20
296.2826074618752
 30
0.0
  0
SEQEND
  5
428
  8
020
  6
CONTINUOUS
 62
     1
  0
POLYLINE
  5
429
  8
020
  6
CONTINUOUS
 62
     1
 66
     1
 10
0.0
 20
0.0
 30
0.0
 70
   129
  0
VERTEX
  5
42A
  8
020
  6
CONTINUOUS
 62
     1
 10
760.4027853330043
 20
301.4826074618752
 30
0.0
  0
VERTEX
  5
42B
  8
020
  6
CONTINUOUS
 62
     1
 10
782.8048257883746
 20
301.4826074618752
 30
0.0
  0
VERTEX
  5
42C
  8
020
  6
CONTINUOUS
 62
     1
 10
782.8048257883746
 20
296.2826074618752
 30
0.0
  0
VERTEX
  5
42D
  8
020
  6
CONTINUOUS
 62
     1
 10
760.4027853330043
 20
296.2826074618752
 30
0.0
  0
SEQEND
  5
42E
  8
020
  6
CONTINUOUS
 62
     1
  0
POLYLINE
  5
42F
  8
020
  6
CONTINUOUS
 62
     1
 66
     1
 10
0.0
 20
0.0
 30
0.0
 70
   129
  0
VERTEX
  5
430
  8
020
  6
CONTINUOUS
 62
     1
 10
782.8048257883746
 20
301.4826074618752
 30
0.0
  0
VERTEX
  5
431
  8
020
  6
CONTINUOUS
 62
     1
 10
813.4548257883746
 20
301.4826074618752
 30
0.0
  0
VERTEX
  5
432
  8
020
  6
CONTINUOUS
 62
     1
 10
813.4548257883746
 20
296.2826074618752
 30
0.0
  0
VERTEX
  5
433
  8
020
  6
CONTINUOUS
 62
     1
 10
782.8048257883746
 20
296.2826074618752
 30
0.0
  0
SEQEND
  5
434
  8
020
  6
CONTINUOUS
 62
     1
  0
POLYLINE
  5
435
  8
020
  6
CONTINUOUS
 62
     1
 66
     1
 10
0.0
 20
0.0
 30
0.0
 70
   129
  0
VERTEX
  5
436
  8
020
  6
CONTINUOUS
 62
     1
 10
813.4548257883746
 20
301.4826074618752
 30
0.0
  0
VERTEX
  5
437
  8
020
  6
CONTINUOUS
 62
     1
 10
846.5048257883745
 20
301.4826074618752
 30
0.0
  0
VERTEX
  5
438
  8
020
  6
CONTINUOUS
 62
     1
 10
846.5048257883745
 20
296.2826074618752
 30
0.0
  0
VERTEX
  5
439
  8
020
  6
CONTINUOUS
 62
     1
 10
813.4548257883746
 20
296.2826074618752
 30
0.0
  0
SEQEND
  5
43A
  8
020
  6
CONTINUOUS
 62
     1
  0
TEXT
  5
43B
  8
SAKUZU
 62
     1
 10
792.6680698359936
 20
334.2714465039128
 30
0.0
 40
2.124016203703704
  1
ＳＵＳ４３０
  7
YUGOTHIC_MEDIUM
 72
     1
 11
798.1298257883745
 21
334.2714465039128
 31
0.0
  0
TEXT
  5
43C
  8
SAKUZU
 62
     1
 10
792.6680698359936
 20
310.8101630174309
 30
0.0
 40
2.124016203703704
  1
ＳＵＳ４３０
  7
YUGOTHIC_MEDIUM
 72
     1
 11
798.1298257883745
 21
310.8101630174309
 31
0.0
  0
TEXT
  5
43D
  8
SAKUZU
 62
     1
 10
796.3092404709142
 20
318.610163017431
 30
0.0
 40
2.124016203703704
  1
塩ビ
  7
YUGOTHIC_MEDIUM
 72
     1
 11
798.1298257883745
 21
318.610163017431
 31
0.0
  0
TEXT
  5
43E
  8
SAKUZU
 62
     1
 10
791.7577771772634
 20
325.8212619215423
 30
0.0
 40
2.124016203703704
  1
ポリプロピレン
  7
YUGOTHIC_MEDIUM
 72
     1
 11
798.1298257883745
 21
325.8212619215423
 31
0.0
  0
TEXT
  5
43F
  8
SAKUZU
 62
     1
 10
820.6876590678783
 20
339.4101630174312
 30
0.0
 40
2.124016203703704
  1
t 1.0 NO.4仕上
  7
YUGOTHIC_MEDIUM
  0
TEXT
  5
440
  8
SAKUZU
 62
     1
 10
820.6876590678783
 20
334.2101630174311
 30
0.0
 40
2.124016203703704
  1
t 0.6 NO.4仕上
  7
YUGOTHIC_MEDIUM
  0
TEXT
  5
441
  8
SAKUZU
 62
     1
 10
814.6174527503885
 20
325.8212619215423
 30
0.0
 40
2.124016203703704
  1
50A φ186キングドレン
  7
YUGOTHIC_MEDIUM
  0
TEXT
  5
442
  8
SAKUZU
 62
     1
 10
820.6876590678783
 20
313.492607462063
 30
0.0
 40
2.124016203703704
  1
t 1.0 NO.4仕上
  7
YUGOTHIC_MEDIUM
  0
TEXT
  5
443
  8
SAKUZU
 62
     1
 10
814.5140479567672
 20
307.9627083516972
 30
0.0
 40
2.124016203703704
  1
排水孔　ゴムリング付き
  7
YUGOTHIC_MEDIUM
  0
TEXT
  5
444
  8
SAKUZU
 62
     1
 10
823.7709367649117
 20
303.0101630174307
 30
0.0
 40
2.124016203703704
  1
t 1.0 φ38
  7
YUGOTHIC_MEDIUM
  0
TEXT
  5
445
  8
SAKUZU
 62
     1
 10
821.7871918598031
 20
318.610163017431
 30
0.0
 40
2.124016203703704
  1
金具：ＳＵＳ３０４
  7
YUGOTHIC_MEDIUM
 72
     1
 11
829.9798257883746
 21
318.610163017431
 31
0.0
  0
TEXT
  5
446
  8
SAKUZU
 62
     1
 10
763.623947812184
 20
287.4101630174307
 30
0.0
 40
2.124016203703704
  1
付属品
  7
YUGOTHIC_MEDIUM
 72
     1
 11
766.3548257883746
 21
287.4101630174307
 31
0.0
  0
POLYLINE
  5
447
  8
020
  6
CONTINUOUS
 62
     1
 66
     1
 10
0.0
 20
0.0
 30
0.0
 70
   129
  0
VERTEX
  5
448
  8
020
  6
CONTINUOUS
 62
     1
 10
749.9048257883746
 20
291.0826074618751
 30
0.0
  0
VERTEX
  5
449
  8
020
  6
CONTINUOUS
 62
     1
 10
782.8048257883746
 20
291.0826074618751
 30
0.0
  0
VERTEX
  5
44A
  8
020
  6
CONTINUOUS
 62
     1
 10
782.8048257883746
 20
285.8826074618751
 30
0.0
  0
VERTEX
  5
44B
  8
020
  6
CONTINUOUS
 62
     1
 10
749.9048257883746
 20
285.8826074618751
 30
0.0
  0
SEQEND
  5
44C
  8
020
  6
CONTINUOUS
 62
     1
  0
POLYLINE
  5
44D
  8
020
  6
CONTINUOUS
 62
     1
 66
     1
 10
0.0
 20
0.0
 30
0.0
 70
   129
  0
VERTEX
  5
44E
  8
020
  6
CONTINUOUS
 62
     1
 10
782.8048257883746
 20
291.0826074618751
 30
0.0
  0
VERTEX
  5
44F
  8
020
  6
CONTINUOUS
 62
     1
 10
846.5048257883745
 20
291.0826074618751
 30
0.0
  0
VERTEX
  5
450
  8
020
  6
CONTINUOUS
 62
     1
 10
846.5048257883745
 20
285.8826074618751
 30
0.0
  0
VERTEX
  5
451
  8
020
  6
CONTINUOUS
 62
     1
 10
782.8048257883746
 20
285.8826074618751
 30
0.0
  0
SEQEND
  5
452
  8
020
  6
CONTINUOUS
 62
     1
  0
TEXT
  5
453
  8
LAYER0002
 62
     1
 10
792.0770480105969
 20
287.4101630174307
 30
0.0
 40
2.124016203703704
  1
５０Ａ排水ホース　０．８ｍ　×2
  7
YUGOTHIC_MEDIUM
  0
TEXT
  5
454
  8
SAKUZU
 62
     1
 10
762.7136551534539
 20
282.2101630174307
 30
0.0
 40
2.124016203703704
  1
製品重量
  7
YUGOTHIC_MEDIUM
 72
     1
 11
766.3548257883746
 21
282.2101630174307
 31
0.0
  0
POLYLINE
  5
455
  8
020
  6
CONTINUOUS
 62
     1
 66
     1
 10
0.0
 20
0.0
 30
0.0
 70
   129
  0
VERTEX
  5
456
  8
020
  6
CONTINUOUS
 62
     1
 10
749.9048257883746
 20
285.8826074618751
 30
0.0
  0
VERTEX
  5
457
  8
020
  6
CONTINUOUS
 62
     1
 10
782.8048257883746
 20
285.8826074618751
 30
0.0
  0
VERTEX
  5
458
  8
020
  6
CONTINUOUS
 62
     1
 10
782.8048257883746
 20
280.682607461875
 30
0.0
  0
VERTEX
  5
459
  8
020
  6
CONTINUOUS
 62
     1
 10
749.9048257883746
 20
280.682607461875
 30
0.0
  0
SEQEND
  5
45A
  8
020
  6
CONTINUOUS
 62
     1
  0
POLYLINE
  5
45B
  8
020
  6
CONTINUOUS
 62
     1
 66
     1
 10
0.0
 20
0.0
 30
0.0
 70
   129
  0
VERTEX
  5
45C
  8
020
  6
CONTINUOUS
 62
     1
 10
782.8048257883746
 20
285.8826074618751
 30
0.0
  0
VERTEX
  5
45D
  8
020
  6
CONTINUOUS
 62
     1
 10
846.5048257883745
 20
285.8826074618751
 30
0.0
  0
VERTEX
  5
45E
  8
020
  6
CONTINUOUS
 62
     1
 10
846.5048257883745
 20
280.682607461875
 30
0.0
  0
VERTEX
  5
45F
  8
020
  6
CONTINUOUS
 62
     1
 10
782.8048257883746
 20
280.682607461875
 30
0.0
  0
SEQEND
  5
460
  8
020
  6
CONTINUOUS
 62
     1
  0
TEXT
  5
461
  8
LAYER0002
 62
     1
 10
809.3447852791154
 20
282.0937185729862
 30
0.0
 40
2.124016203703704
  1
27.0kg
  7
YUGOTHIC_MEDIUM
 72
     1
 11
814.6548257883746
 21
282.0937185729862
 31
0.0
  0
POLYLINE
  5
462
  8
020
  6
CONTINUOUS
 62
     1
 66
     1
 10
0.0
 20
0.0
 30
0.0
 70
   129
  0
VERTEX
  5
463
  8
020
  6
CONTINUOUS
 62
     1
 10
749.9048257883746
 20
146.8606074618757
 30
0.0
  0
VERTEX
  5
464
  8
020
  6
CONTINUOUS
 62
     1
 10
760.4027853330043
 20
146.8606074618757
 30
0.0
  0
VERTEX
  5
465
  8
020
  6
CONTINUOUS
 62
     1
 10
760.4027853330043
 20
141.6606074618756
 30
0.0
  0
VERTEX
  5
466
  8
020
  6
CONTINUOUS
 62
     1
 10
749.9048257883746
 20
141.6606074618756
 30
0.0
  0
SEQEND
  5
467
  8
020
  6
CONTINUOUS
 62
     1
  0
TEXT
  5
468
  8
020
 62
     1
 10
753.1544014544509
 20
143.4103852396534
 30
0.0
 40
2.124016203703704
  1
NO
  7
YUGOTHIC_MEDIUM
 11
753.1544014544509
 21
145.5344014433571
 31
0.0
 73
     3
  0
TEXT
  5
469
  8
020
 62
     1
 10
768.7815833384673
 20
143.3837185729868
 30
0.0
 40
2.124016203703704
  1
名称
  7
YUGOTHIC_MEDIUM
 11
768.7815833384673
 21
145.5077347766905
 31
0.0
 73
     3
  0
POLYLINE
  5
46A
  8
020
  6
CONTINUOUS
 62
     1
 66
     1
 10
0.0
 20
0.0
 30
0.0
 70
   129
  0
VERTEX
  5
46B
  8
020
  6
CONTINUOUS
 62
     1
 10
760.4027853330043
 20
146.8606074618757
 30
0.0
  0
VERTEX
  5
46C
  8
020
  6
CONTINUOUS
 62
     1
 10
782.8048257883746
 20
146.8606074618757
 30
0.0
  0
VERTEX
  5
46D
  8
020
  6
CONTINUOUS
 62
     1
 10
782.8048257883746
 20
141.6606074618756
 30
0.0
  0
VERTEX
  5
46E
  8
020
  6
CONTINUOUS
 62
     1
 10
760.4027853330043
 20
141.6606074618756
 30
0.0
  0
SEQEND
  5
46F
  8
020
  6
CONTINUOUS
 62
     1
  0
POLYLINE
  5
470
  8
020
  6
CONTINUOUS
 62
     1
 66
     1
 10
0.0
 20
0.0
 30
0.0
 70
   129
  0
VERTEX
  5
471
  8
020
  6
CONTINUOUS
 62
     1
 10
782.8048257883746
 20
146.8606074618757
 30
0.0
  0
VERTEX
  5
472
  8
020
  6
CONTINUOUS
 62
     1
 10
813.4548257883746
 20
146.8606074618757
 30
0.0
  0
VERTEX
  5
473
  8
020
  6
CONTINUOUS
 62
     1
 10
813.4548257883746
 20
141.6606074618756
 30
0.0
  0
VERTEX
  5
474
  8
020
  6
CONTINUOUS
 62
     1
 10
782.8048257883746
 20
141.6606074618756
 30
0.0
  0
SEQEND
  5
475
  8
020
  6
CONTINUOUS
 62
     1
  0
TEXT
  5
476
  8
020
 62
     1
 10
795.1437146772635
 20
143.3937185729868
 30
0.0
 40
2.124016203703704
  1
材質
  7
YUGOTHIC_MEDIUM
 11
795.1437146772635
 21
145.5177347766904
 31
0.0
 73
     3
  0
POLYLINE
  5
477
  8
020
  6
CONTINUOUS
 62
     1
 66
     1
 10
0.0
 20
0.0
 30
0.0
 70
   129
  0
VERTEX
  5
478
  8
020
  6
CONTINUOUS
 62
     1
 10
749.9048257883746
 20
141.6606074618756
 30
0.0
  0
VERTEX
  5
479
  8
020
  6
CONTINUOUS
 62
     1
 10
760.4027853330043
 20
141.6606074618756
 30
0.0
  0
VERTEX
  5
47A
  8
020
  6
CONTINUOUS
 62
     1
 10
760.4027853330043
 20
136.4606074618756
 30
0.0
  0
VERTEX
  5
47B
  8
020
  6
CONTINUOUS
 62
     1
 10
749.9048257883746
 20
136.4606074618756
 30
0.0
  0
SEQEND
  5
47C
  8
020
  6
CONTINUOUS
 62
     1
  0
POLYLINE
  5
47D
  8
020
  6
CONTINUOUS
 62
     1
 66
     1
 10
0.0
 20
0.0
 30
0.0
 70
   129
  0
VERTEX
  5
47E
  8
020
  6
CONTINUOUS
 62
     1
 10
760.4027853330043
 20
141.6606074618756
 30
0.0
  0
VERTEX
  5
47F
  8
020
  6
CONTINUOUS
 62
     1
 10
782.8048257883746
 20
141.6606074618756
 30
0.0
  0
VERTEX
  5
480
  8
020
  6
CONTINUOUS
 62
     1
 10
782.8048257883746
 20
136.4606074618756
 30
0.0
  0
VERTEX
  5
481
  8
020
  6
CONTINUOUS
 62
     1
 10
760.4027853330043
 20
136.4606074618756
 30
0.0
  0
SEQEND
  5
482
  8
020
  6
CONTINUOUS
 62
     1
  0
POLYLINE
  5
483
  8
020
  6
CONTINUOUS
 62
     1
 66
     1
 10
0.0
 20
0.0
 30
0.0
 70
   129
  0
VERTEX
  5
484
  8
020
  6
CONTINUOUS
 62
     1
 10
782.8048257883746
 20
141.6606074618756
 30
0.0
  0
VERTEX
  5
485
  8
020
  6
CONTINUOUS
 62
     1
 10
813.4548257883746
 20
141.6606074618756
 30
0.0
  0
VERTEX
  5
486
  8
020
  6
CONTINUOUS
 62
     1
 10
813.4548257883746
 20
136.4606074618756
 30
0.0
  0
VERTEX
  5
487
  8
020
  6
CONTINUOUS
 62
     1
 10
782.8048257883746
 20
136.4606074618756
 30
0.0
  0
SEQEND
  5
488
  8
020
  6
CONTINUOUS
 62
     1
  0
TEXT
  5
489
  8
SAKUZU
 62
     1
 10
765.2317569495783
 20
117.1881630174309
 30
0.0
 40
2.124016203703704
  1
オーバーフロー
  7
YUGOTHIC_MEDIUM
 72
     1
 11
771.6038055606895
 21
117.1881630174309
 31
0.0
  0
TEXT
  5
48A
  8
SAKUZU
 62
     1
 10
754.2124926742741
 20
117.445813172217
 30
0.0
 40
2.124016203703704
  1
４
  7
YUGOTHIC_MEDIUM
 72
     1
 11
755.1227853330043
 21
117.445813172217
 31
0.0
  0
TEXT
  5
48B
  8
SAKUZU
 62
     1
 10
770.6424926742741
 20
101.4406074618749
 30
0.0
 40
2.124016203703704
  1
脚
  7
YUGOTHIC_MEDIUM
 72
     1
 11
771.5527853330043
 21
101.4406074618749
 31
0.0
  0
TEXT
  5
48C
  8
SAKUZU
 62
     1
 10
768.9739478121841
 20
132.7881630174311
 30
0.0
 40
2.124016203703704
  1
化粧板
  7
YUGOTHIC_MEDIUM
 72
     1
 11
771.7048257883746
 21
132.7881630174311
 31
0.0
  0
TEXT
  5
48D
  8
SAKUZU
 62
     1
 10
754.2435129019592
 20
132.7881630174311
 30
0.0
 40
2.124016203703704
  1
２
  7
YUGOTHIC_MEDIUM
 72
     1
 11
755.1538055606894
 21
132.7881630174311
 31
0.0
  0
TEXT
  5
48E
  8
SAKUZU
 62
     1
 10
754.2435129019592
 20
124.988163017431
 30
0.0
 40
2.124016203703704
  1
３
  7
YUGOTHIC_MEDIUM
 72
     1
 11
755.1538055606894
 21
124.988163017431
 31
0.0
  0
TEXT
  5
48F
  8
SAKUZU
 62
     1
 10
754.2435129019592
 20
137.9881630174311
 30
0.0
 40
2.124016203703704
  1
１
  7
YUGOTHIC_MEDIUM
 72
     1
 11
755.1538055606894
 21
137.9881630174311
 31
0.0
  0
TEXT
  5
490
  8
SAKUZU
 62
     1
 10
768.063655153454
 20
124.3992619215423
 30
0.0
 40
2.124016203703704
  1
排水金具
  7
YUGOTHIC_MEDIUM
 72
     1
 11
771.7048257883746
 21
124.3992619215423
 31
0.0
  0
TEXT
  5
491
  8
SAKUZU
 62
     1
 10
764.4224845185333
 20
137.9881630174311
 30
0.0
 40
2.124016203703704
  1
トップ（シンク）
  7
YUGOTHIC_MEDIUM
 72
     1
 11
771.7048257883746
 21
137.9881630174311
 31
0.0
  0
TEXT
  5
492
  8
SAKUZU
 62
     1
 10
792.6680698359936
 20
137.9881630174311
 30
0.0
 40
2.124016203703704
  1
ＳＵＳ４３０
  7
YUGOTHIC_MEDIUM
 72
     1
 11
798.1298257883745
 21
137.9881630174311
 31
0.0
  0
TEXT
  5
493
  8
SAKUZU
 62
     1
 10
767.9626349257688
 20
109.3881630174309
 30
0.0
 40
2.124016203703704
  1
スノコ板
  7
YUGOTHIC_MEDIUM
 72
     1
 11
771.6038055606895
 21
109.3881630174309
 31
0.0
  0
TEXT
  5
494
  8
SAKUZU
 62
     1
 10
754.2435129019592
 20
109.3881630174309
 30
0.0
 40
2.124016203703704
  1
５
  7
YUGOTHIC_MEDIUM
 72
     1
 11
755.1538055606894
 21
109.3881630174309
 31
0.0
  0
TEXT
  5
495
  8
SAKUZU
 62
     1
 10
754.2435129019592
 20
101.5258863284322
 30
0.0
 40
2.124016203703704
  1
６
  7
YUGOTHIC_MEDIUM
 72
     1
 11
755.1538055606894
 21
101.5258863284322
 31
0.0
  0
TEXT
  5
496
  8
SAKUZU
 62
     1
 10
792.6680698359936
 20
101.5881630174308
 30
0.0
 40
2.124016203703704
  1
ＳＵＳ３０４
  7
YUGOTHIC_MEDIUM
 72
     1
 11
798.1298257883745
 21
101.5881630174308
 31
0.0
  0
TEXT
  5
497
  8
SAKUZU
 62
     1
 10
767.0523422670386
 20
96.38816301743077
 30
0.0
 40
2.124016203703704
  1
アジャスト
  7
YUGOTHIC_MEDIUM
 72
     1
 11
771.6038055606895
 21
96.38816301743077
 31
0.0
  0
TEXT
  5
498
  8
SAKUZU
 62
     1
 10
754.2435129019592
 20
96.38816301743077
 30
0.0
 40
2.124016203703704
  1
７
  7
YUGOTHIC_MEDIUM
 72
     1
 11
755.1538055606894
 21
96.38816301743077
 31
0.0
  0
TEXT
  5
499
  8
SAKUZU
 62
     1
 10
792.6680698359936
 20
96.16950686092417
 30
0.0
 40
2.124016203703704
  1
ＳＵＳ３０４
  7
YUGOTHIC_MEDIUM
 72
     1
 11
798.1298257883745
 21
96.16950686092417
 31
0.0
  0
POLYLINE
  5
49A
  8
020
  6
CONTINUOUS
 62
     1
 66
     1
 10
0.0
 20
0.0
 30
0.0
 70
   129
  0
VERTEX
  5
49B
  8
020
  6
CONTINUOUS
 62
     1
 10
813.4548257883746
 20
146.8606074618757
 30
0.0
  0
VERTEX
  5
49C
  8
020
  6
CONTINUOUS
 62
     1
 10
846.5048257883745
 20
146.8606074618757
 30
0.0
  0
VERTEX
  5
49D
  8
020
  6
CONTINUOUS
 62
     1
 10
846.5048257883745
 20
141.6606074618756
 30
0.0
  0
VERTEX
  5
49E
  8
020
  6
CONTINUOUS
 62
     1
 10
813.4548257883746
 20
141.6606074618756
 30
0.0
  0
SEQEND
  5
49F
  8
020
  6
CONTINUOUS
 62
     1
  0
TEXT
  5
4A0
  8
020
 62
     1
 10
827.3687146772635
 20
143.3937185729868
 30
0.0
 40
2.124016203703704
  1
仕様
  7
YUGOTHIC_MEDIUM
 11
827.3687146772635
 21
145.5177347766904
 31
0.0
 73
     3
  0
POLYLINE
  5
4A1
  8
020
  6
CONTINUOUS
 62
     1
 66
     1
 10
0.0
 20
0.0
 30
0.0
 70
   129
  0
VERTEX
  5
4A2
  8
020
  6
CONTINUOUS
 62
     1
 10
813.4548257883746
 20
141.6606074618756
 30
0.0
  0
VERTEX
  5
4A3
  8
020
  6
CONTINUOUS
 62
     1
 10
846.5048257883745
 20
141.6606074618756
 30
0.0
  0
VERTEX
  5
4A4
  8
020
  6
CONTINUOUS
 62
     1
 10
846.5048257883745
 20
136.4606074618756
 30
0.0
  0
VERTEX
  5
4A5
  8
020
  6
CONTINUOUS
 62
     1
 10
813.4548257883746
 20
136.4606074618756
 30
0.0
  0
SEQEND
  5
4A6
  8
020
  6
CONTINUOUS
 62
     1
  0
POLYLINE
  5
4A7
  8
020
  6
CONTINUOUS
 62
     1
 66
     1
 10
0.0
 20
0.0
 30
0.0
 70
   129
  0
VERTEX
  5
4A8
  8
020
  6
CONTINUOUS
 62
     1
 10
749.9048257883746
 20
136.4606074618756
 30
0.0
  0
VERTEX
  5
4A9
  8
020
  6
CONTINUOUS
 62
     1
 10
760.4027853330043
 20
136.4606074618756
 30
0.0
  0
VERTEX
  5
4AA
  8
020
  6
CONTINUOUS
 62
     1
 10
760.4027853330043
 20
131.2606074618755
 30
0.0
  0
VERTEX
  5
4AB
  8
020
  6
CONTINUOUS
 62
     1
 10
749.9048257883746
 20
131.2606074618755
 30
0.0
  0
SEQEND
  5
4AC
  8
020
  6
CONTINUOUS
 62
     1
  0
POLYLINE
  5
4AD
  8
020
  6
CONTINUOUS
 62
     1
 66
     1
 10
0.0
 20
0.0
 30
0.0
 70
   129
  0
VERTEX
  5
4AE
  8
020
  6
CONTINUOUS
 62
     1
 10
760.4027853330043
 20
136.4606074618756
 30
0.0
  0
VERTEX
  5
4AF
  8
020
  6
CONTINUOUS
 62
     1
 10
782.8048257883746
 20
136.4606074618756
 30
0.0
  0
VERTEX
  5
4B0
  8
020
  6
CONTINUOUS
 62
     1
 10
782.8048257883746
 20
131.2606074618755
 30
0.0
  0
VERTEX
  5
4B1
  8
020
  6
CONTINUOUS
 62
     1
 10
760.4027853330043
 20
131.2606074618755
 30
0.0
  0
SEQEND
  5
4B2
  8
020
  6
CONTINUOUS
 62
     1
  0
POLYLINE
  5
4B3
  8
020
  6
CONTINUOUS
 62
     1
 66
     1
 10
0.0
 20
0.0
 30
0.0
 70
   129
  0
VERTEX
  5
4B4
  8
020
  6
CONTINUOUS
 62
     1
 10
782.8048257883746
 20
136.4606074618756
 30
0.0
  0
VERTEX
  5
4B5
  8
020
  6
CONTINUOUS
 62
     1
 10
813.4548257883746
 20
136.4606074618756
 30
0.0
  0
VERTEX
  5
4B6
  8
020
  6
CONTINUOUS
 62
     1
 10
813.4548257883746
 20
131.2606074618755
 30
0.0
  0
VERTEX
  5
4B7
  8
020
  6
CONTINUOUS
 62
     1
 10
782.8048257883746
 20
131.2606074618755
 30
0.0
  0
SEQEND
  5
4B8
  8
020
  6
CONTINUOUS
 62
     1
  0
POLYLINE
  5
4B9
  8
020
  6
CONTINUOUS
 62
     1
 66
     1
 10
0.0
 20
0.0
 30
0.0
 70
   129
  0
VERTEX
  5
4BA
  8
020
  6
CONTINUOUS
 62
     1
 10
813.4548257883746
 20
136.4606074618756
 30
0.0
  0
VERTEX
  5
4BB
  8
020
  6
CONTINUOUS
 62
     1
 10
846.5048257883745
 20
136.4606074618756
 30
0.0
  0
VERTEX
  5
4BC
  8
020
  6
CONTINUOUS
 62
     1
 10
846.5048257883745
 20
131.2606074618755
 30
0.0
  0
VERTEX
  5
4BD
  8
020
  6
CONTINUOUS
 62
     1
 10
813.4548257883746
 20
131.2606074618755
 30
0.0
  0
SEQEND
  5
4BE
  8
020
  6
CONTINUOUS
 62
     1
  0
POLYLINE
  5
4BF
  8
020
  6
CONTINUOUS
 62
     1
 66
     1
 10
0.0
 20
0.0
 30
0.0
 70
   129
  0
VERTEX
  5
4C0
  8
020
  6
CONTINUOUS
 62
     1
 10
749.9048257883746
 20
131.2606074618755
 30
0.0
  0
VERTEX
  5
4C1
  8
020
  6
CONTINUOUS
 62
     1
 10
760.4027853330043
 20
131.2606074618755
 30
0.0
  0
VERTEX
  5
4C2
  8
020
  6
CONTINUOUS
 62
     1
 10
760.4027853330043
 20
120.8606074618753
 30
0.0
  0
VERTEX
  5
4C3
  8
020
  6
CONTINUOUS
 62
     1
 10
749.9048257883746
 20
120.8606074618753
 30
0.0
  0
SEQEND
  5
4C4
  8
020
  6
CONTINUOUS
 62
     1
  0
POLYLINE
  5
4C5
  8
020
  6
CONTINUOUS
 62
     1
 66
     1
 10
0.0
 20
0.0
 30
0.0
 70
   129
  0
VERTEX
  5
4C6
  8
020
  6
CONTINUOUS
 62
     1
 10
760.4027853330043
 20
131.2606074618755
 30
0.0
  0
VERTEX
  5
4C7
  8
020
  6
CONTINUOUS
 62
     1
 10
782.8048257883746
 20
131.2606074618755
 30
0.0
  0
VERTEX
  5
4C8
  8
020
  6
CONTINUOUS
 62
     1
 10
782.8048257883746
 20
120.8606074618753
 30
0.0
  0
VERTEX
  5
4C9
  8
020
  6
CONTINUOUS
 62
     1
 10
760.4027853330043
 20
120.8606074618753
 30
0.0
  0
SEQEND
  5
4CA
  8
020
  6
CONTINUOUS
 62
     1
  0
POLYLINE
  5
4CB
  8
020
  6
CONTINUOUS
 62
     1
 66
     1
 10
0.0
 20
0.0
 30
0.0
 70
   129
  0
VERTEX
  5
4CC
  8
020
  6
CONTINUOUS
 62
     1
 10
782.8048257883746
 20
131.2606074618755
 30
0.0
  0
VERTEX
  5
4CD
  8
020
  6
CONTINUOUS
 62
     1
 10
813.4548257883746
 20
131.2606074618755
 30
0.0
  0
VERTEX
  5
4CE
  8
020
  6
CONTINUOUS
 62
     1
 10
813.4548257883746
 20
120.8606074618753
 30
0.0
  0
VERTEX
  5
4CF
  8
020
  6
CONTINUOUS
 62
     1
 10
782.8048257883746
 20
120.8606074618753
 30
0.0
  0
SEQEND
  5
4D0
  8
020
  6
CONTINUOUS
 62
     1
  0
POLYLINE
  5
4D1
  8
020
  6
CONTINUOUS
 62
     1
 66
     1
 10
0.0
 20
0.0
 30
0.0
 70
   129
  0
VERTEX
  5
4D2
  8
020
  6
CONTINUOUS
 62
     1
 10
813.4548257883746
 20
131.2606074618755
 30
0.0
  0
VERTEX
  5
4D3
  8
020
  6
CONTINUOUS
 62
     1
 10
846.5048257883745
 20
131.2606074618755
 30
0.0
  0
VERTEX
  5
4D4
  8
020
  6
CONTINUOUS
 62
     1
 10
846.5048257883745
 20
120.8606074618753
 30
0.0
  0
VERTEX
  5
4D5
  8
020
  6
CONTINUOUS
 62
     1
 10
813.4548257883746
 20
120.8606074618753
 30
0.0
  0
SEQEND
  5
4D6
  8
020
  6
CONTINUOUS
 62
     1
  0
POLYLINE
  5
4D7
  8
020
  6
CONTINUOUS
 62
     1
 66
     1
 10
0.0
 20
0.0
 30
0.0
 70
   129
  0
VERTEX
  5
4D8
  8
020
  6
CONTINUOUS
 62
     1
 10
749.9048257883746
 20
120.8606074618754
 30
0.0
  0
VERTEX
  5
4D9
  8
020
  6
CONTINUOUS
 62
     1
 10
760.4027853330043
 20
120.8606074618754
 30
0.0
  0
VERTEX
  5
4DA
  8
020
  6
CONTINUOUS
 62
     1
 10
760.4027853330043
 20
115.6606074618754
 30
0.0
  0
VERTEX
  5
4DB
  8
020
  6
CONTINUOUS
 62
     1
 10
749.9048257883746
 20
115.6606074618754
 30
0.0
  0
SEQEND
  5
4DC
  8
020
  6
CONTINUOUS
 62
     1
  0
POLYLINE
  5
4DD
  8
020
  6
CONTINUOUS
 62
     1
 66
     1
 10
0.0
 20
0.0
 30
0.0
 70
   129
  0
VERTEX
  5
4DE
  8
020
  6
CONTINUOUS
 62
     1
 10
760.4027853330043
 20
120.8606074618754
 30
0.0
  0
VERTEX
  5
4DF
  8
020
  6
CONTINUOUS
 62
     1
 10
782.8048257883746
 20
120.8606074618754
 30
0.0
  0
VERTEX
  5
4E0
  8
020
  6
CONTINUOUS
 62
     1
 10
782.8048257883746
 20
115.6606074618754
 30
0.0
  0
VERTEX
  5
4E1
  8
020
  6
CONTINUOUS
 62
     1
 10
760.4027853330043
 20
115.6606074618754
 30
0.0
  0
SEQEND
  5
4E2
  8
020
  6
CONTINUOUS
 62
     1
  0
POLYLINE
  5
4E3
  8
020
  6
CONTINUOUS
 62
     1
 66
     1
 10
0.0
 20
0.0
 30
0.0
 70
   129
  0
VERTEX
  5
4E4
  8
020
  6
CONTINUOUS
 62
     1
 10
782.8048257883746
 20
120.8606074618754
 30
0.0
  0
VERTEX
  5
4E5
  8
020
  6
CONTINUOUS
 62
     1
 10
813.4548257883746
 20
120.8606074618754
 30
0.0
  0
VERTEX
  5
4E6
  8
020
  6
CONTINUOUS
 62
     1
 10
813.4548257883746
 20
115.6606074618754
 30
0.0
  0
VERTEX
  5
4E7
  8
020
  6
CONTINUOUS
 62
     1
 10
782.8048257883746
 20
115.6606074618754
 30
0.0
  0
SEQEND
  5
4E8
  8
020
  6
CONTINUOUS
 62
     1
  0
POLYLINE
  5
4E9
  8
020
  6
CONTINUOUS
 62
     1
 66
     1
 10
0.0
 20
0.0
 30
0.0
 70
   129
  0
VERTEX
  5
4EA
  8
020
  6
CONTINUOUS
 62
     1
 10
813.4548257883746
 20
120.8606074618754
 30
0.0
  0
VERTEX
  5
4EB
  8
020
  6
CONTINUOUS
 62
     1
 10
846.5048257883745
 20
120.8606074618754
 30
0.0
  0
VERTEX
  5
4EC
  8
020
  6
CONTINUOUS
 62
     1
 10
846.5048257883745
 20
115.6606074618754
 30
0.0
  0
VERTEX
  5
4ED
  8
020
  6
CONTINUOUS
 62
     1
 10
813.4548257883746
 20
115.6606074618754
 30
0.0
  0
SEQEND
  5
4EE
  8
020
  6
CONTINUOUS
 62
     1
  0
POLYLINE
  5
4EF
  8
020
  6
CONTINUOUS
 62
     1
 66
     1
 10
0.0
 20
0.0
 30
0.0
 70
   129
  0
VERTEX
  5
4F0
  8
020
  6
CONTINUOUS
 62
     1
 10
749.9048257883746
 20
105.2606074618753
 30
0.0
  0
VERTEX
  5
4F1
  8
020
  6
CONTINUOUS
 62
     1
 10
760.4027853330043
 20
105.2606074618753
 30
0.0
  0
VERTEX
  5
4F2
  8
020
  6
CONTINUOUS
 62
     1
 10
760.4027853330043
 20
100.0606074618753
 30
0.0
  0
VERTEX
  5
4F3
  8
020
  6
CONTINUOUS
 62
     1
 10
749.9048257883746
 20
100.0606074618753
 30
0.0
  0
SEQEND
  5
4F4
  8
020
  6
CONTINUOUS
 62
     1
  0
POLYLINE
  5
4F5
  8
020
  6
CONTINUOUS
 62
     1
 66
     1
 10
0.0
 20
0.0
 30
0.0
 70
   129
  0
VERTEX
  5
4F6
  8
020
  6
CONTINUOUS
 62
     1
 10
760.4027853330043
 20
105.2606074618753
 30
0.0
  0
VERTEX
  5
4F7
  8
020
  6
CONTINUOUS
 62
     1
 10
782.8048257883746
 20
105.2606074618753
 30
0.0
  0
VERTEX
  5
4F8
  8
020
  6
CONTINUOUS
 62
     1
 10
782.8048257883746
 20
100.0606074618753
 30
0.0
  0
VERTEX
  5
4F9
  8
020
  6
CONTINUOUS
 62
     1
 10
760.4027853330043
 20
100.0606074618753
 30
0.0
  0
SEQEND
  5
4FA
  8
020
  6
CONTINUOUS
 62
     1
  0
POLYLINE
  5
4FB
  8
020
  6
CONTINUOUS
 62
     1
 66
     1
 10
0.0
 20
0.0
 30
0.0
 70
   129
  0
VERTEX
  5
4FC
  8
020
  6
CONTINUOUS
 62
     1
 10
782.8048257883746
 20
115.6606074618753
 30
0.0
  0
VERTEX
  5
4FD
  8
020
  6
CONTINUOUS
 62
     1
 10
813.4548257883746
 20
115.6606074618753
 30
0.0
  0
VERTEX
  5
4FE
  8
020
  6
CONTINUOUS
 62
     1
 10
813.4548257883746
 20
105.2606074618752
 30
0.0
  0
VERTEX
  5
4FF
  8
020
  6
CONTINUOUS
 62
     1
 10
782.8048257883746
 20
105.2606074618752
 30
0.0
  0
SEQEND
  5
500
  8
020
  6
CONTINUOUS
 62
     1
  0
POLYLINE
  5
501
  8
020
  6
CONTINUOUS
 62
     1
 66
     1
 10
0.0
 20
0.0
 30
0.0
 70
   129
  0
VERTEX
  5
502
  8
020
  6
CONTINUOUS
 62
     1
 10
813.4548257883746
 20
115.6606074618753
 30
0.0
  0
VERTEX
  5
503
  8
020
  6
CONTINUOUS
 62
     1
 10
846.5048257883745
 20
115.6606074618753
 30
0.0
  0
VERTEX
  5
504
  8
020
  6
CONTINUOUS
 62
     1
 10
846.5048257883745
 20
105.2606074618752
 30
0.0
  0
VERTEX
  5
505
  8
020
  6
CONTINUOUS
 62
     1
 10
813.4548257883746
 20
105.2606074618752
 30
0.0
  0
SEQEND
  5
506
  8
020
  6
CONTINUOUS
 62
     1
  0
POLYLINE
  5
507
  8
020
  6
CONTINUOUS
 62
     1
 66
     1
 10
0.0
 20
0.0
 30
0.0
 70
   129
  0
VERTEX
  5
508
  8
020
  6
CONTINUOUS
 62
     1
 10
749.9048257883746
 20
115.6606074618753
 30
0.0
  0
VERTEX
  5
509
  8
020
  6
CONTINUOUS
 62
     1
 10
760.4027853330043
 20
115.6606074618753
 30
0.0
  0
VERTEX
  5
50A
  8
020
  6
CONTINUOUS
 62
     1
 10
760.4027853330043
 20
105.2606074618752
 30
0.0
  0
VERTEX
  5
50B
  8
020
  6
CONTINUOUS
 62
     1
 10
749.9048257883746
 20
105.2606074618752
 30
0.0
  0
SEQEND
  5
50C
  8
020
  6
CONTINUOUS
 62
     1
  0
POLYLINE
  5
50D
  8
020
  6
CONTINUOUS
 62
     1
 66
     1
 10
0.0
 20
0.0
 30
0.0
 70
   129
  0
VERTEX
  5
50E
  8
020
  6
CONTINUOUS
 62
     1
 10
760.4027853330043
 20
115.6606074618753
 30
0.0
  0
VERTEX
  5
50F
  8
020
  6
CONTINUOUS
 62
     1
 10
782.8048257883746
 20
115.6606074618753
 30
0.0
  0
VERTEX
  5
510
  8
020
  6
CONTINUOUS
 62
     1
 10
782.8048257883746
 20
105.2606074618752
 30
0.0
  0
VERTEX
  5
511
  8
020
  6
CONTINUOUS
 62
     1
 10
760.4027853330043
 20
105.2606074618752
 30
0.0
  0
SEQEND
  5
512
  8
020
  6
CONTINUOUS
 62
     1
  0
POLYLINE
  5
513
  8
020
  6
CONTINUOUS
 62
     1
 66
     1
 10
0.0
 20
0.0
 30
0.0
 70
   129
  0
VERTEX
  5
514
  8
020
  6
CONTINUOUS
 62
     1
 10
782.8048257883746
 20
105.2606074618752
 30
0.0
  0
VERTEX
  5
515
  8
020
  6
CONTINUOUS
 62
     1
 10
813.4548257883746
 20
105.2606074618752
 30
0.0
  0
VERTEX
  5
516
  8
020
  6
CONTINUOUS
 62
     1
 10
813.4548257883746
 20
100.0606074618752
 30
0.0
  0
VERTEX
  5
517
  8
020
  6
CONTINUOUS
 62
     1
 10
782.8048257883746
 20
100.0606074618752
 30
0.0
  0
SEQEND
  5
518
  8
020
  6
CONTINUOUS
 62
     1
  0
POLYLINE
  5
519
  8
020
  6
CONTINUOUS
 62
     1
 66
     1
 10
0.0
 20
0.0
 30
0.0
 70
   129
  0
VERTEX
  5
51A
  8
020
  6
CONTINUOUS
 62
     1
 10
813.4548257883746
 20
105.2606074618752
 30
0.0
  0
VERTEX
  5
51B
  8
020
  6
CONTINUOUS
 62
     1
 10
846.5048257883745
 20
105.2606074618752
 30
0.0
  0
VERTEX
  5
51C
  8
020
  6
CONTINUOUS
 62
     1
 10
846.5048257883745
 20
100.0606074618752
 30
0.0
  0
VERTEX
  5
51D
  8
020
  6
CONTINUOUS
 62
     1
 10
813.4548257883746
 20
100.0606074618752
 30
0.0
  0
SEQEND
  5
51E
  8
020
  6
CONTINUOUS
 62
     1
  0
POLYLINE
  5
51F
  8
020
  6
CONTINUOUS
 62
     1
 66
     1
 10
0.0
 20
0.0
 30
0.0
 70
   129
  0
VERTEX
  5
520
  8
020
  6
CONTINUOUS
 62
     1
 10
749.9048257883746
 20
100.0606074618753
 30
0.0
  0
VERTEX
  5
521
  8
020
  6
CONTINUOUS
 62
     1
 10
760.4027853330043
 20
100.0606074618753
 30
0.0
  0
VERTEX
  5
522
  8
020
  6
CONTINUOUS
 62
     1
 10
760.4027853330043
 20
94.86060746187519
 30
0.0
  0
VERTEX
  5
523
  8
020
  6
CONTINUOUS
 62
     1
 10
749.9048257883746
 20
94.86060746187519
 30
0.0
  0
SEQEND
  5
524
  8
020
  6
CONTINUOUS
 62
     1
  0
POLYLINE
  5
525
  8
020
  6
CONTINUOUS
 62
     1
 66
     1
 10
0.0
 20
0.0
 30
0.0
 70
   129
  0
VERTEX
  5
526
  8
020
  6
CONTINUOUS
 62
     1
 10
760.4027853330043
 20
100.0606074618753
 30
0.0
  0
VERTEX
  5
527
  8
020
  6
CONTINUOUS
 62
     1
 10
782.8048257883746
 20
100.0606074618753
 30
0.0
  0
VERTEX
  5
528
  8
020
  6
CONTINUOUS
 62
     1
 10
782.8048257883746
 20
94.86060746187519
 30
0.0
  0
VERTEX
  5
529
  8
020
  6
CONTINUOUS
 62
     1
 10
760.4027853330043
 20
94.86060746187519
 30
0.0
  0
SEQEND
  5
52A
  8
020
  6
CONTINUOUS
 62
     1
  0
POLYLINE
  5
52B
  8
020
  6
CONTINUOUS
 62
     1
 66
     1
 10
0.0
 20
0.0
 30
0.0
 70
   129
  0
VERTEX
  5
52C
  8
020
  6
CONTINUOUS
 62
     1
 10
782.8048257883746
 20
100.0606074618753
 30
0.0
  0
VERTEX
  5
52D
  8
020
  6
CONTINUOUS
 62
     1
 10
813.4548257883746
 20
100.0606074618753
 30
0.0
  0
VERTEX
  5
52E
  8
020
  6
CONTINUOUS
 62
     1
 10
813.4548257883746
 20
94.86060746187519
 30
0.0
  0
VERTEX
  5
52F
  8
020
  6
CONTINUOUS
 62
     1
 10
782.8048257883746
 20
94.86060746187519
 30
0.0
  0
SEQEND
  5
530
  8
020
  6
CONTINUOUS
 62
     1
  0
POLYLINE
  5
531
  8
020
  6
CONTINUOUS
 62
     1
 66
     1
 10
0.0
 20
0.0
 30
0.0
 70
   129
  0
VERTEX
  5
532
  8
020
  6
CONTINUOUS
 62
     1
 10
813.4548257883746
 20
100.0606074618753
 30
0.0
  0
VERTEX
  5
533
  8
020
  6
CONTINUOUS
 62
     1
 10
846.5048257883745
 20
100.0606074618753
 30
0.0
  0
VERTEX
  5
534
  8
020
  6
CONTINUOUS
 62
     1
 10
846.5048257883745
 20
94.86060746187519
 30
0.0
  0
VERTEX
  5
535
  8
020
  6
CONTINUOUS
 62
     1
 10
813.4548257883746
 20
94.86060746187519
 30
0.0
  0
SEQEND
  5
536
  8
020
  6
CONTINUOUS
 62
     1
  0
TEXT
  5
537
  8
SAKUZU
 62
     1
 10
792.6680698359936
 20
132.8494465039127
 30
0.0
 40
2.124016203703704
  1
ＳＵＳ４３０
  7
YUGOTHIC_MEDIUM
 72
     1
 11
798.1298257883745
 21
132.8494465039127
 31
0.0
  0
TEXT
  5
538
  8
SAKUZU
 62
     1
 10
792.6680698359936
 20
109.3881630174309
 30
0.0
 40
2.124016203703704
  1
ＳＵＳ４３０
  7
YUGOTHIC_MEDIUM
 72
     1
 11
798.1298257883745
 21
109.3881630174309
 31
0.0
  0
TEXT
  5
539
  8
SAKUZU
 62
     1
 10
796.3092404709142
 20
117.1881630174309
 30
0.0
 40
2.124016203703704
  1
塩ビ
  7
YUGOTHIC_MEDIUM
 72
     1
 11
798.1298257883745
 21
117.1881630174309
 31
0.0
  0
TEXT
  5
53A
  8
SAKUZU
 62
     1
 10
791.7577771772634
 20
124.3992619215423
 30
0.0
 40
2.124016203703704
  1
ポリプロピレン
  7
YUGOTHIC_MEDIUM
 72
     1
 11
798.1298257883745
 21
124.3992619215423
 31
0.0
  0
TEXT
  5
53B
  8
SAKUZU
 62
     1
 10
820.6876590678783
 20
137.9881630174311
 30
0.0
 40
2.124016203703704
  1
t 1.0 NO.4仕上
  7
YUGOTHIC_MEDIUM
  0
TEXT
  5
53C
  8
SAKUZU
 62
     1
 10
820.6876590678783
 20
132.7881630174311
 30
0.0
 40
2.124016203703704
  1
t 0.6 NO.4仕上
  7
YUGOTHIC_MEDIUM
  0
TEXT
  5
53D
  8
SAKUZU
 62
     1
 10
814.6174527503886
 20
124.3992619215423
 30
0.0
 40
2.124016203703704
  1
50A φ186キングドレン
  7
YUGOTHIC_MEDIUM
  0
TEXT
  5
53E
  8
SAKUZU
 62
     1
 10
820.6876590678783
 20
112.070607462063
 30
0.0
 40
2.124016203703704
  1
t 1.0 NO.4仕上
  7
YUGOTHIC_MEDIUM
  0
TEXT
  5
53F
  8
SAKUZU
 62
     1
 10
814.5140479567672
 20
106.5407083516972
 30
0.0
 40
2.124016203703704
  1
排水孔　ゴムリング付き
  7
YUGOTHIC_MEDIUM
  0
TEXT
  5
540
  8
SAKUZU
 62
     1
 10
823.7709367649118
 20
101.5881630174308
 30
0.0
 40
2.124016203703704
  1
t 1.0 φ38
  7
YUGOTHIC_MEDIUM
  0
TEXT
  5
541
  8
SAKUZU
 62
     1
 10
821.7871918598032
 20
117.1881630174309
 30
0.0
 40
2.124016203703704
  1
金具：ＳＵＳ３０４
  7
YUGOTHIC_MEDIUM
 72
     1
 11
829.9798257883747
 21
117.1881630174309
 31
0.0
  0
LINE
  5
542
  8
SAKUZU
  6
CONTINUOUS
 62
     1
 10
1662.641967762806
 20
5249.747429998732
 30
0.0
 11
1782.641952504017
 21
5249.747399481153
 31
0.0
  0
LINE
  5
543
  8
SAKUZU
  6
CONTINUOUS
 62
     1
 10
1658.641967762806
 20
5256.501336248732
 30
0.0
 11
1786.641983021595
 21
5256.501336248732
 31
0.0
  0
LINE
  5
544
  8
SAKUZU
  6
CONTINUOUS
 62
     1
 10
1692.841964711048
 20
5187.001336248732
 30
0.0
 11
1752.441970814564
 21
5187.001336248732
 31
0.0
  0
LINE
  5
545
  8
SAKUZU
  6
CONTINUOUS
 62
     1
 10
1692.841964711048
 20
5171.501336248732
 30
0.0
 11
1752.441970814564
 21
5171.501336248732
 31
0.0
  0
LINE
  5
546
  8
SAKUZU
  6
CONTINUOUS
 62
     1
 10
1672.588806141712
 20
5191.501336248732
 30
0.0
 11
1772.695053089954
 21
5191.501336248732
 31
0.0
  0
LINE
  5
547
  8
SAKUZU
  6
CONTINUOUS
 62
     1
 10
1377.641967762806
 20
5342.501320989943
 30
0.0
 11
1907.641967762806
 21
5342.501320989943
 31
0.0
  0
LINE
  5
548
  8
SAKUZU
  6
CONTINUOUS
 62
     1
 10
1372.641967762806
 20
5617.501259954786
 30
0.0
 11
1902.641967762806
 21
5617.501259954786
 31
0.0
  0
LINE
  5
549
  8
SAKUZU
  6
CONTINUOUS
 62
     1
 10
1967.641967762806
 20
5577.501259954786
 30
0.0
 11
1367.641967762806
 21
5577.501259954786
 31
0.0
  0
LINE
  5
54A
  8
SAKUZU
  6
CONTINUOUS
 62
     1
 10
-424.6178737469304
 20
5249.747417124128
 30
0.0
 11
-304.6178890057195
 21
5249.747394235945
 31
0.0
  0
LINE
  5
54B
  8
SAKUZU
  6
CONTINUOUS
 62
     1
 10
-428.6178737469304
 20
5256.501323374128
 30
0.0
 11
-300.6178737469309
 21
5256.501323374128
 31
0.0
  0
LINE
  5
54C
  8
SAKUZU
  6
CONTINUOUS
 62
     1
 10
-394.4178729839914
 20
5187.001315744734
 30
0.0
 11
-334.8178726025217
 21
5187.001315744734
 31
0.0
  0
LINE
  5
54D
  8
SAKUZU
  6
CONTINUOUS
 62
     1
 10
-394.4178729839914
 20
5171.501315744734
 30
0.0
 11
-334.8178726025217
 21
5171.501315744734
 31
0.0
  0
LINE
  5
54E
  8
SAKUZU
  6
CONTINUOUS
 62
     1
 10
-414.6710353680241
 20
5191.501315744734
 30
0.0
 11
-314.5647884197824
 21
5191.501315744734
 31
0.0
  0
LINE
  5
54F
  8
SAKUZU
  6
CONTINUOUS
 62
     1
 10
-589.6178422756784
 20
5342.501320989943
 30
0.0
 11
285.3820966891661
 21
5342.501320989943
 31
0.0
  0
LINE
  5
550
  8
SAKUZU
  6
CONTINUOUS
 62
     1
 10
-602.1178422756784
 20
5577.501259954786
 30
0.0
 11
297.8820966891662
 21
5577.501259954786
 31
0.0
  0
LINE
  5
551
  8
SAKUZU
  6
CONTINUOUS
 62
     1
 10
297.8820966891662
 20
5617.501259954786
 30
0.0
 11
-602.1178422756784
 21
5617.501259954786
 31
0.0
  0
LINE
  5
552
  8
SAKUZU
  6
CONTINUOUS
 62
     1
 10
-602.1178422756784
 20
5767.501259954786
 30
0.0
 11
297.8820966891662
 21
5767.501259954786
 31
0.0
  0
LINE
  5
553
  8
SAKUZU
  6
VW-01____
 62
    17
 10
-432.6178737469304
 20
5357.50132146678
 30
0.0
 11
-432.2881523085348
 21
5342.501320989943
 31
0.0
  0
LINE
  5
554
  8
SAKUZU
  6
CONTINUOUS
 62
     1
 10
-424.6178737469304
 20
5249.747417124128
 30
0.0
 11
-424.6178737469304
 21
5200.472324045515
 31
0.0
  0
LINE
  5
555
  8
SAKUZU
  6
CONTINUOUS
 62
     1
 10
-394.4178729839914
 20
5171.501315744734
 30
0.0
 11
-394.4178729839914
 21
5187.001315744734
 31
0.0
  0
ARC
  5
556
  8
SAKUZU
  6
CONTINUOUS
 62
     1
 10
-414.6710353680241
 20
5201.501315744734
 30
0.0
 40
9.999999999999854
 50
185.9061351743423
 51
269.9999969295311
  0
LINE
  5
557
  8
SAKUZU
  6
CONTINUOUS
 62
     1
 10
-394.4178729839914
 20
5187.001315744734
 30
0.0
 11
-398.9178729839914
 21
5191.501315744734
 31
0.0
  0
LINE
  5
558
  8
SAKUZU
  6
CONTINUOUS
 62
     1
 10
-432.2881523085348
 20
5342.501320989943
 30
0.0
 11
-428.6875873394602
 21
5258.134860666609
 31
0.0
  0
ARC
  5
559
  8
SAKUZU
  6
CONTINUOUS
 62
     1
 10
-423.6921344586008
 20
5258.34805646739
 30
0.0
 40
4.999999999999869
 50
182.4437607390565
 51
218.6598034320793
  0
LINE
  5
55A
  8
SAKUZU
  6
CONTINUOUS
 62
     1
 10
-427.5964809246652
 20
5255.224582346296
 30
0.0
 11
-425.7135272808664
 21
5252.870891245222
 31
0.0
  0
ARC
  5
55B
  8
SAKUZU
  6
CONTINUOUS
 62
     1
 10
-429.6178737469304
 20
5249.747417124128
 30
0.0
 40
5.0
 50
0.0
 51
38.65980957302975
  0
LINE
  5
55C
  8
SAKUZU
  6
CONTINUOUS
 62
     1
 10
-602.1178422756784
 20
5577.501259954786
 30
0.0
 11
-602.1178422756784
 21
5767.501259954786
 31
0.0
  0
ARC
  5
55D
  8
SAKUZU
  6
VW-01____
 62
    17
 10
-442.6178737469304
 20
5357.50132146678
 30
0.0
 40
10.0
 50
0.0
 51
90.00000307046889
  0
LINE
  5
55E
  8
SAKUZU
  6
ISO-08_____
 62
    17
 10
-364.6178727932565
 20
5121.501315744734
 30
0.0
 11
-364.6178727932565
 21
5419.675480163796
 31
0.0
  0
LINE
  5
55F
  8
SAKUZU
  6
VW-01____
 62
    17
 10
-296.9475373516206
 20
5342.501320989943
 30
0.0
 11
-296.6178737469307
 21
5357.50132146678
 31
0.0
  0
LINE
  5
560
  8
SAKUZU
  6
CONTINUOUS
 62
     1
 10
-304.6178890057195
 20
5200.472324045515
 30
0.0
 11
-304.6178890057195
 21
5249.747394235945
 31
0.0
  0
LINE
  5
561
  8
SAKUZU
  6
CONTINUOUS
 62
     1
 10
-334.8178726025217
 20
5171.501315744734
 30
0.0
 11
-334.8178726025217
 21
5187.001315744734
 31
0.0
  0
LINE
  5
562
  8
SAKUZU
  6
CONTINUOUS
 62
     1
 10
-334.8178726025217
 20
5187.001315744734
 30
0.0
 11
-330.317870695173
 21
5191.501315744734
 31
0.0
  0
ARC
  5
563
  8
SAKUZU
  6
CONTINUOUS
 62
     1
 10
-314.5647884197824
 20
5201.501315744734
 30
0.0
 40
10.00000000000001
 50
269.9999969295311
 51
354.0938586847334
  0
LINE
  5
564
  8
SAKUZU
  6
CONTINUOUS
 62
     1
 10
-300.5481563397043
 20
5258.134860666609
 30
0.0
 11
-296.9475373516206
 21
5342.501320989943
 31
0.0
  0
LINE
  5
565
  8
SAKUZU
  6
CONTINUOUS
 62
     1
 10
-301.6392627544992
 20
5255.224582346296
 30
0.0
 11
-303.5222354717839
 21
5252.870868357038
 31
0.0
  0
ARC
  5
566
  8
SAKUZU
  6
CONTINUOUS
 62
     1
 10
-305.5436092205637
 20
5258.34805646739
 30
0.0
 40
5.000000000000473
 50
321.34019570686
 51
357.5561947606681
  0
ARC
  5
567
  8
SAKUZU
  6
CONTINUOUS
 62
     1
 10
-299.6178890057199
 20
5249.747394235945
 30
0.0
 40
5.000000000000255
 50
141.3402018477925
 51
180.0
  0
ARC
  5
568
  8
SAKUZU
  6
VW-01____
 62
    17
 10
-286.6178737469307
 20
5357.50132146678
 30
0.0
 40
10.00000000000001
 50
90.00000307046894
 51
180.0
  0
LINE
  5
569
  8
SAKUZU
  6
CONTINUOUS
 62
     1
 10
297.8820966891662
 20
5767.501259954786
 30
0.0
 11
297.8820966891662
 21
5577.501259954786
 31
0.0
  0
LINE
  5
56A
  8
SAKUZU
  6
VW-01____
 62
    17
 10
1654.649475087025
 20
5362.270974310255
 30
0.0
 11
1654.971689017519
 21
5342.501320989943
 31
0.0
  0
LINE
  5
56B
  8
SAKUZU
  6
CONTINUOUS
 62
     1
 10
1662.641967762806
 20
5249.747429998732
 30
0.0
 11
1662.641967762806
 21
5200.472344549513
 31
0.0
  0
LINE
  5
56C
  8
SAKUZU
  6
CONTINUOUS
 62
     1
 10
1692.841964711048
 20
5171.501336248732
 30
0.0
 11
1692.841964711048
 21
5187.001336248732
 31
0.0
  0
ARC
  5
56D
  8
SAKUZU
  6
CONTINUOUS
 62
     1
 10
1672.588806141712
 20
5201.501336248732
 30
0.0
 40
10.00000000000031
 50
185.906135174342
 51
269.9999969295311
  0
LINE
  5
56E
  8
SAKUZU
  6
CONTINUOUS
 62
     1
 10
1692.841964711048
 20
5187.001336248732
 30
0.0
 11
1688.341964711048
 21
5191.501336248732
 31
0.0
  0
LINE
  5
56F
  8
SAKUZU
  6
CONTINUOUS
 62
     1
 10
1654.971689017519
 20
5342.501320989943
 30
0.0
 11
1658.572250355579
 21
5258.134881170607
 31
0.0
  0
ARC
  5
570
  8
SAKUZU
  6
CONTINUOUS
 62
     1
 10
1663.567703236439
 20
5258.34804645381
 30
0.0
 40
5.000000000000097
 50
182.4437607390564
 51
218.6598034320793
  0
LINE
  5
571
  8
SAKUZU
  6
CONTINUOUS
 62
     1
 10
1659.663360585072
 20
5255.224572332716
 30
0.0
 11
1661.546310414173
 21
5252.870904119825
 31
0.0
  0
ARC
  5
572
  8
SAKUZU
  6
CONTINUOUS
 62
     1
 10
1657.641967762806
 20
5249.747429998732
 30
0.0
 40
5.0
 50
0.0
 51
38.65980957302975
  0
LINE
  5
573
  8
SAKUZU
  6
CONTINUOUS
 62
     1
 10
1367.641967762806
 20
5577.501259954786
 30
0.0
 11
1367.641967762806
 21
5612.501259954786
 31
0.0
  0
ARC
  5
574
  8
SAKUZU
  6
CONTINUOUS
 62
     1
 10
1372.641967762806
 20
5612.501259954786
 30
0.0
 40
5.000000000000007
 50
90.00000307046894
 51
180.0
  0
ARC
  5
575
  8
SAKUZU
  6
VW-01____
 62
    17
 10
1644.649475087025
 20
5362.270974310255
 30
0.0
 40
10.00000000000014
 50
1.262423228281387
 51
68.1397235532452
  0
LINE
  5
576
  8
SAKUZU
  6
ISO-08_____
 62
    17
 10
-489.6178727932561
 20
6447.478526744466
 30
0.0
 11
-239.6178727932557
 21
6447.478526744466
 31
0.0
  0
CIRCLE
  5
577
  8
SAKUZU
  6
CONTINUOUS
 62
     1
 10
-364.6178727932565
 20
6447.478526744466
 30
0.0
 40
75.00000000000011
  0
CIRCLE
  5
578
  8
SAKUZU
  6
CONTINUOUS
 62
     1
 10
-364.6178727932565
 20
6447.478526744466
 30
0.0
 40
93.00000000000023
  0
LINE
  5
579
  8
SAKUZU
  6
CONTINUOUS
 62
     1
 10
-195.1178727932561
 20
6132.478404674153
 30
0.0
 11
-534.1178422756784
 21
6132.478404674153
 31
0.0
  0
LINE
  5
57A
  8
SAKUZU
  6
CONTINUOUS
 62
     1
 10
-534.1178422756784
 20
6592.478526744466
 30
0.0
 11
-195.1178727932561
 21
6592.478526744466
 31
0.0
  0
LINE
  5
57B
  8
SAKUZU
  6
CONTINUOUS
 62
     1
 10
-602.1178422756784
 20
6632.478526744466
 30
0.0
 11
297.8820966891662
 21
6632.478526744466
 31
0.0
  0
LINE
  5
57C
  8
SAKUZU
  6
CONTINUOUS
 62
     1
 10
297.8820966891662
 20
6692.478526744466
 30
0.0
 11
-602.1178422756784
 21
6692.478526744466
 31
0.0
  0
LINE
  5
57D
  8
SAKUZU
  6
CONTINUOUS
 62
     1
 10
-602.1178422756784
 20
6092.478404674153
 30
0.0
 11
297.8820966891662
 21
6092.478404674153
 31
0.0
  0
LINE
  5
57E
  8
SAKUZU
  6
CONTINUOUS
 62
     1
 10
-562.1178422756784
 20
6160.478404674153
 30
0.0
 11
-562.1178422756784
 21
6564.478526744466
 31
0.0
  0
LINE
  5
57F
  8
SAKUZU
  6
CONTINUOUS
 62
     1
 10
-602.1178422756784
 20
6692.478526744466
 30
0.0
 11
-602.1178422756784
 21
6092.478404674153
 31
0.0
  0
ARC
  5
580
  8
SAKUZU
  6
CONTINUOUS
 62
     1
 10
-534.1178422756784
 20
6160.478404674153
 30
0.0
 40
28.0
 50
180.0
 51
269.9999969295297
  0
ARC
  5
581
  8
SAKUZU
  6
CONTINUOUS
 62
     1
 10
-534.1178422756784
 20
6564.478526744466
 30
0.0
 40
28.00000000000004
 50
90.00000307046838
 51
180.0
  0
LINE
  5
582
  8
SAKUZU
  6
ISO-08_____
 62
    17
 10
-364.6178727932565
 20
6572.478526744466
 30
0.0
 11
-364.6178727932565
 21
6322.478526744466
 31
0.0
  0
LINE
  5
583
  8
SAKUZU
  6
CONTINUOUS
 62
     1
 10
-167.1178727932561
 20
6564.478526744466
 30
0.0
 11
-167.1178727932561
 21
6160.478404674153
 31
0.0
  0
LINE
  5
584
  8
SAKUZU
  6
CONTINUOUS
 62
     1
 10
297.8820966891662
 20
6092.478404674153
 30
0.0
 11
297.8820966891662
 21
6692.478526744466
 31
0.0
  0
ARC
  5
585
  8
SAKUZU
  6
CONTINUOUS
 62
     1
 10
-195.1178727932561
 20
6160.478404674153
 30
0.0
 40
28.00000000000004
 50
269.9999969295297
 51
0.0
  0
ARC
  5
586
  8
SAKUZU
  6
CONTINUOUS
 62
     1
 10
-195.1178727932561
 20
6564.478526744466
 30
0.0
 40
28.0
 50
0.0
 51
90.00000307046933
  0
LINE
  5
587
  8
SAKUZU
  6
ISO-08_____
 62
    17
 10
1722.641967762806
 20
5121.501336248732
 30
0.0
 11
1722.641967762806
 21
5419.675500667794
 31
0.0
  0
LINE
  5
588
  8
SAKUZU
  6
VW-01____
 62
    17
 10
1790.312318606308
 20
5342.501320989943
 30
0.0
 11
1790.649490345814
 21
5358.235818060255
 31
0.0
  0
LINE
  5
589
  8
SAKUZU
  6
CONTINUOUS
 62
     1
 10
1815.542434681751
 20
5265.501336248732
 30
0.0
 11
1869.641967762806
 21
5265.501336248732
 31
0.0
  0
LINE
  5
58A
  8
SAKUZU
  6
CONTINUOUS
 62
     1
 10
1869.641967762806
 20
5297.501320989943
 30
0.0
 11
1815.542434681751
 21
5297.501320989943
 31
0.0
  0
LINE
  5
58B
  8
SAKUZU
  6
CONTINUOUS
 62
     1
 10
1782.641952504017
 20
5200.472344549513
 30
0.0
 11
1782.641952504017
 21
5249.747399481153
 31
0.0
  0
LINE
  5
58C
  8
SAKUZU
  6
CONTINUOUS
 62
     1
 10
1752.441970814564
 20
5171.501336248732
 30
0.0
 11
1752.441970814564
 21
5187.001336248732
 31
0.0
  0
LINE
  5
58D
  8
SAKUZU
  6
CONTINUOUS
 62
     1
 10
1752.441970814564
 20
5187.001336248732
 30
0.0
 11
1756.941970814564
 21
5191.501336248732
 31
0.0
  0
ARC
  5
58E
  8
SAKUZU
  6
CONTINUOUS
 62
     1
 10
1772.695053089954
 20
5201.501336248732
 30
0.0
 40
10.00000000000001
 50
269.9999969295311
 51
354.0938586847333
  0
ARC
  5
58F
  8
SAKUZU
  6
CONTINUOUS
 62
     1
 10
1781.716232289173
 20
5258.34804645381
 30
0.0
 40
5.000000000000473
 50
321.34019570686
 51
357.5561947606685
  0
LINE
  5
590
  8
SAKUZU
  6
CONTINUOUS
 62
     1
 10
1785.620590199329
 20
5255.224572332716
 30
0.0
 11
1783.73759459386
 21
5252.870873602247
 31
0.0
  0
ARC
  5
591
  8
SAKUZU
  6
CONTINUOUS
 62
     1
 10
1787.641952504017
 20
5249.747399481153
 30
0.0
 40
5.000000000000255
 50
141.3402018477925
 51
180.0
  0
LINE
  5
592
  8
SAKUZU
  6
CONTINUOUS
 62
     1
 10
1786.711685170032
 20
5258.134850653028
 30
0.0
 11
1790.312318606308
 21
5342.501320989943
 31
0.0
  0
LINE
  5
593
  8
SAKUZU
  6
CONTINUOUS
 62
     1
 10
1797.542434681751
 20
5304.501320989943
 30
0.0
 11
1797.542434681751
 21
5258.501336248732
 31
0.0
  0
LINE
  5
594
  8
SAKUZU
  6
CONTINUOUS
 62
     1
 10
1815.542434681751
 20
5258.501336248732
 30
0.0
 11
1815.542434681751
 21
5304.501320989943
 31
0.0
  0
LINE
  5
595
  8
SAKUZU
  6
CONTINUOUS
 62
     1
 10
1797.542434681751
 20
5261.001336248732
 30
0.0
 11
1786.834030140735
 21
5261.001336248732
 31
0.0
  0
LINE
  5
596
  8
SAKUZU
  6
CONTINUOUS
 62
     1
 10
1797.542434681751
 20
5258.501336248732
 30
0.0
 11
1815.542434681751
 21
5258.501336248732
 31
0.0
  0
LINE
  5
597
  8
SAKUZU
  6
CONTINUOUS
 62
     1
 10
1797.542434681751
 20
5302.001320989943
 30
0.0
 11
1788.583847035267
 21
5302.001320989943
 31
0.0
  0
LINE
  5
598
  8
SAKUZU
  6
CONTINUOUS
 62
     1
 10
1815.542434681751
 20
5304.501320989943
 30
0.0
 11
1797.542434681751
 21
5304.501320989943
 31
0.0
  0
LINE
  5
599
  8
SAKUZU
  6
CONTINUOUS
 62
     1
 10
1967.641967762806
 20
5767.501259954786
 30
0.0
 11
1967.641967762806
 21
5577.501259954786
 31
0.0
  0
ARC
  5
59A
  8
SAKUZU
  6
VW-01____
 62
    17
 10
1800.649490345814
 20
5358.235818060255
 30
0.0
 40
9.999999999999954
 50
109.0527154875441
 51
180.0
  0
LINE
  5
59B
  8
SAKUZU
  6
CONTINUOUS
 62
     1
 10
1907.641967762806
 20
5622.501259954786
 30
0.0
 11
1907.641967762806
 21
5762.501259954786
 31
0.0
  0
ARC
  5
59C
  8
SAKUZU
  6
CONTINUOUS
 62
     1
 10
1902.641967762806
 20
5622.501259954786
 30
0.0
 40
5.000000000000007
 50
269.9999969295311
 51
0.0
  0
LINE
  5
59D
  8
SAKUZU
  6
CONTINUOUS
 62
     1
 10
1912.641967762806
 20
5767.501259954786
 30
0.0
 11
1967.641967762806
 21
5767.501259954786
 31
0.0
  0
ARC
  5
59E
  8
SAKUZU
  6
CONTINUOUS
 62
     1
 10
1912.641967762806
 20
5762.501259954786
 30
0.0
 40
5.000000000000007
 50
90.00000307046894
 51
180.0
  0
DIMENSION
  5
59F
  8
SAKUZU
 62
     2
  2
*D5
 10
-602.1178422756784
 20
6892.478526744466
 30
0.0
 11
-152.1178727932561
 21
6908.557647622842
 31
0.0
 70
    32
  3
SPEAC
 13
297.8820966891662
 23
6692.478526744466
 33
0.0
 14
-602.1178422756784
 24
6692.478526744466
 34
0.0
  0
DIMENSION
  5
5A0
  8
SAKUZU
 62
     2
  2
*D6
 10
-602.1178422756784
 20
6792.478526744466
 30
0.0
 11
-582.1178422756784
 21
6808.557647622842
 31
0.0
 70
    32
  3
SPEAC
 13
-562.1178422756784
 23
6692.478526744466
 33
0.0
 14
-602.1178422756784
 24
6692.478526744466
 34
0.0
  0
DIMENSION
  5
5A3
  8
SAKUZU
 62
     2
  2
*D7
 10
-562.1178422756784
 20
6792.478526744466
 30
0.0
 11
-364.6178575344672
 21
6808.557647622842
 31
0.0
 70
    32
  3
SPEAC
 13
-167.1178727932561
 23
6692.478526744466
 33
0.0
 14
-562.1178422756784
 24
6692.478526744466
 34
0.0
  0
DIMENSION
  5
5A4
  8
SAKUZU
 62
     2
  2
*D8
 10
257.882096689166
 20
6792.478526744466
 30
0.0
 11
277.8820966891661
 21
6808.557647622842
 31
0.0
 70
    32
  3
SPEAC
 13
297.8820966891662
 23
6692.478526744466
 33
0.0
 14
257.882096689166
 24
6692.478526744466
 34
0.0
  0
DIMENSION
  5
5A7
  8
SAKUZU
 62
     2
  2
*D9
 10
497.8820966891662
 20
6692.478526744466
 30
0.0
 11
481.8029758107905
 21
6392.47846570931
 31
0.0
 70
    32
  3
SPEAC
 13
297.8820966891662
 23
6092.478404674153
 33
0.0
 14
297.8820966891662
 24
6692.478526744466
 34
0.0
 50
-90.0
  0
DIMENSION
  5
5A8
  8
SAKUZU
 62
     2
  2
*D10
 10
397.8820966891662
 20
6692.478526744466
 30
0.0
 11
381.8029758107904
 21
6662.478526744466
 31
0.0
 70
    32
  3
SPEAC
 13
297.8820966891662
 23
6632.478526744466
 33
0.0
 14
297.8820966891662
 24
6692.478526744466
 34
0.0
 50
-90.0
  0
DIMENSION
  5
5A9
  8
SAKUZU
 62
     2
  2
*D11
 10
397.8820966891662
 20
6632.478526744466
 30
0.0
 11
381.8029758107904
 21
6612.478526744466
 31
0.0
 70
    32
  3
SPEAC
 13
297.8820966891662
 23
6592.478526744466
 33
0.0
 14
297.8820966891662
 24
6632.478526744466
 34
0.0
 50
-90.0
  0
DIMENSION
  5
5AC
  8
SAKUZU
 62
     2
  2
*D12
 10
397.8820966891662
 20
6592.478526744466
 30
0.0
 11
381.8029758107905
 21
6362.47846570931
 31
0.0
 70
    32
  3
SPEAC
 13
297.8820966891662
 23
6132.478404674153
 33
0.0
 14
297.8820966891662
 24
6592.478526744466
 34
0.0
 50
-90.0
  0
DIMENSION
  5
5AD
  8
SAKUZU
 62
     2
  2
*D13
 10
397.8820966891662
 20
6132.478404674153
 30
0.0
 11
381.8029758107904
 21
6112.478404674153
 31
0.0
 70
    32
  3
SPEAC
 13
297.8820966891662
 23
6092.478404674153
 33
0.0
 14
297.8820966891662
 24
6132.478404674153
 34
0.0
 50
-90.0
  0
DIMENSION
  5
5B0
  8
SAKUZU
 62
     2
  2
*D14
 10
-602.1178422756784
 20
5992.478404674153
 30
0.0
 11
-483.3678575344675
 21
6008.557525552529
 31
0.0
 70
    32
  3
SPEAC
 13
-364.6178727932565
 23
6322.478526744466
 33
0.0
 14
-602.1178422756784
 24
6092.478404674153
 34
0.0
  0
DIMENSION
  5
5B1
  8
SAKUZU
 62
     2
  2
*D15
 10
60.38212720674392
 20
5992.478404674153
 30
0.0
 11
179.1321119479551
 21
6008.557525552529
 31
0.0
 70
    32
  3
SPEAC
 13
297.8820966891662
 23
6092.478404674153
 33
0.0
 14
60.38212720674392
 24
6322.478526744466
 34
0.0
  0
DIMENSION
  5
5B2
  8
SAKUZU
 62
     2
  2
*D16
 10
1167.641967762806
 20
4767.501320989943
 30
0.0
 11
1151.56284688443
 21
5192.501290472364
 31
0.0
 70
    32
  3
SPEAC
 13
1372.641967762806
 23
5617.501259954786
 33
0.0
 14
1383.041966427662
 24
4767.501320989943
 34
0.0
 50
-90.0
  0
DIMENSION
  5
5B3
  8
SAKUZU
 62
     2
  2
*D17
 10
1267.641967762806
 20
5617.501259954786
 30
0.0
 11
1251.56284688443
 21
5597.501259954786
 31
0.0
 70
    32
  3
SPEAC
 13
1367.641967762806
 23
5577.501259954786
 33
0.0
 14
1372.641967762806
 24
5617.501259954786
 34
0.0
 50
-90.0
  0
DIMENSION
  5
5B6
  8
SAKUZU
 62
     2
  2
*D18
 10
1267.641967762806
 20
4767.501320989943
 30
0.0
 11
1251.56284688443
 21
4867.501320989942
 31
0.0
 70
    32
  3
SPEAC
 13
1376.141967762806
 23
4967.501320989941
 33
0.0
 14
1383.041966427662
 24
4767.501320989943
 34
0.0
 50
-90.0
  0
DIMENSION
  5
5B7
  8
SAKUZU
 62
     2
  2
*D19
 10
1967.641967762806
 20
4667.501320989943
 30
0.0
 11
1845.141967762806
 21
4683.580441868319
 31
0.0
 70
    32
  3
SPEAC
 13
1722.641967762806
 23
5121.501336248732
 33
0.0
 14
1967.641967762806
 24
5577.501259954786
 34
0.0
  0
DIMENSION
  5
5B8
  8
SAKUZU
 62
     2
  2
*D20
 10
2067.641967762806
 20
5617.501259954786
 30
0.0
 11
2051.56284688443
 21
5492.501259954786
 31
0.0
 70
    32
  3
SPEAC
 13
1907.641967762806
 23
5367.501259954786
 33
0.0
 14
1967.641967762806
 24
5617.501259954786
 34
0.0
 50
-90.0
  0
DIMENSION
  5
5B9
  8
SAKUZU
 62
     2
  2
*D21
 10
1167.641967762806
 20
5617.501259954786
 30
0.0
 11
1151.56284688443
 21
5692.501259954786
 31
0.0
 70
    32
  3
SPEAC
 13
1912.641967762806
 23
5767.501259954786
 33
0.0
 14
1372.641967762806
 24
5617.501259954786
 34
0.0
 50
-90.0
  0
LINE
  5
5BA
  8
SAKUZU
  6
VW-01____
 62
    17
 10
1876.542920723865
 20
5297.501328619337
 30
0.0
 11
1869.641967762806
 21
5297.501328619337
 31
0.0
  0
LINE
  5
5BB
  8
SAKUZU
  6
CONTINUOUS
 62
     1
 10
1869.641967762806
 20
5297.501328619337
 30
0.0
 11
1815.542434681751
 21
5297.501328619337
 31
0.0
  0
LINE
  5
5BC
  8
SAKUZU
  6
CONTINUOUS
 62
     1
 10
1815.542434681751
 20
5265.501328619337
 30
0.0
 11
1869.641967762806
 21
5265.501328619337
 31
0.0
  0
LINE
  5
5BD
  8
SAKUZU
  6
VW-01____
 62
    17
 10
1869.641967762806
 20
5265.501328619337
 30
0.0
 11
1876.542434681751
 21
5265.501328619337
 31
0.0
  0
ARC
  5
5BE
  8
SAKUZU
  6
VW-01____
 62
    17
 10
1876.542434681751
 20
5305.501328619337
 30
0.0
 40
40.0
 50
270.0
 51
313.0809644257152
  0
ARC
  5
5BF
  8
SAKUZU
  6
CONTINUOUS
 62
     1
 10
1876.542434681751
 20
5305.501328619337
 30
0.0
 40
40.0000000000003
 50
321.0311807738044
 51
0.0
  0
ARC
  5
5C0
  8
SAKUZU
  6
VW-01____
 62
    17
 10
1876.542920723865
 20
5305.501328619337
 30
0.0
 40
8.0
 50
270.0
 51
0.0
  0
LINE
  5
5C1
  8
SAKUZU
  6
VW-01____
 62
    17
 10
1876.213409574433
 20
5587.501259954786
 30
0.0
 11
1876.213409574433
 21
5579.491384207065
 31
0.0
  0
LINE
  5
5C2
  8
SAKUZU
  6
VW-01____
 62
    17
 10
1863.356293197687
 20
5527.501259954786
 30
0.0
 11
1876.213409574433
 21
5527.501259954786
 31
0.0
  0
LINE
  5
5C3
  8
SAKUZU
  6
VW-01____
 62
    17
 10
1866.213409574433
 20
5587.501259954786
 30
0.0
 11
1876.213409574433
 21
5587.501259954786
 31
0.0
  0
LINE
  5
5C4
  8
SAKUZU
  6
VW-01____
 62
    17
 10
1876.213409574433
 20
5579.491384207065
 30
0.0
 11
1897.542434681751
 21
5579.491384207065
 31
0.0
  0
LINE
  5
5C5
  8
SAKUZU
  6
CONTINUOUS
 62
     1
 10
1922.542434681751
 20
5554.491384207065
 30
0.0
 11
1922.542434681751
 21
5532.501259954786
 31
0.0
  0
ARC
  5
5C6
  8
SAKUZU
  6
CONTINUOUS
 62
     1
 10
1897.542434681751
 20
5554.491384207065
 30
0.0
 40
25.0
 50
0.0
 51
66.172692646038
  0
ARC
  5
5C7
  8
SAKUZU
  6
VW-01____
 62
    17
 10
1897.542434681751
 20
5554.491384207065
 30
0.0
 40
24.99999999999932
 50
75.35378449836479
 51
90.0
  0
LINE
  5
5C8
  8
SAKUZU
  6
VW-01____
 62
    17
 10
1878.542434681751
 20
5532.501259954786
 30
0.0
 11
1903.863680747601
 21
5532.501259954786
 31
0.0
  0
LINE
  5
5C9
  8
SAKUZU
  6
CONTINUOUS
 62
     1
 10
1907.641967762806
 20
5532.501259954786
 30
0.0
 11
1922.542434681751
 21
5532.501259954786
 31
0.0
  0
LINE
  5
5CA
  8
SAKUZU
  6
VW-01____
 62
    17
 10
1878.542434681751
 20
5537.501259954786
 30
0.0
 11
1878.542434681751
 21
5532.501259954786
 31
0.0
  0
LINE
  5
5CB
  8
SAKUZU
  6
VW-01____
 62
    17
 10
1876.213409574433
 20
5527.501259954786
 30
0.0
 11
1876.213409574433
 21
5537.501259954786
 31
0.0
  0
LINE
  5
5CC
  8
SAKUZU
  6
VW-01____
 62
    17
 10
1876.213409574433
 20
5537.501259954786
 30
0.0
 11
1878.542434681751
 21
5537.501259954786
 31
0.0
  0
LINE
  5
5CD
  8
SAKUZU
  6
VW-01____
 62
    17
 10
1884.542434681751
 20
5305.589512731176
 30
0.0
 11
1884.542434681751
 21
5532.501259954786
 31
0.0
  0
LINE
  5
5CE
  8
SAKUZU
  6
CONTINUOUS
 62
     1
 10
1916.542434681751
 20
5305.589512731176
 30
0.0
 11
1916.542434681751
 21
5532.501259954786
 31
0.0
  0
LINE
  5
5CF
  8
0
  6
CONTINUOUS
 62
     7
 10
1377.641967762806
 20
5577.501259954786
 30
0.0
 11
1377.641967762806
 21
4967.501259954784
 31
0.0
  0
LINE
  5
5D0
  8
0
  6
CONTINUOUS
 62
     7
 10
1869.641967762806
 20
5342.501320989943
 30
0.0
 11
1869.641967762806
 21
4967.501259954784
 31
0.0
  0
LINE
  5
5D1
  8
0
  6
CONTINUOUS
 62
     7
 10
1907.641967762806
 20
4812.501259954784
 30
0.0
 11
1907.641967762806
 21
4920.001259954782
 31
0.0
  0
LINE
  5
5D2
  8
0
  6
CONTINUOUS
 62
     7
 10
1873.241973866321
 20
4805.501259954784
 30
0.0
 11
1873.241973866321
 21
4782.501259954784
 31
0.0
  0
LINE
  5
5D3
  8
0
  6
CONTINUOUS
 62
     7
 10
1873.241973866321
 20
4782.501259954784
 30
0.0
 11
1904.04196165929
 21
4782.501259954784
 31
0.0
  0
LINE
  5
5D4
  8
0
  6
CONTINUOUS
 62
     7
 10
1904.04196165929
 20
4782.501259954784
 30
0.0
 11
1904.04196165929
 21
4805.501259954784
 31
0.0
  0
LINE
  5
5D5
  8
0
  6
CONTINUOUS
 62
     7
 10
1875.04196165929
 20
4782.501259954784
 30
0.0
 11
1875.04196165929
 21
4767.501259954784
 31
0.0
  0
LINE
  5
5D6
  8
0
  6
CONTINUOUS
 62
     7
 10
1875.04196165929
 20
4767.501259954784
 30
0.0
 11
1902.241973866321
 21
4767.501259954784
 31
0.0
  0
LINE
  5
5D7
  8
0
  6
CONTINUOUS
 62
     7
 10
1902.241973866321
 20
4767.501259954784
 30
0.0
 11
1902.241973866321
 21
4782.501259954784
 31
0.0
  0
LINE
  5
5D8
  8
0
  6
CONTINUOUS
 62
     7
 10
1415.641966809132
 20
4812.501259954784
 30
0.0
 11
1415.641966809132
 21
4920.001259954782
 31
0.0
  0
LINE
  5
5D9
  8
0
  6
CONTINUOUS
 62
     7
 10
1381.241967190601
 20
4805.501259954784
 30
0.0
 11
1381.241967190601
 21
4782.501259954784
 31
0.0
  0
LINE
  5
5DA
  8
0
  6
CONTINUOUS
 62
     7
 10
1381.241967190601
 20
4782.501259954784
 30
0.0
 11
1412.041968335011
 21
4782.501259954784
 31
0.0
  0
LINE
  5
5DB
  8
0
  6
CONTINUOUS
 62
     7
 10
1412.041968335011
 20
4782.501259954784
 30
0.0
 11
1412.041968335011
 21
4805.501259954784
 31
0.0
  0
LINE
  5
5DC
  8
0
  6
CONTINUOUS
 62
     7
 10
1383.041966427662
 20
4782.501259954784
 30
0.0
 11
1383.041966427662
 21
4767.501259954784
 31
0.0
  0
LINE
  5
5DD
  8
0
  6
CONTINUOUS
 62
     7
 10
1383.041966427662
 20
4767.501259954784
 30
0.0
 11
1410.24196909795
 21
4767.501259954784
 31
0.0
  0
LINE
  5
5DE
  8
0
  6
CONTINUOUS
 62
     7
 10
1410.24196909795
 20
4767.501259954784
 30
0.0
 11
1410.24196909795
 21
4782.501259954784
 31
0.0
  0
LINE
  5
5DF
  8
0
  6
CONTINUOUS
 62
     7
 10
1907.641967762806
 20
4920.001259954782
 30
0.0
 11
1907.641967762806
 21
4922.501259954784
 31
0.0
  0
LINE
  5
5E0
  8
0
  6
CONTINUOUS
 62
     7
 10
1907.641967762806
 20
4967.501259954784
 30
0.0
 11
1907.641967762806
 21
5577.501259954786
 31
0.0
  0
LINE
  5
5E1
  8
0
  6
CONTINUOUS
 62
     7
 10
1869.641967762806
 20
4922.501259954784
 30
0.0
 11
1869.641967762806
 21
4812.501259954784
 31
0.0
  0
LINE
  5
5E2
  8
0
  6
CONTINUOUS
 62
     7
 10
1415.641966809132
 20
4920.001259954782
 30
0.0
 11
1415.641966809132
 21
4922.501259954784
 31
0.0
  0
LINE
  5
5E3
  8
0
  6
CONTINUOUS
 62
     7
 10
1415.641966809132
 20
4967.501259954786
 30
0.0
 11
1415.641966809132
 21
5342.501320989943
 31
0.0
  0
LINE
  5
5E4
  8
0
  6
CONTINUOUS
 62
     7
 10
1377.641967485933
 20
4922.501259954784
 30
0.0
 11
1377.641966809132
 21
4812.501259954784
 31
0.0
  0
LINE
  5
5E5
  8
0
  6
CONTINUOUS
 62
     7
 10
1869.641967762806
 20
4812.501259954784
 30
0.0
 11
1907.641967762806
 21
4812.501259954784
 31
0.0
  0
ARC
  5
5E6
  8
0
  6
CONTINUOUS
 62
     7
 10
1869.641967762806
 20
4810.501259954784
 30
0.0
 40
2.0
 50
90.0
 51
180.0
  0
ARC
  5
5E7
  8
0
  6
CONTINUOUS
 62
     7
 10
1907.641967762806
 20
4810.501259954784
 30
0.0
 40
2.0
 50
0.0
 51
90.0
  0
LINE
  5
5E8
  8
0
  6
CONTINUOUS
 62
     7
 10
1909.641967762806
 20
4810.501259954784
 30
0.0
 11
1909.641967762806
 21
4805.501259954784
 31
0.0
  0
LINE
  5
5E9
  8
0
  6
CONTINUOUS
 62
     7
 10
1909.641967762806
 20
4805.501259954784
 30
0.0
 11
1867.641967762806
 21
4805.501259954784
 31
0.0
  0
LINE
  5
5EA
  8
0
  6
CONTINUOUS
 62
     7
 10
1867.641967762806
 20
4805.501259954784
 30
0.0
 11
1867.641967762806
 21
4810.501259954784
 31
0.0
  0
LINE
  5
5EB
  8
0
  6
CONTINUOUS
 62
     7
 10
1377.641966809132
 20
4812.501259954784
 30
0.0
 11
1415.641966809132
 21
4812.501259954784
 31
0.0
  0
ARC
  5
5EC
  8
0
  6
CONTINUOUS
 62
     7
 10
1377.641966809132
 20
4810.501259954784
 30
0.0
 40
2.0
 50
90.0
 51
180.0
  0
ARC
  5
5ED
  8
0
  6
CONTINUOUS
 62
     7
 10
1415.641966809132
 20
4810.501259954784
 30
0.0
 40
2.0
 50
0.0
 51
90.0
  0
LINE
  5
5EE
  8
0
  6
CONTINUOUS
 62
     7
 10
1417.641966809132
 20
4810.501259954784
 30
0.0
 11
1417.641966809132
 21
4805.501259954784
 31
0.0
  0
LINE
  5
5EF
  8
0
  6
CONTINUOUS
 62
     7
 10
1417.641966809132
 20
4805.501259954784
 30
0.0
 11
1375.641966809132
 21
4805.501259954784
 31
0.0
  0
LINE
  5
5F0
  8
0
  6
CONTINUOUS
 62
     7
 10
1375.641966809132
 20
4805.501259954784
 30
0.0
 11
1375.641966809132
 21
4810.501259954784
 31
0.0
  0
LINE
  5
5F1
  8
0
  6
CONTINUOUS
 62
     7
 10
1416.141967762806
 20
4967.501259954805
 30
0.0
 11
1416.141967762806
 21
4935.501259954784
 31
0.0
  0
LINE
  5
5F2
  8
0
  6
CONTINUOUS
 62
     7
 10
1376.141967762806
 20
4967.501259954784
 30
0.0
 11
1376.141967762806
 21
4922.501259954784
 31
0.0
  0
LINE
  5
5F3
  8
0
  6
CONTINUOUS
 62
     7
 10
1417.141967762806
 20
4922.501259954784
 30
0.0
 11
1417.141967762806
 21
4935.501259954784
 31
0.0
  0
LINE
  5
5F4
  8
0
  6
CONTINUOUS
 62
     7
 10
1868.141967762806
 20
4935.501259954784
 30
0.0
 11
1416.141967762806
 21
4935.501259954784
 31
0.0
  0
LINE
  5
5F5
  8
0
  6
CONTINUOUS
 62
     7
 10
1416.141967762806
 20
4967.501259954786
 30
0.0
 11
1376.141967762806
 21
4967.501259954784
 31
0.0
  0
LINE
  5
5F6
  8
0
  6
CONTINUOUS
 62
     7
 10
1376.141967762806
 20
4922.501259954784
 30
0.0
 11
1417.141967762806
 21
4922.501259954784
 31
0.0
  0
LINE
  5
5F7
  8
0
  6
CONTINUOUS
 62
     7
 10
1869.141967762806
 20
4967.501259954788
 30
0.0
 11
1869.141967762806
 21
4935.501259954784
 31
0.0
  0
LINE
  5
5F8
  8
0
  6
CONTINUOUS
 62
     7
 10
1909.141967762806
 20
4967.501259954784
 30
0.0
 11
1909.141967762806
 21
4922.501259954784
 31
0.0
  0
LINE
  5
5F9
  8
0
  6
CONTINUOUS
 62
     7
 10
1868.141967762806
 20
4922.501259954784
 30
0.0
 11
1868.141967762806
 21
4935.501259954784
 31
0.0
  0
LINE
  5
5FA
  8
0
  6
CONTINUOUS
 62
     7
 10
1868.141967762806
 20
4935.501259954784
 30
0.0
 11
1869.141967762806
 21
4935.501259954784
 31
0.0
  0
LINE
  5
5FB
  8
0
  6
CONTINUOUS
 62
     7
 10
1416.141967762806
 20
4967.501259954805
 30
0.0
 11
1909.141967762806
 21
4967.501259954784
 31
0.0
  0
LINE
  5
5FC
  8
0
  6
CONTINUOUS
 62
     7
 10
1909.141967762806
 20
4922.501259954784
 30
0.0
 11
1868.141967762806
 21
4922.501259954784
 31
0.0
  0
LINE
  5
5FD
  8
0
  6
CONTINUOUS
 62
     7
 10
-551.6178727932565
 20
4967.501259954784
 30
0.0
 11
-551.6178727932565
 21
5342.501320989943
 31
0.0
  0
LINE
  5
5FE
  8
0
  6
CONTINUOUS
 62
     7
 10
-589.6178727932561
 20
4920.001259954782
 30
0.0
 11
-589.6178727932561
 21
4812.501259954784
 31
0.0
  0
LINE
  5
5FF
  8
0
  6
CONTINUOUS
 62
     7
 10
-586.0178724117868
 20
4805.501259954784
 30
0.0
 11
-586.0178724117868
 21
4782.501259954784
 31
0.0
  0
LINE
  5
600
  8
0
  6
CONTINUOUS
 62
     7
 10
-586.0178724117868
 20
4782.501259954784
 30
0.0
 11
-555.2178712673776
 21
4782.501259954784
 31
0.0
  0
LINE
  5
601
  8
0
  6
CONTINUOUS
 62
     7
 10
-555.2178712673776
 20
4782.501259954784
 30
0.0
 11
-555.2178712673776
 21
4805.501259954784
 31
0.0
  0
LINE
  5
602
  8
0
  6
CONTINUOUS
 62
     7
 10
-584.2178731747263
 20
4782.501259954784
 30
0.0
 11
-584.2178731747263
 21
4767.501259954784
 31
0.0
  0
LINE
  5
603
  8
0
  6
CONTINUOUS
 62
     7
 10
-584.2178731747263
 20
4767.501259954784
 30
0.0
 11
-557.0178705044382
 21
4767.501259954784
 31
0.0
  0
LINE
  5
604
  8
0
  6
CONTINUOUS
 62
     7
 10
-557.0178705044382
 20
4767.501259954784
 30
0.0
 11
-557.0178705044382
 21
4782.501259954784
 31
0.0
  0
LINE
  5
605
  8
0
  6
CONTINUOUS
 62
     7
 10
247.3821272067441
 20
5342.501320989943
 30
0.0
 11
247.3821272067441
 21
4967.501259954784
 31
0.0
  0
LINE
  5
606
  8
0
  6
CONTINUOUS
 62
     7
 10
285.3821272067443
 20
4812.501259954784
 30
0.0
 11
285.3821272067443
 21
4920.001259954782
 31
0.0
  0
LINE
  5
607
  8
0
  6
CONTINUOUS
 62
     7
 10
250.9821027926816
 20
4805.501259954784
 30
0.0
 11
250.9821027926816
 21
4782.501259954784
 31
0.0
  0
LINE
  5
608
  8
0
  6
CONTINUOUS
 62
     7
 10
250.9821027926816
 20
4782.501259954784
 30
0.0
 11
281.7821516208067
 21
4782.501259954784
 31
0.0
  0
LINE
  5
609
  8
0
  6
CONTINUOUS
 62
     7
 10
281.7821516208067
 20
4782.501259954784
 30
0.0
 11
281.7821516208067
 21
4805.501259954784
 31
0.0
  0
LINE
  5
60A
  8
0
  6
CONTINUOUS
 62
     7
 10
252.7821516208066
 20
4782.501259954784
 30
0.0
 11
252.7821516208066
 21
4767.501259954784
 31
0.0
  0
LINE
  5
60B
  8
0
  6
CONTINUOUS
 62
     7
 10
252.7821516208066
 20
4767.501259954784
 30
0.0
 11
279.9821027926817
 21
4767.501259954784
 31
0.0
  0
LINE
  5
60C
  8
0
  6
CONTINUOUS
 62
     7
 10
279.9821027926817
 20
4767.501259954784
 30
0.0
 11
279.9821027926817
 21
4782.501259954784
 31
0.0
  0
LINE
  5
60D
  8
0
  6
CONTINUOUS
 62
     7
 10
285.3821272067443
 20
4920.001259954782
 30
0.0
 11
285.3821272067443
 21
4922.501259954784
 31
0.0
  0
LINE
  5
60E
  8
0
  6
CONTINUOUS
 62
     7
 10
285.3821272067443
 20
4967.501259954784
 30
0.0
 11
285.3821272067443
 21
5577.501259954786
 31
0.0
  0
LINE
  5
60F
  8
0
  6
CONTINUOUS
 62
     7
 10
247.3821272067441
 20
4922.501259954784
 30
0.0
 11
247.3821272067441
 21
4812.501259954784
 31
0.0
  0
LINE
  5
610
  8
0
  6
CONTINUOUS
 62
     7
 10
-551.6178727932565
 20
4812.501259954784
 30
0.0
 11
-551.6178727932565
 21
4922.501259954784
 31
0.0
  0
LINE
  5
611
  8
0
  6
CONTINUOUS
 62
     7
 10
-589.6178727932561
 20
5577.501259954786
 30
0.0
 11
-589.6178727932561
 21
4967.501259954784
 31
0.0
  0
LINE
  5
612
  8
0
  6
CONTINUOUS
 62
     7
 10
-589.6178727932561
 20
4922.501259954784
 30
0.0
 11
-589.6178727932561
 21
4920.001259954782
 31
0.0
  0
LINE
  5
613
  8
0
  6
CONTINUOUS
 62
     7
 10
-589.6178727932561
 20
4812.501259954784
 30
0.0
 11
-551.6178727932565
 21
4812.501259954784
 31
0.0
  0
ARC
  5
614
  8
0
  6
CONTINUOUS
 62
     7
 10
-589.6178727932561
 20
4810.501259954784
 30
0.0
 40
2.0
 50
90.0
 51
180.0
  0
ARC
  5
615
  8
0
  6
CONTINUOUS
 62
     7
 10
-551.6178727932565
 20
4810.501259954784
 30
0.0
 40
2.0
 50
0.0
 51
90.0
  0
LINE
  5
616
  8
0
  6
CONTINUOUS
 62
     7
 10
-549.6178727932565
 20
4810.501259954784
 30
0.0
 11
-549.6178727932565
 21
4805.501259954784
 31
0.0
  0
LINE
  5
617
  8
0
  6
CONTINUOUS
 62
     7
 10
-549.6178727932565
 20
4805.501259954784
 30
0.0
 11
-591.6178727932565
 21
4805.501259954784
 31
0.0
  0
LINE
  5
618
  8
0
  6
CONTINUOUS
 62
     7
 10
-591.6178727932565
 20
4805.501259954784
 30
0.0
 11
-591.6178727932565
 21
4810.501259954784
 31
0.0
  0
LINE
  5
619
  8
0
  6
CONTINUOUS
 62
     7
 10
247.3821272067441
 20
4812.501259954784
 30
0.0
 11
285.3821272067443
 21
4812.501259954784
 31
0.0
  0
ARC
  5
61A
  8
0
  6
CONTINUOUS
 62
     7
 10
247.3821272067441
 20
4810.501259954784
 30
0.0
 40
2.0
 50
90.0
 51
180.0
  0
ARC
  5
61B
  8
0
  6
CONTINUOUS
 62
     7
 10
285.3821272067443
 20
4810.501259954784
 30
0.0
 40
2.0
 50
0.0
 51
90.0
  0
LINE
  5
61C
  8
0
  6
CONTINUOUS
 62
     7
 10
287.3821272067443
 20
4810.501259954784
 30
0.0
 11
287.3821272067443
 21
4805.501259954784
 31
0.0
  0
LINE
  5
61D
  8
0
  6
CONTINUOUS
 62
     7
 10
287.3821272067443
 20
4805.501259954784
 30
0.0
 11
245.3821272067441
 21
4805.501259954784
 31
0.0
  0
LINE
  5
61E
  8
0
  6
CONTINUOUS
 62
     7
 10
245.3821272067441
 20
4805.501259954784
 30
0.0
 11
245.3821272067441
 21
4810.501259954784
 31
0.0
  0
LINE
  5
61F
  8
0
  6
CONTINUOUS
 62
     7
 10
-591.1178727932561
 20
4967.501259954784
 30
0.0
 11
-591.1178727932561
 21
4922.501259954784
 31
0.0
  0
LINE
  5
620
  8
0
  6
CONTINUOUS
 62
     7
 10
-550.1178727932561
 20
4922.501259954784
 30
0.0
 11
-550.1178727932561
 21
4935.501259954784
 31
0.0
  0
LINE
  5
621
  8
0
  6
CONTINUOUS
 62
     7
 10
-550.1178727932561
 20
4967.501259954824
 30
0.0
 11
-551.1178727932561
 21
4967.501259954824
 31
0.0
  0
LINE
  5
622
  8
0
  6
CONTINUOUS
 62
     7
 10
-551.1178727932561
 20
4967.501259954786
 30
0.0
 11
-591.1178727932561
 21
4967.501259954784
 31
0.0
  0
LINE
  5
623
  8
0
  6
CONTINUOUS
 62
     7
 10
-591.1178727932561
 20
4922.501259954784
 30
0.0
 11
-550.1178727932561
 21
4922.501259954784
 31
0.0
  0
LINE
  5
624
  8
0
  6
CONTINUOUS
 62
     7
 10
246.8821272067441
 20
4967.501259954788
 30
0.0
 11
246.8821272067441
 21
4935.501259954784
 31
0.0
  0
LINE
  5
625
  8
0
  6
CONTINUOUS
 62
     7
 10
286.8821272067443
 20
4967.501259954784
 30
0.0
 11
286.8821272067443
 21
4922.501259954784
 31
0.0
  0
LINE
  5
626
  8
0
  6
CONTINUOUS
 62
     7
 10
245.8821272067441
 20
4922.501259954784
 30
0.0
 11
245.8821272067441
 21
4935.501259954784
 31
0.0
  0
LINE
  5
627
  8
0
  6
CONTINUOUS
 62
     7
 10
-550.1178727932561
 20
4967.501259954824
 30
0.0
 11
-590.1178737469304
 21
4967.501259954824
 31
0.0
  0
LINE
  5
628
  8
0
  6
CONTINUOUS
 62
     7
 10
-551.1178737469304
 20
4935.501259954784
 30
0.0
 11
246.8821272067441
 21
4935.501259954784
 31
0.0
  0
LINE
  5
629
  8
0
  6
CONTINUOUS
 62
     7
 10
-551.1178727932561
 20
4967.501259954824
 30
0.0
 11
286.8821272067443
 21
4967.501259954784
 31
0.0
  0
LINE
  5
62A
  8
0
  6
CONTINUOUS
 62
     7
 10
286.8821272067443
 20
4922.501259954784
 30
0.0
 11
245.8821272067441
 21
4922.501259954784
 31
0.0
  0
LINE
  5
62B
  8
0
  6
CONTINUOUS
 62
     7
 10
-551.6178737469309
 20
4967.501259954784
 30
0.0
 11
-551.6178737469309
 21
5342.501320989943
 31
0.0
  0
LINE
  5
62C
  8
0
  6
CONTINUOUS
 62
     7
 10
-589.6178737469304
 20
4920.001259954782
 30
0.0
 11
-589.6178737469304
 21
4812.501259954784
 31
0.0
  0
LINE
  5
62D
  8
0
  6
CONTINUOUS
 62
     7
 10
-586.0178733654611
 20
4805.501259954784
 30
0.0
 11
-586.0178733654611
 21
4782.501259954784
 31
0.0
  0
LINE
  5
62E
  8
0
  6
CONTINUOUS
 62
     7
 10
-586.0178733654611
 20
4782.501259954784
 30
0.0
 11
-555.217872221052
 21
4782.501259954784
 31
0.0
  0
LINE
  5
62F
  8
0
  6
CONTINUOUS
 62
     7
 10
-555.217872221052
 20
4782.501259954784
 30
0.0
 11
-555.217872221052
 21
4805.501259954784
 31
0.0
  0
LINE
  5
630
  8
0
  6
CONTINUOUS
 62
     7
 10
-584.2178741284006
 20
4782.501259954784
 30
0.0
 11
-584.2178741284006
 21
4767.501259954784
 31
0.0
  0
LINE
  5
631
  8
0
  6
CONTINUOUS
 62
     7
 10
-584.2178741284006
 20
4767.501259954784
 30
0.0
 11
-557.0178714581125
 21
4767.501259954784
 31
0.0
  0
LINE
  5
632
  8
0
  6
CONTINUOUS
 62
     7
 10
-557.0178714581125
 20
4767.501259954784
 30
0.0
 11
-557.0178714581125
 21
4782.501259954784
 31
0.0
  0
LINE
  5
633
  8
0
  6
CONTINUOUS
 62
     7
 10
-551.6178737469309
 20
4812.501259954784
 30
0.0
 11
-551.6178737469309
 21
4922.501259954784
 31
0.0
  0
LINE
  5
634
  8
0
  6
CONTINUOUS
 62
     7
 10
-589.6178737469304
 20
5577.501259954786
 30
0.0
 11
-589.6178737469304
 21
4967.501259954784
 31
0.0
  0
LINE
  5
635
  8
0
  6
CONTINUOUS
 62
     7
 10
-589.6178737469304
 20
4922.501259954784
 30
0.0
 11
-589.6178737469304
 21
4920.001259954782
 31
0.0
  0
LINE
  5
636
  8
0
  6
CONTINUOUS
 62
     7
 10
-589.6178737469304
 20
4812.501259954784
 30
0.0
 11
-551.6178737469309
 21
4812.501259954784
 31
0.0
  0
ARC
  5
637
  8
0
  6
CONTINUOUS
 62
     7
 10
-589.6178737469304
 20
4810.501259954784
 30
0.0
 40
2.0
 50
90.0
 51
180.0
  0
ARC
  5
638
  8
0
  6
CONTINUOUS
 62
     7
 10
-551.6178737469309
 20
4810.501259954784
 30
0.0
 40
2.0
 50
0.0
 51
90.0
  0
LINE
  5
639
  8
0
  6
CONTINUOUS
 62
     7
 10
-549.6178737469309
 20
4810.501259954784
 30
0.0
 11
-549.6178737469309
 21
4805.501259954784
 31
0.0
  0
LINE
  5
63A
  8
0
  6
CONTINUOUS
 62
     7
 10
-549.6178737469309
 20
4805.501259954784
 30
0.0
 11
-591.6178737469309
 21
4805.501259954784
 31
0.0
  0
LINE
  5
63B
  8
0
  6
CONTINUOUS
 62
     7
 10
-591.6178737469309
 20
4805.501259954784
 30
0.0
 11
-591.6178737469309
 21
4810.501259954784
 31
0.0
  0
LINE
  5
63C
  8
0
  6
CONTINUOUS
 62
     7
 10
-551.1178737469304
 20
4967.501259954824
 30
0.0
 11
-551.1178737469304
 21
4935.501259954784
 31
0.0
  0
LINE
  5
63D
  8
0
  6
CONTINUOUS
 62
     7
 10
-591.1178737469302
 20
4935.501259954784
 30
0.0
 11
-591.1178737469304
 21
4922.501259954784
 31
0.0
  0
LINE
  5
63E
  8
0
  6
CONTINUOUS
 62
     7
 10
-550.1178737469304
 20
4922.501259954784
 30
0.0
 11
-550.1178737469304
 21
4935.501259954784
 31
0.0
  0
LINE
  5
63F
  8
0
  6
CONTINUOUS
 62
     7
 10
-550.1178737469304
 20
4935.501259954784
 30
0.0
 11
-551.1178737469304
 21
4935.501259954784
 31
0.0
  0
LINE
  5
640
  8
0
  6
CONTINUOUS
 62
     7
 10
-591.1178737469304
 20
4922.501259954784
 30
0.0
 11
-550.1178737469304
 21
4922.501259954784
 31
0.0
  0
POLYLINE
  5
641
  8
SAKUZU
  6
VW-01____
 62
    17
 66
     1
 10
0.0
 20
0.0
 30
0.0
 70
   128
  0
VERTEX
  5
642
  8
SAKUZU
  6
VW-01____
 62
    17
 10
1407.641967762806
 20
5617.501259954786
 30
0.0
  0
VERTEX
  5
643
  8
SAKUZU
  6
VW-01____
 62
    17
 10
1417.831008398752
 20
5403.531621340577
 30
0.0
  0
VERTEX
  5
644
  8
SAKUZU
  6
VW-01____
 62
    17
 10
1417.831008398752
 20
5403.531621340577
 30
0.0
 42
0.3929184623175321
 70
     2
 50
2.728373191188942
  0
VERTEX
  5
645
  8
SAKUZU
  6
VW-01____
 62
    17
 10
1445.080688465931
 20
5376.872719915724
 30
0.0
  0
VERTEX
  5
646
  8
SAKUZU
  6
VW-01____
 62
    17
 10
1829.957106414211
 20
5367.449996080257
 30
0.0
  0
VERTEX
  5
647
  8
SAKUZU
  6
VW-01____
 62
    17
 10
1829.957106414211
 20
5367.449996080257
 30
0.0
 42
0.4188878734961164
 70
     2
 50
2340.278115696732
  0
VERTEX
  5
648
  8
SAKUZU
  6
VW-01____
 62
    17
 10
1856.979904523178
 20
5393.59485076481
 30
0.0
  0
VERTEX
  5
649
  8
SAKUZU
  6
VW-01____
 62
    17
 10
1867.641967762806
 20
5617.501259954786
 30
0.0
  0
SEQEND
  5
64A
  8
SAKUZU
  6
VW-01____
 62
    17
  0
POLYLINE
  5
64B
  8
SAKUZU
  6
VW-01____
 62
    17
 66
     1
 10
0.0
 20
0.0
 30
0.0
 70
   128
  0
VERTEX
  5
64C
  8
SAKUZU
  6
VW-01____
 62
    17
 10
-562.1178422756784
 20
5617.501259954786
 30
0.0
  0
VERTEX
  5
64D
  8
SAKUZU
  6
VW-01____
 62
    17
 10
-548.6972490139597
 20
5393.824380071974
 30
0.0
  0
VERTEX
  5
64E
  8
SAKUZU
  6
VW-01____
 62
    17
 10
-548.6972490139597
 20
5393.824380071974
 30
0.0
 42
0.3967671956468459
 70
     2
 50
3.437741767755758
  0
VERTEX
  5
64F
  8
SAKUZU
  6
VW-01____
 62
    17
 10
-520.7474824480682
 20
5367.501259954786
 30
0.0
  0
VERTEX
  5
650
  8
SAKUZU
  6
VW-01____
 62
    17
 10
-208.4882356218959
 20
5367.501259954786
 30
0.0
  0
VERTEX
  5
651
  8
SAKUZU
  6
VW-01____
 62
    17
 10
-208.4882356218959
 20
5367.501259954786
 30
0.0
 42
0.3967679539395682
 70
     2
 50
201461392728076.2
  0
VERTEX
  5
652
  8
SAKUZU
  6
VW-01____
 62
    17
 10
-180.5384984517682
 20
5393.824275757259
 30
0.0
  0
VERTEX
  5
653
  8
SAKUZU
  6
VW-01____
 62
    17
 10
-167.1178727932561
 20
5617.501259954786
 30
0.0
  0
SEQEND
  5
654
  8
SAKUZU
  6
VW-01____
 62
    17
  0
POLYLINE
  5
655
  8
SAKUZU
  6
VW-01____
 62
    17
 66
     1
 10
0.0
 20
0.0
 30
0.0
 70
   128
  0
VERTEX
  5
656
  8
SAKUZU
  6
VW-01____
 62
    17
 10
-394.6179944463365
 20
5577.501259954786
 30
0.0
 42
0.4142135623732582
 70
     2
 50
2138286746.821947
  0
VERTEX
  5
657
  8
SAKUZU
  6
VW-01____
 62
    17
 10
-414.6179949822347
 20
5557.501260490684
 30
0.0
 42
0.414213562373125
 70
     2
 50
-0.0000015352370857
  0
VERTEX
  5
658
  8
SAKUZU
  6
VW-01____
 62
    17
 10
-394.6179955181328
 20
5537.501259954786
 30
0.0
  0
VERTEX
  5
659
  8
SAKUZU
  6
VW-01____
 62
    17
 10
-334.6179944463365
 20
5537.501259954786
 30
0.0
  0
VERTEX
  5
65A
  8
SAKUZU
  6
VW-01____
 62
    17
 10
-334.6179944463365
 20
5537.501259954786
 30
0.0
 42
0.4142135623730951
 70
     2
 50
3.119036963853517E+17
  0
VERTEX
  5
65B
  8
SAKUZU
  6
VW-01____
 62
    17
 10
-314.6179944463365
 20
5557.501259954786
 30
0.0
 42
0.4142135623730951
 70
     2
 50
-0.000000000000014
  0
VERTEX
  5
65C
  8
SAKUZU
  6
VW-01____
 62
    17
 10
-334.6179944463365
 20
5577.501259954786
 30
0.0
  0
VERTEX
  5
65D
  8
SAKUZU
  6
VW-01____
 62
    17
 10
-394.6179944463365
 20
5577.501259954786
 30
0.0
  0
SEQEND
  5
65E
  8
SAKUZU
  6
VW-01____
 62
    17
  0
DIMENSION
  5
65F
  8
SAKUZU
 62
     2
  2
*D22
 10
-167.1178727932561
 20
6792.478526744466
 30
0.0
 11
-152.1178727932561
 21
6808.557647622842
 31
0.0
 70
    32
  3
SPEAC
 13
-137.1178727932561
 23
6692.478526744466
 33
0.0
 14
-167.1178727932561
 24
6692.478526744466
 34
0.0
  0
LINE
  5
662
  8
SAKUZU
  6
ISO-08_____
 62
    17
 10
185.3821272067435
 20
6447.478526744466
 30
0.0
 11
-64.61787279325654
 21
6447.478526744466
 31
0.0
  0
CIRCLE
  5
663
  8
SAKUZU
  6
CONTINUOUS
 62
     1
 10
60.38212720674392
 20
6447.478526744466
 30
0.0
 40
75.0
  0
CIRCLE
  5
664
  8
SAKUZU
  6
CONTINUOUS
 62
     1
 10
60.38212720674392
 20
6447.478526744466
 30
0.0
 40
93.0
  0
LINE
  5
665
  8
SAKUZU
  6
CONTINUOUS
 62
     1
 10
-109.1178727932561
 20
6132.478404674153
 30
0.0
 11
229.8820966891659
 21
6132.478404674153
 31
0.0
  0
LINE
  5
666
  8
SAKUZU
  6
CONTINUOUS
 62
     1
 10
229.8820966891659
 20
6592.478526744466
 30
0.0
 11
-109.1178727932561
 21
6592.478526744466
 31
0.0
  0
LINE
  5
667
  8
SAKUZU
  6
CONTINUOUS
 62
     1
 10
257.882096689166
 20
6160.478404674153
 30
0.0
 11
257.882096689166
 21
6564.478526744466
 31
0.0
  0
ARC
  5
668
  8
SAKUZU
  6
CONTINUOUS
 62
     1
 10
229.8820966891659
 20
6160.478404674153
 30
0.0
 40
28.00000000000004
 50
270.0000030704637
 51
0.0
  0
ARC
  5
669
  8
SAKUZU
  6
CONTINUOUS
 62
     1
 10
229.8820966891659
 20
6564.478526744466
 30
0.0
 40
28.00000000000011
 50
0.0
 51
89.99999692953628
  0
LINE
  5
66A
  8
SAKUZU
  6
ISO-08_____
 62
    17
 10
60.38212720674392
 20
6572.478526744466
 30
0.0
 11
60.38212720674392
 21
6322.478526744466
 31
0.0
  0
LINE
  5
66B
  8
SAKUZU
  6
CONTINUOUS
 62
     1
 10
-137.1178727932561
 20
6564.478526744466
 30
0.0
 11
-137.1178727932561
 21
6160.478404674153
 31
0.0
  0
ARC
  5
66C
  8
SAKUZU
  6
CONTINUOUS
 62
     1
 10
-109.1178727932561
 20
6160.478404674153
 30
0.0
 40
28.0
 50
180.0
 51
270.0000030704637
  0
ARC
  5
66D
  8
SAKUZU
  6
CONTINUOUS
 62
     1
 10
-109.1178727932561
 20
6564.478526744466
 30
0.0
 40
28.00000000000004
 50
89.99999692953628
 51
180.0
  0
DIMENSION
  5
66E
  8
SAKUZU
 62
     2
  2
*D23
 10
257.882096689166
 20
6792.478526744466
 30
0.0
 11
60.38211194795497
 21
6808.557647622842
 31
0.0
 70
    32
  3
SPEAC
 13
-137.1178727932561
 23
6692.478526744466
 33
0.0
 14
257.882096689166
 24
6692.478526744466
 34
0.0
  0
DIMENSION
  5
66F
  8
SAKUZU
 62
     2
  2
*D24
 10
60.38212720674392
 20
5992.478404674153
 30
0.0
 11
-152.1178727932563
 21
6008.557525552529
 31
0.0
 70
    32
  3
SPEAC
 13
-364.6178727932565
 23
6322.478526744466
 33
0.0
 14
60.38212720674392
 24
6322.478526744466
 34
0.0
  0
LINE
  5
670
  8
SAKUZU
  6
CONTINUOUS
 62
     1
 10
0.3821262530700551
 20
5249.747417124128
 30
0.0
 11
120.382110994281
 21
5249.747394235945
 31
0.0
  0
LINE
  5
671
  8
SAKUZU
  6
CONTINUOUS
 62
     1
 10
-3.617873746929945
 20
5256.501323374128
 30
0.0
 11
124.3821262530696
 21
5256.501323374128
 31
0.0
  0
LINE
  5
672
  8
SAKUZU
  6
CONTINUOUS
 62
     1
 10
30.58212701600905
 20
5187.001315744734
 30
0.0
 11
90.18212739747878
 21
5187.001315744734
 31
0.0
  0
LINE
  5
673
  8
SAKUZU
  6
CONTINUOUS
 62
     1
 10
30.58212701600905
 20
5171.501315744734
 30
0.0
 11
90.18212739747878
 21
5171.501315744734
 31
0.0
  0
LINE
  5
674
  8
SAKUZU
  6
CONTINUOUS
 62
     1
 10
10.32896463197631
 20
5191.501315744734
 30
0.0
 11
110.435211580218
 21
5191.501315744734
 31
0.0
  0
LINE
  5
675
  8
SAKUZU
  6
VW-01____
 62
    17
 10
-7.617873746929945
 20
5357.50132146678
 30
0.0
 11
-7.288152308534336
 21
5342.501320989943
 31
0.0
  0
LINE
  5
676
  8
SAKUZU
  6
CONTINUOUS
 62
     1
 10
0.3821262530700551
 20
5249.747417124128
 30
0.0
 11
0.3821262530700551
 21
5200.472324045515
 31
0.0
  0
LINE
  5
677
  8
SAKUZU
  6
CONTINUOUS
 62
     1
 10
30.58212701600905
 20
5171.501315744734
 30
0.0
 11
30.58212701600905
 21
5187.001315744734
 31
0.0
  0
ARC
  5
678
  8
SAKUZU
  6
CONTINUOUS
 62
     1
 10
10.32896463197631
 20
5201.501315744734
 30
0.0
 40
10.00000000000031
 50
185.906135174342
 51
269.9999969295284
  0
LINE
  5
679
  8
SAKUZU
  6
CONTINUOUS
 62
     1
 10
30.58212701600905
 20
5187.001315744734
 30
0.0
 11
26.08212701600905
 21
5191.501315744734
 31
0.0
  0
LINE
  5
67A
  8
SAKUZU
  6
CONTINUOUS
 62
     1
 10
-7.288152308534336
 20
5342.501320989943
 30
0.0
 11
-3.687587339459697
 21
5258.134860666609
 31
0.0
  0
ARC
  5
67B
  8
SAKUZU
  6
CONTINUOUS
 62
     1
 10
1.307865541399678
 20
5258.34805646739
 30
0.0
 40
5.000000000000097
 50
182.4437607390564
 51
218.6598034320761
  0
LINE
  5
67C
  8
SAKUZU
  6
CONTINUOUS
 62
     1
 10
-2.596480924664775
 20
5255.224582346296
 30
0.0
 11
-0.7135272808659465
 21
5252.870891245222
 31
0.0
  0
ARC
  5
67D
  8
SAKUZU
  6
CONTINUOUS
 62
     1
 10
-4.617873746929945
 20
5249.747417124128
 30
0.0
 40
5.0
 50
0.0
 51
38.65980957303304
  0
ARC
  5
67E
  8
SAKUZU
  6
VW-01____
 62
    17
 10
-17.61787374692994
 20
5357.50132146678
 30
0.0
 40
10.0
 50
0.0
 51
90.00000307047156
  0
LINE
  5
67F
  8
SAKUZU
  6
ISO-08_____
 62
    17
 10
60.38212720674392
 20
5121.501315744734
 30
0.0
 11
60.38212720674392
 21
5419.675480163796
 31
0.0
  0
LINE
  5
680
  8
SAKUZU
  6
VW-01____
 62
    17
 10
128.0524626483798
 20
5342.501320989943
 30
0.0
 11
128.3821262530696
 21
5357.50132146678
 31
0.0
  0
LINE
  5
681
  8
SAKUZU
  6
CONTINUOUS
 62
     1
 10
120.382110994281
 20
5200.472324045515
 30
0.0
 11
120.382110994281
 21
5249.747394235945
 31
0.0
  0
LINE
  5
682
  8
SAKUZU
  6
CONTINUOUS
 62
     1
 10
90.18212739747878
 20
5171.501315744734
 30
0.0
 11
90.18212739747878
 21
5187.001315744734
 31
0.0
  0
LINE
  5
683
  8
SAKUZU
  6
CONTINUOUS
 62
     1
 10
90.18212739747878
 20
5187.001315744734
 30
0.0
 11
94.68212930482741
 21
5191.501315744734
 31
0.0
  0
ARC
  5
684
  8
SAKUZU
  6
CONTINUOUS
 62
     1
 10
110.435211580218
 20
5201.501315744734
 30
0.0
 40
10.00000000000001
 50
269.9999969295311
 51
354.0938586847334
  0
LINE
  5
685
  8
SAKUZU
  6
CONTINUOUS
 62
     1
 10
124.4518436602962
 20
5258.134860666609
 30
0.0
 11
128.0524626483798
 21
5342.501320989943
 31
0.0
  0
LINE
  5
686
  8
SAKUZU
  6
CONTINUOUS
 62
     1
 10
123.3607372455012
 20
5255.224582346296
 30
0.0
 11
121.4777645282165
 21
5252.870868357038
 31
0.0
  0
ARC
  5
687
  8
SAKUZU
  6
CONTINUOUS
 62
     1
 10
119.4563907794368
 20
5258.34805646739
 30
0.0
 40
5.000000000000473
 50
321.34019570686
 51
357.5561947606681
  0
ARC
  5
688
  8
SAKUZU
  6
CONTINUOUS
 62
     1
 10
125.3821109942805
 20
5249.747394235945
 30
0.0
 40
4.999999999999901
 50
141.3402018477892
 51
180.0
  0
ARC
  5
689
  8
SAKUZU
  6
VW-01____
 62
    17
 10
138.3821262530696
 20
5357.50132146678
 30
0.0
 40
10.00000000000001
 50
90.00000307046894
 51
180.0
  0
POLYLINE
  5
68A
  8
SAKUZU
  6
VW-01____
 62
    17
 66
     1
 10
0.0
 20
0.0
 30
0.0
 70
   128
  0
VERTEX
  5
68B
  8
SAKUZU
  6
VW-01____
 62
    17
 10
30.38200555366393
 20
5577.501259954786
 30
0.0
 42
0.4142135623732582
 70
     2
 50
2138286746.821947
  0
VERTEX
  5
68C
  8
SAKUZU
  6
VW-01____
 62
    17
 10
10.38200501776578
 20
5557.501260490684
 30
0.0
 42
0.4142135623731217
 70
     2
 50
-0.0000015352370857
  0
VERTEX
  5
68D
  8
SAKUZU
  6
VW-01____
 62
    17
 10
30.38200448186763
 20
5537.501259954786
 30
0.0
  0
VERTEX
  5
68E
  8
SAKUZU
  6
VW-01____
 62
    17
 10
90.38200555366393
 20
5537.501259954786
 30
0.0
  0
VERTEX
  5
68F
  8
SAKUZU
  6
VW-01____
 62
    17
 10
90.38200555366393
 20
5537.501259954786
 30
0.0
 42
0.4142135623730951
 70
     2
 50
3.119036963853517E+17
  0
VERTEX
  5
690
  8
SAKUZU
  6
VW-01____
 62
    17
 10
110.3820055536639
 20
5557.501259954786
 30
0.0
 42
0.4142135623730951
 70
     2
 50
-0.000000000000014
  0
VERTEX
  5
691
  8
SAKUZU
  6
VW-01____
 62
    17
 10
90.38200555366393
 20
5577.501259954786
 30
0.0
  0
VERTEX
  5
692
  8
SAKUZU
  6
VW-01____
 62
    17
 10
30.38200555366393
 20
5577.501259954786
 30
0.0
  0
SEQEND
  5
693
  8
SAKUZU
  6
VW-01____
 62
    17
  0
POLYLINE
  5
694
  8
SAKUZU
  6
VW-01____
 62
    17
 66
     1
 10
0.0
 20
0.0
 30
0.0
 70
   128
  0
VERTEX
  5
695
  8
SAKUZU
  6
VW-01____
 62
    17
 10
257.882096689166
 20
5617.501259954786
 30
0.0
  0
VERTEX
  5
696
  8
SAKUZU
  6
VW-01____
 62
    17
 10
244.4615034274472
 20
5393.824380071974
 30
0.0
  0
VERTEX
  5
697
  8
SAKUZU
  6
VW-01____
 62
    17
 10
244.4615034274472
 20
5393.824380071974
 30
0.0
 42
-0.3967671956468476
 70
     2
 50
-3.437741767755779
  0
VERTEX
  5
698
  8
SAKUZU
  6
VW-01____
 62
    17
 10
216.5117368615557
 20
5367.501259954786
 30
0.0
  0
VERTEX
  5
699
  8
SAKUZU
  6
VW-01____
 62
    17
 10
-95.74750996461626
 20
5367.501259954786
 30
0.0
  0
VERTEX
  5
69A
  8
SAKUZU
  6
VW-01____
 62
    17
 10
-95.74750996461626
 20
5367.501259954786
 30
0.0
 42
-0.3967679539395682
 70
     2
 50
-201721980798474.2
  0
VERTEX
  5
69B
  8
SAKUZU
  6
VW-01____
 62
    17
 10
-123.697247134744
 20
5393.824275757259
 30
0.0
  0
VERTEX
  5
69C
  8
SAKUZU
  6
VW-01____
 62
    17
 10
-137.1178727932561
 20
5617.501259954786
 30
0.0
  0
SEQEND
  5
69D
  8
SAKUZU
  6
VW-01____
 62
    17
  0
LINE
  5
69E
  8
SAKUZU
  6
CONTINUOUS
 62
     1
 10
1662.641967762806
 20
2227.825864785662
 30
0.0
 11
1782.641952504016
 21
2227.825834268084
 31
0.0
  0
LINE
  5
69F
  8
SAKUZU
  6
CONTINUOUS
 62
     1
 10
1658.641967762806
 20
2234.579771035662
 30
0.0
 11
1786.641983021595
 21
2234.579771035662
 31
0.0
  0
LINE
  5
6A0
  8
SAKUZU
  6
CONTINUOUS
 62
     1
 10
1692.841964711048
 20
2165.079771035662
 30
0.0
 11
1752.441970814563
 21
2165.079771035662
 31
0.0
  0
LINE
  5
6A1
  8
SAKUZU
  6
CONTINUOUS
 62
     1
 10
1692.841964711048
 20
2149.579771035662
 30
0.0
 11
1752.441970814563
 21
2149.579771035662
 31
0.0
  0
LINE
  5
6A2
  8
SAKUZU
  6
CONTINUOUS
 62
     1
 10
1672.588806141712
 20
2169.579771035662
 30
0.0
 11
1772.695053089954
 21
2169.579771035662
 31
0.0
  0
LINE
  5
6A3
  8
SAKUZU
  6
CONTINUOUS
 62
     1
 10
1377.641967762806
 20
2320.579755776873
 30
0.0
 11
1907.641967762806
 21
2320.579755776873
 31
0.0
  0
LINE
  5
6A4
  8
SAKUZU
  6
CONTINUOUS
 62
     1
 10
1372.641967762806
 20
2595.579694741717
 30
0.0
 11
1967.641967762806
 21
2595.579694741717
 31
0.0
  0
LINE
  5
6A5
  8
SAKUZU
  6
CONTINUOUS
 62
     1
 10
1967.641967762806
 20
2555.579694741717
 30
0.0
 11
1367.641967762806
 21
2555.579694741717
 31
0.0
  0
LINE
  5
6A6
  8
SAKUZU
  6
CONTINUOUS
 62
     1
 10
-424.6178737469304
 20
2227.825851911059
 30
0.0
 11
-304.6178890057195
 21
2227.825829022875
 31
0.0
  0
LINE
  5
6A7
  8
SAKUZU
  6
CONTINUOUS
 62
     1
 10
-428.6178737469304
 20
2234.579758161059
 30
0.0
 11
-300.6178737469309
 21
2234.579758161059
 31
0.0
  0
LINE
  5
6A8
  8
SAKUZU
  6
CONTINUOUS
 62
     1
 10
-394.4178729839914
 20
2165.079750531664
 30
0.0
 11
-334.8178726025217
 21
2165.079750531664
 31
0.0
  0
LINE
  5
6A9
  8
SAKUZU
  6
CONTINUOUS
 62
     1
 10
-394.4178729839914
 20
2149.579750531664
 30
0.0
 11
-334.8178726025217
 21
2149.579750531664
 31
0.0
  0
LINE
  5
6AA
  8
SAKUZU
  6
CONTINUOUS
 62
     1
 10
-414.6710353680241
 20
2169.579750531664
 30
0.0
 11
-314.5647884197824
 21
2169.579750531664
 31
0.0
  0
LINE
  5
6AB
  8
SAKUZU
  6
CONTINUOUS
 62
     1
 10
-589.6178422756784
 20
2320.579755776873
 30
0.0
 11
285.3820966891652
 21
2320.579755776873
 31
0.0
  0
LINE
  5
6AC
  8
SAKUZU
  6
CONTINUOUS
 62
     1
 10
-602.1178422756784
 20
2555.579694741717
 30
0.0
 11
297.8820966891652
 21
2555.579694741717
 31
0.0
  0
LINE
  5
6AD
  8
SAKUZU
  6
CONTINUOUS
 62
     1
 10
297.8820966891652
 20
2595.579694741717
 30
0.0
 11
-602.1178422756784
 21
2595.579694741717
 31
0.0
  0
LINE
  5
6AE
  8
SAKUZU
  6
VW-01____
 62
    17
 10
-432.6178737469304
 20
2335.57975625371
 30
0.0
 11
-432.2881523085348
 21
2320.579755776873
 31
0.0
  0
LINE
  5
6AF
  8
SAKUZU
  6
CONTINUOUS
 62
     1
 10
-424.6178737469304
 20
2227.825851911059
 30
0.0
 11
-424.6178737469304
 21
2178.550758832445
 31
0.0
  0
LINE
  5
6B0
  8
SAKUZU
  6
CONTINUOUS
 62
     1
 10
-394.4178729839914
 20
2149.579750531664
 30
0.0
 11
-394.4178729839914
 21
2165.079750531664
 31
0.0
  0
ARC
  5
6B1
  8
SAKUZU
  6
CONTINUOUS
 62
     1
 10
-414.6710353680241
 20
2179.579750531664
 30
0.0
 40
9.999999999999988
 50
185.906135174337
 51
269.9999969295297
  0
LINE
  5
6B2
  8
SAKUZU
  6
CONTINUOUS
 62
     1
 10
-394.4178729839914
 20
2165.079750531664
 30
0.0
 11
-398.9178729839914
 21
2169.579750531664
 31
0.0
  0
LINE
  5
6B3
  8
SAKUZU
  6
CONTINUOUS
 62
     1
 10
-432.2881523085348
 20
2320.579755776873
 30
0.0
 11
-428.6875873394602
 21
2236.213295453539
 31
0.0
  0
ARC
  5
6B4
  8
SAKUZU
  6
CONTINUOUS
 62
     1
 10
-423.6921344586008
 20
2236.42649125432
 30
0.0
 40
5.000000000000097
 50
182.4437607390564
 51
218.6598034320793
  0
LINE
  5
6B5
  8
SAKUZU
  6
CONTINUOUS
 62
     1
 10
-427.5964809246652
 20
2233.303017133227
 30
0.0
 11
-425.7135272808664
 21
2230.949326032152
 31
0.0
  0
ARC
  5
6B6
  8
SAKUZU
  6
CONTINUOUS
 62
     1
 10
-429.6178737469304
 20
2227.825851911059
 30
0.0
 40
5.0
 50
0.0
 51
38.65980957302975
  0
LINE
  5
6B7
  8
SAKUZU
  6
CONTINUOUS
 62
     1
 10
-602.1178422756784
 20
2555.579694741717
 30
0.0
 11
-602.1178422756784
 21
2595.579694741717
 31
0.0
  0
ARC
  5
6B8
  8
SAKUZU
  6
VW-01____
 62
    17
 10
-442.6178737469304
 20
2335.57975625371
 30
0.0
 40
10.0
 50
0.0
 51
90.00000307047026
  0
LINE
  5
6B9
  8
SAKUZU
  6
ISO-08_____
 62
    17
 10
-364.6178727932565
 20
2099.579750531664
 30
0.0
 11
-364.6178727932565
 21
2397.753914950727
 31
0.0
  0
LINE
  5
6BA
  8
SAKUZU
  6
VW-01____
 62
    17
 10
-296.9475373516207
 20
2320.579755776873
 30
0.0
 11
-296.6178737469309
 21
2335.57975625371
 31
0.0
  0
LINE
  5
6BB
  8
SAKUZU
  6
CONTINUOUS
 62
     1
 10
-304.6178890057195
 20
2178.550758832445
 30
0.0
 11
-304.6178890057195
 21
2227.825829022875
 31
0.0
  0
LINE
  5
6BC
  8
SAKUZU
  6
CONTINUOUS
 62
     1
 10
-334.8178726025217
 20
2149.579750531664
 30
0.0
 11
-334.8178726025217
 21
2165.079750531664
 31
0.0
  0
LINE
  5
6BD
  8
SAKUZU
  6
CONTINUOUS
 62
     1
 10
-334.8178726025217
 20
2165.079750531664
 30
0.0
 11
-330.317870695173
 21
2169.579750531664
 31
0.0
  0
ARC
  5
6BE
  8
SAKUZU
  6
CONTINUOUS
 62
     1
 10
-314.5647884197824
 20
2179.579750531664
 30
0.0
 40
10.00000000000001
 50
269.9999969295284
 51
354.0938586847331
  0
LINE
  5
6BF
  8
SAKUZU
  6
CONTINUOUS
 62
     1
 10
-300.5481563397043
 20
2236.213295453539
 30
0.0
 11
-296.9475373516207
 21
2320.579755776873
 31
0.0
  0
LINE
  5
6C0
  8
SAKUZU
  6
CONTINUOUS
 62
     1
 10
-301.6392627544992
 20
2233.303017133227
 30
0.0
 11
-303.5222354717839
 21
2230.949303143969
 31
0.0
  0
ARC
  5
6C1
  8
SAKUZU
  6
CONTINUOUS
 62
     1
 10
-305.5436092205637
 20
2236.42649125432
 30
0.0
 40
4.999999999999906
 50
321.340195706868
 51
357.5561947606681
  0
ARC
  5
6C2
  8
SAKUZU
  6
CONTINUOUS
 62
     1
 10
-299.6178890057199
 20
2227.825829022875
 30
0.0
 40
5.000000000000255
 50
141.3402018477925
 51
180.0
  0
ARC
  5
6C3
  8
SAKUZU
  6
VW-01____
 62
    17
 10
-286.6178737469309
 20
2335.57975625371
 30
0.0
 40
10.00000000000001
 50
90.00000307047156
 51
180.0
  0
LINE
  5
6C4
  8
SAKUZU
  6
CONTINUOUS
 62
     1
 10
297.8820966891655
 20
2595.579694741717
 30
0.0
 11
297.8820966891652
 21
2555.579694741717
 31
0.0
  0
LINE
  5
6C5
  8
SAKUZU
  6
VW-01____
 62
    17
 10
1654.649475087024
 20
2340.349409097185
 30
0.0
 11
1654.971689017519
 21
2320.579755776873
 31
0.0
  0
LINE
  5
6C6
  8
SAKUZU
  6
CONTINUOUS
 62
     1
 10
1662.641967762806
 20
2227.825864785662
 30
0.0
 11
1662.641967762806
 21
2178.550779336443
 31
0.0
  0
LINE
  5
6C7
  8
SAKUZU
  6
CONTINUOUS
 62
     1
 10
1692.841964711048
 20
2149.579771035662
 30
0.0
 11
1692.841964711048
 21
2165.079771035662
 31
0.0
  0
ARC
  5
6C8
  8
SAKUZU
  6
CONTINUOUS
 62
     1
 10
1672.588806141712
 20
2179.579771035662
 30
0.0
 40
10.00000000000021
 50
185.9061351743368
 51
269.9999969295311
  0
LINE
  5
6C9
  8
SAKUZU
  6
CONTINUOUS
 62
     1
 10
1692.841964711048
 20
2165.079771035662
 30
0.0
 11
1688.341964711048
 21
2169.579771035662
 31
0.0
  0
LINE
  5
6CA
  8
SAKUZU
  6
CONTINUOUS
 62
     1
 10
1654.971689017519
 20
2320.579755776873
 30
0.0
 11
1658.572250355579
 21
2236.213315957537
 31
0.0
  0
ARC
  5
6CB
  8
SAKUZU
  6
CONTINUOUS
 62
     1
 10
1663.567703236438
 20
2236.42648124074
 30
0.0
 40
5.000000000000097
 50
182.4437607390564
 51
218.6598034320793
  0
LINE
  5
6CC
  8
SAKUZU
  6
CONTINUOUS
 62
     1
 10
1659.663360585071
 20
2233.303007119646
 30
0.0
 11
1661.546310414173
 21
2230.949338906756
 31
0.0
  0
ARC
  5
6CD
  8
SAKUZU
  6
CONTINUOUS
 62
     1
 10
1657.641967762806
 20
2227.825864785662
 30
0.0
 40
5.0
 50
0.0
 51
38.65980957302975
  0
LINE
  5
6CE
  8
SAKUZU
  6
CONTINUOUS
 62
     1
 10
1367.641967762806
 20
2555.579694741717
 30
0.0
 11
1367.641967762806
 21
2590.579694741717
 31
0.0
  0
ARC
  5
6CF
  8
SAKUZU
  6
CONTINUOUS
 62
     1
 10
1372.641967762806
 20
2590.579694741717
 30
0.0
 40
5.000000000000007
 50
90.00000307046894
 51
180.0
  0
ARC
  5
6D0
  8
SAKUZU
  6
VW-01____
 62
    17
 10
1644.649475087024
 20
2340.349409097185
 30
0.0
 40
10.00000000000014
 50
1.262423228281387
 51
68.1397235532452
  0
LINE
  5
6D1
  8
SAKUZU
  6
ISO-08_____
 62
    17
 10
-489.6178727932563
 20
3375.556961531397
 30
0.0
 11
-239.6178727932561
 21
3375.556961531397
 31
0.0
  0
CIRCLE
  5
6D2
  8
SAKUZU
  6
CONTINUOUS
 62
     1
 10
-364.6178727932565
 20
3375.556961531397
 30
0.0
 40
75.0
  0
CIRCLE
  5
6D3
  8
SAKUZU
  6
CONTINUOUS
 62
     1
 10
-364.6178727932565
 20
3375.556961531397
 30
0.0
 40
93.0
  0
LINE
  5
6D4
  8
SAKUZU
  6
CONTINUOUS
 62
     1
 10
-195.1178727932565
 20
3060.556839461085
 30
0.0
 11
-534.1178422756784
 21
3060.556839461085
 31
0.0
  0
LINE
  5
6D5
  8
SAKUZU
  6
CONTINUOUS
 62
     1
 10
-534.1178422756784
 20
3520.556961531397
 30
0.0
 11
-195.1178727932565
 21
3520.556961531397
 31
0.0
  0
LINE
  5
6D6
  8
SAKUZU
  6
CONTINUOUS
 62
     1
 10
297.8820966891652
 20
3620.556961531397
 30
0.0
 11
-602.1178422756784
 21
3620.556961531397
 31
0.0
  0
LINE
  5
6D7
  8
SAKUZU
  6
CONTINUOUS
 62
     1
 10
-602.1178422756784
 20
3020.556839461085
 30
0.0
 11
297.8820966891652
 21
3020.556839461085
 31
0.0
  0
LINE
  5
6D8
  8
SAKUZU
  6
CONTINUOUS
 62
     1
 10
-562.1178422756784
 20
3088.556839461085
 30
0.0
 11
-562.1178422756784
 21
3492.556961531397
 31
0.0
  0
LINE
  5
6D9
  8
SAKUZU
  6
CONTINUOUS
 62
     1
 10
-602.1178422756784
 20
3620.556961531397
 30
0.0
 11
-602.1178422756784
 21
3020.556839461085
 31
0.0
  0
ARC
  5
6DA
  8
SAKUZU
  6
CONTINUOUS
 62
     1
 10
-534.1178422756784
 20
3088.556839461085
 30
0.0
 40
28.0
 50
180.0
 51
269.9999969295297
  0
ARC
  5
6DB
  8
SAKUZU
  6
CONTINUOUS
 62
     1
 10
-534.1178422756784
 20
3492.556961531397
 30
0.0
 40
28.00000000000004
 50
90.00000307046838
 51
180.0
  0
LINE
  5
6DC
  8
SAKUZU
  6
ISO-08_____
 62
    17
 10
-364.6178727932568
 20
3500.556961531397
 30
0.0
 11
-364.6178727932565
 21
3250.556961531397
 31
0.0
  0
LINE
  5
6DD
  8
SAKUZU
  6
CONTINUOUS
 62
     1
 10
-167.1178727932565
 20
3492.556961531397
 30
0.0
 11
-167.1178727932565
 21
3088.556839461085
 31
0.0
  0
LINE
  5
6DE
  8
SAKUZU
  6
CONTINUOUS
 62
     1
 10
297.8820966891652
 20
3020.556839461085
 30
0.0
 11
297.8820966891652
 21
3620.556961531397
 31
0.0
  0
ARC
  5
6DF
  8
SAKUZU
  6
CONTINUOUS
 62
     1
 10
-195.1178727932565
 20
3088.556839461085
 30
0.0
 40
28.00000000000004
 50
269.9999969295297
 51
0.0
  0
ARC
  5
6E0
  8
SAKUZU
  6
CONTINUOUS
 62
     1
 10
-195.1178727932565
 20
3492.556961531397
 30
0.0
 40
28.0
 50
0.0
 51
90.00000307046933
  0
LINE
  5
6E1
  8
SAKUZU
  6
ISO-08_____
 62
    17
 10
1722.641967762806
 20
2099.579771035662
 30
0.0
 11
1722.641967762806
 21
2397.753935454724
 31
0.0
  0
LINE
  5
6E2
  8
SAKUZU
  6
VW-01____
 62
    17
 10
1790.312318606307
 20
2320.579755776873
 30
0.0
 11
1790.649490345813
 21
2336.314252847185
 31
0.0
  0
LINE
  5
6E3
  8
SAKUZU
  6
CONTINUOUS
 62
     1
 10
1815.542434681751
 20
2243.579771035662
 30
0.0
 11
1869.641967762806
 21
2243.579771035662
 31
0.0
  0
LINE
  5
6E4
  8
SAKUZU
  6
CONTINUOUS
 62
     1
 10
1869.641967762806
 20
2275.579755776873
 30
0.0
 11
1815.542434681751
 21
2275.579755776873
 31
0.0
  0
LINE
  5
6E5
  8
SAKUZU
  6
CONTINUOUS
 62
     1
 10
1782.641952504016
 20
2178.550779336443
 30
0.0
 11
1782.641952504016
 21
2227.825834268084
 31
0.0
  0
LINE
  5
6E6
  8
SAKUZU
  6
CONTINUOUS
 62
     1
 10
1752.441970814563
 20
2149.579771035662
 30
0.0
 11
1752.441970814563
 21
2165.079771035662
 31
0.0
  0
LINE
  5
6E7
  8
SAKUZU
  6
CONTINUOUS
 62
     1
 10
1752.441970814563
 20
2165.079771035662
 30
0.0
 11
1756.941970814563
 21
2169.579771035662
 31
0.0
  0
ARC
  5
6E8
  8
SAKUZU
  6
CONTINUOUS
 62
     1
 10
1772.695053089954
 20
2179.579771035662
 30
0.0
 40
10.00000000000001
 50
269.9999969295311
 51
354.0938586847334
  0
ARC
  5
6E9
  8
SAKUZU
  6
CONTINUOUS
 62
     1
 10
1781.716232289173
 20
2236.42648124074
 30
0.0
 40
4.999999999999906
 50
321.340195706868
 51
357.5561947606682
  0
LINE
  5
6EA
  8
SAKUZU
  6
CONTINUOUS
 62
     1
 10
1785.620590199329
 20
2233.303007119646
 30
0.0
 11
1783.73759459386
 21
2230.949308389178
 31
0.0
  0
ARC
  5
6EB
  8
SAKUZU
  6
CONTINUOUS
 62
     1
 10
1787.641952504016
 20
2227.825834268084
 30
0.0
 40
4.999999999999901
 50
141.3402018477892
 51
180.0
  0
LINE
  5
6EC
  8
SAKUZU
  6
CONTINUOUS
 62
     1
 10
1786.711685170032
 20
2236.213285439959
 30
0.0
 11
1790.312318606307
 21
2320.579755776873
 31
0.0
  0
LINE
  5
6ED
  8
SAKUZU
  6
CONTINUOUS
 62
     1
 10
1797.542434681751
 20
2282.579755776873
 30
0.0
 11
1797.542434681751
 21
2236.579771035662
 31
0.0
  0
LINE
  5
6EE
  8
SAKUZU
  6
CONTINUOUS
 62
     1
 10
1815.542434681751
 20
2236.579771035662
 30
0.0
 11
1815.542434681751
 21
2282.579755776873
 31
0.0
  0
LINE
  5
6EF
  8
SAKUZU
  6
CONTINUOUS
 62
     1
 10
1797.542434681751
 20
2239.079771035662
 30
0.0
 11
1786.834030140735
 21
2239.079771035662
 31
0.0
  0
LINE
  5
6F0
  8
SAKUZU
  6
CONTINUOUS
 62
     1
 10
1797.542434681751
 20
2236.579771035662
 30
0.0
 11
1815.542434681751
 21
2236.579771035662
 31
0.0
  0
LINE
  5
6F1
  8
SAKUZU
  6
CONTINUOUS
 62
     1
 10
1797.542434681751
 20
2280.079755776873
 30
0.0
 11
1788.583847035266
 21
2280.079755776873
 31
0.0
  0
LINE
  5
6F2
  8
SAKUZU
  6
CONTINUOUS
 62
     1
 10
1815.542434681751
 20
2282.579755776873
 30
0.0
 11
1797.542434681751
 21
2282.579755776873
 31
0.0
  0
LINE
  5
6F3
  8
SAKUZU
  6
CONTINUOUS
 62
     1
 10
1967.641967762806
 20
2595.579694741717
 30
0.0
 11
1967.641967762806
 21
2555.579694741717
 31
0.0
  0
ARC
  5
6F4
  8
SAKUZU
  6
VW-01____
 62
    17
 10
1800.649490345813
 20
2336.314252847185
 30
0.0
 40
10.0000000000001
 50
109.0527154875466
 51
180.0
  0
DIMENSION
  5
6F5
  8
SAKUZU
 62
     2
  2
*D25
 10
-602.1178422756784
 20
3820.556961531397
 30
0.0
 11
-152.1178727932566
 21
3836.636082409773
 31
0.0
 70
    32
  3
SPEAC
 13
297.8820966891652
 23
3620.556961531397
 33
0.0
 14
-602.1178422756784
 24
3620.556961531397
 34
0.0
  0
DIMENSION
  5
6F6
  8
SAKUZU
 62
     2
  2
*D26
 10
-602.1178422756784
 20
3720.556961531397
 30
0.0
 11
-582.1178422756784
 21
3736.636082409773
 31
0.0
 70
    32
  3
SPEAC
 13
-562.1178422756784
 23
3620.556961531397
 33
0.0
 14
-602.1178422756784
 24
3620.556961531397
 34
0.0
  0
DIMENSION
  5
6F9
  8
SAKUZU
 62
     2
  2
*D27
 10
-562.1178422756784
 20
3720.556961531397
 30
0.0
 11
-364.6178575344675
 21
3736.636082409773
 31
0.0
 70
    32
  3
SPEAC
 13
-167.1178727932565
 23
3620.556961531397
 33
0.0
 14
-562.1178422756784
 24
3620.556961531397
 34
0.0
  0
DIMENSION
  5
6FA
  8
SAKUZU
 62
     2
  2
*D28
 10
257.8820966891652
 20
3720.556961531397
 30
0.0
 11
277.8820966891652
 21
3736.636082409773
 31
0.0
 70
    32
  3
SPEAC
 13
297.8820966891652
 23
3620.556961531397
 33
0.0
 14
257.8820966891652
 24
3620.556961531397
 34
0.0
  0
DIMENSION
  5
6FD
  8
SAKUZU
 62
     2
  2
*D29
 10
497.8820966891652
 20
3620.556961531397
 30
0.0
 11
481.8029758107895
 21
3320.556900496241
 31
0.0
 70
    32
  3
SPEAC
 13
297.8820966891652
 23
3020.556839461085
 33
0.0
 14
297.8820966891652
 24
3620.556961531397
 34
0.0
 50
-90.0
  0
DIMENSION
  5
6FE
  8
SAKUZU
 62
     2
  2
*D30
 10
397.8820966891652
 20
3620.556961531397
 30
0.0
 11
381.8029758107895
 21
3590.556961531397
 31
0.0
 70
    32
  3
SPEAC
 13
297.8820966891652
 23
3560.556961531397
 33
0.0
 14
297.8820966891652
 24
3620.556961531397
 34
0.0
 50
-90.0
  0
DIMENSION
  5
6FF
  8
SAKUZU
 62
     2
  2
*D31
 10
397.8820966891652
 20
3520.556961531397
 30
0.0
 11
381.8029758107895
 21
3290.556900496241
 31
0.0
 70
    32
  3
SPEAC
 13
297.8820966891652
 23
3060.556839461085
 33
0.0
 14
297.8820966891652
 24
3520.556961531397
 34
0.0
 50
-90.0
  0
DIMENSION
  5
700
  8
SAKUZU
 62
     2
  2
*D32
 10
397.8820966891652
 20
3060.556839461085
 30
0.0
 11
381.8029758107895
 21
3040.556839461085
 31
0.0
 70
    32
  3
SPEAC
 13
297.8820966891652
 23
3020.556839461085
 33
0.0
 14
297.8820966891652
 24
3060.556839461085
 34
0.0
 50
-90.0
  0
DIMENSION
  5
703
  8
SAKUZU
 62
     2
  2
*D33
 10
-602.1178422756784
 20
2920.556839461085
 30
0.0
 11
-483.3678575344676
 21
2936.63596033946
 31
0.0
 70
    32
  3
SPEAC
 13
-364.6178727932568
 23
3250.556961531397
 33
0.0
 14
-602.1178422756784
 24
3020.556839461085
 34
0.0
  0
DIMENSION
  5
704
  8
SAKUZU
 62
     2
  2
*D34
 10
60.38212720674335
 20
2920.556839461085
 30
0.0
 11
179.1321119479543
 21
2936.63596033946
 31
0.0
 70
    32
  3
SPEAC
 13
297.8820966891652
 23
3020.556839461085
 33
0.0
 14
60.38212720674335
 24
3250.556961531397
 34
0.0
  0
DIMENSION
  5
705
  8
SAKUZU
 62
     2
  2
*D35
 10
1167.641967762805
 20
1745.579755776873
 30
0.0
 11
1151.56284688443
 21
2170.579725259295
 31
0.0
 70
    32
  3
SPEAC
 13
1372.641967762806
 23
2595.579694741717
 33
0.0
 14
1383.041966427661
 24
1745.579755776873
 34
0.0
 50
-90.0
  0
DIMENSION
  5
706
  8
SAKUZU
 62
     2
  2
*D36
 10
1267.641967762806
 20
2595.579694741717
 30
0.0
 11
1251.56284688443
 21
2575.579694741717
 31
0.0
 70
    32
  3
SPEAC
 13
1367.641967762806
 23
2555.579694741717
 33
0.0
 14
1372.641967762806
 24
2595.579694741717
 34
0.0
 50
-90.0
  0
DIMENSION
  5
709
  8
SAKUZU
 62
     2
  2
*D37
 10
1267.641967762806
 20
1745.579755776873
 30
0.0
 11
1251.56284688443
 21
1845.579755776872
 31
0.0
 70
    32
  3
SPEAC
 13
1376.141967762806
 23
1945.579755776871
 33
0.0
 14
1383.041966427661
 24
1745.579755776873
 34
0.0
 50
-90.0
  0
DIMENSION
  5
70A
  8
SAKUZU
 62
     2
  2
*D38
 10
1967.641967762806
 20
1645.579755776873
 30
0.0
 11
1845.141967762806
 21
1661.658876655249
 31
0.0
 70
    32
  3
SPEAC
 13
1722.641967762806
 23
2099.579771035662
 33
0.0
 14
1967.641967762806
 24
2555.579694741717
 34
0.0
  0
DIMENSION
  5
70B
  8
SAKUZU
 62
     2
  2
*D39
 10
2067.641967762806
 20
2595.579694741717
 30
0.0
 11
2051.56284688443
 21
2470.579694741717
 31
0.0
 70
    32
  3
SPEAC
 13
1907.641967762806
 23
2345.579694741717
 33
0.0
 14
1967.641967762806
 24
2595.579694741717
 34
0.0
 50
-90.0
  0
LINE
  5
70C
  8
SAKUZU
  6
VW-01____
 62
    17
 10
1876.542920723865
 20
2275.579763406267
 30
0.0
 11
1869.641967762806
 21
2275.579763406267
 31
0.0
  0
LINE
  5
70D
  8
SAKUZU
  6
CONTINUOUS
 62
     1
 10
1869.641967762806
 20
2275.579763406267
 30
0.0
 11
1815.542434681751
 21
2275.579763406267
 31
0.0
  0
LINE
  5
70E
  8
SAKUZU
  6
CONTINUOUS
 62
     1
 10
1815.542434681751
 20
2243.579763406267
 30
0.0
 11
1869.641967762806
 21
2243.579763406267
 31
0.0
  0
LINE
  5
70F
  8
SAKUZU
  6
CONTINUOUS
 62
     4
 10
1869.641967762806
 20
2243.579763406267
 30
0.0
 11
1876.542434681751
 21
2243.579763406267
 31
0.0
  0
ARC
  5
710
  8
SAKUZU
  6
CONTINUOUS
 62
     4
 10
1876.542434681751
 20
2283.579763406267
 30
0.0
 40
40.0
 50
270.0
 51
313.0809644257156
  0
ARC
  5
711
  8
SAKUZU
  6
CONTINUOUS
 62
     1
 10
1876.542434681751
 20
2283.579763406267
 30
0.0
 40
40.00000000000053
 50
321.0311807738029
 51
0.0
  0
ARC
  5
712
  8
SAKUZU
  6
VW-01____
 62
    17
 10
1876.542920723865
 20
2283.579763406267
 30
0.0
 40
8.0
 50
270.0
 51
0.0
  0
LINE
  5
713
  8
SAKUZU
  6
VW-01____
 62
    17
 10
1876.213409574433
 20
2565.579694741717
 30
0.0
 11
1876.213409574433
 21
2557.569818993996
 31
0.0
  0
LINE
  5
714
  8
SAKUZU
  6
VW-01____
 62
    17
 10
1863.356293197686
 20
2505.579694741717
 30
0.0
 11
1876.213409574433
 21
2505.579694741717
 31
0.0
  0
LINE
  5
715
  8
SAKUZU
  6
VW-01____
 62
    17
 10
1866.213409574433
 20
2565.579694741717
 30
0.0
 11
1876.213409574433
 21
2565.579694741717
 31
0.0
  0
LINE
  5
716
  8
SAKUZU
  6
VW-01____
 62
    17
 10
1876.213409574433
 20
2557.569818993996
 30
0.0
 11
1897.542434681751
 21
2557.569818993996
 31
0.0
  0
LINE
  5
717
  8
SAKUZU
  6
CONTINUOUS
 62
     1
 10
1922.542434681751
 20
2532.569818993996
 30
0.0
 11
1922.542434681751
 21
2510.579694741717
 31
0.0
  0
ARC
  5
718
  8
SAKUZU
  6
CONTINUOUS
 62
     1
 10
1897.542434681751
 20
2532.569818993996
 30
0.0
 40
25.0
 50
0.0
 51
66.17269264603897
  0
ARC
  5
719
  8
SAKUZU
  6
VW-01____
 62
    17
 10
1897.542434681751
 20
2532.569818993996
 30
0.0
 40
25.0000000000002
 50
75.3537844983653
 51
90.0
  0
LINE
  5
71A
  8
SAKUZU
  6
VW-01____
 62
    17
 10
1878.542434681751
 20
2510.579694741717
 30
0.0
 11
1903.863680747601
 21
2510.579694741717
 31
0.0
  0
LINE
  5
71B
  8
SAKUZU
  6
CONTINUOUS
 62
     1
 10
1907.641967762805
 20
2510.579694741717
 30
0.0
 11
1922.542434681751
 21
2510.579694741717
 31
0.0
  0
LINE
  5
71C
  8
SAKUZU
  6
VW-01____
 62
    17
 10
1878.542434681751
 20
2515.579694741717
 30
0.0
 11
1878.542434681751
 21
2510.579694741717
 31
0.0
  0
LINE
  5
71D
  8
SAKUZU
  6
VW-01____
 62
    17
 10
1876.213409574433
 20
2505.579694741717
 30
0.0
 11
1876.213409574433
 21
2515.579694741717
 31
0.0
  0
LINE
  5
71E
  8
SAKUZU
  6
VW-01____
 62
    17
 10
1876.213409574433
 20
2515.579694741717
 30
0.0
 11
1878.542434681751
 21
2515.579694741717
 31
0.0
  0
LINE
  5
71F
  8
SAKUZU
  6
VW-01____
 62
    17
 10
1884.542434681751
 20
2283.667947518106
 30
0.0
 11
1884.542434681751
 21
2510.579694741717
 31
0.0
  0
LINE
  5
720
  8
SAKUZU
  6
CONTINUOUS
 62
     1
 10
1916.542434681751
 20
2283.667947518106
 30
0.0
 11
1916.542434681751
 21
2510.579694741717
 31
0.0
  0
LINE
  5
721
  8
0
  6
CONTINUOUS
 62
     7
 10
1377.641967762806
 20
2555.579694741717
 30
0.0
 11
1377.641967762806
 21
1945.579694741715
 31
0.0
  0
LINE
  5
722
  8
0
  6
CONTINUOUS
 62
     7
 10
1869.641967762806
 20
2320.579755776873
 30
0.0
 11
1869.641967762806
 21
1945.579694741715
 31
0.0
  0
LINE
  5
723
  8
0
  6
CONTINUOUS
 62
     7
 10
1907.641967762806
 20
1790.579694741715
 30
0.0
 11
1907.641967762806
 21
1898.079694741712
 31
0.0
  0
LINE
  5
724
  8
0
  6
CONTINUOUS
 62
     7
 10
1873.241973866321
 20
1783.579694741715
 30
0.0
 11
1873.241973866321
 21
1760.579694741715
 31
0.0
  0
LINE
  5
725
  8
0
  6
CONTINUOUS
 62
     7
 10
1873.241973866321
 20
1760.579694741715
 30
0.0
 11
1904.04196165929
 21
1760.579694741715
 31
0.0
  0
LINE
  5
726
  8
0
  6
CONTINUOUS
 62
     7
 10
1904.04196165929
 20
1760.579694741715
 30
0.0
 11
1904.04196165929
 21
1783.579694741715
 31
0.0
  0
LINE
  5
727
  8
0
  6
CONTINUOUS
 62
     7
 10
1875.04196165929
 20
1760.579694741715
 30
0.0
 11
1875.04196165929
 21
1745.579694741715
 31
0.0
  0
LINE
  5
728
  8
0
  6
CONTINUOUS
 62
     7
 10
1875.04196165929
 20
1745.579694741715
 30
0.0
 11
1902.241973866321
 21
1745.579694741715
 31
0.0
  0
LINE
  5
729
  8
0
  6
CONTINUOUS
 62
     7
 10
1902.241973866321
 20
1745.579694741715
 30
0.0
 11
1902.241973866321
 21
1760.579694741715
 31
0.0
  0
LINE
  5
72A
  8
0
  6
CONTINUOUS
 62
     7
 10
1415.641966809131
 20
1790.579694741715
 30
0.0
 11
1415.641966809131
 21
1898.079694741712
 31
0.0
  0
LINE
  5
72B
  8
0
  6
CONTINUOUS
 62
     7
 10
1381.241967190601
 20
1783.579694741715
 30
0.0
 11
1381.241967190601
 21
1760.579694741715
 31
0.0
  0
LINE
  5
72C
  8
0
  6
CONTINUOUS
 62
     7
 10
1381.241967190601
 20
1760.579694741715
 30
0.0
 11
1412.04196833501
 21
1760.579694741715
 31
0.0
  0
LINE
  5
72D
  8
0
  6
CONTINUOUS
 62
     7
 10
1412.04196833501
 20
1760.579694741715
 30
0.0
 11
1412.04196833501
 21
1783.579694741715
 31
0.0
  0
LINE
  5
72E
  8
0
  6
CONTINUOUS
 62
     7
 10
1383.041966427661
 20
1760.579694741715
 30
0.0
 11
1383.041966427661
 21
1745.579694741715
 31
0.0
  0
LINE
  5
72F
  8
0
  6
CONTINUOUS
 62
     7
 10
1383.041966427661
 20
1745.579694741715
 30
0.0
 11
1410.24196909795
 21
1745.579694741715
 31
0.0
  0
LINE
  5
730
  8
0
  6
CONTINUOUS
 62
     7
 10
1410.24196909795
 20
1745.579694741715
 30
0.0
 11
1410.24196909795
 21
1760.579694741715
 31
0.0
  0
LINE
  5
731
  8
0
  6
CONTINUOUS
 62
     7
 10
1907.641967762806
 20
1898.079694741712
 30
0.0
 11
1907.641967762806
 21
1900.579694741715
 31
0.0
  0
LINE
  5
732
  8
0
  6
CONTINUOUS
 62
     7
 10
1907.641967762806
 20
1945.579694741715
 30
0.0
 11
1907.641967762806
 21
2555.579694741717
 31
0.0
  0
LINE
  5
733
  8
0
  6
CONTINUOUS
 62
     7
 10
1869.641967762806
 20
1900.579694741715
 30
0.0
 11
1869.641967762806
 21
1790.579694741715
 31
0.0
  0
LINE
  5
734
  8
0
  6
CONTINUOUS
 62
     7
 10
1415.641966809131
 20
1898.079694741712
 30
0.0
 11
1415.641966809131
 21
1900.579694741715
 31
0.0
  0
LINE
  5
735
  8
0
  6
CONTINUOUS
 62
     7
 10
1415.641966809131
 20
1945.579694741716
 30
0.0
 11
1415.641966809131
 21
2320.579755776873
 31
0.0
  0
LINE
  5
736
  8
0
  6
CONTINUOUS
 62
     7
 10
1377.641967485932
 20
1900.579694741714
 30
0.0
 11
1377.641966809131
 21
1790.579694741715
 31
0.0
  0
LINE
  5
737
  8
0
  6
CONTINUOUS
 62
     7
 10
1869.641967762806
 20
1790.579694741715
 30
0.0
 11
1907.641967762806
 21
1790.579694741715
 31
0.0
  0
ARC
  5
738
  8
0
  6
CONTINUOUS
 62
     7
 10
1869.641967762806
 20
1788.579694741715
 30
0.0
 40
2.0
 50
90.0
 51
180.0
  0
ARC
  5
739
  8
0
  6
CONTINUOUS
 62
     7
 10
1907.641967762806
 20
1788.579694741715
 30
0.0
 40
2.0
 50
0.0
 51
90.0
  0
LINE
  5
73A
  8
0
  6
CONTINUOUS
 62
     7
 10
1909.641967762806
 20
1788.579694741715
 30
0.0
 11
1909.641967762806
 21
1783.579694741715
 31
0.0
  0
LINE
  5
73B
  8
0
  6
CONTINUOUS
 62
     7
 10
1909.641967762806
 20
1783.579694741715
 30
0.0
 11
1867.641967762806
 21
1783.579694741715
 31
0.0
  0
LINE
  5
73C
  8
0
  6
CONTINUOUS
 62
     7
 10
1867.641967762806
 20
1783.579694741715
 30
0.0
 11
1867.641967762806
 21
1788.579694741715
 31
0.0
  0
LINE
  5
73D
  8
0
  6
CONTINUOUS
 62
     7
 10
1377.641966809131
 20
1790.579694741715
 30
0.0
 11
1415.641966809131
 21
1790.579694741715
 31
0.0
  0
ARC
  5
73E
  8
0
  6
CONTINUOUS
 62
     7
 10
1377.641966809131
 20
1788.579694741715
 30
0.0
 40
2.0
 50
90.0
 51
180.0
  0
ARC
  5
73F
  8
0
  6
CONTINUOUS
 62
     7
 10
1415.641966809131
 20
1788.579694741715
 30
0.0
 40
2.0
 50
0.0
 51
90.0
  0
LINE
  5
740
  8
0
  6
CONTINUOUS
 62
     7
 10
1417.641966809131
 20
1788.579694741715
 30
0.0
 11
1417.641966809131
 21
1783.579694741715
 31
0.0
  0
LINE
  5
741
  8
0
  6
CONTINUOUS
 62
     7
 10
1417.641966809131
 20
1783.579694741715
 30
0.0
 11
1375.641966809131
 21
1783.579694741715
 31
0.0
  0
LINE
  5
742
  8
0
  6
CONTINUOUS
 62
     7
 10
1375.641966809131
 20
1783.579694741715
 30
0.0
 11
1375.641966809131
 21
1788.579694741715
 31
0.0
  0
LINE
  5
743
  8
0
  6
CONTINUOUS
 62
     7
 10
1416.141967762806
 20
1945.579694741735
 30
0.0
 11
1416.141967762806
 21
1913.579694741715
 31
0.0
  0
LINE
  5
744
  8
0
  6
CONTINUOUS
 62
     7
 10
1376.141967762806
 20
1945.579694741715
 30
0.0
 11
1376.141967762806
 21
1900.579694741715
 31
0.0
  0
LINE
  5
745
  8
0
  6
CONTINUOUS
 62
     7
 10
1417.141967762806
 20
1900.579694741715
 30
0.0
 11
1417.141967762806
 21
1913.579694741715
 31
0.0
  0
LINE
  5
746
  8
0
  6
CONTINUOUS
 62
     7
 10
1868.141967762806
 20
1913.579694741715
 30
0.0
 11
1416.141967762806
 21
1913.579694741715
 31
0.0
  0
LINE
  5
747
  8
0
  6
CONTINUOUS
 62
     7
 10
1416.141967762806
 20
1945.579694741716
 30
0.0
 11
1376.141967762806
 21
1945.579694741715
 31
0.0
  0
LINE
  5
748
  8
0
  6
CONTINUOUS
 62
     7
 10
1376.141967762806
 20
1900.579694741715
 30
0.0
 11
1417.141967762806
 21
1900.579694741715
 31
0.0
  0
LINE
  5
749
  8
0
  6
CONTINUOUS
 62
     7
 10
1869.141967762806
 20
1945.579694741718
 30
0.0
 11
1869.141967762806
 21
1913.579694741715
 31
0.0
  0
LINE
  5
74A
  8
0
  6
CONTINUOUS
 62
     7
 10
1909.141967762806
 20
1945.579694741715
 30
0.0
 11
1909.141967762806
 21
1900.579694741715
 31
0.0
  0
LINE
  5
74B
  8
0
  6
CONTINUOUS
 62
     7
 10
1868.141967762806
 20
1900.579694741715
 30
0.0
 11
1868.141967762806
 21
1913.579694741715
 31
0.0
  0
LINE
  5
74C
  8
0
  6
CONTINUOUS
 62
     7
 10
1868.141967762806
 20
1913.579694741715
 30
0.0
 11
1869.141967762806
 21
1913.579694741715
 31
0.0
  0
LINE
  5
74D
  8
0
  6
CONTINUOUS
 62
     7
 10
1416.141967762806
 20
1945.579694741735
 30
0.0
 11
1909.141967762806
 21
1945.579694741715
 31
0.0
  0
LINE
  5
74E
  8
0
  6
CONTINUOUS
 62
     7
 10
1909.141967762806
 20
1900.579694741715
 30
0.0
 11
1868.141967762806
 21
1900.579694741715
 31
0.0
  0
LINE
  5
74F
  8
0
  6
CONTINUOUS
 62
     7
 10
-551.6178727932565
 20
1945.579694741715
 30
0.0
 11
-551.6178727932565
 21
2320.579755776873
 31
0.0
  0
LINE
  5
750
  8
0
  6
CONTINUOUS
 62
     7
 10
-589.6178727932561
 20
1898.079694741712
 30
0.0
 11
-589.6178727932561
 21
1790.579694741715
 31
0.0
  0
LINE
  5
751
  8
0
  6
CONTINUOUS
 62
     7
 10
-586.0178724117868
 20
1783.579694741715
 30
0.0
 11
-586.0178724117868
 21
1760.579694741715
 31
0.0
  0
LINE
  5
752
  8
0
  6
CONTINUOUS
 62
     7
 10
-586.0178724117868
 20
1760.579694741715
 30
0.0
 11
-555.2178712673776
 21
1760.579694741715
 31
0.0
  0
LINE
  5
753
  8
0
  6
CONTINUOUS
 62
     7
 10
-555.2178712673776
 20
1760.579694741715
 30
0.0
 11
-555.2178712673776
 21
1783.579694741715
 31
0.0
  0
LINE
  5
754
  8
0
  6
CONTINUOUS
 62
     7
 10
-584.2178731747263
 20
1760.579694741715
 30
0.0
 11
-584.2178731747263
 21
1745.579694741714
 31
0.0
  0
LINE
  5
755
  8
0
  6
CONTINUOUS
 62
     7
 10
-584.2178731747263
 20
1745.579694741714
 30
0.0
 11
-557.0178705044382
 21
1745.579694741714
 31
0.0
  0
LINE
  5
756
  8
0
  6
CONTINUOUS
 62
     7
 10
-557.0178705044382
 20
1745.579694741714
 30
0.0
 11
-557.0178705044382
 21
1760.579694741715
 31
0.0
  0
LINE
  5
757
  8
0
  6
CONTINUOUS
 62
     7
 10
247.3821272067433
 20
2320.579755776873
 30
0.0
 11
247.3821272067433
 21
1945.579694741715
 31
0.0
  0
LINE
  5
758
  8
0
  6
CONTINUOUS
 62
     7
 10
285.3821272067433
 20
1790.579694741715
 30
0.0
 11
285.3821272067433
 21
1898.079694741712
 31
0.0
  0
LINE
  5
759
  8
0
  6
CONTINUOUS
 62
     7
 10
250.9821027926808
 20
1783.579694741715
 30
0.0
 11
250.9821027926808
 21
1760.579694741715
 31
0.0
  0
LINE
  5
75A
  8
0
  6
CONTINUOUS
 62
     7
 10
250.9821027926808
 20
1760.579694741715
 30
0.0
 11
281.7821516208058
 21
1760.579694741715
 31
0.0
  0
LINE
  5
75B
  8
0
  6
CONTINUOUS
 62
     7
 10
281.7821516208058
 20
1760.579694741715
 30
0.0
 11
281.7821516208058
 21
1783.579694741715
 31
0.0
  0
LINE
  5
75C
  8
0
  6
CONTINUOUS
 62
     7
 10
252.7821516208058
 20
1760.579694741715
 30
0.0
 11
252.7821516208058
 21
1745.579694741714
 31
0.0
  0
LINE
  5
75D
  8
0
  6
CONTINUOUS
 62
     7
 10
252.7821516208058
 20
1745.579694741714
 30
0.0
 11
279.9821027926808
 21
1745.579694741714
 31
0.0
  0
LINE
  5
75E
  8
0
  6
CONTINUOUS
 62
     7
 10
279.9821027926808
 20
1745.579694741714
 30
0.0
 11
279.9821027926808
 21
1760.579694741715
 31
0.0
  0
LINE
  5
75F
  8
0
  6
CONTINUOUS
 62
     7
 10
285.3821272067433
 20
1898.079694741712
 30
0.0
 11
285.3821272067433
 21
1900.579694741715
 31
0.0
  0
LINE
  5
760
  8
0
  6
CONTINUOUS
 62
     7
 10
285.3821272067433
 20
1945.579694741715
 30
0.0
 11
285.3821272067433
 21
2555.579694741717
 31
0.0
  0
LINE
  5
761
  8
0
  6
CONTINUOUS
 62
     7
 10
247.3821272067433
 20
1900.579694741715
 30
0.0
 11
247.3821272067433
 21
1790.579694741715
 31
0.0
  0
LINE
  5
762
  8
0
  6
CONTINUOUS
 62
     7
 10
-551.6178727932565
 20
1790.579694741715
 30
0.0
 11
-551.6178727932565
 21
1900.579694741715
 31
0.0
  0
LINE
  5
763
  8
0
  6
CONTINUOUS
 62
     7
 10
-589.6178727932561
 20
2555.579694741717
 30
0.0
 11
-589.6178727932561
 21
1945.579694741715
 31
0.0
  0
LINE
  5
764
  8
0
  6
CONTINUOUS
 62
     7
 10
-589.6178727932561
 20
1900.579694741715
 30
0.0
 11
-589.6178727932561
 21
1898.079694741712
 31
0.0
  0
LINE
  5
765
  8
0
  6
CONTINUOUS
 62
     7
 10
-589.6178727932561
 20
1790.579694741715
 30
0.0
 11
-551.6178727932565
 21
1790.579694741715
 31
0.0
  0
ARC
  5
766
  8
0
  6
CONTINUOUS
 62
     7
 10
-589.6178727932561
 20
1788.579694741715
 30
0.0
 40
2.0
 50
90.0
 51
180.0
  0
ARC
  5
767
  8
0
  6
CONTINUOUS
 62
     7
 10
-551.6178727932565
 20
1788.579694741715
 30
0.0
 40
2.0
 50
0.0
 51
90.0
  0
LINE
  5
768
  8
0
  6
CONTINUOUS
 62
     7
 10
-549.6178727932565
 20
1788.579694741715
 30
0.0
 11
-549.6178727932565
 21
1783.579694741715
 31
0.0
  0
LINE
  5
769
  8
0
  6
CONTINUOUS
 62
     7
 10
-549.6178727932565
 20
1783.579694741715
 30
0.0
 11
-591.6178727932565
 21
1783.579694741715
 31
0.0
  0
LINE
  5
76A
  8
0
  6
CONTINUOUS
 62
     7
 10
-591.6178727932565
 20
1783.579694741715
 30
0.0
 11
-591.6178727932565
 21
1788.579694741715
 31
0.0
  0
LINE
  5
76B
  8
0
  6
CONTINUOUS
 62
     7
 10
247.3821272067433
 20
1790.579694741715
 30
0.0
 11
285.3821272067433
 21
1790.579694741715
 31
0.0
  0
ARC
  5
76C
  8
0
  6
CONTINUOUS
 62
     7
 10
247.3821272067433
 20
1788.579694741715
 30
0.0
 40
2.0
 50
90.0
 51
180.0
  0
ARC
  5
76D
  8
0
  6
CONTINUOUS
 62
     7
 10
285.3821272067433
 20
1788.579694741715
 30
0.0
 40
2.0
 50
0.0
 51
90.0
  0
LINE
  5
76E
  8
0
  6
CONTINUOUS
 62
     7
 10
287.3821272067433
 20
1788.579694741715
 30
0.0
 11
287.3821272067433
 21
1783.579694741715
 31
0.0
  0
LINE
  5
76F
  8
0
  6
CONTINUOUS
 62
     7
 10
287.3821272067433
 20
1783.579694741715
 30
0.0
 11
245.3821272067433
 21
1783.579694741715
 31
0.0
  0
LINE
  5
770
  8
0
  6
CONTINUOUS
 62
     7
 10
245.3821272067433
 20
1783.579694741715
 30
0.0
 11
245.3821272067433
 21
1788.579694741715
 31
0.0
  0
LINE
  5
771
  8
0
  6
CONTINUOUS
 62
     7
 10
-591.1178727932561
 20
1945.579694741715
 30
0.0
 11
-591.1178727932561
 21
1900.579694741715
 31
0.0
  0
LINE
  5
772
  8
0
  6
CONTINUOUS
 62
     7
 10
-550.1178727932561
 20
1900.579694741715
 30
0.0
 11
-550.1178727932561
 21
1913.579694741715
 31
0.0
  0
LINE
  5
773
  8
0
  6
CONTINUOUS
 62
     7
 10
-550.1178727932561
 20
1945.579694741755
 30
0.0
 11
-551.1178727932561
 21
1945.579694741755
 31
0.0
  0
LINE
  5
774
  8
0
  6
CONTINUOUS
 62
     7
 10
-551.1178727932561
 20
1945.579694741716
 30
0.0
 11
-591.1178727932561
 21
1945.579694741715
 31
0.0
  0
LINE
  5
775
  8
0
  6
CONTINUOUS
 62
     7
 10
-591.1178727932561
 20
1900.579694741715
 30
0.0
 11
-550.1178727932561
 21
1900.579694741715
 31
0.0
  0
LINE
  5
776
  8
0
  6
CONTINUOUS
 62
     7
 10
246.8821272067433
 20
1945.579694741718
 30
0.0
 11
246.8821272067433
 21
1913.579694741715
 31
0.0
  0
LINE
  5
777
  8
0
  6
CONTINUOUS
 62
     7
 10
286.8821272067433
 20
1945.579694741715
 30
0.0
 11
286.8821272067433
 21
1900.579694741715
 31
0.0
  0
LINE
  5
778
  8
0
  6
CONTINUOUS
 62
     7
 10
245.8821272067433
 20
1900.579694741715
 30
0.0
 11
245.8821272067433
 21
1913.579694741715
 31
0.0
  0
LINE
  5
779
  8
0
  6
CONTINUOUS
 62
     7
 10
-550.1178727932561
 20
1945.579694741755
 30
0.0
 11
-590.1178737469304
 21
1945.579694741755
 31
0.0
  0
LINE
  5
77A
  8
0
  6
CONTINUOUS
 62
     7
 10
-551.1178737469304
 20
1913.579694741715
 30
0.0
 11
246.8821272067433
 21
1913.579694741715
 31
0.0
  0
LINE
  5
77B
  8
0
  6
CONTINUOUS
 62
     7
 10
-551.1178727932561
 20
1945.579694741755
 30
0.0
 11
286.8821272067433
 21
1945.579694741715
 31
0.0
  0
LINE
  5
77C
  8
0
  6
CONTINUOUS
 62
     7
 10
286.8821272067433
 20
1900.579694741715
 30
0.0
 11
245.8821272067433
 21
1900.579694741715
 31
0.0
  0
LINE
  5
77D
  8
0
  6
CONTINUOUS
 62
     7
 10
-551.6178737469309
 20
1945.579694741715
 30
0.0
 11
-551.6178737469309
 21
2320.579755776873
 31
0.0
  0
LINE
  5
77E
  8
0
  6
CONTINUOUS
 62
     7
 10
-589.6178737469304
 20
1898.079694741712
 30
0.0
 11
-589.6178737469304
 21
1790.579694741715
 31
0.0
  0
LINE
  5
77F
  8
0
  6
CONTINUOUS
 62
     7
 10
-586.0178733654611
 20
1783.579694741715
 30
0.0
 11
-586.0178733654611
 21
1760.579694741715
 31
0.0
  0
LINE
  5
780
  8
0
  6
CONTINUOUS
 62
     7
 10
-586.0178733654611
 20
1760.579694741715
 30
0.0
 11
-555.217872221052
 21
1760.579694741715
 31
0.0
  0
LINE
  5
781
  8
0
  6
CONTINUOUS
 62
     7
 10
-555.217872221052
 20
1760.579694741715
 30
0.0
 11
-555.217872221052
 21
1783.579694741715
 31
0.0
  0
LINE
  5
782
  8
0
  6
CONTINUOUS
 62
     7
 10
-584.2178741284006
 20
1760.579694741715
 30
0.0
 11
-584.2178741284006
 21
1745.579694741714
 31
0.0
  0
LINE
  5
783
  8
0
  6
CONTINUOUS
 62
     7
 10
-584.2178741284006
 20
1745.579694741714
 30
0.0
 11
-557.0178714581125
 21
1745.579694741714
 31
0.0
  0
LINE
  5
784
  8
0
  6
CONTINUOUS
 62
     7
 10
-557.0178714581125
 20
1745.579694741714
 30
0.0
 11
-557.0178714581125
 21
1760.579694741715
 31
0.0
  0
LINE
  5
785
  8
0
  6
CONTINUOUS
 62
     7
 10
-551.6178737469309
 20
1790.579694741715
 30
0.0
 11
-551.6178737469309
 21
1900.579694741715
 31
0.0
  0
LINE
  5
786
  8
0
  6
CONTINUOUS
 62
     7
 10
-589.6178737469304
 20
2555.579694741717
 30
0.0
 11
-589.6178737469304
 21
1945.579694741715
 31
0.0
  0
LINE
  5
787
  8
0
  6
CONTINUOUS
 62
     7
 10
-589.6178737469304
 20
1900.579694741715
 30
0.0
 11
-589.6178737469304
 21
1898.079694741712
 31
0.0
  0
LINE
  5
788
  8
0
  6
CONTINUOUS
 62
     7
 10
-589.6178737469304
 20
1790.579694741715
 30
0.0
 11
-551.6178737469309
 21
1790.579694741715
 31
0.0
  0
ARC
  5
789
  8
0
  6
CONTINUOUS
 62
     7
 10
-589.6178737469304
 20
1788.579694741715
 30
0.0
 40
2.0
 50
90.0
 51
180.0
  0
ARC
  5
78A
  8
0
  6
CONTINUOUS
 62
     7
 10
-551.6178737469309
 20
1788.579694741715
 30
0.0
 40
2.0
 50
0.0
 51
90.0
  0
LINE
  5
78B
  8
0
  6
CONTINUOUS
 62
     7
 10
-549.6178737469309
 20
1788.579694741715
 30
0.0
 11
-549.6178737469309
 21
1783.579694741715
 31
0.0
  0
LINE
  5
78C
  8
0
  6
CONTINUOUS
 62
     7
 10
-549.6178737469309
 20
1783.579694741715
 30
0.0
 11
-591.6178737469309
 21
1783.579694741715
 31
0.0
  0
LINE
  5
78D
  8
0
  6
CONTINUOUS
 62
     7
 10
-591.6178737469309
 20
1783.579694741715
 30
0.0
 11
-591.6178737469309
 21
1788.579694741715
 31
0.0
  0
LINE
  5
78E
  8
0
  6
CONTINUOUS
 62
     7
 10
-551.1178737469304
 20
1945.579694741755
 30
0.0
 11
-551.1178737469304
 21
1913.579694741715
 31
0.0
  0
LINE
  5
78F
  8
0
  6
CONTINUOUS
 62
     7
 10
-591.1178737469304
 20
1913.579694741715
 30
0.0
 11
-591.1178737469304
 21
1900.579694741715
 31
0.0
  0
LINE
  5
790
  8
0
  6
CONTINUOUS
 62
     7
 10
-550.1178737469304
 20
1900.579694741715
 30
0.0
 11
-550.1178737469304
 21
1913.579694741715
 31
0.0
  0
LINE
  5
791
  8
0
  6
CONTINUOUS
 62
     7
 10
-550.1178737469304
 20
1913.579694741715
 30
0.0
 11
-551.1178737469304
 21
1913.579694741715
 31
0.0
  0
LINE
  5
792
  8
0
  6
CONTINUOUS
 62
     7
 10
-591.1178737469304
 20
1900.579694741715
 30
0.0
 11
-550.1178737469304
 21
1900.579694741715
 31
0.0
  0
POLYLINE
  5
793
  8
SAKUZU
  6
VW-01____
 62
    17
 66
     1
 10
0.0
 20
0.0
 30
0.0
 70
   128
  0
VERTEX
  5
794
  8
SAKUZU
  6
VW-01____
 62
    17
 10
1407.641967762806
 20
2595.579694741717
 30
0.0
  0
VERTEX
  5
795
  8
SAKUZU
  6
VW-01____
 62
    17
 10
1417.831008398751
 20
2381.610056127507
 30
0.0
  0
VERTEX
  5
796
  8
SAKUZU
  6
VW-01____
 62
    17
 10
1417.831008398751
 20
2381.610056127507
 30
0.0
 42
0.3929184623173639
 70
     2
 50
2.728373191205824
  0
VERTEX
  5
797
  8
SAKUZU
  6
VW-01____
 62
    17
 10
1445.080688465931
 20
2354.951154702654
 30
0.0
  0
VERTEX
  5
798
  8
SAKUZU
  6
VW-01____
 62
    17
 10
1829.957106414211
 20
2345.528430867187
 30
0.0
  0
VERTEX
  5
799
  8
SAKUZU
  6
VW-01____
 62
    17
 10
1829.957106414211
 20
2345.528430867187
 30
0.0
 42
0.4188878734961343
 70
     2
 50
2340.278115692654
  0
VERTEX
  5
79A
  8
SAKUZU
  6
VW-01____
 62
    17
 10
1856.979904523178
 20
2371.67328555174
 30
0.0
  0
VERTEX
  5
79B
  8
SAKUZU
  6
VW-01____
 62
    17
 10
1867.641967762806
 20
2595.579694741717
 30
0.0
  0
SEQEND
  5
79C
  8
SAKUZU
  6
VW-01____
 62
    17
  0
POLYLINE
  5
79D
  8
SAKUZU
  6
VW-01____
 62
    17
 66
     1
 10
0.0
 20
0.0
 30
0.0
 70
   128
  0
VERTEX
  5
79E
  8
SAKUZU
  6
VW-01____
 62
    17
 10
-562.1178422756784
 20
2595.579694741717
 30
0.0
  0
VERTEX
  5
79F
  8
SAKUZU
  6
VW-01____
 62
    17
 10
-548.6972490139597
 20
2371.902814858904
 30
0.0
  0
VERTEX
  5
7A0
  8
SAKUZU
  6
VW-01____
 62
    17
 10
-548.6972490139597
 20
2371.902814858904
 30
0.0
 42
0.3967671956466887
 70
     2
 50
3.43774176777251
  0
VERTEX
  5
7A1
  8
SAKUZU
  6
VW-01____
 62
    17
 10
-520.7474824480682
 20
2345.579694741717
 30
0.0
  0
VERTEX
  5
7A2
  8
SAKUZU
  6
VW-01____
 62
    17
 10
-208.4882356218964
 20
2345.579694741717
 30
0.0
  0
VERTEX
  5
7A3
  8
SAKUZU
  6
VW-01____
 62
    17
 10
-208.4882356218964
 20
2345.579694741717
 30
0.0
 42
0.3967679539393995
 70
     2
 50
-7336293072384594
  0
VERTEX
  5
7A4
  8
SAKUZU
  6
VW-01____
 62
    17
 10
-180.5384984517686
 20
2371.902710544189
 30
0.0
  0
VERTEX
  5
7A5
  8
SAKUZU
  6
VW-01____
 62
    17
 10
-167.1178727932565
 20
2595.579694741717
 30
0.0
  0
SEQEND
  5
7A6
  8
SAKUZU
  6
VW-01____
 62
    17
  0
POLYLINE
  5
7A7
  8
SAKUZU
  6
VW-01____
 62
    17
 66
     1
 10
0.0
 20
0.0
 30
0.0
 70
   128
  0
VERTEX
  5
7A8
  8
SAKUZU
  6
VW-01____
 62
    17
 10
-394.6179944463368
 20
2555.579694741717
 30
0.0
 42
0.4142135623730951
 70
     2
 50
2138309427.919039
  0
VERTEX
  5
7A9
  8
SAKUZU
  6
VW-01____
 62
    17
 10
-414.6179949822347
 20
2535.579695277615
 30
0.0
 42
0.4142135623732016
 70
     2
 50
-0.0000015352448971
  0
VERTEX
  5
7AA
  8
SAKUZU
  6
VW-01____
 62
    17
 10
-394.6179955181328
 20
2515.579694741717
 30
0.0
  0
VERTEX
  5
7AB
  8
SAKUZU
  6
VW-01____
 62
    17
 10
-334.6179944463365
 20
2515.579694741717
 30
0.0
  0
VERTEX
  5
7AC
  8
SAKUZU
  6
VW-01____
 62
    17
 10
-334.6179944463365
 20
2515.579694741717
 30
0.0
 42
0.4142135623730951
 70
     2
 50
3.119036963853517E+17
  0
VERTEX
  5
7AD
  8
SAKUZU
  6
VW-01____
 62
    17
 10
-314.6179944463365
 20
2535.579694741717
 30
0.0
 42
0.4142135623730951
 70
     2
 50
-0.000000000000014
  0
VERTEX
  5
7AE
  8
SAKUZU
  6
VW-01____
 62
    17
 10
-334.6179944463365
 20
2555.579694741717
 30
0.0
  0
VERTEX
  5
7AF
  8
SAKUZU
  6
VW-01____
 62
    17
 10
-394.6179944463365
 20
2555.579694741717
 30
0.0
  0
SEQEND
  5
7B0
  8
SAKUZU
  6
VW-01____
 62
    17
  0
DIMENSION
  5
7B1
  8
SAKUZU
 62
     2
  2
*D40
 10
-167.1178727932565
 20
3720.556961531397
 30
0.0
 11
-152.1178727932565
 21
3736.636082409773
 31
0.0
 70
    32
  3
SPEAC
 13
-137.1178727932565
 23
3620.556961531397
 33
0.0
 14
-167.1178727932565
 24
3620.556961531397
 34
0.0
  0
LINE
  5
7B4
  8
SAKUZU
  6
ISO-08_____
 62
    17
 10
185.3821272067429
 20
3375.556961531397
 30
0.0
 11
-64.61787279325699
 21
3375.556961531397
 31
0.0
  0
CIRCLE
  5
7B5
  8
SAKUZU
  6
CONTINUOUS
 62
     1
 10
60.38212720674335
 20
3375.556961531397
 30
0.0
 40
75.0
  0
CIRCLE
  5
7B6
  8
SAKUZU
  6
CONTINUOUS
 62
     1
 10
60.38212720674335
 20
3375.556961531397
 30
0.0
 40
93.0
  0
LINE
  5
7B7
  8
SAKUZU
  6
CONTINUOUS
 62
     1
 10
-109.1178727932565
 20
3060.556839461085
 30
0.0
 11
229.8820966891652
 21
3060.556839461085
 31
0.0
  0
LINE
  5
7B8
  8
SAKUZU
  6
CONTINUOUS
 62
     1
 10
229.8820966891652
 20
3520.556961531397
 30
0.0
 11
-109.1178727932565
 21
3520.556961531397
 31
0.0
  0
LINE
  5
7B9
  8
SAKUZU
  6
CONTINUOUS
 62
     1
 10
257.8820966891652
 20
3088.556839461085
 30
0.0
 11
257.8820966891652
 21
3492.556961531397
 31
0.0
  0
ARC
  5
7BA
  8
SAKUZU
  6
CONTINUOUS
 62
     1
 10
229.8820966891652
 20
3088.556839461085
 30
0.0
 40
28.00000000000004
 50
270.0000030704637
 51
0.0
  0
ARC
  5
7BB
  8
SAKUZU
  6
CONTINUOUS
 62
     1
 10
229.8820966891652
 20
3492.556961531397
 30
0.0
 40
28.0
 50
0.0
 51
89.99999692953628
  0
LINE
  5
7BC
  8
SAKUZU
  6
ISO-08_____
 62
    17
 10
60.38212720674335
 20
3500.556961531397
 30
0.0
 11
60.38212720674335
 21
3250.556961531397
 31
0.0
  0
LINE
  5
7BD
  8
SAKUZU
  6
CONTINUOUS
 62
     1
 10
-137.1178727932565
 20
3492.556961531397
 30
0.0
 11
-137.1178727932565
 21
3088.556839461085
 31
0.0
  0
ARC
  5
7BE
  8
SAKUZU
  6
CONTINUOUS
 62
     1
 10
-109.1178727932565
 20
3088.556839461085
 30
0.0
 40
28.0
 50
180.0
 51
270.0000030704637
  0
ARC
  5
7BF
  8
SAKUZU
  6
CONTINUOUS
 62
     1
 10
-109.1178727932565
 20
3492.556961531397
 30
0.0
 40
28.00000000000004
 50
89.99999692953628
 51
180.0
  0
DIMENSION
  5
7C0
  8
SAKUZU
 62
     2
  2
*D41
 10
257.8820966891652
 20
3720.556961531397
 30
0.0
 11
60.38211194795434
 21
3736.636082409773
 31
0.0
 70
    32
  3
SPEAC
 13
-137.1178727932565
 23
3620.556961531397
 33
0.0
 14
257.8820966891652
 24
3620.556961531397
 34
0.0
  0
DIMENSION
  5
7C1
  8
SAKUZU
 62
     2
  2
*D42
 10
60.38212720674335
 20
2920.556839461085
 30
0.0
 11
-152.1178727932566
 21
2936.63596033946
 31
0.0
 70
    32
  3
SPEAC
 13
-364.6178727932565
 23
3250.556961531397
 33
0.0
 14
60.38212720674335
 24
3250.556961531397
 34
0.0
  0
LINE
  5
7C2
  8
SAKUZU
  6
CONTINUOUS
 62
     1
 10
0.3821262530694867
 20
2227.825851911059
 30
0.0
 11
120.3821109942804
 21
2227.825829022875
 31
0.0
  0
LINE
  5
7C3
  8
SAKUZU
  6
CONTINUOUS
 62
     1
 10
-3.617873746930513
 20
2234.579758161059
 30
0.0
 11
124.382126253069
 21
2234.579758161059
 31
0.0
  0
LINE
  5
7C4
  8
SAKUZU
  6
CONTINUOUS
 62
     1
 10
30.58212701600849
 20
2165.079750531664
 30
0.0
 11
90.18212739747821
 21
2165.079750531664
 31
0.0
  0
LINE
  5
7C5
  8
SAKUZU
  6
CONTINUOUS
 62
     1
 10
30.58212701600849
 20
2149.579750531664
 30
0.0
 11
90.18212739747821
 21
2149.579750531664
 31
0.0
  0
LINE
  5
7C6
  8
SAKUZU
  6
CONTINUOUS
 62
     1
 10
10.32896463197574
 20
2169.579750531664
 30
0.0
 11
110.4352115802175
 21
2169.579750531664
 31
0.0
  0
LINE
  5
7C7
  8
SAKUZU
  6
VW-01____
 62
    17
 10
-7.617873746930513
 20
2335.57975625371
 30
0.0
 11
-7.288152308534904
 21
2320.579755776873
 31
0.0
  0
LINE
  5
7C8
  8
SAKUZU
  6
CONTINUOUS
 62
     1
 10
0.3821262530694867
 20
2227.825851911059
 30
0.0
 11
0.3821262530694867
 21
2178.550758832445
 31
0.0
  0
LINE
  5
7C9
  8
SAKUZU
  6
CONTINUOUS
 62
     1
 10
30.58212701600849
 20
2149.579750531664
 30
0.0
 11
30.58212701600849
 21
2165.079750531664
 31
0.0
  0
ARC
  5
7CA
  8
SAKUZU
  6
CONTINUOUS
 62
     1
 10
10.32896463197574
 20
2179.579750531664
 30
0.0
 40
9.999999999999988
 50
185.906135174337
 51
269.9999969295297
  0
LINE
  5
7CB
  8
SAKUZU
  6
CONTINUOUS
 62
     1
 10
30.58212701600849
 20
2165.079750531664
 30
0.0
 11
26.08212701600849
 21
2169.579750531664
 31
0.0
  0
LINE
  5
7CC
  8
SAKUZU
  6
CONTINUOUS
 62
     1
 10
-7.288152308534904
 20
2320.579755776873
 30
0.0
 11
-3.687587339460265
 21
2236.213295453539
 31
0.0
  0
ARC
  5
7CD
  8
SAKUZU
  6
CONTINUOUS
 62
     1
 10
1.30786554139911
 20
2236.42649125432
 30
0.0
 40
5.000000000000097
 50
182.4437607390564
 51
218.6598034320777
  0
LINE
  5
7CE
  8
SAKUZU
  6
CONTINUOUS
 62
     1
 10
-2.596480924665343
 20
2233.303017133227
 30
0.0
 11
-0.713527280866515
 21
2230.949326032152
 31
0.0
  0
ARC
  5
7CF
  8
SAKUZU
  6
CONTINUOUS
 62
     1
 10
-4.617873746930513
 20
2227.825851911059
 30
0.0
 40
5.0
 50
0.0
 51
38.6598095730314
  0
ARC
  5
7D0
  8
SAKUZU
  6
VW-01____
 62
    17
 10
-17.61787374693051
 20
2335.57975625371
 30
0.0
 40
10.0
 50
0.0
 51
90.00000307047026
  0
LINE
  5
7D1
  8
SAKUZU
  6
ISO-08_____
 62
    17
 10
60.38212720674335
 20
2099.579750531664
 30
0.0
 11
60.38212720674335
 21
2397.753914950727
 31
0.0
  0
LINE
  5
7D2
  8
SAKUZU
  6
VW-01____
 62
    17
 10
128.0524626483792
 20
2320.579755776873
 30
0.0
 11
128.382126253069
 21
2335.57975625371
 31
0.0
  0
LINE
  5
7D3
  8
SAKUZU
  6
CONTINUOUS
 62
     1
 10
120.3821109942804
 20
2178.550758832445
 30
0.0
 11
120.3821109942804
 21
2227.825829022875
 31
0.0
  0
LINE
  5
7D4
  8
SAKUZU
  6
CONTINUOUS
 62
     1
 10
90.18212739747821
 20
2149.579750531664
 30
0.0
 11
90.18212739747821
 21
2165.079750531664
 31
0.0
  0
LINE
  5
7D5
  8
SAKUZU
  6
CONTINUOUS
 62
     1
 10
90.18212739747821
 20
2165.079750531664
 30
0.0
 11
94.68212930482684
 21
2169.579750531664
 31
0.0
  0
ARC
  5
7D6
  8
SAKUZU
  6
CONTINUOUS
 62
     1
 10
110.4352115802175
 20
2179.579750531664
 30
0.0
 40
10.00000000000001
 50
269.9999969295297
 51
354.093858684728
  0
LINE
  5
7D7
  8
SAKUZU
  6
CONTINUOUS
 62
     1
 10
124.4518436602956
 20
2236.213295453539
 30
0.0
 11
128.0524626483792
 21
2320.579755776873
 31
0.0
  0
LINE
  5
7D8
  8
SAKUZU
  6
CONTINUOUS
 62
     1
 10
123.3607372455007
 20
2233.303017133227
 30
0.0
 11
121.477764528216
 21
2230.949303143969
 31
0.0
  0
ARC
  5
7D9
  8
SAKUZU
  6
CONTINUOUS
 62
     1
 10
119.4563907794362
 20
2236.42649125432
 30
0.0
 40
4.999999999999906
 50
321.340195706868
 51
357.5561947606681
  0
ARC
  5
7DA
  8
SAKUZU
  6
CONTINUOUS
 62
     1
 10
125.38211099428
 20
2227.825829022875
 30
0.0
 40
4.999999999999901
 50
141.3402018477892
 51
180.0
  0
ARC
  5
7DB
  8
SAKUZU
  6
VW-01____
 62
    17
 10
138.382126253069
 20
2335.57975625371
 30
0.0
 40
10.00000000000001
 50
90.00000307047024
 51
180.0
  0
POLYLINE
  5
7DC
  8
SAKUZU
  6
VW-01____
 62
    17
 66
     1
 10
0.0
 20
0.0
 30
0.0
 70
   128
  0
VERTEX
  5
7DD
  8
SAKUZU
  6
VW-01____
 62
    17
 10
30.38200555366313
 20
2555.579694741717
 30
0.0
 42
0.4142135623730951
 70
     2
 50
2138309427.919039
  0
VERTEX
  5
7DE
  8
SAKUZU
  6
VW-01____
 62
    17
 10
10.38200501776521
 20
2535.579695277615
 30
0.0
 42
0.4142135623731983
 70
     2
 50
-0.0000015352448971
  0
VERTEX
  5
7DF
  8
SAKUZU
  6
VW-01____
 62
    17
 10
30.38200448186706
 20
2515.579694741717
 30
0.0
  0
VERTEX
  5
7E0
  8
SAKUZU
  6
VW-01____
 62
    17
 10
90.38200555366336
 20
2515.579694741717
 30
0.0
  0
VERTEX
  5
7E1
  8
SAKUZU
  6
VW-01____
 62
    17
 10
90.38200555366336
 20
2515.579694741717
 30
0.0
 42
0.4142135623730951
 70
     2
 50
3.119036963853517E+17
  0
VERTEX
  5
7E2
  8
SAKUZU
  6
VW-01____
 62
    17
 10
110.3820055536634
 20
2535.579694741717
 30
0.0
 42
0.4142135623730951
 70
     2
 50
-0.000000000000014
  0
VERTEX
  5
7E3
  8
SAKUZU
  6
VW-01____
 62
    17
 10
90.38200555366336
 20
2555.579694741717
 30
0.0
  0
VERTEX
  5
7E4
  8
SAKUZU
  6
VW-01____
 62
    17
 10
30.38200555366336
 20
2555.579694741717
 30
0.0
  0
SEQEND
  5
7E5
  8
SAKUZU
  6
VW-01____
 62
    17
  0
POLYLINE
  5
7E6
  8
SAKUZU
  6
VW-01____
 62
    17
 66
     1
 10
0.0
 20
0.0
 30
0.0
 70
   128
  0
VERTEX
  5
7E7
  8
SAKUZU
  6
VW-01____
 62
    17
 10
257.8820966891652
 20
2595.579694741717
 30
0.0
  0
VERTEX
  5
7E8
  8
SAKUZU
  6
VW-01____
 62
    17
 10
244.4615034274465
 20
2371.902814858904
 30
0.0
  0
VERTEX
  5
7E9
  8
SAKUZU
  6
VW-01____
 62
    17
 10
244.4615034274465
 20
2371.902814858904
 30
0.0
 42
-0.3967671956466966
 70
     2
 50
-3.437741767770744
  0
VERTEX
  5
7EA
  8
SAKUZU
  6
VW-01____
 62
    17
 10
216.5117368615551
 20
2345.579694741717
 30
0.0
  0
VERTEX
  5
7EB
  8
SAKUZU
  6
VW-01____
 62
    17
 10
-95.74750996461671
 20
2345.579694741717
 30
0.0
  0
VERTEX
  5
7EC
  8
SAKUZU
  6
VW-01____
 62
    17
 10
-95.74750996461694
 20
2345.579694741717
 30
0.0
 42
-0.3967679539394017
 70
     2
 50
3.119036963853517E+17
  0
VERTEX
  5
7ED
  8
SAKUZU
  6
VW-01____
 62
    17
 10
-123.6972471347449
 20
2371.902710544189
 30
0.0
  0
VERTEX
  5
7EE
  8
SAKUZU
  6
VW-01____
 62
    17
 10
-137.1178727932565
 20
2595.579694741717
 30
0.0
  0
SEQEND
  5
7EF
  8
SAKUZU
  6
VW-01____
 62
    17
  0
LINE
  5
7F0
  8
SAKUZU
  6
CONTINUOUS
 62
    17
 10
1804.903026578263
 20
5886.036793860719
 30
0.0
 11
1905.570899950941
 21
5764.572327766652
 31
0.0
  0
LINE
  5
7F1
  8
SAKUZU
  6
CONTINUOUS
 62
    17
 10
1369.106433762139
 20
2594.115228552915
 30
0.0
 11
1270.301448442931
 21
2865.579694646982
 31
0.0
  0
LINE
  5
7F2
  8
SAKUZU
  6
CONTINUOUS
 62
    17
 10
1902.641967762806
 20
5617.501259954786
 30
0.0
 11
1804.903026578263
 21
5886.036793860719
 31
0.0
  0
LINE
  5
7F3
  8
SAKUZU
  6
CONTINUOUS
 62
    17
 10
1905.570899950941
 20
5764.572327766652
 30
0.0
 11
1890.555378544212
 21
5797.291370286647
 31
0.0
  0
LINE
  5
7F4
  8
SAKUZU
  6
CONTINUOUS
 62
    17
 10
1905.570899950941
 20
5764.572327766652
 30
0.0
 11
1876.207602612218
 21
5785.400155208297
 31
0.0
  0
LINE
  5
7F5
  8
SAKUZU
  6
CONTINUOUS
 62
    17
 10
1902.641967762806
 20
5617.501259954786
 30
0.0
 11
1899.504318667705
 21
5653.364288057516
 31
0.0
  0
LINE
  5
7F6
  8
SAKUZU
  6
CONTINUOUS
 62
    17
 10
1902.641967762806
 20
5617.501259954786
 30
0.0
 11
1881.993236306289
 21
5646.990775308177
 31
0.0
  0
LINE
  5
7F7
  8
SAKUZU
  6
CONTINUOUS
 62
    17
 10
1369.106433762139
 20
2594.115228552915
 30
0.0
 11
1365.968784667038
 21
2629.978256655645
 31
0.0
  0
LINE
  5
7F8
  8
SAKUZU
  6
CONTINUOUS
 62
    17
 10
1369.106433762139
 20
2594.115228552915
 30
0.0
 11
1348.457702305622
 21
2623.604743906306
 31
0.0
  0
LINE
  5
7F9
  8
SAKUZU
  6
CONTINUOUS
 62
    17
 10
1804.903026578264
 20
5886.036793860719
 30
0.0
 11
1713.703026578265
 21
5886.036793860719
 31
0.0
  0
TEXT
  5
7FA
  8
SAKUZU
 62
    17
 10
1727.442783522708
 20
5900.106672332941
 30
0.0
 40
31.86024305555555
  1
R5
  7
YUGOTHIC_MEDIUM
 72
     1
 11
1759.303026578264
 21
5916.036793860719
 31
0.0
 73
     2
  0
LINE
  5
7FB
  8
SAKUZU
  6
CONTINUOUS
 62
    17
 10
1270.301448442931
 20
2865.579694646982
 30
0.0
 11
1179.101448442932
 21
2865.579694646982
 31
0.0
  0
TEXT
  5
7FC
  8
SAKUZU
 62
    17
 10
1192.841205387375
 20
2879.649573119204
 30
0.0
 40
31.86024305555555
  1
R5
  7
YUGOTHIC_MEDIUM
 72
     1
 11
1224.70144844293
 21
2895.579694646982
 31
0.0
 73
     2
  0
LINE
  5
7FD
  8
SAKUZU
  6
CONTINUOUS
 62
    17
 10
1372.641967494857
 20
5617.501259954786
 30
0.0
 11
1273.836982175649
 21
5888.965726048853
 31
0.0
  0
LINE
  5
7FE
  8
SAKUZU
  6
CONTINUOUS
 62
    17
 10
1372.641967494857
 20
5617.501259954786
 30
0.0
 11
1369.504318399756
 21
5653.364288057517
 31
0.0
  0
LINE
  5
7FF
  8
SAKUZU
  6
CONTINUOUS
 62
    17
 10
1372.641967494857
 20
5617.501259954786
 30
0.0
 11
1351.99323603834
 21
5646.990775308177
 31
0.0
  0
LINE
  5
800
  8
SAKUZU
  6
CONTINUOUS
 62
    17
 10
1273.836982175649
 20
5888.965726048853
 30
0.0
 11
1182.63698217565
 21
5888.965726048853
 31
0.0
  0
TEXT
  5
801
  8
SAKUZU
 62
    17
 10
1196.376739120093
 20
5903.035604521076
 30
0.0
 40
31.86024305555555
  1
R5
  7
YUGOTHIC_MEDIUM
 72
     1
 11
1228.236982175649
 21
5918.965726048853
 31
0.0
 73
     2
  0
VIEWPORT
  5
802
 67
     1
  8
0
 10
128.5
 20
97.5
 30
0.0
 40
314.226
 41
222.18
 68
     1
 69
     1
1001
ACAD
1000
MVIEW
1002
{
1070
    16
1010
0.0
1020
0.0
1030
0.0
1010
0.0
1020
0.0
1030
1.0
1040
0.0
1040
222.18
1040
128.5
1040
97.5
1040
50.0
1040
0.0
1040
0.0
1070
     0
1070
   100
1070
     0
1070
     3
1070
     0
1070
     0
1070
     0
1070
     0
1040
0.0
1040
0.0
1040
0.0
1040
10.0
1040
10.0
1040
10.0
1040
10.0
1070
     0
1002
{
1002
}
1002
}
  0
ENDSEC
  0
EOF
