  0
SECTION
  2
HEADER
  9
$ACADVER
  1
AC1009
  9
$DWGCODEPAGE
  3
dos932
  9
$INSBASE
 10
0.0
 20
0.0
 30
0.0
  9
$EXTMIN
 10
-502.5242720359897
 20
68.06079193728237
 30
0.0
  9
$EXTMAX
 10
1555.722394630678
 20
1412.315000000001
 30
0.0
  9
$LIMMIN
 10
0.0
 20
0.0
  9
$LIMMAX
 10
12.0
 20
9.0
  9
$ORTHOMODE
 70
     0
  9
$REGENMODE
 70
     1
  9
$FILLMODE
 70
     1
  9
$QTEXTMODE
 70
     0
  9
$MIRRTEXT
 70
     1
  9
$DRAGMODE
 70
     2
  9
$LTSCALE
 40
5.0
  9
$OSMODE
 70
    37
  9
$ATTMODE
 70
     1
  9
$TEXTSIZE
 40
0.2
  9
$TRACEWID
 40
1.0
  9
$TEXTSTYLE
  7
STANDARD
  9
$CLAYER
  8
_
  9
$CELTYPE
  6
BYLAYER
  9
$CECOLOR
 62
   256
  9
$DIMSCALE
 40
1.0
  9
$DIMASZ
 40
2.2479248046875
  9
$DIMEXO
 40
7.499999972060323
  9
$DIMDLI
 40
30.00000000651926
  9
$DIMRND
 40
0.0
  9
$DIMDLE
 40
0.0
  9
$DIMEXE
 40
0.0
  9
$DIMTP
 40
0.0
  9
$DIMTM
 40
0.0
  9
$DIMTXT
 40
10.62008101851852
  9
$DIMCEN
 40
0.0
  9
$DIMTSZ
 40
0.0
  9
$DIMTOL
 70
     0
  9
$DIMLIM
 70
     0
  9
$DIMTIH
 70
     0
  9
$DIMTOH
 70
     0
  9
$DIMSE1
 70
     0
  9
$DIMSE2
 70
     0
  9
$DIMTAD
 70
     1
  9
$DIMZIN
 70
     8
  9
$DIMBLK
  1
DOT
  9
$DIMASO
 70
     1
  9
$DIMSHO
 70
     1
  9
$DIMPOST
  1
<>
  9
$DIMAPOST
  1
[]
  9
$DIMALT
 70
     0
  9
$DIMALTD
 70
     0
  9
$DIMALTF
 40
1.0
  9
$DIMLFAC
 40
1.0
  9
$DIMTOFL
 70
     1
  9
$DIMTVP
 40
0.0
  9
$DIMTIX
 70
     1
  9
$DIMSOXD
 70
     0
  9
$DIMSAH
 70
     0
  9
$DIMBLK1
  1
DOT
  9
$DIMBLK2
  1
DOT
  9
$DIMSTYLE
  2
TOOLBOX
  9
$DIMCLRD
 70
     0
  9
$DIMCLRE
 70
     0
  9
$DIMCLRT
 70
     0
  9
$DIMTFAC
 40
0.8
  9
$DIMGAP
 40
0.0499999998137355
  9
$LUNITS
 70
     2
  9
$LUPREC
 70
     2
  9
$SKETCHINC
 40
0.1
  9
$FILLETRAD
 40
0.5
  9
$AUNITS
 70
     0
  9
$AUPREC
 70
     2
  9
$MENU
  1
.
  9
$ELEVATION
 40
0.0
  9
$PELEVATION
 40
0.0
  9
$THICKNESS
 40
0.0
  9
$LIMCHECK
 70
     0
  9
$CHAMFERA
 40
0.0
  9
$CHAMFERB
 40
0.0
  9
$SKPOLY
 70
     0
  9
$TDCREATE
 40
2458916.939115637
  9
$TDUPDATE
 40
2458916.939130139
  9
$TDINDWG
 40
0.0000000116
  9
$TDUSRTIMER
 40
0.0000000116
  9
$USRTIMER
 70
     1
  9
$ANGBASE
 50
0.0
  9
$ANGDIR
 70
     0
  9
$PDMODE
 70
     1
  9
$PDSIZE
 40
-2.0
  9
$PLINEWID
 40
0.0
  9
$COORDS
 70
     1
  9
$SPLFRAME
 70
     0
  9
$SPLINETYPE
 70
     6
  9
$SPLINESEGS
 70
     8
  9
$ATTDIA
 70
     0
  9
$ATTREQ
 70
     1
  9
$HANDLING
 70
     1
  9
$HANDSEED
  5
2DC
  9
$SURFTAB1
 70
     6
  9
$SURFTAB2
 70
     6
  9
$SURFTYPE
 70
     6
  9
$SURFU
 70
     6
  9
$SURFV
 70
     6
  9
$UCSNAME
  2

  9
$UCSORG
 10
0.0
 20
0.0
 30
0.0
  9
$UCSXDIR
 10
1.0
 20
0.0
 30
0.0
  9
$UCSYDIR
 10
0.0
 20
1.0
 30
0.0
  9
$PUCSNAME
  2

  9
$PUCSORG
 10
0.0
 20
0.0
 30
0.0
  9
$PUCSXDIR
 10
1.0
 20
0.0
 30
0.0
  9
$PUCSYDIR
 10
0.0
 20
1.0
 30
0.0
  9
$USERI1
 70
     0
  9
$USERI2
 70
     0
  9
$USERI3
 70
     0
  9
$USERI4
 70
     0
  9
$USERI5
 70
     0
  9
$USERR1
 40
0.0
  9
$USERR2
 40
0.0
  9
$USERR3
 40
0.0
  9
$USERR4
 40
0.0
  9
$USERR5
 40
0.0
  9
$WORLDVIEW
 70
     1
  9
$SHADEDGE
 70
     3
  9
$SHADEDIF
 70
    70
  9
$TILEMODE
 70
     1
  9
$MAXACTVP
 70
    64
  9
$PLIMCHECK
 70
     0
  9
$PEXTMIN
 10
1.000000000000000E+20
 20
1.000000000000000E+20
 30
1.000000000000000E+20
  9
$PEXTMAX
 10
-1.000000000000000E+20
 20
-1.000000000000000E+20
 30
-1.000000000000000E+20
  9
$PLIMMIN
 10
-20.0
 20
-7.5
  9
$PLIMMAX
 10
277.0
 20
202.5
  9
$UNITMODE
 70
     0
  9
$VISRETAIN
 70
     1
  9
$PLINEGEN
 70
     0
  9
$PSLTSCALE
 70
     1
  0
ENDSEC
  0
SECTION
  2
TABLES
  0
TABLE
  2
VPORT
 70
     1
  0
VPORT
  2
*ACTIVE
 70
     0
 10
0.0
 20
0.0
 11
1.0
 21
1.0
 12
526.5990612973442
 22
740.1878959686417
 13
0.0
 23
0.0
 14
0.5
 24
0.5
 15
0.5
 25
0.5
 16
0.0
 26
0.0
 36
1.0
 17
0.0
 27
0.0
 37
0.0
 40
1344.254208062719
 41
1.531143926737581
 42
2000.0
 43
0.0
 44
0.0
 50
0.0
 51
0.0
 71
     0
 72
   100
 73
     1
 74
     3
 75
     0
 76
     0
 77
     0
 78
     0
  0
ENDTAB
  0
TABLE
  2
LTYPE
 70
    16
  0
LTYPE
  2
CONTINUOUS
 70
     0
  3
Solid line
 72
    65
 73
     0
 40
0.0
  0
LTYPE
  2
VW-01____
 70
     0
  3

 72
    65
 73
     2
 40
2.1161248
 49
1.0580624
 49
-1.0580624
  0
LTYPE
  2
ISO-10______
 70
     0
  3

 72
    65
 73
     4
 40
4.699
 49
3.048
 49
-0.7619999999999999
 49
0.1270000000000001
 49
-0.7619999999999999
  0
LTYPE
  2
ISO-02___
 70
     0
  3

 72
    65
 73
     2
 40
3.81
 49
3.048
 49
-0.7619999999999999
  0
LTYPE
  2
ISO-07___
 70
     0
  3

 72
    65
 73
     2
 40
0.8889999999999999
 49
0.127
 49
-0.7619999999999998
  0
LTYPE
  2
ISO-04______
 70
     0
  3

 72
    65
 73
     4
 40
7.747000000000001
 49
6.095999999999999
 49
-0.7620000000000007
 49
0.1270000000000001
 49
-0.7620000000000007
  0
LTYPE
  2
DASHED
 70
     0
  3

 72
    65
 73
     2
 40
39.99999999999999
 49
24.0
 49
-16.0
  0
LTYPE
  2
1
 70
     0
  3

 72
    65
 73
     2
 40
101.60254
 49
101.6
 49
-0.0025399999999941
  0
LTYPE
  2
______-8
 70
     0
  3

 72
    65
 73
     2
 40
11.43
 49
7.619999999999999
 49
-3.809999999999999
  0
LTYPE
  2
______-7
 70
     0
  3

 72
    65
 73
     4
 40
34.28999999999999
 49
22.86
 49
-3.809999999999997
 49
3.809999999999997
 49
-3.809999999999997
  0
LTYPE
  2
______-6
 70
     0
  3

 72
    65
 73
     4
 40
7.747000000000001
 49
6.095999999999999
 49
-0.7620000000000007
 49
0.1270000000000001
 49
-0.7620000000000007
  0
LTYPE
  2
______-5
 70
     0
  3

 72
    65
 73
     2
 40
0.4
 49
0.24
 49
-0.16
  0
LTYPE
  2
______-4
 70
     0
  3

 72
    65
 73
     6
 40
2.7
 49
1.8
 49
-0.2
 49
0.2
 49
-0.1000000000000002
 49
0.2
 49
-0.2
  0
LTYPE
  2
______-3
 70
     0
  3

 72
    65
 73
     4
 40
2.4
 49
1.8
 49
-0.2
 49
0.2
 49
-0.2
  0
LTYPE
  2
______-2
 70
     0
  3

 72
    65
 73
     2
 40
38.09999999999999
 49
25.4
 49
-12.7
  0
LTYPE
  2
______-1
 70
     0
  3

 72
    65
 73
     2
 40
101.60254
 49
101.6
 49
-0.0025399999999941
  0
ENDTAB
  0
TABLE
  2
LAYER
 70
     7
  0
LAYER
  2
0
 70
     0
 62
     7
  6
CONTINUOUS
  0
LAYER
  2
_
 70
     0
 62
     7
  6
CONTINUOUS
  0
LAYER
  2
1_5_____
 70
     0
 62
     7
  6
CONTINUOUS
  0
LAYER
  2
1_5__
 70
     0
 62
     7
  6
CONTINUOUS
  0
LAYER
  2
1_5__-1
 70
     0
 62
     7
  6
CONTINUOUS
  0
LAYER
  2
1_2___
 70
     0
 62
     7
  6
CONTINUOUS
  0
LAYER
  2
DEFPOINTS
 70
     0
 62
     7
  6
CONTINUOUS
  0
ENDTAB
  0
TABLE
  2
STYLE
 70
     2
  0
STYLE
  2
STANDARD
 70
     0
 40
0.0
 41
1.0
 50
0.0
 71
     0
 42
0.2
  3
txt
  4
BIGFONT.SHX
  0
STYLE
  2
YUGOTHIC_MEDIUM
 70
     0
 40
0.0
 41
1.0
 50
0.0
 71
     0
 42
0.2
  3

  4
YuGothic Medium
  0
ENDTAB
  0
TABLE
  2
VIEW
 70
     0
  0
ENDTAB
  0
TABLE
  2
UCS
 70
     0
  0
ENDTAB
  0
TABLE
  2
APPID
 70
     2
  0
APPID
  2
ACAD
 70
     0
  0
APPID
  2
ACAECLAYERSTANDARD
 70
     0
  0
ENDTAB
  0
TABLE
  2
DIMSTYLE
 70
     2
  0
DIMSTYLE
  2
STANDARD
 70
     0
  3

  4

  5

  6

  7

 40
1.0
 41
0.18
 42
0.0625
 43
0.38
 44
0.18
 45
0.0
 46
0.0
 47
0.0
 48
0.0
140
0.18
141
0.09
142
0.0
143
25.4
144
1.0
145
0.0
146
1.0
147
0.09
 71
     0
 72
     0
 73
     1
 74
     1
 75
     0
 76
     0
 77
     0
 78
     0
170
     0
171
     2
172
     0
173
     0
174
     0
175
     0
176
     0
177
     0
178
     0
  0
DIMSTYLE
  2
TOOLBOX
 70
     0
  3
<>
  4
[]
  5
DOT
  6
DOT
  7
DOT
 40
1.0
 41
2.2479248046875
 42
7.499999972060323
 43
30.00000000651926
 44
0.0
 45
0.0
 46
0.0
 47
0.0
 48
0.0
140
10.62008101851852
141
0.0
142
0.0
143
1.0
144
1.0
145
0.0
146
0.8
147
0.0499999998137355
 71
     0
 72
     0
 73
     0
 74
     0
 75
     0
 76
     0
 77
     1
 78
     8
170
     0
171
     0
172
     1
173
     0
174
     1
175
     0
176
     0
177
     0
178
     0
  0
ENDTAB
  0
ENDSEC
  0
SECTION
  2
BLOCKS
  0
BLOCK
  8
0
  2
$MODEL_SPACE
 70
     0
 10
0.0
 20
0.0
 30
0.0
  3
$MODEL_SPACE
  1

  0
ENDBLK
  5
21
  8
0
  0
BLOCK
 67
     1
  8
0
  2
$PAPER_SPACE
 70
     0
 10
0.0
 20
0.0
 30
0.0
  3
$PAPER_SPACE
  1

  0
ENDBLK
  5
1D
 67
     1
  8
0
  0
BLOCK
  8
0
  2
GROUP
 70
     0
 10
0.0
 20
0.0
 30
0.0
  3
GROUP
  1

  0
ENDBLK
  5
70
  8
0
  0
BLOCK
  8
0
  2
__A3
 70
     0
 10
0.0
 20
0.0
 30
0.0
  3
__A3
  1

  0
LINE
  5
CF
  8
0
  6
CONTINUOUS
 62
     3
 10
10312.62689392944
 20
-89.92044693998241
 30
0.0
 11
-10269.83977273724
 21
-89.92044693998241
 31
0.0
  0
INSERT
  5
D0
  8
0
 62
    17
  2
GROUP
 10
0.0
 20
0.0
 30
0.0
  0
TEXT
  5
D1
  8
0
 62
     4
 10
9139.977640406578
 20
-226.0341168654482
 30
0.0
 40
79.65060763888889
  1
SCALE:
  7
YUGOTHIC_MEDIUM
 11
9139.977640406578
 21
-146.3835092265593
 31
0.0
 73
     3
  0
TEXT
  5
D2
  8
0
 62
     4
 10
-443.9643777938977
 20
-227.9787802733332
 30
0.0
 40
79.65060763888889
  1
NAME:
  7
YUGOTHIC_MEDIUM
 11
-443.9643777938977
 21
-148.3281726344443
 31
0.0
 73
     3
  0
TEXT
  5
D3
  8
0
 62
     4
 10
7281.663381210107
 20
-228.0537802733157
 30
0.0
 40
79.65060763888889
  1
DATE:
  7
YUGOTHIC_MEDIUM
 11
7281.663381210107
 21
-148.4031726344268
 31
0.0
 73
     3
  0
TEXT
  5
D4
  8
0
 62
     4
 10
5425.843209124179
 20
-236.1263220412507
 30
0.0
 40
79.65060763888889
  1
ID:
  7
YUGOTHIC_MEDIUM
 11
5425.843209124179
 21
-156.4757144023619
 31
0.0
 73
     3
  0
ENDBLK
  5
74
  8
0
  0
BLOCK
  8
0
  2
*D3
 70
     1
 10
0.0
 20
0.0
 30
0.0
  3
*D3
  1

  0
LINE
  5
D5
  8
1_5__
  6
CONTINUOUS
 62
     0
 10
11.52965201815346
 20
846.1897487547208
 30
0.0
 11
-280.9703480097862
 21
846.1897487547208
 31
0.0
  0
LINE
  5
D6
  8
1_5__
  6
CONTINUOUS
 62
     0
 10
11.52965201815346
 20
1221.189748754721
 30
0.0
 11
-280.9703480097862
 21
1221.189748754721
 31
0.0
  0
LINE
  5
D7
  8
1_5__
  6
CONTINUOUS
 62
     0
 10
-280.9703480097862
 20
848.4376735594083
 30
0.0
 11
-280.9703480097862
 21
1218.941823950033
 31
0.0
  0
INSERT
  5
D8
  8
1_5__
 62
     0
  2
_DOT
 10
-280.9703480097862
 20
846.1897487547208
 30
0.0
 41
2.2479248046875
 42
2.2479248046875
 43
2.2479248046875
 50
270.0
  0
INSERT
  5
D9
  8
1_5__
 62
     0
  2
_DOT
 10
-280.9703480097862
 20
1221.189748754721
 30
0.0
 41
2.2479248046875
 42
2.2479248046875
 43
2.2479248046875
 50
90.0
  0
TEXT
  5
DA
  8
1_5__
  6
CONTINUOUS
 62
     0
 10
-281.0203480096002
 20
1018.518204442551
 30
0.0
 40
10.62008101851852
  1
375
 50
90.0
  7
YUGOTHIC_MEDIUM
  0
POINT
  5
DB
  8
DEFPOINTS
 62
     0
 10
19.02965199021378
 20
846.1897487547208
 30
0.0
  0
POINT
  5
DC
  8
DEFPOINTS
 62
     0
 10
19.02965199021378
 20
1221.189748754721
 30
0.0
  0
POINT
  5
DD
  8
DEFPOINTS
 62
     0
 10
-280.9703480097862
 20
1221.189748754721
 30
0.0
  0
ENDBLK
  5
77
  8
0
  0
BLOCK
  8
0
  2
*D4
 70
     1
 10
0.0
 20
0.0
 30
0.0
  3
*D4
  1

  0
LINE
  5
DF
  8
1_5__
  6
CONTINUOUS
 62
     0
 10
74.5296519622741
 20
1026.189748754721
 30
0.0
 11
346.5296519902139
 21
1026.189748754721
 31
0.0
  0
LINE
  5
E0
  8
1_5__
  6
CONTINUOUS
 62
     0
 10
204.0296519622742
 20
1221.189748754721
 30
0.0
 11
346.5296519902139
 21
1221.189748754721
 31
0.0
  0
LINE
  5
E1
  8
1_5__
  6
CONTINUOUS
 62
     0
 10
346.5296519902139
 20
1028.437673559408
 30
0.0
 11
346.5296519902139
 21
1218.941823950033
 31
0.0
  0
INSERT
  5
E2
  8
1_5__
 62
     0
  2
_DOT
 10
346.5296519902139
 20
1026.189748754721
 30
0.0
 41
2.2479248046875
 42
2.2479248046875
 43
2.2479248046875
 50
270.0
  0
INSERT
  5
E3
  8
1_5__
 62
     0
  2
_DOT
 10
346.5296519902139
 20
1221.189748754721
 30
0.0
 41
2.2479248046875
 42
2.2479248046875
 43
2.2479248046875
 50
90.0
  0
TEXT
  5
E4
  8
1_5__
  6
CONTINUOUS
 62
     0
 10
346.4796519903998
 20
1107.759627226943
 30
0.0
 40
10.62008101851852
  1
195
 50
90.0
  7
YUGOTHIC_MEDIUM
  0
POINT
  5
E5
  8
DEFPOINTS
 62
     0
 10
67.02965199021378
 20
1026.189748754721
 30
0.0
  0
POINT
  5
E6
  8
DEFPOINTS
 62
     0
 10
196.5296519902139
 20
1221.189748754721
 30
0.0
  0
POINT
  5
E7
  8
DEFPOINTS
 62
     0
 10
346.5296519902139
 20
1221.189748754721
 30
0.0
  0
ENDBLK
  5
7A
  8
0
  0
BLOCK
  8
0
  2
*D5
 70
     1
 10
0.0
 20
0.0
 30
0.0
  3
*D5
  1

  0
LINE
  5
E9
  8
1_5__
  6
CONTINUOUS
 62
     0
 10
948.8270840181524
 20
441.4733100432004
 30
0.0
 11
730.2498359980425
 21
441.4733100432004
 31
0.0
  0
LINE
  5
EA
  8
1_5__
  6
CONTINUOUS
 62
     0
 10
813.8270840181524
 20
566.4733100431988
 30
0.0
 11
730.2498359980425
 21
566.4733100431988
 31
0.0
  0
LINE
  5
EB
  8
1_5__
  6
CONTINUOUS
 62
     0
 10
730.2498359980425
 20
443.7212348478879
 30
0.0
 11
730.2498359980425
 21
564.2253852385113
 31
0.0
  0
INSERT
  5
EC
  8
1_5__
 62
     0
  2
_DOT
 10
730.2498359980425
 20
441.4733100432004
 30
0.0
 41
2.2479248046875
 42
2.2479248046875
 43
2.2479248046875
 50
270.0
  0
INSERT
  5
ED
  8
1_5__
 62
     0
  2
_DOT
 10
730.2498359980425
 20
566.4733100431988
 30
0.0
 41
2.2479248046875
 42
2.2479248046875
 43
2.2479248046875
 50
90.0
  0
TEXT
  5
EE
  8
1_5__
  6
CONTINUOUS
 62
     0
 10
730.1998359982288
 20
488.0431885154219
 30
0.0
 40
10.62008101851852
  1
125
 50
90.0
  7
YUGOTHIC_MEDIUM
  0
POINT
  5
EF
  8
DEFPOINTS
 62
     0
 10
956.3270839902127
 20
441.4733100432004
 30
0.0
  0
POINT
  5
F0
  8
DEFPOINTS
 62
     0
 10
821.3270839902127
 20
566.4733100431988
 30
0.0
  0
POINT
  5
F1
  8
DEFPOINTS
 62
     0
 10
730.2498359980425
 20
566.4733100431988
 30
0.0
  0
ENDBLK
  5
7D
  8
0
  0
BLOCK
  8
0
  2
*D6
 70
     1
 10
0.0
 20
0.0
 30
0.0
  3
*D6
  1

  0
LINE
  5
F3
  8
1_5__
  6
CONTINUOUS
 62
     0
 10
42.02965199021378
 20
1018.68974878266
 30
0.0
 11
42.02965199021378
 21
926.1897487547208
 31
0.0
  0
LINE
  5
F4
  8
1_5__
  6
CONTINUOUS
 62
     0
 10
-3.970348009786221
 20
1018.68974878266
 30
0.0
 11
-3.970348009786221
 21
926.1897487547208
 31
0.0
  0
LINE
  5
F5
  8
1_5__
  6
CONTINUOUS
 62
     0
 10
39.78172718552628
 20
926.1897487547208
 30
0.0
 11
-1.722423205098721
 21
926.1897487547208
 31
0.0
  0
INSERT
  5
F6
  8
1_5__
 62
     0
  2
_DOT
 10
42.02965199021378
 20
926.1897487547208
 30
0.0
 41
2.2479248046875
 42
2.2479248046875
 43
2.2479248046875
  0
INSERT
  5
F7
  8
1_5__
 62
     0
  2
_DOT
 10
-3.970348009786221
 20
926.1897487547208
 30
0.0
 41
2.2479248046875
 42
2.2479248046875
 43
2.2479248046875
 50
180.0
  0
TEXT
  5
F8
  8
1_5__
  6
CONTINUOUS
 62
     0
 10
8.915289115434238
 20
926.2397487545345
 30
0.0
 40
10.62008101851852
  1
46
  7
YUGOTHIC_MEDIUM
  0
POINT
  5
F9
  8
DEFPOINTS
 62
     0
 10
42.02965199021378
 20
1026.189748754721
 30
0.0
  0
POINT
  5
FA
  8
DEFPOINTS
 62
     0
 10
-3.970348009786221
 20
1026.189748754721
 30
0.0
  0
POINT
  5
FB
  8
DEFPOINTS
 62
     0
 10
-3.970348009786221
 20
926.1897487547208
 30
0.0
  0
ENDBLK
  5
80
  8
0
  0
BLOCK
  8
0
  2
*D7
 70
     1
 10
0.0
 20
0.0
 30
0.0
  3
*D7
  1

  0
LINE
  5
FD
  8
1_5__
  6
CONTINUOUS
 62
     0
 10
154.5296519902138
 20
1155.732784782649
 30
0.0
 11
154.5296519902138
 21
1098.866118087856
 31
0.0
  0
LINE
  5
FE
  8
1_5__
  6
CONTINUOUS
 62
     0
 10
119.5296519902138
 20
1155.732784782649
 30
0.0
 11
119.5296519902138
 21
1098.866118087856
 31
0.0
  0
LINE
  5
FF
  8
1_5__
  6
CONTINUOUS
 62
     0
 10
119.5296519902138
 20
1098.866118087856
 30
0.0
 11
77.7150137115589
 21
1098.866118087856
 31
0.0
  0
LINE
  5
100
  8
1_5__
  6
CONTINUOUS
 62
     0
 10
152.2817271855263
 20
1098.866118087856
 30
0.0
 11
121.7775767949013
 21
1098.866118087856
 31
0.0
  0
INSERT
  5
101
  8
1_5__
 62
     0
  2
_DOT
 10
154.5296519902138
 20
1098.866118087856
 30
0.0
 41
2.2479248046875
 42
2.2479248046875
 43
2.2479248046875
  0
INSERT
  5
102
  8
1_5__
 62
     0
  2
_DOT
 10
119.5296519902138
 20
1098.866118087856
 30
0.0
 41
2.2479248046875
 42
2.2479248046875
 43
2.2479248046875
 50
180.0
  0
TEXT
  5
103
  8
1_5__
  6
CONTINUOUS
 62
     0
 10
76.2478592801557
 20
1098.91611808767
 30
0.0
 40
10.62008101851852
  1
35
  7
YUGOTHIC_MEDIUM
  0
POINT
  5
104
  8
DEFPOINTS
 62
     0
 10
154.5296519902138
 20
1163.232784754709
 30
0.0
  0
POINT
  5
105
  8
DEFPOINTS
 62
     0
 10
119.5296519902138
 20
1163.232784754709
 30
0.0
  0
POINT
  5
106
  8
DEFPOINTS
 62
     0
 10
119.5296519902138
 20
1088.232784754709
 30
0.0
  0
ENDBLK
  5
83
  8
0
  0
BLOCK
  8
0
  2
*D8
 70
     1
 10
0.0
 20
0.0
 30
0.0
  3
*D8
  1

  0
LINE
  5
108
  8
1_5__
  6
CONTINUOUS
 62
     0
 10
19.02965199021378
 20
1208.232784726769
 30
0.0
 11
19.02965199021378
 21
1275.732784754709
 31
0.0
  0
LINE
  5
109
  8
1_5__
  6
CONTINUOUS
 62
     0
 10
137.0296519902138
 20
1208.232784726769
 30
0.0
 11
137.0296519902138
 21
1275.732784754709
 31
0.0
  0
LINE
  5
10A
  8
1_5__
  6
CONTINUOUS
 62
     0
 10
21.27757679490128
 20
1275.732784754709
 30
0.0
 11
134.7817271855263
 21
1275.732784754709
 31
0.0
  0
INSERT
  5
10B
  8
1_5__
 62
     0
  2
_DOT
 10
19.02965199021378
 20
1275.732784754709
 30
0.0
 41
2.2479248046875
 42
2.2479248046875
 43
2.2479248046875
 50
180.0
  0
INSERT
  5
10C
  8
1_5__
 62
     0
  2
_DOT
 10
137.0296519902138
 20
1275.732784754709
 30
0.0
 41
2.2479248046875
 42
2.2479248046875
 43
2.2479248046875
  0
TEXT
  5
10D
  8
1_5__
  6
CONTINUOUS
 62
     0
 10
62.09953046243601
 20
1275.782784754523
 30
0.0
 40
10.62008101851852
  1
118
  7
YUGOTHIC_MEDIUM
  0
POINT
  5
10E
  8
DEFPOINTS
 62
     0
 10
19.02965199021378
 20
1200.732784754709
 30
0.0
  0
POINT
  5
10F
  8
DEFPOINTS
 62
     0
 10
137.0296519902138
 20
1200.732784754709
 30
0.0
  0
POINT
  5
110
  8
DEFPOINTS
 62
     0
 10
137.0296519902138
 20
1275.732784754709
 30
0.0
  0
ENDBLK
  5
86
  8
0
  0
BLOCK
  8
0
  2
*D9
 70
     1
 10
0.0
 20
0.0
 30
0.0
  3
*D9
  1

  0
LINE
  5
112
  8
1_5__
  6
CONTINUOUS
 62
     0
 10
182.0296519622741
 20
1163.232784754709
 30
0.0
 11
284.6130219902138
 21
1163.232784754709
 31
0.0
  0
LINE
  5
113
  8
1_5__
  6
CONTINUOUS
 62
     0
 10
204.6279579647205
 20
1221.189748754721
 30
0.0
 11
284.6130219902138
 21
1221.189748754721
 31
0.0
  0
LINE
  5
114
  8
1_5__
  6
CONTINUOUS
 62
     0
 10
284.6130219902138
 20
1165.480709559396
 30
0.0
 11
284.6130219902138
 21
1218.941823950033
 31
0.0
  0
INSERT
  5
115
  8
1_5__
 62
     0
  2
_DOT
 10
284.6130219902138
 20
1163.232784754709
 30
0.0
 41
2.2479248046875
 42
2.2479248046875
 43
2.2479248046875
 50
270.0
  0
INSERT
  5
116
  8
1_5__
 62
     0
  2
_DOT
 10
284.6130219902138
 20
1221.189748754721
 30
0.0
 41
2.2479248046875
 42
2.2479248046875
 43
2.2479248046875
 50
90.0
  0
TEXT
  5
117
  8
1_5__
  6
CONTINUOUS
 62
     0
 10
284.5630219903999
 20
1164.396768849071
 30
0.0
 40
10.62008101851852
  1
57.957
 50
90.0
  7
YUGOTHIC_MEDIUM
  0
POINT
  5
118
  8
DEFPOINTS
 62
     0
 10
174.5296519902138
 20
1163.232784754709
 30
0.0
  0
POINT
  5
119
  8
DEFPOINTS
 62
     0
 10
197.1279579926602
 20
1221.189748754721
 30
0.0
  0
POINT
  5
11A
  8
DEFPOINTS
 62
     0
 10
284.6130219902138
 20
1221.189748754721
 30
0.0
  0
ENDBLK
  5
89
  8
0
  0
BLOCK
  8
0
  2
*D10
 70
     1
 10
0.0
 20
0.0
 30
0.0
  3
*D10
  1

  0
LINE
  5
11C
  8
1_5__
  6
CONTINUOUS
 62
     0
 10
196.5296519902139
 20
1228.689748726781
 30
0.0
 11
196.5296519902139
 21
1321.189748754721
 31
0.0
  0
LINE
  5
11D
  8
1_5__
  6
CONTINUOUS
 62
     0
 10
-158.4703480097862
 20
1228.689748726781
 30
0.0
 11
-158.4703480097862
 21
1321.189748754721
 31
0.0
  0
LINE
  5
11E
  8
1_5__
  6
CONTINUOUS
 62
     0
 10
194.2817271855264
 20
1321.189748754721
 30
0.0
 11
-156.2224232050987
 21
1321.189748754721
 31
0.0
  0
INSERT
  5
11F
  8
1_5__
 62
     0
  2
_DOT
 10
196.5296519902139
 20
1321.189748754721
 30
0.0
 41
2.2479248046875
 42
2.2479248046875
 43
2.2479248046875
  0
INSERT
  5
120
  8
1_5__
 62
     0
  2
_DOT
 10
-158.4703480097862
 20
1321.189748754721
 30
0.0
 41
2.2479248046875
 42
2.2479248046875
 43
2.2479248046875
 50
180.0
  0
TEXT
  5
121
  8
1_5__
  6
CONTINUOUS
 62
     0
 10
3.858107678044523
 20
1321.239748754535
 30
0.0
 40
10.62008101851852
  1
355
  7
YUGOTHIC_MEDIUM
  0
POINT
  5
122
  8
DEFPOINTS
 62
     0
 10
196.5296519902139
 20
1221.189748754721
 30
0.0
  0
POINT
  5
123
  8
DEFPOINTS
 62
     0
 10
-158.4703480097862
 20
1221.189748754721
 30
0.0
  0
POINT
  5
124
  8
DEFPOINTS
 62
     0
 10
-158.4703480097862
 20
1321.189748754721
 30
0.0
  0
ENDBLK
  5
8C
  8
0
  0
BLOCK
  8
0
  2
*D11
 70
     1
 10
0.0
 20
0.0
 30
0.0
  3
*D11
  1

  0
LINE
  5
126
  8
1_5__
  6
CONTINUOUS
 62
     0
 10
11.52965201815346
 20
873.8378647547174
 30
0.0
 11
-230.9703480097862
 21
873.8378647547174
 31
0.0
  0
LINE
  5
127
  8
1_5__
  6
CONTINUOUS
 62
     0
 10
11.52965201815346
 20
1168.837864754717
 30
0.0
 11
-230.9703480097862
 21
1168.837864754717
 31
0.0
  0
LINE
  5
128
  8
1_5__
  6
CONTINUOUS
 62
     0
 10
-230.9703480097862
 20
876.0857895594049
 30
0.0
 11
-230.9703480097862
 21
1166.58993995003
 31
0.0
  0
INSERT
  5
129
  8
1_5__
 62
     0
  2
_DOT
 10
-230.9703480097862
 20
873.8378647547174
 30
0.0
 41
2.2479248046875
 42
2.2479248046875
 43
2.2479248046875
 50
270.0
  0
INSERT
  5
12A
  8
1_5__
 62
     0
  2
_DOT
 10
-230.9703480097862
 20
1168.837864754717
 30
0.0
 41
2.2479248046875
 42
2.2479248046875
 43
2.2479248046875
 50
90.0
  0
TEXT
  5
12B
  8
1_5__
  6
CONTINUOUS
 62
     0
 10
-231.0203480096002
 20
1006.166320442548
 30
0.0
 40
10.62008101851852
  1
295
 50
90.0
  7
YUGOTHIC_MEDIUM
  0
POINT
  5
12C
  8
DEFPOINTS
 62
     0
 10
19.02965199021378
 20
873.8378647547174
 30
0.0
  0
POINT
  5
12D
  8
DEFPOINTS
 62
     0
 10
19.02965199021378
 20
1168.837864754717
 30
0.0
  0
POINT
  5
12E
  8
DEFPOINTS
 62
     0
 10
-230.9703480097862
 20
1168.837864754717
 30
0.0
  0
ENDBLK
  5
8F
  8
0
  0
BLOCK
  8
0
  2
*D12
 70
     1
 10
0.0
 20
0.0
 30
0.0
  3
*D12
  1

  0
LINE
  5
130
  8
1_5__
  6
CONTINUOUS
 62
     0
 10
119.0296519902138
 20
538.97331001526
 30
0.0
 11
119.0296519902138
 21
681.4733100432
 31
0.0
  0
LINE
  5
131
  8
1_5__
  6
CONTINUOUS
 62
     0
 10
-80.97034800978622
 20
538.97331001526
 30
0.0
 11
-80.97034800978622
 21
681.4733100432
 31
0.0
  0
LINE
  5
132
  8
1_5__
  6
CONTINUOUS
 62
     0
 10
116.7817271855263
 20
681.4733100432
 30
0.0
 11
-78.72242320509872
 21
681.4733100432
 31
0.0
  0
INSERT
  5
133
  8
1_5__
 62
     0
  2
_DOT
 10
119.0296519902138
 20
681.4733100432
 30
0.0
 41
2.2479248046875
 42
2.2479248046875
 43
2.2479248046875
  0
INSERT
  5
134
  8
1_5__
 62
     0
  2
_DOT
 10
-80.97034800978622
 20
681.4733100432
 30
0.0
 41
2.2479248046875
 42
2.2479248046875
 43
2.2479248046875
 50
180.0
  0
TEXT
  5
135
  8
1_5__
  6
CONTINUOUS
 62
     0
 10
3.858107678044466
 20
681.5233100430137
 30
0.0
 40
10.62008101851852
  1
200
  7
YUGOTHIC_MEDIUM
  0
POINT
  5
136
  8
DEFPOINTS
 62
     0
 10
119.0296519902138
 20
531.4733100431997
 30
0.0
  0
POINT
  5
137
  8
DEFPOINTS
 62
     0
 10
-80.97034800978622
 20
531.4733100431997
 30
0.0
  0
POINT
  5
138
  8
DEFPOINTS
 62
     0
 10
-80.97034800978622
 20
681.4733100432
 30
0.0
  0
ENDBLK
  5
92
  8
0
  0
BLOCK
  8
0
  2
*D13
 70
     1
 10
0.0
 20
0.0
 30
0.0
  3
*D13
  1

  0
LINE
  5
13A
  8
1_5__
  6
CONTINUOUS
 62
     0
 10
-155.9703479818463
 20
463.4733100432015
 30
0.0
 11
-212.919972009787
 21
463.4733100432015
 31
0.0
  0
LINE
  5
13B
  8
1_5__
  6
CONTINUOUS
 62
     0
 10
-150.4199719818473
 20
566.4733100431988
 30
0.0
 11
-212.919972009787
 21
566.4733100431988
 31
0.0
  0
LINE
  5
13C
  8
1_5__
  6
CONTINUOUS
 62
     0
 10
-212.919972009787
 20
465.721234847889
 30
0.0
 11
-212.919972009787
 21
564.2253852385113
 31
0.0
  0
INSERT
  5
13D
  8
1_5__
 62
     0
  2
_DOT
 10
-212.919972009787
 20
463.4733100432015
 30
0.0
 41
2.2479248046875
 42
2.2479248046875
 43
2.2479248046875
 50
270.0
  0
INSERT
  5
13E
  8
1_5__
 62
     0
  2
_DOT
 10
-212.919972009787
 20
566.4733100431988
 30
0.0
 41
2.2479248046875
 42
2.2479248046875
 43
2.2479248046875
 50
90.0
  0
TEXT
  5
13F
  8
1_5__
  6
CONTINUOUS
 62
     0
 10
-212.9699720096007
 20
499.0431885154223
 30
0.0
 40
10.62008101851852
  1
103
 50
90.0
  7
YUGOTHIC_MEDIUM
  0
POINT
  5
140
  8
DEFPOINTS
 62
     0
 10
-148.470348009786
 20
463.4733100432015
 30
0.0
  0
POINT
  5
141
  8
DEFPOINTS
 62
     0
 10
-142.919972009787
 20
566.4733100431988
 30
0.0
  0
POINT
  5
142
  8
DEFPOINTS
 62
     0
 10
-212.919972009787
 20
566.4733100431988
 30
0.0
  0
ENDBLK
  5
95
  8
0
  0
BLOCK
  8
0
  2
*D14
 70
     1
 10
0.0
 20
0.0
 30
0.0
  3
*D14
  1

  0
LINE
  5
144
  8
1_5__
  6
CONTINUOUS
 62
     0
 10
-26.44086798184685
 20
416.4733100432004
 30
0.0
 11
-282.919972009787
 21
416.4733100432004
 31
0.0
  0
LINE
  5
145
  8
1_5__
  6
CONTINUOUS
 62
     0
 10
-150.4199719818473
 20
566.4733100431988
 30
0.0
 11
-282.919972009787
 21
566.4733100431988
 31
0.0
  0
LINE
  5
146
  8
1_5__
  6
CONTINUOUS
 62
     0
 10
-282.919972009787
 20
418.7212348478879
 30
0.0
 11
-282.919972009787
 21
564.2253852385113
 31
0.0
  0
INSERT
  5
147
  8
1_5__
 62
     0
  2
_DOT
 10
-282.919972009787
 20
416.4733100432004
 30
0.0
 41
2.2479248046875
 42
2.2479248046875
 43
2.2479248046875
 50
270.0
  0
INSERT
  5
148
  8
1_5__
 62
     0
  2
_DOT
 10
-282.919972009787
 20
566.4733100431988
 30
0.0
 41
2.2479248046875
 42
2.2479248046875
 43
2.2479248046875
 50
90.0
  0
TEXT
  5
149
  8
1_5__
  6
CONTINUOUS
 62
     0
 10
-282.9699720096007
 20
475.5431885154218
 30
0.0
 40
10.62008101851852
  1
150
 50
90.0
  7
YUGOTHIC_MEDIUM
  0
POINT
  5
14A
  8
DEFPOINTS
 62
     0
 10
-18.94086800978653
 20
416.4733100432004
 30
0.0
  0
POINT
  5
14B
  8
DEFPOINTS
 62
     0
 10
-142.919972009787
 20
566.4733100431988
 30
0.0
  0
POINT
  5
14C
  8
DEFPOINTS
 62
     0
 10
-282.919972009787
 20
566.4733100431988
 30
0.0
  0
ENDBLK
  5
98
  8
0
  0
BLOCK
  8
0
  2
DIMENSION
 70
     0
 10
0.0
 20
0.0
 30
0.0
  3
DIMENSION
  1

  0
LINE
  5
14E
  8
0
  6
CONTINUOUS
 62
     0
 10
814.1847222220358
 20
1172.602876094217
 30
0.0
 11
814.1847222220358
 21
1240.102876122156
 31
0.0
  0
LINE
  5
14F
  8
0
  6
CONTINUOUS
 62
     0
 10
856.6847222220358
 20
1172.602876094217
 30
0.0
 11
856.6847222220358
 21
1240.102876122156
 31
0.0
  0
LINE
  5
150
  8
0
  6
CONTINUOUS
 62
     0
 10
814.1847222220358
 20
1240.102876122156
 30
0.0
 11
856.6847222220358
 21
1240.102876122156
 31
0.0
  0
CIRCLE
  5
151
  8
0
  6
CONTINUOUS
 62
     0
 10
814.1847222220358
 20
1240.102876122156
 30
0.0
 40
1.12396240234375
  0
CIRCLE
  5
152
  8
0
  6
CONTINUOUS
 62
     0
 10
856.6847222220358
 20
1240.102876122156
 30
0.0
 40
1.12396240234375
  0
TEXT
  5
153
  8
0
 62
     0
 10
799.3808357554797
 20
1248.901765010859
 30
0.0
 40
10.62008101851851
  1
六角対辺17
  7
YUGOTHIC_MEDIUM
 11
799.3808357554797
 21
1259.521846029378
 31
0.0
 73
     3
  0
POINT
  5
154
  8
DEFPOINTS
 62
     0
 10
856.6847222220358
 20
1165.102876122156
 30
0.0
  0
POINT
  5
155
  8
DEFPOINTS
 62
     0
 10
814.1847222220358
 20
1165.102876122156
 30
0.0
  0
POINT
  5
156
  8
DEFPOINTS
 62
     0
 10
814.1847222220358
 20
1240.102876122156
 30
0.0
  0
ENDBLK
  5
9B
  8
0
  0
BLOCK
  8
0
  2
DIMENSION-1
 70
     0
 10
0.0
 20
0.0
 30
0.0
  3
DIMENSION-1
  1

  0
LINE
  5
157
  8
0
  6
CONTINUOUS
 62
     0
 10
1042.377502249976
 20
1220.473341122171
 30
0.0
 11
987.3775022220359
 21
1220.473341122171
 31
0.0
  0
LINE
  5
158
  8
0
  6
CONTINUOUS
 62
     0
 10
1042.377502249976
 20
970.4733411221728
 30
0.0
 11
987.3775022220359
 21
970.4733411221728
 31
0.0
  0
LINE
  5
159
  8
0
  6
CONTINUOUS
 62
     0
 10
987.3775022220359
 20
1220.473341122171
 30
0.0
 11
987.3775022220359
 21
970.4733411221728
 31
0.0
  0
CIRCLE
  5
15A
  8
0
  6
CONTINUOUS
 62
     0
 10
987.3775022220359
 20
1220.473341122171
 30
0.0
 40
1.12396240234375
  0
CIRCLE
  5
15B
  8
0
  6
CONTINUOUS
 62
     0
 10
987.3775022220359
 20
970.4733411221728
 30
0.0
 40
1.12396240234375
  0
TEXT
  5
15C
  8
0
 62
     0
 10
979.6388911112352
 20
1085.194278857676
 30
0.0
 40
9.292570891203704
  1
100
 50
90.0
  7
YUGOTHIC_MEDIUM
 11
970.3463202200315
 21
1085.194278857676
 31
0.0
 73
     3
  0
POINT
  5
15D
  8
DEFPOINTS
 62
     0
 10
1049.877502222036
 20
970.4733411221728
 30
0.0
  0
POINT
  5
15E
  8
DEFPOINTS
 62
     0
 10
1049.877502222036
 20
1220.473341122171
 30
0.0
  0
POINT
  5
15F
  8
DEFPOINTS
 62
     0
 10
987.3775022220359
 20
1220.473341122171
 30
0.0
  0
ENDBLK
  5
9E
  8
0
  0
BLOCK
  8
0
  2
DIMENSION-2
 70
     0
 10
0.0
 20
0.0
 30
0.0
  3
DIMENSION-2
  1

  0
LINE
  5
160
  8
0
  6
CONTINUOUS
 62
     0
 10
1327.149021983319
 20
1196.000876122172
 30
0.0
 11
1394.649022011259
 21
1196.000876122172
 31
0.0
  0
LINE
  5
161
  8
0
  6
CONTINUOUS
 62
     0
 10
1327.149021983319
 20
1006.000876122174
 30
0.0
 11
1394.649022011259
 21
1006.000876122174
 31
0.0
  0
LINE
  5
162
  8
0
  6
CONTINUOUS
 62
     0
 10
1394.649022011259
 20
1196.000876122172
 30
0.0
 11
1394.649022011259
 21
1006.000876122174
 31
0.0
  0
CIRCLE
  5
163
  8
0
  6
CONTINUOUS
 62
     0
 10
1394.649022011259
 20
1196.000876122172
 30
0.0
 40
1.12396240234375
  0
CIRCLE
  5
164
  8
0
  6
CONTINUOUS
 62
     0
 10
1394.649022011259
 20
1006.000876122174
 30
0.0
 40
1.12396240234375
  0
TEXT
  5
165
  8
0
 62
     0
 10
1385.850133122556
 20
1093.169209354576
 30
0.0
 40
10.62008101851851
  1
76
 50
90.0
  7
YUGOTHIC_MEDIUM
 11
1375.230052104038
 21
1093.169209354576
 31
0.0
 73
     3
  0
POINT
  5
166
  8
DEFPOINTS
 62
     0
 10
1319.649022011259
 20
1006.000876122174
 30
0.0
  0
POINT
  5
167
  8
DEFPOINTS
 62
     0
 10
1319.649022011259
 20
1196.000876122172
 30
0.0
  0
POINT
  5
168
  8
DEFPOINTS
 62
     0
 10
1394.649022011259
 20
1196.000876122172
 30
0.0
  0
ENDBLK
  5
A1
  8
0
  0
BLOCK
  8
0
  2
DIMENSION-3
 70
     0
 10
0.0
 20
0.0
 30
0.0
  3
DIMENSION-3
  1

  0
LINE
  5
169
  8
0
  6
CONTINUOUS
 62
     0
 10
1278.399022011259
 20
1203.500876094232
 30
0.0
 11
1278.399022011259
 21
1235.423441122158
 31
0.0
  0
LINE
  5
16A
  8
0
  6
CONTINUOUS
 62
     0
 10
1312.149022011259
 20
1203.500876094232
 30
0.0
 11
1312.149022011259
 21
1235.423441122158
 31
0.0
  0
LINE
  5
16B
  8
0
  6
CONTINUOUS
 62
     0
 10
1278.399022011259
 20
1235.423441122158
 30
0.0
 11
1312.149022011259
 21
1235.423441122158
 31
0.0
  0
CIRCLE
  5
16C
  8
0
  6
CONTINUOUS
 62
     0
 10
1278.399022011259
 20
1235.423441122158
 30
0.0
 40
1.12396240234375
  0
CIRCLE
  5
16D
  8
0
  6
CONTINUOUS
 62
     0
 10
1312.149022011259
 20
1235.423441122158
 30
0.0
 40
1.12396240234375
  0
TEXT
  5
16E
  8
0
 62
     0
 10
1274.643579074044
 20
1244.222330010861
 30
0.0
 40
10.62008101851851
  1
φ13.5
  7
YUGOTHIC_MEDIUM
 11
1274.643579074044
 21
1254.842411029379
 31
0.0
 73
     3
  0
POINT
  5
16F
  8
DEFPOINTS
 62
     0
 10
1312.149022011259
 20
1196.000876122172
 30
0.0
  0
POINT
  5
170
  8
DEFPOINTS
 62
     0
 10
1278.399022011259
 20
1196.000876122172
 30
0.0
  0
POINT
  5
171
  8
DEFPOINTS
 62
     0
 10
1278.399022011259
 20
1235.423441122158
 30
0.0
  0
ENDBLK
  5
A4
  8
0
  0
BLOCK
  8
0
  2
DIMENSION-4
 70
     0
 10
0.0
 20
0.0
 30
0.0
  3
DIMENSION-4
  1

  0
LINE
  5
172
  8
0
  6
CONTINUOUS
 62
     0
 10
1060.637362222036
 20
1135.473341150112
 30
0.0
 11
1060.637362222036
 21
1130.473341122172
 31
0.0
  0
LINE
  5
173
  8
0
  6
CONTINUOUS
 62
     0
 10
1080.637362222036
 20
1135.473341150112
 30
0.0
 11
1080.637362222036
 21
1130.473341122172
 31
0.0
  0
LINE
  5
174
  8
0
  6
CONTINUOUS
 62
     0
 10
1080.637362222036
 20
1130.473341122172
 30
0.0
 11
1176.939365074827
 21
1130.473341122172
 31
0.0
  0
LINE
  5
175
  8
0
  6
CONTINUOUS
 62
     0
 10
1060.637362222036
 20
1130.473341122172
 30
0.0
 11
1080.637362222036
 21
1130.473341122172
 31
0.0
  0
CIRCLE
  5
176
  8
0
  6
CONTINUOUS
 62
     0
 10
1060.637362222036
 20
1130.473341122172
 30
0.0
 40
1.12396240234375
  0
CIRCLE
  5
177
  8
0
  6
CONTINUOUS
 62
     0
 10
1080.637362222036
 20
1130.473341122172
 30
0.0
 40
1.12396240234375
  0
TEXT
  5
178
  8
0
 62
     0
 10
1112.663256386048
 20
1139.272230010875
 30
0.0
 40
10.62008101851851
  1
六角対辺8
  7
YUGOTHIC_MEDIUM
 11
1112.663256386048
 21
1149.892311029394
 31
0.0
 73
     3
  0
POINT
  5
179
  8
DEFPOINTS
 62
     0
 10
1080.637362222036
 20
1142.973341122172
 30
0.0
  0
POINT
  5
17A
  8
DEFPOINTS
 62
     0
 10
1060.637362222036
 20
1142.973341122172
 30
0.0
  0
POINT
  5
17B
  8
DEFPOINTS
 62
     0
 10
1060.637362222036
 20
1130.473341122172
 30
0.0
  0
ENDBLK
  5
A7
  8
0
  0
BLOCK
  8
0
  2
DIMENSION-5
 70
     0
 10
0.0
 20
0.0
 30
0.0
  3
DIMENSION-5
  1

  0
LINE
  5
17C
  8
0
  6
CONTINUOUS
 62
     0
 10
1059.387362222036
 20
977.8493961501417
 30
0.0
 11
1059.387362222036
 21
921.0493011221602
 31
0.0
  0
LINE
  5
17D
  8
0
  6
CONTINUOUS
 62
     0
 10
1081.887362222036
 20
986.038726150106
 30
0.0
 11
1081.887362222036
 21
921.0493011221602
 31
0.0
  0
LINE
  5
17E
  8
0
  6
CONTINUOUS
 62
     0
 10
1059.387362222036
 20
921.0493011221602
 30
0.0
 11
1081.887362222036
 21
921.0493011221602
 31
0.0
  0
CIRCLE
  5
17F
  8
0
  6
CONTINUOUS
 62
     0
 10
1059.387362222036
 20
921.0493011221602
 30
0.0
 40
1.12396240234375
  0
CIRCLE
  5
180
  8
0
  6
CONTINUOUS
 62
     0
 10
1081.887362222036
 20
921.0493011221602
 30
0.0
 40
1.12396240234375
  0
TEXT
  5
181
  8
0
 62
     0
 10
1066.721528838237
 20
929.8481900108625
 30
0.0
 40
10.62008101851851
  1
9
  7
YUGOTHIC_MEDIUM
 11
1066.721528838237
 21
940.468271029381
 31
0.0
 73
     3
  0
POINT
  5
182
  8
DEFPOINTS
 62
     0
 10
1081.887362222036
 20
993.5387261221663
 30
0.0
  0
POINT
  5
183
  8
DEFPOINTS
 62
     0
 10
1059.387362222036
 20
985.349396122202
 30
0.0
  0
POINT
  5
184
  8
DEFPOINTS
 62
     0
 10
1059.387362222036
 20
921.0493011221602
 30
0.0
  0
ENDBLK
  5
AA
  8
0
  0
BLOCK
  8
0
  2
DIMENSION-6
 70
     0
 10
0.0
 20
0.0
 30
0.0
  3
DIMENSION-6
  1

  0
LINE
  5
185
  8
0
  6
CONTINUOUS
 62
     0
 10
806.6847222499755
 20
998.8842661221465
 30
0.0
 11
739.1847222220358
 21
998.8842661221465
 31
0.0
  0
LINE
  5
186
  8
0
  6
CONTINUOUS
 62
     0
 10
810.4347222499755
 20
921.3842661221465
 30
0.0
 11
739.1847222220358
 21
921.3842661221465
 31
0.0
  0
LINE
  5
187
  8
0
  6
CONTINUOUS
 62
     0
 10
739.1847222220358
 20
998.8842661221465
 30
0.0
 11
739.1847222220358
 21
921.3842661221465
 31
0.0
  0
CIRCLE
  5
188
  8
0
  6
CONTINUOUS
 62
     0
 10
739.1847222220358
 20
998.8842661221465
 30
0.0
 40
1.12396240234375
  0
CIRCLE
  5
189
  8
0
  6
CONTINUOUS
 62
     0
 10
739.1847222220358
 20
921.3842661221465
 30
0.0
 40
1.12396240234375
  0
TEXT
  5
18A
  8
0
 62
     0
 10
730.3858333333332
 20
952.3025993545493
 30
0.0
 40
10.62008101851851
  1
31
 50
90.0
  7
YUGOTHIC_MEDIUM
 11
719.7657523148147
 21
952.3025993545493
 31
0.0
 73
     3
  0
POINT
  5
18B
  8
DEFPOINTS
 62
     0
 10
817.9347222220358
 20
921.3842661221465
 30
0.0
  0
POINT
  5
18C
  8
DEFPOINTS
 62
     0
 10
814.1847222220358
 20
998.8842661221465
 30
0.0
  0
POINT
  5
18D
  8
DEFPOINTS
 62
     0
 10
739.1847222220358
 20
998.8842661221465
 30
0.0
  0
ENDBLK
  5
AD
  8
0
  0
BLOCK
  8
0
  2
DIMENSION-7
 70
     0
 10
0.0
 20
0.0
 30
0.0
  3
DIMENSION-7
  1

  0
LINE
  5
18E
  8
0
  6
CONTINUOUS
 62
     0
 10
786.684722222036
 20
971.3842660942069
 30
0.0
 11
786.684722222036
 21
1038.884266122147
 31
0.0
  0
LINE
  5
18F
  8
0
  6
CONTINUOUS
 62
     0
 10
884.184722222036
 20
971.3842660942069
 30
0.0
 11
884.184722222036
 21
1038.884266122147
 31
0.0
  0
LINE
  5
190
  8
0
  6
CONTINUOUS
 62
     0
 10
786.684722222036
 20
1038.884266122147
 30
0.0
 11
884.184722222036
 21
1038.884266122147
 31
0.0
  0
CIRCLE
  5
191
  8
0
  6
CONTINUOUS
 62
     0
 10
786.684722222036
 20
1038.884266122147
 30
0.0
 40
1.12396240234375
  0
CIRCLE
  5
192
  8
0
  6
CONTINUOUS
 62
     0
 10
884.184722222036
 20
1038.884266122147
 30
0.0
 40
1.12396240234375
  0
TEXT
  5
193
  8
0
 62
     0
 10
820.5475007399709
 20
1047.683155010849
 30
0.0
 40
10.62008101851852
  1
φ39
  7
YUGOTHIC_MEDIUM
 11
820.5475007399709
 21
1058.303236029368
 31
0.0
 73
     3
  0
POINT
  5
194
  8
DEFPOINTS
 62
     0
 10
884.184722222036
 20
963.8842661221465
 30
0.0
  0
POINT
  5
195
  8
DEFPOINTS
 62
     0
 10
786.684722222036
 20
963.8842661221465
 30
0.0
  0
POINT
  5
196
  8
DEFPOINTS
 62
     0
 10
786.684722222036
 20
1038.884266122147
 30
0.0
  0
ENDBLK
  5
B0
  8
0
  0
BLOCK
  8
0
  2
_DOT
 70
     0
 10
0.0
 20
0.0
 30
0.0
  3
_DOT
  1

  0
POLYLINE
  5
CD
  8
0
  6
BYBLOCK
 62
     0
 66
     1
 10
0.0
 20
0.0
 30
0.0
 70
     1
 40
0.5
 41
0.5
  0
VERTEX
  5
2D9
  8
0
  6
BYBLOCK
 62
     0
 10
-0.25
 20
0.0
 30
0.0
 42
1.0
  0
VERTEX
  5
2DA
  8
0
  6
BYBLOCK
 62
     0
 10
0.25
 20
0.0
 30
0.0
 42
1.0
  0
SEQEND
  5
2DB
  8
0
  6
BYBLOCK
 62
     0
  0
LINE
  5
CE
  8
0
  6
BYBLOCK
 62
     0
 10
-0.5
 20
0.0
 30
0.0
 11
-1.0
 21
0.0
 31
0.0
  0
ENDBLK
  5
CC
  8
0
  0
ENDSEC
  0
SECTION
  2
ENTITIES
  0
INSERT
  5
197
  8
_
 62
     7
  2
__A3
 10
524.4597052377339
 20
106.3691961421841
 30
0.0
 41
0.1
 42
0.1
 43
0.1
  0
TEXT
  5
198
  8
_
 62
     4
 10
1299.226184757971
 20
74.86823158540696
 30
0.0
 40
10.62008101851852
  1
2019.04.02
  7
YUGOTHIC_MEDIUM
 11
1299.226184757971
 21
80.17827209466623
 31
0.0
 73
     2
  0
TEXT
  5
199
  8
_
 62
     4
 10
1490.355367113541
 20
74.92484655722532
 30
0.0
 40
10.62008101851852
  1
1:5(A3)
  7
YUGOTHIC_MEDIUM
 11
1490.355367113541
 21
80.23488706648459
 31
0.0
 73
     2
  0
TEXT
  5
19A
  8
_
 62
     4
 10
1094.98432095056
 20
75.068231585407
 30
0.0
 40
10.62008101851852
  1
KB-PR008-06
  7
YUGOTHIC_MEDIUM
 11
1094.98432095056
 21
80.37827209466627
 31
0.0
 73
     2
  0
TEXT
  5
19B
  8
_
 62
     4
 10
529.0076903595975
 20
74.74449441147803
 30
0.0
 40
10.62008101851852
  1
ウェルラウンドシンク サークル355 壁付け (右穴)
  7
YUGOTHIC_MEDIUM
 11
529.0076903595975
 21
80.0545349207373
 31
0.0
 73
     2
  0
LINE
  5
19C
  8
1_5_____
  6
CONTINUOUS
 62
     7
 10
1186.327083990212
 20
381.6820980432244
 30
0.0
 11
1186.327083990212
 21
626.139670043161
 31
0.0
  0
ARC
  5
19D
  8
1_5_____
  6
VW-01____
 62
    17
 10
1142.443411990213
 20
556.4733100431988
 30
0.0
 40
10.0
 50
90.0
 51
168.9982529999193
  0
ARC
  5
19E
  8
1_5_____
  6
VW-01____
 62
    17
 10
983.1604279902136
 20
587.4398260431847
 30
0.0
 40
152.2651959999688
 50
314.7525190000115
 51
348.9982530000088
  0
ARC
  5
19F
  8
1_5_____
  6
VW-01____
 62
    17
 10
996.5609279902134
 20
564.9254020432261
 30
0.0
 40
127.0000000000279
 50
291.8081739999947
 51
317.6116199999839
  0
ARC
  5
1A0
  8
1_5_____
  6
VW-01____
 62
    17
 10
994.8537439902136
 20
570.5213340431935
 30
0.0
 40
132.8305839999614
 50
283.706211000004
 51
291.5951380000045
  0
ARC
  5
1A1
  8
1_5_____
  6
VW-01____
 62
    17
 10
831.790579990213
 20
556.4733100431988
 30
0.0
 40
9.999999999994767
 50
19.53666499992515
 51
90.0
  0
ARC
  5
1A2
  8
1_5_____
  6
VW-01____
 62
    17
 10
1019.327083990213
 20
429.1314340431975
 30
0.0
 40
5.000000000008689
 50
129.8055709999053
 51
180.0
  0
LINE
  5
1A3
  8
1_5_____
  6
VW-01____
 62
    17
 10
1016.126159990213
 20
432.9725380431894
 30
0.0
 11
1026.327083990213
 21
441.4733100432004
 31
0.0
  0
ARC
  5
1A4
  8
1_5_____
  6
VW-01____
 62
    17
 10
963.2214439902133
 20
429.1446860431727
 30
0.0
 40
5.0
 50
0.0
 51
49.94507300012975
  0
ARC
  5
1A5
  8
1_5_____
  6
VW-01____
 62
    17
 10
986.0932399902127
 20
564.9254020432261
 30
0.0
 40
127.0000000000325
 50
222.3883800000158
 51
248.1918260000053
  0
LINE
  5
1A6
  8
1_5_____
  6
CONTINUOUS
 62
     1
 10
897.8185519902129
 20
460.7258100431911
 30
0.0
 11
900.6618599902138
 21
458.2944140431737
 31
0.0
  0
LINE
  5
1A7
  8
1_5_____
  6
VW-01____
 62
    17
 10
956.3270839902127
 20
441.4733100432004
 30
0.0
 11
966.4390519902123
 21
432.9718260431928
 31
0.0
  0
LINE
  5
1A8
  8
1_5_____
  6
ISO-10______
 62
     2
 10
991.3270839902127
 20
596.4733100431988
 30
0.0
 11
991.3270839902127
 21
381.9733100432004
 31
0.0
  0
LINE
  5
1A9
  8
1_5_____
  6
CONTINUOUS
 62
     1
 10
1186.327083990212
 20
566.4733100431988
 30
0.0
 11
1186.327083990212
 21
463.4733100432004
 31
0.0
  0
LINE
  5
1AA
  8
1_5_____
  6
CONTINUOUS
 62
     1
 10
928.4246799902137
 20
440.715130043196
 30
0.0
 11
934.821743990213
 21
437.8564860431743
 31
0.0
  0
LINE
  5
1AB
  8
1_5_____
  6
CONTINUOUS
 62
     1
 10
957.0173919902123
 20
430.6233340431736
 30
0.0
 11
965.4124719902136
 21
428.8633860431878
 31
0.0
  0
LINE
  5
1AC
  8
1_5_____
  6
CONTINUOUS
 62
     1
 10
953.865471990212
 20
416.4733100432004
 30
0.0
 11
1029.297603990213
 21
416.4733100432004
 31
0.0
  0
LINE
  5
1AD
  8
1_5_____
  6
CONTINUOUS
 62
     1
 10
953.865471990212
 20
431.4718580431804
 30
0.0
 11
953.865471990212
 21
416.4733100432004
 31
0.0
  0
LINE
  5
1AE
  8
1_5_____
  6
CONTINUOUS
 62
     1
 10
949.1195919902134
 20
432.7494940432055
 30
0.0
 11
957.0173919902123
 21
430.6233340431736
 31
0.0
  0
LINE
  5
1AF
  8
1_5_____
  6
CONTINUOUS
 62
     1
 10
941.7205439902134
 20
435.1808900431763
 30
0.0
 11
949.1195919902134
 21
432.7494940432055
 31
0.0
  0
LINE
  5
1B0
  8
1_5_____
  6
CONTINUOUS
 62
     1
 10
934.821743990213
 20
437.8564860431743
 30
0.0
 11
941.7205439902134
 21
435.1808900431763
 31
0.0
  0
LINE
  5
1B1
  8
1_5_____
  6
CONTINUOUS
 62
     1
 10
1029.297603990213
 20
430.9376220432143
 30
0.0
 11
1029.297603990213
 21
416.4733100432004
 31
0.0
  0
LINE
  5
1B2
  8
1_5_____
  6
CONTINUOUS
 62
     1
 10
1056.722863990213
 20
440.715130043196
 30
0.0
 11
1050.325799990213
 21
437.8564860431743
 31
0.0
  0
LINE
  5
1B3
  8
1_5_____
  6
CONTINUOUS
 62
     1
 10
1019.735103990213
 20
428.8633860431878
 30
0.0
 11
1010.844263990213
 21
427.530682043199
 31
0.0
  0
LINE
  5
1B4
  8
1_5_____
  6
CONTINUOUS
 62
     1
 10
1028.130151990212
 20
430.6233340431736
 30
0.0
 11
1019.735103990213
 21
428.8633860431878
 31
0.0
  0
LINE
  5
1B5
  8
1_5_____
  6
CONTINUOUS
 62
     1
 10
1036.027947990213
 20
432.7494940432055
 30
0.0
 11
1028.130151990212
 21
430.6233340431736
 31
0.0
  0
LINE
  5
1B6
  8
1_5_____
  6
CONTINUOUS
 62
     1
 10
1043.426967990213
 20
435.1808900431763
 30
0.0
 11
1036.027947990213
 21
432.7494940432055
 31
0.0
  0
LINE
  5
1B7
  8
1_5_____
  6
CONTINUOUS
 62
     1
 10
1050.325799990213
 20
437.8564860431743
 30
0.0
 11
1043.426967990213
 21
435.1808900431763
 31
0.0
  0
LINE
  5
1B8
  8
1_5_____
  6
CONTINUOUS
 62
     1
 10
1068.005883990213
 20
446.7376540432019
 30
0.0
 11
1062.616723990213
 21
443.695842043174
 31
0.0
  0
LINE
  5
1B9
  8
1_5_____
  6
CONTINUOUS
 62
     1
 10
1062.616723990213
 20
443.695842043174
 30
0.0
 11
1056.722863990213
 21
440.715130043196
 31
0.0
  0
LINE
  5
1BA
  8
1_5_____
  6
CONTINUOUS
 62
     1
 10
1081.130275990214
 20
455.6188180431757
 30
0.0
 11
1077.264155990213
 21
452.7601740432005
 31
0.0
  0
LINE
  5
1BB
  8
1_5_____
  6
CONTINUOUS
 62
     1
 10
1072.888851990214
 20
449.779462043176
 30
0.0
 11
1068.005883990213
 21
446.7376540432019
 31
0.0
  0
LINE
  5
1BC
  8
1_5_____
  6
CONTINUOUS
 62
     1
 10
1077.264155990213
 20
452.7601740432005
 30
0.0
 11
1072.888851990214
 21
449.779462043176
 31
0.0
  0
LINE
  5
1BD
  8
1_5_____
  6
CONTINUOUS
 62
     1
 10
1084.485743990212
 20
458.2944140431737
 30
0.0
 11
1081.130275990214
 21
455.6188180431757
 31
0.0
  0
LINE
  5
1BE
  8
1_5_____
  6
CONTINUOUS
 62
     1
 10
1087.329067990213
 20
460.7258100431911
 30
0.0
 11
1084.485743990212
 21
458.2944140431737
 31
0.0
  0
LINE
  5
1BF
  8
1_5_____
  6
CONTINUOUS
 62
     1
 10
1090.339599990214
 20
463.4733100432004
 30
0.0
 11
1087.329067990213
 21
460.7258100431911
 31
0.0
  0
LINE
  5
1C0
  8
1_5_____
  6
CONTINUOUS
 62
     1
 10
894.8080559902124
 20
463.4733100432004
 30
0.0
 11
897.8185519902129
 21
460.7258100431911
 31
0.0
  0
LINE
  5
1C1
  8
1_5_____
  6
CONTINUOUS
 62
     1
 10
922.5308199902136
 20
443.695842043174
 30
0.0
 11
928.4246799902137
 21
440.715130043196
 31
0.0
  0
LINE
  5
1C2
  8
1_5_____
  6
CONTINUOUS
 62
     1
 10
917.1416559902134
 20
446.7376540432019
 30
0.0
 11
922.5308199902136
 21
443.695842043174
 31
0.0
  0
LINE
  5
1C3
  8
1_5_____
  6
CONTINUOUS
 62
     1
 10
912.258707990212
 20
449.779462043176
 30
0.0
 11
917.1416559902134
 21
446.7376540432019
 31
0.0
  0
LINE
  5
1C4
  8
1_5_____
  6
CONTINUOUS
 62
     1
 10
907.8834319902131
 20
452.7601740432005
 30
0.0
 11
912.258707990212
 21
449.779462043176
 31
0.0
  0
LINE
  5
1C5
  8
1_5_____
  6
CONTINUOUS
 62
     1
 10
904.0173159902121
 20
455.6188180431757
 30
0.0
 11
907.8834319902131
 21
452.7601740432005
 31
0.0
  0
LINE
  5
1C6
  8
1_5_____
  6
CONTINUOUS
 62
     1
 10
900.6618599902138
 20
458.2944140431737
 30
0.0
 11
904.0173159902121
 21
455.6188180431757
 31
0.0
  0
LINE
  5
1C7
  8
1_5_____
  6
CONTINUOUS
 62
     1
 10
897.8185519902129
 20
460.7258100431911
 30
0.0
 11
900.6618599902138
 21
458.2944140431737
 31
0.0
  0
LINE
  5
1C8
  8
1_5_____
  6
CONTINUOUS
 62
     1
 10
974.303339990213
 20
427.530682043199
 30
0.0
 11
983.6884719902124
 21
426.6863220432108
 31
0.0
  0
LINE
  5
1C9
  8
1_5_____
  6
CONTINUOUS
 62
     1
 10
965.4124719902136
 20
428.8633860431878
 30
0.0
 11
974.303339990213
 21
427.530682043199
 31
0.0
  0
LINE
  5
1CA
  8
1_5_____
  6
CONTINUOUS
 62
     1
 10
1001.459163990213
 20
426.6863220432108
 30
0.0
 11
991.5812319902127
 21
426.3912780432297
 31
0.0
  0
LINE
  5
1CB
  8
1_5_____
  6
CONTINUOUS
 62
     1
 10
1010.844263990213
 20
427.530682043199
 30
0.0
 11
1001.459163990213
 21
426.6863220432108
 31
0.0
  0
LINE
  5
1CC
  8
1_5_____
  6
CONTINUOUS
 62
     1
 10
983.6884719902124
 20
426.6863220432108
 30
0.0
 11
993.5663999902133
 21
426.3912780432297
 31
0.0
  0
LINE
  5
1CD
  8
1_5_____
  6
CONTINUOUS
 62
     1
 10
811.3270839902127
 20
556.4733100431988
 30
0.0
 11
811.3270839902127
 21
473.4733100432004
 31
0.0
  0
ARC
  5
1CE
  8
1_5_____
  6
CONTINUOUS
 62
     1
 10
821.3270839902127
 20
556.4733100431988
 30
0.0
 40
10.0
 50
90.0
 51
180.0
  0
ARC
  5
1CF
  8
1_5_____
  6
CONTINUOUS
 62
     1
 10
821.3270839902127
 20
473.4733100432004
 30
0.0
 40
10.0
 50
180.0
 51
270.0
  0
LINE
  5
1D0
  8
1_5_____
  6
CONTINUOUS
 62
     1
 10
1186.327083990212
 20
463.4733100432004
 30
0.0
 11
821.3270839902127
 21
463.4733100432004
 31
0.0
  0
LINE
  5
1D1
  8
1_5_____
  6
CONTINUOUS
 62
     1
 10
1186.327083990212
 20
566.4733100431988
 30
0.0
 11
821.3270839902127
 21
566.4733100431988
 31
0.0
  0
LINE
  5
1D2
  8
1_5_____
  6
ISO-10______
 62
     2
 10
137.0296519902138
 20
1200.732784754709
 30
0.0
 11
137.0296519902138
 21
1125.732784754709
 31
0.0
  0
LINE
  5
1D3
  8
1_5_____
  6
ISO-10______
 62
     2
 10
174.5296519902138
 20
1163.232784754709
 30
0.0
 11
99.52965199021378
 21
1163.232784754709
 31
0.0
  0
LINE
  5
1D4
  8
1_5_____
  6
VW-01____
 62
    17
 10
956.3270839902127
 20
441.4733100432004
 30
0.0
 11
1026.327083990213
 21
441.4733100432004
 31
0.0
  0
LINE
  5
1D5
  8
1_5_____
  6
VW-01____
 62
    17
 10
1014.327083990213
 20
429.1314340431975
 30
0.0
 11
1014.327083990213
 21
416.4733100432004
 31
0.0
  0
LINE
  5
1D6
  8
1_5_____
  6
VW-01____
 62
    17
 10
968.2214439902133
 20
429.1446860431727
 30
0.0
 11
968.2214439902133
 21
416.4733100432004
 31
0.0
  0
ARC
  5
1D7
  8
1_5_____
  6
VW-01____
 62
    17
 10
987.8004199902132
 20
570.5213340431935
 30
0.0
 40
132.8305839999992
 50
248.4048619999999
 51
256.2937889999984
  0
ARC
  5
1D8
  8
1_5_____
  6
VW-01____
 62
    17
 10
1043.145399990212
 20
631.4702220431777
 30
0.0
 40
214.2663519999976
 50
199.5366649999991
 51
225.2474809999893
  0
LINE
  5
1D9
  8
1_5_____
  6
VW-01____
 62
    17
 10
967.6460919902134
 20
431.4733100432004
 30
0.0
 11
1014.909431990213
 21
431.4733100432004
 31
0.0
  0
LINE
  5
1DA
  8
1_5_____
  6
CONTINUOUS
 62
     1
 10
8.89757199021301
 20
426.6863220432108
 30
0.0
 11
19.02965199021378
 21
426.3836860431857
 31
0.0
  0
LINE
  5
1DB
  8
1_5_____
  6
CONTINUOUS
 62
     1
 10
-9.378368009786527
 20
428.8633860431878
 30
0.0
 11
-0.4875280097865016
 21
427.530682043199
 31
0.0
  0
LINE
  5
1DC
  8
1_5_____
  6
CONTINUOUS
 62
     1
 10
-0.4875280097865016
 20
427.530682043199
 30
0.0
 11
8.89757199021301
 21
426.6863220432108
 31
0.0
  0
LINE
  5
1DD
  8
1_5_____
  6
CONTINUOUS
 62
     1
 10
19.02965199021378
 20
416.4733100432004
 30
0.0
 11
-18.94086800978653
 21
416.4733100432004
 31
0.0
  0
LINE
  5
1DE
  8
1_5_____
  6
CONTINUOUS
 62
     1
 10
-79.98286400978645
 20
463.4733100432004
 30
0.0
 11
-76.9723320097878
 21
460.7258100431911
 31
0.0
  0
LINE
  5
1DF
  8
1_5_____
  6
CONTINUOUS
 62
     1
 10
-74.12900800978719
 20
458.2944140431737
 30
0.0
 11
-70.77354000978698
 21
455.6188180431757
 31
0.0
  0
LINE
  5
1E0
  8
1_5_____
  6
CONTINUOUS
 62
     1
 10
-70.77354000978698
 20
455.6188180431757
 30
0.0
 11
-66.90742000978685
 21
452.7601740432005
 31
0.0
  0
LINE
  5
1E1
  8
1_5_____
  6
CONTINUOUS
 62
     1
 10
-66.90742000978685
 20
452.7601740432005
 30
0.0
 11
-62.53211600978716
 21
449.779462043176
 31
0.0
  0
LINE
  5
1E2
  8
1_5_____
  6
CONTINUOUS
 62
     1
 10
-62.53211600978716
 20
449.779462043176
 30
0.0
 11
-57.64914800978704
 21
446.7376540432019
 31
0.0
  0
LINE
  5
1E3
  8
1_5_____
  6
CONTINUOUS
 62
     1
 10
-57.64914800978704
 20
446.7376540432019
 30
0.0
 11
-52.25998800978664
 21
443.695842043174
 31
0.0
  0
LINE
  5
1E4
  8
1_5_____
  6
CONTINUOUS
 62
     1
 10
-52.25998800978664
 20
443.695842043174
 30
0.0
 11
-46.36612800978651
 21
440.715130043196
 31
0.0
  0
LINE
  5
1E5
  8
1_5_____
  6
CONTINUOUS
 62
     1
 10
-46.36612800978651
 20
440.715130043196
 30
0.0
 11
-39.96906400978742
 21
437.8564860431743
 31
0.0
  0
LINE
  5
1E6
  8
1_5_____
  6
CONTINUOUS
 62
     1
 10
-39.96906400978742
 20
437.8564860431743
 30
0.0
 11
-33.07023200978688
 21
435.1808900431763
 31
0.0
  0
LINE
  5
1E7
  8
1_5_____
  6
CONTINUOUS
 62
     1
 10
-33.07023200978688
 20
435.1808900431763
 30
0.0
 11
-25.67121200978772
 21
432.7494940432055
 31
0.0
  0
LINE
  5
1E8
  8
1_5_____
  6
CONTINUOUS
 62
     1
 10
-25.67121200978772
 20
432.7494940432055
 30
0.0
 11
-17.77341600978662
 21
430.6233340431736
 31
0.0
  0
LINE
  5
1E9
  8
1_5_____
  6
CONTINUOUS
 62
     1
 10
-17.77341600978662
 20
430.6233340431736
 30
0.0
 11
-9.378368009786527
 21
428.8633860431878
 31
0.0
  0
LINE
  5
1EA
  8
1_5_____
  6
CONTINUOUS
 62
     1
 10
-76.9723320097878
 20
460.7258100431911
 30
0.0
 11
-74.12900800978719
 21
458.2944140431737
 31
0.0
  0
LINE
  5
1EB
  8
1_5_____
  6
CONTINUOUS
 62
     1
 10
-18.94086800978653
 20
430.9376220432143
 30
0.0
 11
-18.94086800978653
 21
416.4733100432004
 31
0.0
  0
LINE
  5
1EC
  8
1_5_____
  6
CONTINUOUS
 62
     1
 10
377.5039439902135
 20
1221.189748754721
 30
0.0
 11
-344.0
 21
1221.189748754721
 31
0.0
  0
CIRCLE
  5
1ED
  8
1_5_____
  6
CONTINUOUS
 62
     1
 10
19.02965199021378
 20
1026.189748754721
 30
0.0
 40
23.0
  0
LINE
  5
1EE
  8
1_5_____
  6
CONTINUOUS
 62
     1
 10
-158.4703480097862
 20
1221.189748754721
 30
0.0
 11
196.5296519902139
 21
1221.189748754721
 31
0.0
  0
LINE
  5
1EF
  8
1_5_____
  6
CONTINUOUS
 62
     1
 10
29.16173199021318
 20
426.6863220432108
 30
0.0
 11
19.02965199021378
 21
426.3836860431857
 31
0.0
  0
LINE
  5
1F0
  8
1_5_____
  6
CONTINUOUS
 62
     1
 10
38.54683599021268
 20
427.530682043199
 30
0.0
 11
29.16173199021318
 21
426.6863220432108
 31
0.0
  0
LINE
  5
1F1
  8
1_5_____
  6
CONTINUOUS
 62
     1
 10
47.43767199021352
 20
428.8633860431878
 30
0.0
 11
38.54683599021268
 21
427.530682043199
 31
0.0
  0
LINE
  5
1F2
  8
1_5_____
  6
CONTINUOUS
 62
     1
 10
55.83272399021337
 20
430.6233340431736
 30
0.0
 11
47.43767199021352
 21
428.8633860431878
 31
0.0
  0
LINE
  5
1F3
  8
1_5_____
  6
CONTINUOUS
 62
     1
 10
63.73051999021368
 20
432.7494940432055
 30
0.0
 11
55.83272399021337
 21
430.6233340431736
 31
0.0
  0
LINE
  5
1F4
  8
1_5_____
  6
CONTINUOUS
 62
     1
 10
71.12953599021387
 20
435.1808900431763
 30
0.0
 11
63.73051999021368
 21
432.7494940432055
 31
0.0
  0
LINE
  5
1F5
  8
1_5_____
  6
CONTINUOUS
 62
     1
 10
78.02837199021337
 20
437.8564860431743
 30
0.0
 11
71.12953599021387
 21
435.1808900431763
 31
0.0
  0
LINE
  5
1F6
  8
1_5_____
  6
CONTINUOUS
 62
     1
 10
84.42543599021269
 20
440.715130043196
 30
0.0
 11
78.02837199021337
 21
437.8564860431743
 31
0.0
  0
LINE
  5
1F7
  8
1_5_____
  6
CONTINUOUS
 62
     1
 10
90.31929599021282
 20
443.695842043174
 30
0.0
 11
84.42543599021269
 21
440.715130043196
 31
0.0
  0
LINE
  5
1F8
  8
1_5_____
  6
CONTINUOUS
 62
     1
 10
95.70845599021379
 20
446.7376540432019
 30
0.0
 11
90.31929599021282
 21
443.695842043174
 31
0.0
  0
LINE
  5
1F9
  8
1_5_____
  6
CONTINUOUS
 62
     1
 10
100.5914199902134
 20
449.779462043176
 30
0.0
 11
95.70845599021379
 21
446.7376540432019
 31
0.0
  0
LINE
  5
1FA
  8
1_5_____
  6
CONTINUOUS
 62
     1
 10
104.9667279902129
 20
452.7601740432005
 30
0.0
 11
100.5914199902134
 21
449.779462043176
 31
0.0
  0
LINE
  5
1FB
  8
1_5_____
  6
CONTINUOUS
 62
     1
 10
108.8328439902132
 20
455.6188180431757
 30
0.0
 11
104.9667279902129
 21
452.7601740432005
 31
0.0
  0
LINE
  5
1FC
  8
1_5_____
  6
CONTINUOUS
 62
     1
 10
112.1883159902133
 20
458.2944140431737
 30
0.0
 11
108.8328439902132
 21
455.6188180431757
 31
0.0
  0
LINE
  5
1FD
  8
1_5_____
  6
CONTINUOUS
 62
     1
 10
115.0316359902132
 20
460.7258100431911
 30
0.0
 11
112.1883159902133
 21
458.2944140431737
 31
0.0
  0
LINE
  5
1FE
  8
1_5_____
  6
CONTINUOUS
 62
     1
 10
118.0421719902126
 20
463.4733100432004
 30
0.0
 11
115.0316359902132
 21
460.7258100431911
 31
0.0
  0
LINE
  5
1FF
  8
1_5_____
  6
CONTINUOUS
 62
     1
 10
57.00017199021352
 20
430.9376220432143
 30
0.0
 11
57.00017199021352
 21
416.4733100432004
 31
0.0
  0
LINE
  5
200
  8
1_5_____
  6
CONTINUOUS
 62
     1
 10
19.02965199021378
 20
416.4733100432004
 30
0.0
 11
57.00017199021352
 21
416.4733100432004
 31
0.0
  0
CIRCLE
  5
201
  8
1_5_____
  6
CONTINUOUS
 62
     1
 10
19.02965199021378
 20
1021.337864754717
 30
0.0
 40
147.5000000000001
  0
LINE
  5
202
  8
1_5_____
  6
ISO-10______
 62
     2
 10
19.02965199021378
 20
591.4733100431988
 30
0.0
 11
19.02965199021378
 21
391.4733100432004
 31
0.0
  0
LINE
  5
203
  8
1_5_____
  6
CONTINUOUS
 62
     1
 10
-150.0599680097864
 20
463.4733100432004
 30
0.0
 11
19.02965199021378
 21
463.4733100432004
 31
0.0
  0
LINE
  5
204
  8
1_5_____
  6
CONTINUOUS
 62
     1
 10
-142.919972009787
 20
566.4733100431988
 30
0.0
 11
180.9792799902131
 21
566.4733100431988
 31
0.0
  0
ARC
  5
205
  8
1_5_____
  6
CONTINUOUS
 62
     1
 10
-142.919972009787
 20
556.4733100431988
 30
0.0
 40
10.0
 50
90.0
 51
175.0832909999479
  0
ARC
  5
206
  8
1_5_____
  6
VW-01____
 62
    17
 10
122.0296519902138
 20
511.4733100432006
 30
0.0
 40
10.0
 50
270.0
 51
90.0
  0
ARC
  5
207
  8
1_5_____
  6
VW-01____
 62
    17
 10
116.0296519902138
 20
511.4733100432006
 30
0.0
 40
9.999999999999545
 50
90.0
 51
270.0
  0
LINE
  5
208
  8
1_5_____
  6
VW-01____
 62
    17
 10
116.0296519902138
 20
521.4733100432002
 30
0.0
 11
122.0296519902138
 21
521.4733100432002
 31
0.0
  0
LINE
  5
209
  8
1_5_____
  6
VW-01____
 62
    17
 10
116.0296519902138
 20
501.4733100432006
 30
0.0
 11
122.0296519902138
 21
501.4733100432006
 31
0.0
  0
LINE
  5
20A
  8
1_5_____
  6
VW-01____
 62
    17
 10
-77.97034800978622
 20
501.4733100432006
 30
0.0
 11
-83.97034800978622
 21
501.4733100432006
 31
0.0
  0
LINE
  5
20B
  8
1_5_____
  6
VW-01____
 62
    17
 10
-77.97034800978622
 20
521.4733100432002
 30
0.0
 11
-83.97034800978622
 21
521.4733100432002
 31
0.0
  0
ARC
  5
20C
  8
1_5_____
  6
VW-01____
 62
    17
 10
-77.97034800978622
 20
511.4733100432006
 30
0.0
 40
10.0
 50
270.0
 51
90.0
  0
ARC
  5
20D
  8
1_5_____
  6
VW-01____
 62
    17
 10
-83.97034800978622
 20
511.4733100432006
 30
0.0
 40
9.999999999999545
 50
90.0
 51
270.0
  0
LINE
  5
20E
  8
1_5_____
  6
ISO-10______
 62
     2
 10
96.02965199021355
 20
511.4733100432006
 30
0.0
 11
142.0296519902138
 21
511.4733100432006
 31
0.0
  0
LINE
  5
20F
  8
1_5_____
  6
ISO-10______
 62
     2
 10
-103.9703480097862
 20
511.4733100432006
 30
0.0
 11
-57.97034800978622
 21
511.4733100432006
 31
0.0
  0
LINE
  5
210
  8
1_5_____
  6
ISO-10______
 62
     2
 10
-80.97034800978622
 20
531.4733100431997
 30
0.0
 11
-80.97034800978622
 21
491.4733100432004
 31
0.0
  0
LINE
  5
211
  8
1_5_____
  6
ISO-10______
 62
     2
 10
119.0296519902138
 20
531.4733100431997
 30
0.0
 11
119.0296519902138
 21
491.4733100432004
 31
0.0
  0
CIRCLE
  5
212
  8
1_5_____
  6
CONTINUOUS
 62
     1
 10
137.0296519902138
 20
1163.232784754709
 30
0.0
 40
17.5
  0
CIRCLE
  5
213
  8
1_5_____
  6
CONTINUOUS
 62
     1
 10
137.0296519902138
 20
1163.232784754709
 30
0.0
 40
17.5
  0
LINE
  5
214
  8
1_5_____
  6
CONTINUOUS
 62
     1
 10
196.5296519902139
 20
1021.337864754717
 30
0.0
 11
196.5296519902139
 21
1221.189748754721
 31
0.0
  0
LINE
  5
215
  8
1_5_____
  6
CONTINUOUS
 62
     1
 10
-158.4703480097862
 20
1021.337864754717
 30
0.0
 11
-158.4703480097862
 21
1221.189748754721
 31
0.0
  0
ARC
  5
216
  8
1_5_____
  6
CONTINUOUS
 62
     1
 10
19.02965199021378
 20
1023.689748754721
 30
0.0
 40
177.5
 50
180.0
 51
0.0
  0
LINE
  5
217
  8
1_5_____
  6
ISO-10______
 62
     2
 10
67.02965199021378
 20
1026.189748754721
 30
0.0
 11
-28.97034800978622
 21
1026.189748754721
 31
0.0
  0
LINE
  5
218
  8
1_5_____
  6
CONTINUOUS
 62
     1
 10
-164.4703440097876
 20
1221.189748754721
 30
0.0
 11
-235.9669560097875
 21
1221.189748754721
 31
0.0
  0
LINE
  5
219
  8
1_5_____
  6
CONTINUOUS
 62
     1
 10
-164.4703600097866
 20
1221.189748754721
 30
0.0
 11
-198.1824720097868
 21
1221.189748754721
 31
0.0
  0
LINE
  5
21A
  8
1_5_____
  6
CONTINUOUS
 62
     1
 10
202.5296439902133
 20
1221.189748754721
 30
0.0
 11
311.974147990214
 21
1221.189748754721
 31
0.0
  0
ARC
  5
21B
  8
1_5_____
  6
CONTINUOUS
 62
     1
 10
-148.470348009786
 20
473.4733100432004
 30
0.0
 40
9.99999999999905
 50
176.1742140001257
 51
270.0
  0
LINE
  5
21C
  8
1_5_____
  6
CONTINUOUS
 62
     1
 10
-152.8976880097873
 20
557.1405380431813
 30
0.0
 11
-158.4480600097861
 21
474.1405380431829
 31
0.0
  0
LINE
  5
21D
  8
1_5_____
  6
CONTINUOUS
 62
     1
 10
188.1192719902134
 20
463.4733100432004
 30
0.0
 11
19.02965199021378
 21
463.4733100432004
 31
0.0
  0
LINE
  5
21E
  8
1_5_____
  6
CONTINUOUS
 62
     1
 10
190.9569959902136
 20
557.1405380431813
 30
0.0
 11
196.5073679902122
 21
474.1405380431829
 31
0.0
  0
ARC
  5
21F
  8
1_5_____
  6
CONTINUOUS
 62
     1
 10
186.5296519902139
 20
473.4733100432004
 30
0.0
 40
10.0
 50
270.0
 51
3.825785999873971
  0
ARC
  5
220
  8
1_5_____
  6
CONTINUOUS
 62
     1
 10
180.9792799902131
 20
556.4733100431988
 30
0.0
 40
10.00000000000048
 50
4.916709000051847
 51
90.00000000000001
  0
LINE
  5
221
  8
1_5_____
  6
ISO-10______
 62
     2
 10
19.02965199021378
 20
1246.189748754721
 30
0.0
 11
19.02965199021378
 21
821.1897487547208
 31
0.0
  0
TEXT
  5
222
  8
1_5_____
 62
     1
 10
-343.2585687382298
 20
1228.648524514392
 30
0.0
 40
9.292570891203704
  1
▽ＷＬ
  7
YUGOTHIC_MEDIUM
 11
-343.2585687382298
 21
1233.294809959994
 31
0.0
 73
     2
  0
TEXT
  5
223
  8
1_5_____
 62
     1
 10
1191.479166666667
 20
613.1801034432868
 30
0.0
 40
9.292570891203704
  1
\U+25C1ＷＬ
  7
YUGOTHIC_MEDIUM
 11
1191.479166666667
 21
617.8263888888887
 31
0.0
 73
     2
  0
DIMENSION
  5
224
  8
1_5__
  6
CONTINUOUS
 62
    17
  2
*D3
 10
-280.9703480097862
 20
1221.189748754721
 30
0.0
 11
-286.3303885188593
 21
1033.689748754721
 31
0.0
 70
    32
  3
TOOLBOX
 13
19.02965199021378
 23
846.1897487547208
 33
0.0
 14
19.02965199021378
 24
1221.189748754721
 34
0.0
 50
-90.0
  0
DIMENSION
  5
225
  8
1_5__
  6
CONTINUOUS
 62
    17
  2
*D4
 10
346.5296519902139
 20
1221.189748754721
 30
0.0
 11
341.1696114811408
 21
1123.689748754721
 31
0.0
 70
    32
  3
TOOLBOX
 13
67.02965199021378
 23
1026.189748754721
 33
0.0
 14
196.5296519902139
 24
1221.189748754721
 34
0.0
 50
-90.0
  0
DIMENSION
  5
226
  8
1_5__
  6
CONTINUOUS
 62
    17
  2
*D5
 10
730.2498359980425
 20
566.4733100431988
 30
0.0
 11
724.8897954889695
 21
503.9733100431996
 31
0.0
 70
    32
  3
TOOLBOX
 13
956.3270839902127
 23
441.4733100432004
 33
0.0
 14
821.3270839902127
 24
566.4733100431988
 34
0.0
 50
-90.0
  0
DIMENSION
  5
227
  8
1_5__
  6
CONTINUOUS
 62
    17
  2
*D6
 10
-3.970348009786221
 20
926.1897487547208
 30
0.0
 11
19.02965199021378
 21
931.5497892637937
 31
0.0
 70
    32
  3
TOOLBOX
 13
42.02965199021378
 23
1026.189748754721
 33
0.0
 14
-3.970348009786221
 24
1026.189748754721
 34
0.0
  0
DIMENSION
  5
228
  8
1_5__
  6
CONTINUOUS
 62
    17
  2
*D7
 10
119.5296519902138
 20
1098.866118087856
 30
0.0
 11
86.36222215493524
 21
1098.866118087856
 31
0.0
 70
   160
  3
TOOLBOX
 13
154.5296519902138
 23
1163.232784754709
 33
0.0
 14
119.5296519902138
 24
1163.232784754709
 34
0.0
  0
DIMENSION
  5
229
  8
1_5__
  6
CONTINUOUS
 62
    17
  2
*D8
 10
137.0296519902138
 20
1275.732784754709
 30
0.0
 11
78.02965199021378
 21
1281.092825263782
 31
0.0
 70
    32
  3
TOOLBOX
 13
19.02965199021378
 23
1200.732784754709
 33
0.0
 14
137.0296519902138
 24
1200.732784754709
 34
0.0
  0
DIMENSION
  5
22A
  8
1_5__
  6
CONTINUOUS
 62
    17
  2
*D9
 10
284.6130219902138
 20
1221.189748754721
 30
0.0
 11
279.2529814811408
 21
1192.211266754715
 31
0.0
 70
    32
  3
TOOLBOX
 13
174.5296519902138
 23
1163.232784754709
 33
0.0
 14
197.1279579926602
 24
1221.189748754721
 34
0.0
 50
-90.0
  0
DIMENSION
  5
22B
  8
1_5__
  6
CONTINUOUS
 62
    17
  2
*D10
 10
-158.4703480097862
 20
1321.189748754721
 30
0.0
 11
19.02965199021384
 21
1326.549789263794
 31
0.0
 70
    32
  3
TOOLBOX
 13
196.5296519902139
 23
1221.189748754721
 33
0.0
 14
-158.4703480097862
 24
1221.189748754721
 34
0.0
  0
DIMENSION
  5
22C
  8
1_5__
  6
CONTINUOUS
 62
    17
  2
*D11
 10
-230.9703480097862
 20
1168.837864754717
 30
0.0
 11
-236.3303885188593
 21
1021.337864754717
 31
0.0
 70
    32
  3
TOOLBOX
 13
19.02965199021378
 23
873.8378647547174
 33
0.0
 14
19.02965199021378
 24
1168.837864754717
 34
0.0
 50
-90.0
  0
DIMENSION
  5
22D
  8
1_5__
  6
CONTINUOUS
 62
    17
  2
*D12
 10
-80.97034800978622
 20
681.4733100432
 30
0.0
 11
19.02965199021378
 21
686.8333505522729
 31
0.0
 70
    32
  3
TOOLBOX
 13
119.0296519902138
 23
531.4733100431997
 33
0.0
 14
-80.97034800978622
 24
531.4733100431997
 34
0.0
  0
DIMENSION
  5
22E
  8
1_5__
  6
CONTINUOUS
 62
    17
  2
*D13
 10
-212.919972009787
 20
566.4733100431988
 30
0.0
 11
-218.28001251886
 21
514.9733100432002
 31
0.0
 70
    32
  3
TOOLBOX
 13
-148.470348009786
 23
463.4733100432015
 33
0.0
 14
-142.919972009787
 24
566.4733100431988
 34
0.0
 50
-90.0
  0
DIMENSION
  5
22F
  8
1_5__
  6
CONTINUOUS
 62
    17
  2
*D14
 10
-282.919972009787
 20
566.4733100431988
 30
0.0
 11
-288.28001251886
 21
491.4733100431996
 31
0.0
 70
    32
  3
TOOLBOX
 13
-18.94086800978653
 23
416.4733100432004
 33
0.0
 14
-142.919972009787
 24
566.4733100431988
 34
0.0
 50
-90.0
  0
TEXT
  5
230
  8
1_5__-1
 62
     1
 10
-501.7643438888883
 20
175.3040796832711
 30
0.0
 40
10.62008101851852
  1
※1　（　）内寸法は参考寸法である。 
  7
YUGOTHIC_MEDIUM
 11
-501.7643438888883
 21
172.2697708208373
 31
0.0
 73
     1
  0
TEXT
  5
231
  8
1_5__-1
 62
     1
 10
-501.7643438888883
 20
154.1374130166044
 30
0.0
 40
10.62008101851852
  1
※２　容量4.5L・質量8ｋｇ 
  7
YUGOTHIC_MEDIUM
 11
-501.7643438888883
 21
151.1031041541705
 31
0.0
 73
     1
  0
TEXT
  5
232
  8
1_5__-1
 62
     1
 10
-501.7643438888883
 20
132.9707463499379
 30
0.0
 40
10.62008101851852
  1
※３　壁掛専用 
  7
YUGOTHIC_MEDIUM
 11
-501.7643438888883
 21
129.936437487504
 31
0.0
 73
     1
  0
TEXT
  5
233
  8
1_5__-1
 62
     1
 10
-501.7643438888883
 20
111.8040796832711
 30
0.0
 40
10.62008101851852
  1
※４　製品取付下地は、製品の使用に十分耐えられるような構造、材質を準備してください。
  7
YUGOTHIC_MEDIUM
 11
-501.7643438888883
 21
108.7697708208373
 31
0.0
 73
     1
  0
POLYLINE
  5
234
  8
1_5__-1
  6
CONTINUOUS
 62
    17
 66
     1
 10
0.0
 20
0.0
 30
0.0
 70
   129
  0
VERTEX
  5
235
  8
1_5__-1
  6
CONTINUOUS
 62
    17
 10
677.3000000000002
 20
1412.315000000001
 30
0.0
  0
VERTEX
  5
236
  8
1_5__-1
  6
CONTINUOUS
 62
    17
 10
1477.3
 20
1412.315000000001
 30
0.0
  0
VERTEX
  5
237
  8
1_5__-1
  6
CONTINUOUS
 62
    17
 10
1477.3
 20
812.3150000000005
 30
0.0
  0
VERTEX
  5
238
  8
1_5__-1
  6
CONTINUOUS
 62
    17
 10
677.3000000000002
 20
812.3150000000005
 30
0.0
  0
SEQEND
  5
239
  8
1_5__-1
  6
CONTINUOUS
 62
    17
  0
TEXT
  5
23A
  8
1_5__-1
 62
     1
 10
699.0321358891064
 20
1373.688333333334
 30
0.0
 40
15.93012152777778
  1
付属品(S=1/2)
  7
YUGOTHIC_MEDIUM
 11
699.0321358891064
 21
1389.618454861112
 31
0.0
 73
     3
  0
INSERT
  5
23B
  8
1_2___
 62
    17
  2
DIMENSION
 10
0.0
 20
0.0
 30
0.0
  0
LINE
  5
23C
  8
1_2___
  6
CONTINUOUS
 62
     1
 10
814.1847222220358
 20
1140.565486122174
 30
0.0
 11
814.1847222220358
 21
1165.102876122156
 31
0.0
  0
LINE
  5
23D
  8
1_2___
  6
CONTINUOUS
 62
     1
 10
856.6847222220358
 20
1140.565486122174
 30
0.0
 11
856.6847222220358
 21
1165.102876122156
 31
0.0
  0
LINE
  5
23E
  8
1_2___
  6
CONTINUOUS
 62
     1
 10
856.6847222220358
 20
1140.565486122174
 30
0.0
 11
835.4347222220358
 21
1128.296796122177
 31
0.0
  0
LINE
  5
23F
  8
1_2___
  6
CONTINUOUS
 62
     1
 10
835.4347222220358
 20
1177.371566122183
 30
0.0
 11
814.1847222220358
 21
1165.102876122156
 31
0.0
  0
LINE
  5
240
  8
1_2___
  6
CONTINUOUS
 62
     1
 10
835.4347222220358
 20
1177.371566122183
 30
0.0
 11
856.6847222220358
 21
1165.102876122156
 31
0.0
  0
LINE
  5
241
  8
1_2___
  6
CONTINUOUS
 62
     1
 10
814.1847222220358
 20
1140.565486122174
 30
0.0
 11
835.4347222220358
 21
1128.296796122177
 31
0.0
  0
CIRCLE
  5
242
  8
1_2___
  6
CONTINUOUS
 62
     1
 10
835.4347222220358
 20
1152.834181122179
 30
0.0
 40
48.75000000000021
  0
CIRCLE
  5
243
  8
1_2___
  6
CONTINUOUS
 62
     1
 10
835.4347222220358
 20
1152.834181122179
 30
0.0
 40
12.5
  0
TEXT
  5
244
  8
1_2___
 62
     1
 10
911.0013433056158
 20
1091.192058293753
 30
0.0
 40
9.292570891203704
  1
M10
  7
YUGOTHIC_MEDIUM
 11
911.0013433056158
 21
1095.838343739355
 31
0.0
 73
     2
  0
LINE
  5
245
  8
1_2___
  6
ISO-10______
 62
     2
 10
896.6847222220359
 20
1152.834181122179
 30
0.0
 11
774.184722222036
 21
1152.834181122179
 31
0.0
  0
LINE
  5
246
  8
1_2___
  6
ISO-10______
 62
     2
 10
835.4347222220358
 20
1214.084181122179
 30
0.0
 11
835.4347222220358
 21
1091.584181122181
 31
0.0
  0
LINE
  5
247
  8
1_2___
  6
CONTINUOUS
 62
     1
 10
814.1847222220358
 20
998.8842661221465
 30
0.0
 11
856.6847222220358
 21
998.8842661221465
 31
0.0
  0
LINE
  5
248
  8
1_2___
  6
CONTINUOUS
 62
     1
 10
817.9347222220358
 20
921.3842661221465
 30
0.0
 11
852.9347222220358
 21
921.3842661221465
 31
0.0
  0
LINE
  5
249
  8
1_2___
  6
CONTINUOUS
 62
     1
 10
786.684722222036
 20
956.3842661221465
 30
0.0
 11
884.184722222036
 21
956.3842661221465
 31
0.0
  0
LINE
  5
24A
  8
1_2___
  6
CONTINUOUS
 62
     1
 10
814.1847222220358
 20
976.3842661221465
 30
0.0
 11
856.6847222220358
 21
976.3842661221465
 31
0.0
  0
LINE
  5
24B
  8
1_2___
  6
CONTINUOUS
 62
     1
 10
786.684722222036
 20
963.8842661221465
 30
0.0
 11
786.684722222036
 21
956.3842661221465
 31
0.0
  0
LINE
  5
24C
  8
1_2___
  6
CONTINUOUS
 62
     1
 10
884.184722222036
 20
963.8842661221465
 30
0.0
 11
884.184722222036
 21
956.3842661221465
 31
0.0
  0
LINE
  5
24D
  8
1_2___
  6
CONTINUOUS
 62
     1
 10
786.684722222036
 20
963.8842661221465
 30
0.0
 11
884.184722222036
 21
963.8842661221465
 31
0.0
  0
LINE
  5
24E
  8
1_2___
  6
CONTINUOUS
 62
     1
 10
814.1847222220358
 20
998.8842661221465
 30
0.0
 11
814.1847222220358
 21
976.3842661221465
 31
0.0
  0
LINE
  5
24F
  8
1_2___
  6
CONTINUOUS
 62
     1
 10
856.6847222220358
 20
998.8842661221465
 30
0.0
 11
856.6847222220358
 21
976.3842661221465
 31
0.0
  0
LINE
  5
250
  8
1_2___
  6
CONTINUOUS
 62
     1
 10
814.1847222220358
 20
976.3842661221465
 30
0.0
 11
786.684722222036
 21
963.8842661221465
 31
0.0
  0
LINE
  5
251
  8
1_2___
  6
CONTINUOUS
 62
     1
 10
856.6847222220358
 20
976.3842661221465
 30
0.0
 11
884.184722222036
 21
963.8842661221465
 31
0.0
  0
LINE
  5
252
  8
1_2___
  6
CONTINUOUS
 62
     1
 10
852.9347222220358
 20
956.3842661221465
 30
0.0
 11
852.9347222220358
 21
921.3842661221465
 31
0.0
  0
LINE
  5
253
  8
1_2___
  6
CONTINUOUS
 62
     1
 10
817.9347222220358
 20
956.3842661221465
 30
0.0
 11
817.9347222220358
 21
921.3842661221465
 31
0.0
  0
LINE
  5
254
  8
1_2___
  6
ISO-10______
 62
     2
 10
835.4347222220358
 20
1011.384266122147
 30
0.0
 11
835.4347222220358
 21
908.8842661221465
 31
0.0
  0
LINE
  5
255
  8
1_2___
  6
CONTINUOUS
 62
     1
 10
835.4347222220358
 20
998.8842661221465
 30
0.0
 11
835.4347222220358
 21
976.3842661221465
 31
0.0
  0
LINE
  5
256
  8
1_2___
  6
CONTINUOUS
 62
     1
 10
1060.167362222036
 20
1220.473341122171
 30
0.0
 11
1081.107362222036
 21
1220.473341122171
 31
0.0
  0
LINE
  5
257
  8
1_2___
  6
ISO-10______
 62
     2
 10
1070.637362222036
 20
957.9733411221728
 30
0.0
 11
1070.637362222036
 21
1232.973341122171
 31
0.0
  0
LINE
  5
258
  8
1_2___
  6
CONTINUOUS
 62
     1
 10
1060.637362222036
 20
1120.473341122172
 30
0.0
 11
1080.637362222036
 21
1120.473341122172
 31
0.0
  0
LINE
  5
259
  8
1_2___
  6
CONTINUOUS
 62
     1
 10
1061.262362222036
 20
996.8333511222054
 30
0.0
 11
1061.262362222036
 21
1120.473341122172
 31
0.0
  0
LINE
  5
25A
  8
1_2___
  6
CONTINUOUS
 62
     1
 10
1080.012362222036
 20
996.8333511222054
 30
0.0
 11
1080.012362222036
 21
1120.473341122172
 31
0.0
  0
LINE
  5
25B
  8
1_2___
  6
CONTINUOUS
 62
     1
 10
1061.739897222036
 20
994.1999261221977
 30
0.0
 11
1070.637362222036
 21
970.4733411221728
 31
0.0
  0
LINE
  5
25C
  8
1_2___
  6
CONTINUOUS
 62
     1
 10
1070.637362222036
 20
970.4733411221728
 30
0.0
 11
1079.534832222037
 21
994.1999261221977
 31
0.0
  0
ARC
  5
25D
  8
1_2___
  6
CONTINUOUS
 62
     1
 10
1068.762362222036
 20
996.8333511222054
 30
0.0
 40
7.5
 50
180.0
 51
200.5560450002059
  0
ARC
  5
25E
  8
1_2___
  6
CONTINUOUS
 62
     1
 10
1072.512362222036
 20
996.8333511222054
 30
0.0
 40
7.500000000008794
 50
339.4439549998193
 51
0.0
  0
LINE
  5
25F
  8
1_2___
  6
CONTINUOUS
 62
     1
 10
1070.637362222036
 20
1120.473341122172
 30
0.0
 11
1059.387362222036
 21
1116.37867612216
 31
0.0
  0
LINE
  5
260
  8
1_2___
  6
CONTINUOUS
 62
     1
 10
1059.387362222036
 20
1116.37867612216
 30
0.0
 11
1081.887362222036
 21
1108.189346122196
 31
0.0
  0
LINE
  5
261
  8
1_2___
  6
CONTINUOUS
 62
     1
 10
1081.887362222036
 20
1108.189346122196
 30
0.0
 11
1059.387362222036
 21
1100.000016122173
 31
0.0
  0
LINE
  5
262
  8
1_2___
  6
CONTINUOUS
 62
     1
 10
1059.387362222036
 20
1100.000016122173
 30
0.0
 11
1081.887362222036
 21
1091.810686122209
 31
0.0
  0
LINE
  5
263
  8
1_2___
  6
CONTINUOUS
 62
     1
 10
1081.887362222036
 20
1091.810686122209
 30
0.0
 11
1059.387362222036
 21
1083.621356122186
 31
0.0
  0
LINE
  5
264
  8
1_2___
  6
CONTINUOUS
 62
     1
 10
1059.387362222036
 20
1083.621356122186
 30
0.0
 11
1081.887362222036
 21
1075.432026122163
 31
0.0
  0
LINE
  5
265
  8
1_2___
  6
CONTINUOUS
 62
     1
 10
1081.887362222036
 20
1075.432026122163
 30
0.0
 11
1059.387362222036
 21
1067.242696122169
 31
0.0
  0
LINE
  5
266
  8
1_2___
  6
CONTINUOUS
 62
     1
 10
1059.387362222036
 20
1067.242696122169
 30
0.0
 11
1081.887362222036
 21
1059.053366122147
 31
0.0
  0
LINE
  5
267
  8
1_2___
  6
CONTINUOUS
 62
     1
 10
1081.887362222036
 20
1059.053366122147
 30
0.0
 11
1059.387362222036
 21
1050.864036122181
 31
0.0
  0
LINE
  5
268
  8
1_2___
  6
CONTINUOUS
 62
     1
 10
1059.387362222036
 20
1050.864036122181
 30
0.0
 11
1081.887362222036
 21
1042.674706122158
 31
0.0
  0
LINE
  5
269
  8
1_2___
  6
CONTINUOUS
 62
     1
 10
1081.887362222036
 20
1042.674706122158
 30
0.0
 11
1059.387362222036
 21
1034.485376122135
 31
0.0
  0
LINE
  5
26A
  8
1_2___
  6
CONTINUOUS
 62
     1
 10
1059.387362222036
 20
1034.485376122135
 30
0.0
 11
1081.887362222036
 21
1026.296046122171
 31
0.0
  0
LINE
  5
26B
  8
1_2___
  6
CONTINUOUS
 62
     1
 10
1081.887362222036
 20
1026.296046122171
 30
0.0
 11
1059.387362222036
 21
1018.106716122148
 31
0.0
  0
LINE
  5
26C
  8
1_2___
  6
CONTINUOUS
 62
     1
 10
1059.387362222036
 20
1018.106716122148
 30
0.0
 11
1081.887362222036
 21
1009.917386122155
 31
0.0
  0
LINE
  5
26D
  8
1_2___
  6
CONTINUOUS
 62
     1
 10
1081.887362222036
 20
1009.917386122155
 30
0.0
 11
1059.387362222036
 21
1001.728056122189
 31
0.0
  0
LINE
  5
26E
  8
1_2___
  6
CONTINUOUS
 62
     1
 10
1059.387362222036
 20
1001.728056122189
 30
0.0
 11
1081.887362222036
 21
993.5387261221663
 31
0.0
  0
LINE
  5
26F
  8
1_2___
  6
CONTINUOUS
 62
     1
 10
1081.887362222036
 20
993.5387261221663
 30
0.0
 11
1059.387362222036
 21
985.349396122202
 31
0.0
  0
LINE
  5
270
  8
1_2___
  6
CONTINUOUS
 62
     1
 10
1059.387362222036
 20
985.349396122202
 30
0.0
 11
1076.122842222035
 21
979.2581761221422
 31
0.0
  0
LINE
  5
271
  8
1_2___
  6
CONTINUOUS
 62
     1
 10
1076.122842222035
 20
979.2581761221422
 30
0.0
 11
1065.771112222036
 21
975.490456122167
 31
0.0
  0
LINE
  5
272
  8
1_2___
  6
CONTINUOUS
 62
     1
 10
1065.771112222036
 20
975.490456122167
 30
0.0
 11
1070.637362222036
 21
970.4733411221728
 31
0.0
  0
LINE
  5
273
  8
1_2___
  6
CONTINUOUS
 62
     1
 10
1058.137362222036
 20
1150.473341122172
 30
0.0
 11
1083.137362222036
 21
1150.473341122172
 31
0.0
  0
LINE
  5
274
  8
1_2___
  6
CONTINUOUS
 62
     1
 10
1058.137362222036
 20
1150.473341122172
 30
0.0
 11
1058.137362222036
 21
1218.443341122143
 31
0.0
  0
LINE
  5
275
  8
1_2___
  6
CONTINUOUS
 62
     1
 10
1060.637362222036
 20
1120.473341122172
 30
0.0
 11
1060.637362222036
 21
1150.473341122172
 31
0.0
  0
LINE
  5
276
  8
1_2___
  6
CONTINUOUS
 62
     1
 10
1080.637362222036
 20
1120.473341122172
 30
0.0
 11
1080.637362222036
 21
1150.473341122172
 31
0.0
  0
LINE
  5
277
  8
1_2___
  6
CONTINUOUS
 62
     1
 10
1060.167362222036
 20
1153.989406122174
 30
0.0
 11
1060.167362222036
 21
1220.473341122171
 31
0.0
  0
LINE
  5
278
  8
1_2___
  6
CONTINUOUS
 62
     1
 10
1058.137362222036
 20
1150.473341122172
 30
0.0
 11
1060.167362222036
 21
1153.989406122174
 31
0.0
  0
LINE
  5
279
  8
1_2___
  6
CONTINUOUS
 62
     1
 10
1060.167362222036
 20
1220.473341122171
 30
0.0
 11
1058.137362222036
 21
1218.443341122143
 31
0.0
  0
LINE
  5
27A
  8
1_2___
  6
CONTINUOUS
 62
     1
 10
1058.137362222036
 20
1153.989406122174
 30
0.0
 11
1083.137362222036
 21
1153.989406122174
 31
0.0
  0
LINE
  5
27B
  8
1_2___
  6
CONTINUOUS
 62
     1
 10
1058.137362222036
 20
1218.443341122143
 30
0.0
 11
1083.137362222036
 21
1218.443341122143
 31
0.0
  0
LINE
  5
27C
  8
1_2___
  6
CONTINUOUS
 62
     1
 10
1081.107362222036
 20
1220.473341122171
 30
0.0
 11
1083.137362222036
 21
1218.443341122143
 31
0.0
  0
LINE
  5
27D
  8
1_2___
  6
CONTINUOUS
 62
     1
 10
1083.137362222036
 20
1150.473341122172
 30
0.0
 11
1083.137362222036
 21
1218.443341122143
 31
0.0
  0
LINE
  5
27E
  8
1_2___
  6
CONTINUOUS
 62
     1
 10
1081.107362222036
 20
1153.989406122174
 30
0.0
 11
1081.107362222036
 21
1220.473341122171
 31
0.0
  0
LINE
  5
27F
  8
1_2___
  6
CONTINUOUS
 62
     1
 10
1083.137362222036
 20
1150.473341122172
 30
0.0
 11
1081.107362222036
 21
1153.989406122174
 31
0.0
  0
TEXT
  5
280
  8
1_2___
 62
     1
 10
1014.537442222036
 20
1283.334581943632
 30
0.0
 40
11.06258439429013
  1
ハンガーボルト（×2）
  7
YUGOTHIC_MEDIUM
 11
1014.537442222036
 21
1294.397166337922
 31
0.0
 73
     3
  0
TEXT
  5
281
  8
1_2___
 62
     1
 10
788.4631772220366
 20
1284.832861943603
 30
0.0
 40
11.06258439429013
  1
ナット（×2）
  7
YUGOTHIC_MEDIUM
 11
788.4631772220366
 21
1295.895446337893
 31
0.0
 73
     3
  0
LINE
  5
282
  8
1_2___
  6
CONTINUOUS
 62
     1
 10
1285.274022011259
 20
1006.000876122174
 30
0.0
 11
1294.024022011259
 21
1006.000876122174
 31
0.0
  0
LINE
  5
283
  8
1_2___
  6
CONTINUOUS
 62
     1
 10
1312.149022011259
 20
1196.000876122172
 30
0.0
 11
1312.149022011259
 21
1127.250876122173
 31
0.0
  0
LINE
  5
284
  8
1_2___
  6
CONTINUOUS
 62
     1
 10
1305.274022011259
 20
1006.000876122174
 30
0.0
 11
1312.149022011259
 21
1016.000876122174
 31
0.0
  0
LINE
  5
285
  8
1_2___
  6
CONTINUOUS
 62
     1
 10
1306.524022011259
 20
1028.500876122174
 30
0.0
 11
1312.149022011259
 21
1028.500876122174
 31
0.0
  0
LINE
  5
286
  8
1_2___
  6
CONTINUOUS
 62
     1
 10
1306.524022011259
 20
1036.000876122174
 30
0.0
 11
1306.524022011259
 21
1028.500876122174
 31
0.0
  0
LINE
  5
287
  8
1_2___
  6
CONTINUOUS
 62
     1
 10
1306.524022011259
 20
1036.000876122174
 30
0.0
 11
1312.149022011259
 21
1048.500876122174
 31
0.0
  0
LINE
  5
288
  8
1_2___
  6
CONTINUOUS
 62
     1
 10
1312.149022011259
 20
1028.500876122174
 30
0.0
 11
1312.149022011259
 21
1016.000876122174
 31
0.0
  0
LINE
  5
289
  8
1_2___
  6
CONTINUOUS
 62
     1
 10
1306.524022011259
 20
1054.750876122174
 30
0.0
 11
1312.149022011259
 21
1054.750876122174
 31
0.0
  0
LINE
  5
28A
  8
1_2___
  6
CONTINUOUS
 62
     1
 10
1306.524022011259
 20
1062.250876122174
 30
0.0
 11
1312.149022011259
 21
1074.750876122174
 31
0.0
  0
LINE
  5
28B
  8
1_2___
  6
CONTINUOUS
 62
     1
 10
1306.524022011259
 20
1062.250876122174
 30
0.0
 11
1306.524022011259
 21
1054.750876122174
 31
0.0
  0
LINE
  5
28C
  8
1_2___
  6
CONTINUOUS
 62
     1
 10
1306.524022011259
 20
1081.000876122174
 30
0.0
 11
1312.149022011259
 21
1081.000876122174
 31
0.0
  0
LINE
  5
28D
  8
1_2___
  6
CONTINUOUS
 62
     1
 10
1306.524022011259
 20
1088.500876122174
 30
0.0
 11
1312.149022011259
 21
1101.000876122174
 31
0.0
  0
LINE
  5
28E
  8
1_2___
  6
CONTINUOUS
 62
     1
 10
1306.524022011259
 20
1088.500876122174
 30
0.0
 11
1306.524022011259
 21
1081.000876122174
 31
0.0
  0
LINE
  5
28F
  8
1_2___
  6
CONTINUOUS
 62
     1
 10
1306.524022011259
 20
1107.250876122173
 30
0.0
 11
1312.149022011259
 21
1107.250876122173
 31
0.0
  0
LINE
  5
290
  8
1_2___
  6
CONTINUOUS
 62
     1
 10
1306.524022011259
 20
1114.750876122173
 30
0.0
 11
1312.149022011259
 21
1127.250876122173
 31
0.0
  0
LINE
  5
291
  8
1_2___
  6
CONTINUOUS
 62
     1
 10
1306.524022011259
 20
1114.750876122173
 30
0.0
 11
1306.524022011259
 21
1107.250876122173
 31
0.0
  0
LINE
  5
292
  8
1_2___
  6
CONTINUOUS
 62
     1
 10
1312.149022011259
 20
1054.750876122174
 30
0.0
 11
1312.149022011259
 21
1048.500876122174
 31
0.0
  0
LINE
  5
293
  8
1_2___
  6
CONTINUOUS
 62
     1
 10
1312.149022011259
 20
1081.000876122174
 30
0.0
 11
1312.149022011259
 21
1074.750876122174
 31
0.0
  0
LINE
  5
294
  8
1_2___
  6
CONTINUOUS
 62
     1
 10
1312.149022011259
 20
1107.250876122173
 30
0.0
 11
1312.149022011259
 21
1101.000876122174
 31
0.0
  0
ARC
  5
295
  8
1_2___
  6
CONTINUOUS
 62
     1
 10
1383.258552011258
 20
1088.427716122145
 30
0.0
 40
78.78091500001116
 50
142.0827559999891
 51
166.1765769999643
  0
ARC
  5
296
  8
1_2___
  6
CONTINUOUS
 62
     1
 10
1383.258552011258
 20
1088.427716122145
 30
0.0
 40
73.78091500001042
 50
142.0827559999886
 51
165.2191659999871
  0
ARC
  5
297
  8
1_2___
  6
CONTINUOUS
 62
     1
 10
1323.080602011258
 20
1135.304071122188
 30
0.0
 40
2.500000000009452
 50
322.082755999729
 51
142.0827560012876
  0
LINE
  5
298
  8
1_2___
  6
CONTINUOUS
 62
     1
 10
1308.399022011259
 20
1138.91754612215
 30
0.0
 11
1308.399022011259
 21
1118.91754612215
 31
0.0
  0
LINE
  5
299
  8
1_2___
  6
CONTINUOUS
 62
     1
 10
1312.149022011259
 20
1138.91754612215
 30
0.0
 11
1308.399022011259
 21
1138.91754612215
 31
0.0
  0
LINE
  5
29A
  8
1_2___
  6
CONTINUOUS
 62
     1
 10
1278.399022011259
 20
1196.000876122172
 30
0.0
 11
1278.399022011259
 21
1127.250876122173
 31
0.0
  0
LINE
  5
29B
  8
1_2___
  6
CONTINUOUS
 62
     1
 10
1285.274022011259
 20
1006.000876122174
 30
0.0
 11
1278.399022011259
 21
1016.000876122174
 31
0.0
  0
LINE
  5
29C
  8
1_2___
  6
CONTINUOUS
 62
     1
 10
1278.399022011259
 20
1138.91754612215
 30
0.0
 11
1282.149022011259
 21
1138.91754612215
 31
0.0
  0
LINE
  5
29D
  8
1_2___
  6
CONTINUOUS
 62
     1
 10
1282.149022011259
 20
1138.91754612215
 30
0.0
 11
1282.149022011259
 21
1118.91754612215
 31
0.0
  0
ARC
  5
29E
  8
1_2___
  6
CONTINUOUS
 62
     1
 10
1267.467437011258
 20
1135.304071122188
 30
0.0
 40
2.499999999973822
 50
37.91724399922267
 51
217.9172440007752
  0
ARC
  5
29F
  8
1_2___
  6
CONTINUOUS
 62
     1
 10
1207.289487011257
 20
1088.427716122145
 30
0.0
 40
73.78091500000686
 50
14.7808340000137
 51
37.91724400001352
  0
ARC
  5
2A0
  8
1_2___
  6
CONTINUOUS
 62
     1
 10
1207.289487011257
 20
1088.427716122145
 30
0.0
 40
78.7809150000127
 50
13.82342300003539
 51
37.91724400000972
  0
LINE
  5
2A1
  8
1_2___
  6
CONTINUOUS
 62
     1
 10
1278.399022011259
 20
1107.250876122173
 30
0.0
 11
1278.399022011259
 21
1101.000876122174
 31
0.0
  0
LINE
  5
2A2
  8
1_2___
  6
CONTINUOUS
 62
     1
 10
1278.399022011259
 20
1081.000876122174
 30
0.0
 11
1278.399022011259
 21
1074.750876122174
 31
0.0
  0
LINE
  5
2A3
  8
1_2___
  6
CONTINUOUS
 62
     1
 10
1278.399022011259
 20
1054.750876122174
 30
0.0
 11
1278.399022011259
 21
1048.500876122174
 31
0.0
  0
LINE
  5
2A4
  8
1_2___
  6
CONTINUOUS
 62
     1
 10
1284.024022011259
 20
1114.750876122173
 30
0.0
 11
1284.024022011259
 21
1107.250876122173
 31
0.0
  0
LINE
  5
2A5
  8
1_2___
  6
CONTINUOUS
 62
     1
 10
1284.024022011259
 20
1114.750876122173
 30
0.0
 11
1278.399022011259
 21
1127.250876122173
 31
0.0
  0
LINE
  5
2A6
  8
1_2___
  6
CONTINUOUS
 62
     1
 10
1284.024022011259
 20
1107.250876122173
 30
0.0
 11
1278.399022011259
 21
1107.250876122173
 31
0.0
  0
LINE
  5
2A7
  8
1_2___
  6
CONTINUOUS
 62
     1
 10
1284.024022011259
 20
1088.500876122174
 30
0.0
 11
1284.024022011259
 21
1081.000876122174
 31
0.0
  0
LINE
  5
2A8
  8
1_2___
  6
CONTINUOUS
 62
     1
 10
1284.024022011259
 20
1088.500876122174
 30
0.0
 11
1278.399022011259
 21
1101.000876122174
 31
0.0
  0
LINE
  5
2A9
  8
1_2___
  6
CONTINUOUS
 62
     1
 10
1284.024022011259
 20
1081.000876122174
 30
0.0
 11
1278.399022011259
 21
1081.000876122174
 31
0.0
  0
LINE
  5
2AA
  8
1_2___
  6
CONTINUOUS
 62
     1
 10
1284.024022011259
 20
1062.250876122174
 30
0.0
 11
1284.024022011259
 21
1054.750876122174
 31
0.0
  0
LINE
  5
2AB
  8
1_2___
  6
CONTINUOUS
 62
     1
 10
1284.024022011259
 20
1062.250876122174
 30
0.0
 11
1278.399022011259
 21
1074.750876122174
 31
0.0
  0
LINE
  5
2AC
  8
1_2___
  6
CONTINUOUS
 62
     1
 10
1284.024022011259
 20
1054.750876122174
 30
0.0
 11
1278.399022011259
 21
1054.750876122174
 31
0.0
  0
LINE
  5
2AD
  8
1_2___
  6
CONTINUOUS
 62
     1
 10
1278.399022011259
 20
1028.500876122174
 30
0.0
 11
1278.399022011259
 21
1016.000876122174
 31
0.0
  0
LINE
  5
2AE
  8
1_2___
  6
CONTINUOUS
 62
     1
 10
1284.024022011259
 20
1036.000876122174
 30
0.0
 11
1278.399022011259
 21
1048.500876122174
 31
0.0
  0
LINE
  5
2AF
  8
1_2___
  6
CONTINUOUS
 62
     1
 10
1284.024022011259
 20
1036.000876122174
 30
0.0
 11
1284.024022011259
 21
1028.500876122174
 31
0.0
  0
LINE
  5
2B0
  8
1_2___
  6
CONTINUOUS
 62
     1
 10
1284.024022011259
 20
1028.500876122174
 30
0.0
 11
1278.399022011259
 21
1028.500876122174
 31
0.0
  0
LINE
  5
2B1
  8
1_2___
  6
CONTINUOUS
 62
     1
 10
1294.024022011259
 20
1173.500876122172
 30
0.0
 11
1295.274022011259
 21
1173.500876122172
 31
0.0
  0
LINE
  5
2B2
  8
1_2___
  6
CONTINUOUS
 62
     1
 10
1296.524022011259
 20
1173.500876122172
 30
0.0
 11
1296.524022011259
 21
1006.000876122174
 31
0.0
  0
LINE
  5
2B3
  8
1_2___
  6
CONTINUOUS
 62
     1
 10
1294.024022011259
 20
1173.500876122172
 30
0.0
 11
1294.024022011259
 21
1006.000876122174
 31
0.0
  0
LINE
  5
2B4
  8
1_2___
  6
CONTINUOUS
 62
     1
 10
1296.524022011259
 20
1006.000876122174
 30
0.0
 11
1305.274022011259
 21
1006.000876122174
 31
0.0
  0
LINE
  5
2B5
  8
1_2___
  6
ISO-10______
 62
     2
 10
1295.274022011259
 20
1208.500876122172
 30
0.0
 11
1295.274022011259
 21
993.5008761221738
 31
0.0
  0
TEXT
  5
2B6
  8
1_2___
 62
     1
 10
1245.975302011259
 20
1283.334581943632
 30
0.0
 40
11.06258439429013
  1
アンカープラグS14（×2）
  7
YUGOTHIC_MEDIUM
 11
1245.975302011259
 21
1294.397166337922
 31
0.0
 73
     3
  0
LINE
  5
2B7
  8
1_2___
  6
CONTINUOUS
 62
     1
 10
1278.399022011259
 20
1196.000876122172
 30
0.0
 11
1312.149022011259
 21
1196.000876122172
 31
0.0
  0
INSERT
  5
2B8
  8
1_2___
 62
    17
  2
DIMENSION-1
 10
0.0
 20
0.0
 30
0.0
  0
INSERT
  5
2B9
  8
1_2___
 62
    17
  2
DIMENSION-2
 10
0.0
 20
0.0
 30
0.0
  0
INSERT
  5
2BA
  8
1_2___
 62
    17
  2
DIMENSION-3
 10
0.0
 20
0.0
 30
0.0
  0
INSERT
  5
2BB
  8
1_2___
 62
    17
  2
DIMENSION-4
 10
0.0
 20
0.0
 30
0.0
  0
INSERT
  5
2BC
  8
1_2___
 62
    17
  2
DIMENSION-5
 10
0.0
 20
0.0
 30
0.0
  0
INSERT
  5
2BD
  8
1_2___
 62
    17
  2
DIMENSION-6
 10
0.0
 20
0.0
 30
0.0
  0
INSERT
  5
2BE
  8
1_2___
 62
    17
  2
DIMENSION-7
 10
0.0
 20
0.0
 30
0.0
  0
LINE
  5
2BF
  8
1_2___
  6
CONTINUOUS
 62
     5
 10
835.434722222036
 20
1152.834181122179
 30
0.0
 11
874.1147869695902
 21
1085.838343739355
 31
0.0
  0
POLYLINE
  5
2C0
  8
1_2___
  6
CONTINUOUS
 62
    17
 66
     1
 10
0.0
 20
0.0
 30
0.0
 70
   129
  0
VERTEX
  5
2C1
  8
1_2___
  6
CONTINUOUS
 62
    17
 10
838.1140506031389
 20
1142.834791473742
 30
0.0
  0
VERTEX
  5
2C2
  8
1_2___
  6
CONTINUOUS
 62
    17
 10
835.434722222036
 20
1152.834181122179
 30
0.0
  0
VERTEX
  5
2C3
  8
1_2___
  6
CONTINUOUS
 62
    17
 10
842.7547834893705
 20
1145.514119854845
 30
0.0
  0
SEQEND
  5
2C4
  8
1_2___
  6
CONTINUOUS
 62
    17
  0
LINE
  5
2C5
  8
1_2___
  6
CONTINUOUS
 62
     5
 10
874.1147869695902
 20
1085.838343739355
 30
0.0
 11
940.1702478281883
 21
1085.838343739355
 31
0.0
  0
TEXT
  5
2C6
  8
1_2___
 62
     1
 10
1150.117733818183
 20
1255.814526236792
 30
0.0
 40
9.292570891203704
  1
M10
  7
YUGOTHIC_MEDIUM
 11
1150.117733818183
 21
1260.460811682394
 31
0.0
 73
     2
  0
LINE
  5
2C7
  8
1_2___
  6
CONTINUOUS
 62
     5
 10
1083.137362222036
 20
1184.458341122157
 30
0.0
 11
1121.81742696959
 21
1251.454178504982
 31
0.0
  0
POLYLINE
  5
2C8
  8
1_2___
  6
CONTINUOUS
 62
    17
 66
     1
 10
0.0
 20
0.0
 30
0.0
 70
   129
  0
VERTEX
  5
2C9
  8
1_2___
  6
CONTINUOUS
 62
    17
 10
1090.457423489371
 20
1191.778402389491
 30
0.0
  0
VERTEX
  5
2CA
  8
1_2___
  6
CONTINUOUS
 62
    17
 10
1083.137362222036
 20
1184.458341122157
 30
0.0
  0
VERTEX
  5
2CB
  8
1_2___
  6
CONTINUOUS
 62
    17
 10
1085.816690603139
 20
1194.457730770594
 30
0.0
  0
SEQEND
  5
2CC
  8
1_2___
  6
CONTINUOUS
 62
    17
  0
LINE
  5
2CD
  8
1_2___
  6
CONTINUOUS
 62
     5
 10
1121.81742696959
 20
1251.454178504982
 30
0.0
 11
1176.939365074827
 21
1251.454178504982
 31
0.0
  0
VIEWPORT
  5
2CE
 67
     1
  8
0
 10
128.5
 20
97.5
 30
0.0
 40
314.226
 41
222.18
 68
     1
 69
     1
1001
ACAD
1000
MVIEW
1002
{
1070
    16
1010
0.0
1020
0.0
1030
0.0
1010
0.0
1020
0.0
1030
1.0
1040
0.0
1040
222.18
1040
128.5
1040
97.5
1040
50.0
1040
0.0
1040
0.0
1070
     0
1070
   100
1070
     0
1070
     3
1070
     0
1070
     0
1070
     0
1070
     0
1040
0.0
1040
0.0
1040
0.0
1040
10.0
1040
10.0
1040
10.0
1040
10.0
1070
     0
1002
{
1002
}
1002
}
  0
ENDSEC
  0
EOF
