  0
SECTION
  2
HEADER
  9
$ACADVER
  1
AC1009
  9
$DWGCODEPAGE
  3
dos932
  9
$INSBASE
 10
0.0
 20
0.0
 30
0.0
  9
$EXTMIN
 10
-502.5242720359897
 20
68.06079193728237
 30
0.0
  9
$EXTMAX
 10
1555.722394630678
 20
1412.315000000001
 30
0.0
  9
$LIMMIN
 10
0.0
 20
0.0
  9
$LIMMAX
 10
12.0
 20
9.0
  9
$ORTHOMODE
 70
     0
  9
$REGENMODE
 70
     1
  9
$FILLMODE
 70
     1
  9
$QTEXTMODE
 70
     0
  9
$MIRRTEXT
 70
     1
  9
$DRAGMODE
 70
     2
  9
$LTSCALE
 40
5.0
  9
$OSMODE
 70
    37
  9
$ATTMODE
 70
     1
  9
$TEXTSIZE
 40
0.2
  9
$TRACEWID
 40
1.0
  9
$TEXTSTYLE
  7
STANDARD
  9
$CLAYER
  8
_
  9
$CELTYPE
  6
BYLAYER
  9
$CECOLOR
 62
   256
  9
$DIMSCALE
 40
1.0
  9
$DIMASZ
 40
2.2479248046875
  9
$DIMEXO
 40
7.499999972060323
  9
$DIMDLI
 40
30.00000000651926
  9
$DIMRND
 40
0.0
  9
$DIMDLE
 40
0.0
  9
$DIMEXE
 40
0.0
  9
$DIMTP
 40
0.0
  9
$DIMTM
 40
0.0
  9
$DIMTXT
 40
10.62008101851851
  9
$DIMCEN
 40
0.0
  9
$DIMTSZ
 40
0.0
  9
$DIMTOL
 70
     0
  9
$DIMLIM
 70
     0
  9
$DIMTIH
 70
     0
  9
$DIMTOH
 70
     0
  9
$DIMSE1
 70
     0
  9
$DIMSE2
 70
     0
  9
$DIMTAD
 70
     1
  9
$DIMZIN
 70
     8
  9
$DIMBLK
  1
DOT
  9
$DIMASO
 70
     1
  9
$DIMSHO
 70
     1
  9
$DIMPOST
  1
<>
  9
$DIMAPOST
  1
[]
  9
$DIMALT
 70
     0
  9
$DIMALTD
 70
     0
  9
$DIMALTF
 40
1.0
  9
$DIMLFAC
 40
1.0
  9
$DIMTOFL
 70
     1
  9
$DIMTVP
 40
0.0
  9
$DIMTIX
 70
     1
  9
$DIMSOXD
 70
     0
  9
$DIMSAH
 70
     0
  9
$DIMBLK1
  1
DOT
  9
$DIMBLK2
  1
DOT
  9
$DIMSTYLE
  2
TOOLBOX
  9
$DIMCLRD
 70
     0
  9
$DIMCLRE
 70
     0
  9
$DIMCLRT
 70
     0
  9
$DIMTFAC
 40
0.8
  9
$DIMGAP
 40
0.0499999998137355
  9
$LUNITS
 70
     2
  9
$LUPREC
 70
     2
  9
$SKETCHINC
 40
0.1
  9
$FILLETRAD
 40
0.5
  9
$AUNITS
 70
     0
  9
$AUPREC
 70
     2
  9
$MENU
  1
.
  9
$ELEVATION
 40
0.0
  9
$PELEVATION
 40
0.0
  9
$THICKNESS
 40
0.0
  9
$LIMCHECK
 70
     0
  9
$CHAMFERA
 40
0.0
  9
$CHAMFERB
 40
0.0
  9
$SKPOLY
 70
     0
  9
$TDCREATE
 40
2458916.940198472
  9
$TDUPDATE
 40
2458916.940214294
  9
$TDINDWG
 40
0.0000000116
  9
$TDUSRTIMER
 40
0.0000000116
  9
$USRTIMER
 70
     1
  9
$ANGBASE
 50
0.0
  9
$ANGDIR
 70
     0
  9
$PDMODE
 70
     1
  9
$PDSIZE
 40
-2.0
  9
$PLINEWID
 40
0.0
  9
$COORDS
 70
     1
  9
$SPLFRAME
 70
     0
  9
$SPLINETYPE
 70
     6
  9
$SPLINESEGS
 70
     8
  9
$ATTDIA
 70
     0
  9
$ATTREQ
 70
     1
  9
$HANDLING
 70
     1
  9
$HANDSEED
  5
9C9
  9
$SURFTAB1
 70
     6
  9
$SURFTAB2
 70
     6
  9
$SURFTYPE
 70
     6
  9
$SURFU
 70
     6
  9
$SURFV
 70
     6
  9
$UCSNAME
  2

  9
$UCSORG
 10
0.0
 20
0.0
 30
0.0
  9
$UCSXDIR
 10
1.0
 20
0.0
 30
0.0
  9
$UCSYDIR
 10
0.0
 20
1.0
 30
0.0
  9
$PUCSNAME
  2

  9
$PUCSORG
 10
0.0
 20
0.0
 30
0.0
  9
$PUCSXDIR
 10
1.0
 20
0.0
 30
0.0
  9
$PUCSYDIR
 10
0.0
 20
1.0
 30
0.0
  9
$USERI1
 70
     0
  9
$USERI2
 70
     0
  9
$USERI3
 70
     0
  9
$USERI4
 70
     0
  9
$USERI5
 70
     0
  9
$USERR1
 40
0.0
  9
$USERR2
 40
0.0
  9
$USERR3
 40
0.0
  9
$USERR4
 40
0.0
  9
$USERR5
 40
0.0
  9
$WORLDVIEW
 70
     1
  9
$SHADEDGE
 70
     3
  9
$SHADEDIF
 70
    70
  9
$TILEMODE
 70
     1
  9
$MAXACTVP
 70
    64
  9
$PLIMCHECK
 70
     0
  9
$PEXTMIN
 10
1.000000000000000E+20
 20
1.000000000000000E+20
 30
1.000000000000000E+20
  9
$PEXTMAX
 10
-1.000000000000000E+20
 20
-1.000000000000000E+20
 30
-1.000000000000000E+20
  9
$PLIMMIN
 10
-20.0
 20
-7.5
  9
$PLIMMAX
 10
277.0
 20
202.5
  9
$UNITMODE
 70
     0
  9
$VISRETAIN
 70
     1
  9
$PLINEGEN
 70
     0
  9
$PSLTSCALE
 70
     1
  0
ENDSEC
  0
SECTION
  2
TABLES
  0
TABLE
  2
VPORT
 70
     1
  0
VPORT
  2
*ACTIVE
 70
     0
 10
0.0
 20
0.0
 11
1.0
 21
1.0
 12
526.5990612973442
 22
740.1878959686417
 13
0.0
 23
0.0
 14
0.5
 24
0.5
 15
0.5
 25
0.5
 16
0.0
 26
0.0
 36
1.0
 17
0.0
 27
0.0
 37
0.0
 40
1344.254208062719
 41
1.531143926737581
 42
2000.0
 43
0.0
 44
0.0
 50
0.0
 51
0.0
 71
     0
 72
   100
 73
     1
 74
     3
 75
     0
 76
     0
 77
     0
 78
     0
  0
ENDTAB
  0
TABLE
  2
LTYPE
 70
    15
  0
LTYPE
  2
CONTINUOUS
 70
     0
  3
Solid line
 72
    65
 73
     0
 40
0.0
  0
LTYPE
  2
ISO-10______
 70
     0
  3

 72
    65
 73
     4
 40
4.699
 49
3.048
 49
-0.7619999999999999
 49
0.1270000000000001
 49
-0.7619999999999999
  0
LTYPE
  2
ISO-02___
 70
     0
  3

 72
    65
 73
     2
 40
3.81
 49
3.048
 49
-0.7619999999999999
  0
LTYPE
  2
ISO-07___
 70
     0
  3

 72
    65
 73
     2
 40
0.8889999999999999
 49
0.127
 49
-0.7619999999999998
  0
LTYPE
  2
ISO-04______
 70
     0
  3

 72
    65
 73
     4
 40
7.747000000000001
 49
6.095999999999999
 49
-0.7620000000000007
 49
0.1270000000000001
 49
-0.7620000000000007
  0
LTYPE
  2
DASHED
 70
     0
  3

 72
    65
 73
     2
 40
39.99999999999999
 49
24.0
 49
-16.0
  0
LTYPE
  2
1
 70
     0
  3

 72
    65
 73
     2
 40
101.60254
 49
101.6
 49
-0.0025399999999941
  0
LTYPE
  2
______-8
 70
     0
  3

 72
    65
 73
     2
 40
11.43
 49
7.619999999999999
 49
-3.809999999999999
  0
LTYPE
  2
______-7
 70
     0
  3

 72
    65
 73
     4
 40
34.28999999999999
 49
22.86
 49
-3.809999999999997
 49
3.809999999999997
 49
-3.809999999999997
  0
LTYPE
  2
______-6
 70
     0
  3

 72
    65
 73
     4
 40
7.747000000000001
 49
6.095999999999999
 49
-0.7620000000000007
 49
0.1270000000000001
 49
-0.7620000000000007
  0
LTYPE
  2
______-5
 70
     0
  3

 72
    65
 73
     2
 40
0.4
 49
0.24
 49
-0.16
  0
LTYPE
  2
______-4
 70
     0
  3

 72
    65
 73
     6
 40
2.7
 49
1.8
 49
-0.2
 49
0.2
 49
-0.1000000000000002
 49
0.2
 49
-0.2
  0
LTYPE
  2
______-3
 70
     0
  3

 72
    65
 73
     4
 40
2.4
 49
1.8
 49
-0.2
 49
0.2
 49
-0.2
  0
LTYPE
  2
______-2
 70
     0
  3

 72
    65
 73
     2
 40
38.09999999999999
 49
25.4
 49
-12.7
  0
LTYPE
  2
______-1
 70
     0
  3

 72
    65
 73
     2
 40
101.60254
 49
101.6
 49
-0.0025399999999941
  0
ENDTAB
  0
TABLE
  2
LAYER
 70
     6
  0
LAYER
  2
0
 70
     0
 62
     7
  6
CONTINUOUS
  0
LAYER
  2
_
 70
     0
 62
     7
  6
CONTINUOUS
  0
LAYER
  2
1_5_____
 70
     0
 62
     7
  6
CONTINUOUS
  0
LAYER
  2
1_5__
 70
     0
 62
     7
  6
CONTINUOUS
  0
LAYER
  2
1_5__-1
 70
     0
 62
     7
  6
CONTINUOUS
  0
LAYER
  2
DEFPOINTS
 70
     0
 62
     7
  6
CONTINUOUS
  0
ENDTAB
  0
TABLE
  2
STYLE
 70
     2
  0
STYLE
  2
STANDARD
 70
     0
 40
0.0
 41
1.0
 50
0.0
 71
     0
 42
0.2
  3
txt
  4
BIGFONT.SHX
  0
STYLE
  2
YUGOTHIC_MEDIUM
 70
     0
 40
0.0
 41
1.0
 50
0.0
 71
     0
 42
0.2
  3

  4
YuGothic Medium
  0
ENDTAB
  0
TABLE
  2
VIEW
 70
     0
  0
ENDTAB
  0
TABLE
  2
UCS
 70
     0
  0
ENDTAB
  0
TABLE
  2
APPID
 70
     2
  0
APPID
  2
ACAD
 70
     0
  0
APPID
  2
ACAECLAYERSTANDARD
 70
     0
  0
ENDTAB
  0
TABLE
  2
DIMSTYLE
 70
     2
  0
DIMSTYLE
  2
STANDARD
 70
     0
  3

  4

  5

  6

  7

 40
1.0
 41
0.18
 42
0.0625
 43
0.38
 44
0.18
 45
0.0
 46
0.0
 47
0.0
 48
0.0
140
0.18
141
0.09
142
0.0
143
25.4
144
1.0
145
0.0
146
1.0
147
0.09
 71
     0
 72
     0
 73
     1
 74
     1
 75
     0
 76
     0
 77
     0
 78
     0
170
     0
171
     2
172
     0
173
     0
174
     0
175
     0
176
     0
177
     0
178
     0
  0
DIMSTYLE
  2
TOOLBOX
 70
     0
  3
<>
  4
[]
  5
DOT
  6
DOT
  7
DOT
 40
1.0
 41
2.2479248046875
 42
7.499999972060323
 43
30.00000000651926
 44
0.0
 45
0.0
 46
0.0
 47
0.0
 48
0.0
140
10.62008101851851
141
0.0
142
0.0
143
1.0
144
1.0
145
0.0
146
0.8
147
0.0499999998137355
 71
     0
 72
     0
 73
     0
 74
     0
 75
     0
 76
     0
 77
     1
 78
     8
170
     0
171
     0
172
     1
173
     0
174
     1
175
     0
176
     0
177
     0
178
     0
  0
ENDTAB
  0
ENDSEC
  0
SECTION
  2
BLOCKS
  0
BLOCK
  8
0
  2
$MODEL_SPACE
 70
     0
 10
0.0
 20
0.0
 30
0.0
  3
$MODEL_SPACE
  1

  0
ENDBLK
  5
21
  8
0
  0
BLOCK
 67
     1
  8
0
  2
$PAPER_SPACE
 70
     0
 10
0.0
 20
0.0
 30
0.0
  3
$PAPER_SPACE
  1

  0
ENDBLK
  5
1D
 67
     1
  8
0
  0
BLOCK
  8
0
  2
GROUP
 70
     0
 10
0.0
 20
0.0
 30
0.0
  3
GROUP
  1

  0
ENDBLK
  5
70
  8
0
  0
BLOCK
  8
0
  2
__A3
 70
     0
 10
0.0
 20
0.0
 30
0.0
  3
__A3
  1

  0
LINE
  5
DC
  8
0
  6
CONTINUOUS
 62
     3
 10
10312.62689392944
 20
-89.92044693998241
 30
0.0
 11
-10269.83977273724
 21
-89.92044693998241
 31
0.0
  0
INSERT
  5
DD
  8
0
 62
    17
  2
GROUP
 10
0.0
 20
0.0
 30
0.0
  0
TEXT
  5
DE
  8
0
 62
     4
 10
9139.977640406578
 20
-226.0341168654482
 30
0.0
 40
79.65060763888889
  1
SCALE:
  7
YUGOTHIC_MEDIUM
 11
9139.977640406578
 21
-146.3835092265593
 31
0.0
 73
     3
  0
TEXT
  5
DF
  8
0
 62
     4
 10
-443.9643777938977
 20
-227.9787802733332
 30
0.0
 40
79.65060763888889
  1
NAME:
  7
YUGOTHIC_MEDIUM
 11
-443.9643777938977
 21
-148.3281726344443
 31
0.0
 73
     3
  0
TEXT
  5
E0
  8
0
 62
     4
 10
7281.663381210107
 20
-228.0537802733157
 30
0.0
 40
79.65060763888889
  1
DATE:
  7
YUGOTHIC_MEDIUM
 11
7281.663381210107
 21
-148.4031726344268
 31
0.0
 73
     3
  0
TEXT
  5
E1
  8
0
 62
     4
 10
5425.843209124179
 20
-236.1263220412507
 30
0.0
 40
79.65060763888889
  1
ID:
  7
YUGOTHIC_MEDIUM
 11
5425.843209124179
 21
-156.4757144023619
 31
0.0
 73
     3
  0
ENDBLK
  5
74
  8
0
  0
BLOCK
  8
0
  2
*D3
 70
     1
 10
0.0
 20
0.0
 30
0.0
  3
*D3
  1

  0
LINE
  5
E2
  8
1_5_____
  6
CONTINUOUS
 62
     0
 10
1084.306333484747
 20
1196.686210234332
 30
0.0
 11
1122.0
 21
1196.686210234332
 31
0.0
  0
LINE
  5
E3
  8
1_5_____
  6
CONTINUOUS
 62
     0
 10
1087.056333484747
 20
1271.186210234303
 30
0.0
 11
1122.0
 21
1271.186210234303
 31
0.0
  0
LINE
  5
E4
  8
1_5_____
  6
CONTINUOUS
 62
     0
 10
1122.0
 20
1198.934135039019
 30
0.0
 11
1122.0
 21
1268.938285429615
 31
0.0
  0
INSERT
  5
E5
  8
1_5_____
 62
     0
  2
_DOT
 10
1122.0
 20
1196.686210234332
 30
0.0
 41
2.2479248046875
 42
2.2479248046875
 43
2.2479248046875
 50
270.0
  0
INSERT
  5
E6
  8
1_5_____
 62
     0
  2
_DOT
 10
1122.0
 20
1271.186210234303
 30
0.0
 41
2.2479248046875
 42
2.2479248046875
 43
2.2479248046875
 50
90.0
  0
TEXT
  5
E7
  8
1_5_____
  6
CONTINUOUS
 62
     0
 10
1121.950000000186
 20
1216.236075203453
 30
0.0
 40
10.62008101851851
  1
74.5
 50
90.0
  7
YUGOTHIC_MEDIUM
  0
POINT
  5
E8
  8
DEFPOINTS
 62
     0
 10
1076.806333512686
 20
1196.686210234332
 30
0.0
  0
POINT
  5
E9
  8
DEFPOINTS
 62
     0
 10
1079.556333512686
 20
1271.186210234303
 30
0.0
  0
POINT
  5
EA
  8
DEFPOINTS
 62
     0
 10
1122.0
 20
1271.186210234303
 30
0.0
  0
ENDBLK
  5
77
  8
0
  0
BLOCK
  8
0
  2
*D4
 70
     1
 10
0.0
 20
0.0
 30
0.0
  3
*D4
  1

  0
LINE
  5
EB
  8
1_5_____
  6
CONTINUOUS
 62
     0
 10
1079.556333512686
 20
1278.686210206363
 30
0.0
 11
1079.556333512686
 21
1296.186210234303
 31
0.0
  0
LINE
  5
EC
  8
1_5_____
  6
CONTINUOUS
 62
     0
 10
1066.056333512687
 20
1278.686210206363
 30
0.0
 11
1066.056333512687
 21
1296.186210234303
 31
0.0
  0
LINE
  5
ED
  8
1_5_____
  6
CONTINUOUS
 62
     0
 10
1079.556333512686
 20
1296.186210234303
 30
0.0
 11
1066.056333512687
 21
1296.186210234303
 31
0.0
  0
LINE
  5
EE
  8
1_5_____
  6
CONTINUOUS
 62
     0
 10
1081.804258317374
 20
1296.186210234303
 30
0.0
 11
1084.052183122061
 21
1296.186210234303
 31
0.0
  0
LINE
  5
EF
  8
1_5_____
  6
CONTINUOUS
 62
     0
 10
1063.808408708
 20
1296.186210234303
 30
0.0
 11
1061.560483903312
 21
1296.186210234303
 31
0.0
  0
INSERT
  5
F0
  8
1_5_____
 62
     0
  2
_DOT
 10
1079.556333512686
 20
1296.186210234303
 30
0.0
 41
2.2479248046875
 42
2.2479248046875
 43
2.2479248046875
 50
180.0
  0
INSERT
  5
F1
  8
1_5_____
 62
     0
  2
_DOT
 10
1066.056333512687
 20
1296.186210234303
 30
0.0
 41
2.2479248046875
 42
2.2479248046875
 43
2.2479248046875
  0
TEXT
  5
F2
  8
1_5_____
  6
CONTINUOUS
 62
     0
 10
1054.347621266214
 20
1296.236210234116
 30
0.0
 40
10.62008101851851
  1
13.5
  7
YUGOTHIC_MEDIUM
  0
POINT
  5
F3
  8
DEFPOINTS
 62
     0
 10
1079.556333512686
 20
1271.186210234303
 30
0.0
  0
POINT
  5
1DA
  8
DEFPOINTS
 62
     0
 10
1066.056333512687
 20
1271.186210234303
 30
0.0
  0
POINT
  5
1DB
  8
DEFPOINTS
 62
     0
 10
1066.056333512687
 20
1296.186210234303
 30
0.0
  0
ENDBLK
  5
7A
  8
0
  0
BLOCK
  8
0
  2
*D5
 70
     1
 10
0.0
 20
0.0
 30
0.0
  3
*D5
  1

  0
LINE
  5
F4
  8
1_5_____
  6
CONTINUOUS
 62
     0
 10
886.6125385126871
 20
994.13577520638
 30
0.0
 11
886.6125385126871
 21
1011.63577523432
 31
0.0
  0
LINE
  5
F5
  8
1_5_____
  6
CONTINUOUS
 62
     0
 10
872.6125385126871
 20
994.13577520638
 30
0.0
 11
872.6125385126871
 21
1011.63577523432
 31
0.0
  0
LINE
  5
F6
  8
1_5_____
  6
CONTINUOUS
 62
     0
 10
886.6125385126871
 20
1011.63577523432
 30
0.0
 11
872.6125385126871
 21
1011.63577523432
 31
0.0
  0
LINE
  5
F7
  8
1_5_____
  6
CONTINUOUS
 62
     0
 10
888.8604633173746
 20
1011.63577523432
 30
0.0
 11
891.1083881220621
 21
1011.63577523432
 31
0.0
  0
LINE
  5
F8
  8
1_5_____
  6
CONTINUOUS
 62
     0
 10
870.3646137079996
 20
1011.63577523432
 30
0.0
 11
868.1166889033121
 21
1011.63577523432
 31
0.0
  0
INSERT
  5
F9
  8
1_5_____
 62
     0
  2
_DOT
 10
886.6125385126871
 20
1011.63577523432
 30
0.0
 41
2.2479248046875
 42
2.2479248046875
 43
2.2479248046875
 50
180.0
  0
INSERT
  5
FA
  8
1_5_____
 62
     0
  2
_DOT
 10
872.6125385126871
 20
1011.63577523432
 30
0.0
 41
2.2479248046875
 42
2.2479248046875
 43
2.2479248046875
  0
TEXT
  5
FB
  8
1_5_____
  6
CONTINUOUS
 62
     0
 10
868.4867393504297
 20
1011.685775234133
 30
0.0
 40
10.62008101851851
  1
14
  7
YUGOTHIC_MEDIUM
  0
POINT
  5
FC
  8
DEFPOINTS
 62
     0
 10
886.6125385126871
 20
986.6357752343197
 30
0.0
  0
POINT
  5
1DD
  8
DEFPOINTS
 62
     0
 10
872.6125385126871
 20
986.6357752343197
 30
0.0
  0
POINT
  5
1DE
  8
DEFPOINTS
 62
     0
 10
872.6125385126871
 20
1011.63577523432
 30
0.0
  0
ENDBLK
  5
7D
  8
0
  0
BLOCK
  8
0
  2
*D6
 70
     1
 10
0.0
 20
0.0
 30
0.0
  3
*D6
  1

  0
LINE
  5
FD
  8
1_5_____
  6
CONTINUOUS
 62
     0
 10
1316.209168484747
 20
982.2280802343471
 30
0.0
 11
1348.07583517954
 21
982.2280802343471
 31
0.0
  0
LINE
  5
FE
  8
1_5_____
  6
CONTINUOUS
 62
     0
 10
1316.209168484747
 20
999.228080234318
 30
0.0
 11
1348.07583517954
 21
999.228080234318
 31
0.0
  0
LINE
  5
FF
  8
1_5_____
  6
CONTINUOUS
 62
     0
 10
1348.07583517954
 20
982.2280802343471
 30
0.0
 11
1348.07583517954
 21
921.6084135522117
 31
0.0
  0
LINE
  5
100
  8
1_5_____
  6
CONTINUOUS
 62
     0
 10
1348.07583517954
 20
984.4760050390346
 30
0.0
 11
1348.07583517954
 21
996.9801554296305
 31
0.0
  0
INSERT
  5
101
  8
1_5_____
 62
     0
  2
_DOT
 10
1348.07583517954
 20
982.2280802343471
 30
0.0
 41
2.2479248046875
 42
2.2479248046875
 43
2.2479248046875
 50
270.0
  0
INSERT
  5
102
  8
1_5_____
 62
     0
  2
_DOT
 10
1348.07583517954
 20
999.228080234318
 30
0.0
 41
2.2479248046875
 42
2.2479248046875
 43
2.2479248046875
 50
90.0
  0
TEXT
  5
103
  8
1_5_____
  6
CONTINUOUS
 62
     0
 10
1348.025835179726
 20
918.6241046895916
 30
0.0
 40
10.62008101851851
  1
17
 50
90.0
  7
YUGOTHIC_MEDIUM
  0
POINT
  5
104
  8
DEFPOINTS
 62
     0
 10
1308.709168512687
 20
982.2280802343471
 30
0.0
  0
POINT
  5
105
  8
DEFPOINTS
 62
     0
 10
1308.709168512687
 20
999.228080234318
 30
0.0
  0
POINT
  5
106
  8
DEFPOINTS
 62
     0
 10
1358.709168512687
 20
999.228080234318
 30
0.0
  0
ENDBLK
  5
80
  8
0
  0
BLOCK
  8
0
  2
*D7
 70
     1
 10
0.0
 20
0.0
 30
0.0
  3
*D7
  1

  0
LINE
  5
107
  8
1_5_____
  6
CONTINUOUS
 62
     0
 10
1287.986738540627
 20
923.5244652343122
 30
0.0
 11
1245.486738512687
 21
923.5244652343122
 31
0.0
  0
LINE
  5
108
  8
1_5_____
  6
CONTINUOUS
 62
     0
 10
1287.986738540627
 20
931.5244652343122
 30
0.0
 11
1245.486738512687
 21
931.5244652343122
 31
0.0
  0
LINE
  5
109
  8
1_5_____
  6
CONTINUOUS
 62
     0
 10
1245.486738512687
 20
925.7723900389997
 30
0.0
 11
1245.486738512687
 21
929.2765404296247
 31
0.0
  0
INSERT
  5
10A
  8
1_5_____
 62
     0
  2
_DOT
 10
1245.486738512687
 20
923.5244652343122
 30
0.0
 41
2.2479248046875
 42
2.2479248046875
 43
2.2479248046875
 50
270.0
  0
INSERT
  5
10B
  8
1_5_____
 62
     0
  2
_DOT
 10
1245.486738512687
 20
931.5244652343122
 30
0.0
 41
2.2479248046875
 42
2.2479248046875
 43
2.2479248046875
 50
90.0
  0
TEXT
  5
10C
  8
1_5_____
  6
CONTINUOUS
 62
     0
 10
1245.436738512873
 20
922.4672837969224
 30
0.0
 40
10.62008101851851
  1
8
 50
90.0
  7
YUGOTHIC_MEDIUM
  0
POINT
  5
10D
  8
DEFPOINTS
 62
     0
 10
1295.486738512687
 20
923.5244652343122
 30
0.0
  0
POINT
  5
10E
  8
DEFPOINTS
 62
     0
 10
1295.486738512687
 20
931.5244652343122
 30
0.0
  0
POINT
  5
10F
  8
DEFPOINTS
 62
     0
 10
1245.486738512687
 20
931.5244652343122
 30
0.0
  0
ENDBLK
  5
83
  8
0
  0
BLOCK
  8
0
  2
*D8
 70
     1
 10
0.0
 20
0.0
 30
0.0
  3
*D8
  1

  0
LINE
  5
110
  8
1_5_____
  6
CONTINUOUS
 62
     0
 10
1086.525083512687
 20
998.0773952064069
 30
0.0
 11
1086.525083512687
 21
1015.577395234347
 31
0.0
  0
LINE
  5
111
  8
1_5_____
  6
CONTINUOUS
 62
     0
 10
1075.525083512685
 20
998.0773952064069
 30
0.0
 11
1075.525083512685
 21
1015.577395234347
 31
0.0
  0
LINE
  5
112
  8
1_5_____
  6
CONTINUOUS
 62
     0
 10
1086.525083512687
 20
1015.577395234347
 30
0.0
 11
1075.525083512685
 21
1015.577395234347
 31
0.0
  0
LINE
  5
113
  8
1_5_____
  6
CONTINUOUS
 62
     0
 10
1088.773008317375
 20
1015.577395234347
 30
0.0
 11
1091.020933122062
 21
1015.577395234347
 31
0.0
  0
LINE
  5
114
  8
1_5_____
  6
CONTINUOUS
 62
     0
 10
1073.277158707998
 20
1015.577395234347
 30
0.0
 11
1071.02923390331
 21
1015.577395234347
 31
0.0
  0
INSERT
  5
115
  8
1_5_____
 62
     0
  2
_DOT
 10
1086.525083512687
 20
1015.577395234347
 30
0.0
 41
2.2479248046875
 42
2.2479248046875
 43
2.2479248046875
 50
180.0
  0
INSERT
  5
116
  8
1_5_____
 62
     0
  2
_DOT
 10
1075.525083512685
 20
1015.577395234347
 30
0.0
 41
2.2479248046875
 42
2.2479248046875
 43
2.2479248046875
  0
TEXT
  5
117
  8
1_5_____
  6
CONTINUOUS
 62
     0
 10
1071.669297853515
 20
1015.62739523416
 30
0.0
 40
10.62008101851851
  1
11
  7
YUGOTHIC_MEDIUM
  0
POINT
  5
118
  8
DEFPOINTS
 62
     0
 10
1086.525083512687
 20
990.5773952343466
 30
0.0
  0
POINT
  5
94F
  8
DEFPOINTS
 62
     0
 10
1075.525083512685
 20
990.5773952343466
 30
0.0
  0
POINT
  5
950
  8
DEFPOINTS
 62
     0
 10
1075.525083512685
 20
1015.577395234347
 30
0.0
  0
ENDBLK
  5
86
  8
0
  0
BLOCK
  8
0
  2
*D9
 70
     1
 10
0.0
 20
0.0
 30
0.0
  3
*D9
  1

  0
LINE
  5
119
  8
1_5_____
  6
CONTINUOUS
 62
     0
 10
1096.025083512686
 20
983.0773952622862
 30
0.0
 11
1096.025083512686
 21
940.5773952343466
 31
0.0
  0
LINE
  5
11A
  8
1_5_____
  6
CONTINUOUS
 62
     0
 10
1066.025083512686
 20
983.0773952622862
 30
0.0
 11
1066.025083512686
 21
940.5773952343466
 31
0.0
  0
LINE
  5
11B
  8
1_5_____
  6
CONTINUOUS
 62
     0
 10
1093.777158707999
 20
940.5773952343466
 30
0.0
 11
1068.273008317374
 21
940.5773952343466
 31
0.0
  0
INSERT
  5
11C
  8
1_5_____
 62
     0
  2
_DOT
 10
1096.025083512686
 20
940.5773952343466
 30
0.0
 41
2.2479248046875
 42
2.2479248046875
 43
2.2479248046875
  0
INSERT
  5
11D
  8
1_5_____
 62
     0
  2
_DOT
 10
1066.025083512686
 20
940.5773952343466
 30
0.0
 41
2.2479248046875
 42
2.2479248046875
 43
2.2479248046875
 50
180.0
  0
TEXT
  5
11E
  8
1_5_____
  6
CONTINUOUS
 62
     0
 10
1070.910720637907
 20
940.6273952341603
 30
0.0
 40
10.62008101851851
  1
30
  7
YUGOTHIC_MEDIUM
  0
POINT
  5
11F
  8
DEFPOINTS
 62
     0
 10
1096.025083512686
 20
990.5773952343466
 30
0.0
  0
POINT
  5
120
  8
DEFPOINTS
 62
     0
 10
1066.025083512686
 20
990.5773952343466
 30
0.0
  0
POINT
  5
121
  8
DEFPOINTS
 62
     0
 10
1066.025083512686
 20
940.5773952343466
 30
0.0
  0
ENDBLK
  5
89
  8
0
  0
BLOCK
  8
0
  2
*D10
 70
     1
 10
0.0
 20
0.0
 30
0.0
  3
*D10
  1

  0
LINE
  5
122
  8
1_5_____
  6
CONTINUOUS
 62
     0
 10
1058.525083540626
 20
911.8737802343117
 30
0.0
 11
1016.025083512686
 21
911.8737802343117
 31
0.0
  0
LINE
  5
123
  8
1_5_____
  6
CONTINUOUS
 62
     0
 10
1058.525083540626
 20
912.8737802343117
 30
0.0
 11
1016.025083512686
 21
912.8737802343117
 31
0.0
  0
LINE
  5
124
  8
1_5_____
  6
CONTINUOUS
 62
     0
 10
1016.025083512686
 20
911.8737802343117
 30
0.0
 11
1016.025083512686
 21
912.8737802343117
 31
0.0
  0
LINE
  5
125
  8
1_5_____
  6
CONTINUOUS
 62
     0
 10
1016.025083512686
 20
909.6258554296242
 30
0.0
 11
1016.025083512686
 21
907.3779306249367
 31
0.0
  0
LINE
  5
126
  8
1_5_____
  6
CONTINUOUS
 62
     0
 10
1016.025083512686
 20
915.1217050389992
 30
0.0
 11
1016.025083512686
 21
917.3696298436867
 31
0.0
  0
INSERT
  5
127
  8
1_5_____
 62
     0
  2
_DOT
 10
1016.025083512686
 20
911.8737802343117
 30
0.0
 41
2.2479248046875
 42
2.2479248046875
 43
2.2479248046875
 50
90.0
  0
INSERT
  5
128
  8
1_5_____
 62
     0
  2
_DOT
 10
1016.025083512686
 20
912.8737802343117
 30
0.0
 41
2.2479248046875
 42
2.2479248046875
 43
2.2479248046875
 50
270.0
  0
TEXT
  5
129
  8
1_5_____
  6
CONTINUOUS
 62
     0
 10
1015.975083512873
 20
908.0751760125304
 30
0.0
 40
10.62008101851851
  1
1
 50
90.0
  7
YUGOTHIC_MEDIUM
  0
POINT
  5
12A
  8
DEFPOINTS
 62
     0
 10
1066.025083512686
 20
911.8737802343117
 30
0.0
  0
POINT
  5
953
  8
DEFPOINTS
 62
     0
 10
1066.025083512686
 20
912.8737802343117
 30
0.0
  0
POINT
  5
954
  8
DEFPOINTS
 62
     0
 10
1016.025083512686
 20
912.8737802343117
 30
0.0
  0
ENDBLK
  5
8C
  8
0
  0
BLOCK
  8
0
  2
*D11
 70
     1
 10
0.0
 20
0.0
 30
0.0
  3
*D11
  1

  0
LINE
  5
12B
  8
1_5_____
  6
CONTINUOUS
 62
     0
 10
897.6125385126871
 20
979.1357752622594
 30
0.0
 11
897.6125385126871
 21
936.6357752343197
 31
0.0
  0
LINE
  5
12C
  8
1_5_____
  6
CONTINUOUS
 62
     0
 10
861.6125385126871
 20
979.1357752622594
 30
0.0
 11
861.6125385126871
 21
936.6357752343197
 31
0.0
  0
LINE
  5
12D
  8
1_5_____
  6
CONTINUOUS
 62
     0
 10
895.3646137079996
 20
936.6357752343197
 30
0.0
 11
863.8604633173746
 21
936.6357752343197
 31
0.0
  0
INSERT
  5
12E
  8
1_5_____
 62
     0
  2
_DOT
 10
897.6125385126871
 20
936.6357752343197
 30
0.0
 41
2.2479248046875
 42
2.2479248046875
 43
2.2479248046875
  0
INSERT
  5
12F
  8
1_5_____
 62
     0
  2
_DOT
 10
861.6125385126871
 20
936.6357752343197
 30
0.0
 41
2.2479248046875
 42
2.2479248046875
 43
2.2479248046875
 50
180.0
  0
TEXT
  5
130
  8
1_5_____
  6
CONTINUOUS
 62
     0
 10
869.4981756379076
 20
936.6857752341334
 30
0.0
 40
10.62008101851851
  1
36
  7
YUGOTHIC_MEDIUM
  0
POINT
  5
131
  8
DEFPOINTS
 62
     0
 10
897.6125385126871
 20
986.6357752343197
 30
0.0
  0
POINT
  5
132
  8
DEFPOINTS
 62
     0
 10
861.6125385126871
 20
986.6357752343197
 30
0.0
  0
POINT
  5
133
  8
DEFPOINTS
 62
     0
 10
861.6125385126871
 20
936.6357752343197
 30
0.0
  0
ENDBLK
  5
8F
  8
0
  0
BLOCK
  8
0
  2
*D12
 70
     1
 10
0.0
 20
0.0
 30
0.0
  3
*D12
  1

  0
LINE
  5
134
  8
1_5_____
  6
CONTINUOUS
 62
     0
 10
859.6125385406268
 20
907.932160234343
 30
0.0
 11
822.6125385126871
 21
907.932160234343
 31
0.0
  0
LINE
  5
135
  8
1_5_____
  6
CONTINUOUS
 62
     0
 10
865.1125385406268
 20
923.4321602343139
 30
0.0
 11
822.6125385126871
 21
923.4321602343139
 31
0.0
  0
LINE
  5
136
  8
1_5_____
  6
CONTINUOUS
 62
     0
 10
822.6125385126871
 20
907.932160234343
 30
0.0
 11
822.6125385126871
 21
923.4321602343139
 31
0.0
  0
LINE
  5
137
  8
1_5_____
  6
CONTINUOUS
 62
     0
 10
822.6125385126871
 20
905.6842354296555
 30
0.0
 11
822.6125385126871
 21
903.436310624968
 31
0.0
  0
LINE
  5
138
  8
1_5_____
  6
CONTINUOUS
 62
     0
 10
822.6125385126871
 20
925.6800850390014
 30
0.0
 11
822.6125385126871
 21
927.9280098436889
 31
0.0
  0
INSERT
  5
139
  8
1_5_____
 62
     0
  2
_DOT
 10
822.6125385126871
 20
907.932160234343
 30
0.0
 41
2.2479248046875
 42
2.2479248046875
 43
2.2479248046875
 50
90.0
  0
INSERT
  5
13A
  8
1_5_____
 62
     0
  2
_DOT
 10
822.6125385126871
 20
923.4321602343139
 30
0.0
 41
2.2479248046875
 42
2.2479248046875
 43
2.2479248046875
 50
270.0
  0
TEXT
  5
13B
  8
1_5_____
  6
CONTINUOUS
 62
     0
 10
822.5625385128734
 20
897.2234479878558
 30
0.0
 40
10.62008101851851
  1
15.5
 50
90.0
  7
YUGOTHIC_MEDIUM
  0
POINT
  5
13C
  8
DEFPOINTS
 62
     0
 10
867.1125385126871
 20
907.932160234343
 30
0.0
  0
POINT
  5
957
  8
DEFPOINTS
 62
     0
 10
872.6125385126871
 20
923.4321602343139
 30
0.0
  0
POINT
  5
958
  8
DEFPOINTS
 62
     0
 10
822.6125385126871
 20
923.4321602343139
 30
0.0
  0
ENDBLK
  5
92
  8
0
  0
BLOCK
  8
0
  2
*D13
 70
     1
 10
0.0
 20
0.0
 30
0.0
  3
*D13
  1

  0
LINE
  5
13D
  8
1_5_____
  6
CONTINUOUS
 62
     0
 10
869.6194035126874
 20
1143.977085262248
 30
0.0
 11
869.6194035126874
 21
1098.201350234364
 31
0.0
  0
LINE
  5
13E
  8
1_5_____
  6
CONTINUOUS
 62
     0
 10
860.6194035126865
 20
1140.701350262304
 30
0.0
 11
860.6194035126865
 21
1098.201350234364
 31
0.0
  0
LINE
  5
13F
  8
1_5_____
  6
CONTINUOUS
 62
     0
 10
867.3714787079999
 20
1098.201350234364
 30
0.0
 11
862.867328317374
 21
1098.201350234364
 31
0.0
  0
INSERT
  5
140
  8
1_5_____
 62
     0
  2
_DOT
 10
869.6194035126874
 20
1098.201350234364
 30
0.0
 41
2.2479248046875
 42
2.2479248046875
 43
2.2479248046875
  0
INSERT
  5
141
  8
1_5_____
 62
     0
  2
_DOT
 10
860.6194035126865
 20
1098.201350234364
 30
0.0
 41
2.2479248046875
 42
2.2479248046875
 43
2.2479248046875
 50
180.0
  0
TEXT
  5
142
  8
1_5_____
  6
CONTINUOUS
 62
     0
 10
860.3150811471667
 20
1098.251350234178
 30
0.0
 40
10.62008101851851
  1
9
  7
YUGOTHIC_MEDIUM
  0
POINT
  5
143
  8
DEFPOINTS
 62
     0
 10
869.6194035126874
 20
1151.477085234309
 30
0.0
  0
POINT
  5
144
  8
DEFPOINTS
 62
     0
 10
860.6194035126865
 20
1148.201350234364
 30
0.0
  0
POINT
  5
145
  8
DEFPOINTS
 62
     0
 10
860.6194035126865
 20
1098.201350234364
 30
0.0
  0
ENDBLK
  5
95
  8
0
  0
BLOCK
  8
0
  2
*D14
 70
     1
 10
0.0
 20
0.0
 30
0.0
  3
*D14
  1

  0
LINE
  5
146
  8
1_5_____
  6
CONTINUOUS
 62
     0
 10
850.1194035406271
 20
1140.975200234303
 30
0.0
 11
810.9314035126864
 21
1140.975200234303
 31
0.0
  0
LINE
  5
147
  8
1_5_____
  6
CONTINUOUS
 62
     0
 10
853.4314035406261
 20
1280.975200234303
 30
0.0
 11
810.9314035126864
 21
1280.975200234303
 31
0.0
  0
LINE
  5
148
  8
1_5_____
  6
CONTINUOUS
 62
     0
 10
810.9314035126864
 20
1143.223125038991
 30
0.0
 11
810.9314035126864
 21
1278.727275429616
 31
0.0
  0
INSERT
  5
149
  8
1_5_____
 62
     0
  2
_DOT
 10
810.9314035126864
 20
1140.975200234303
 30
0.0
 41
2.2479248046875
 42
2.2479248046875
 43
2.2479248046875
 50
270.0
  0
INSERT
  5
14A
  8
1_5_____
 62
     0
  2
_DOT
 10
810.9314035126864
 20
1280.975200234303
 30
0.0
 41
2.2479248046875
 42
2.2479248046875
 43
2.2479248046875
 50
90.0
  0
TEXT
  5
14B
  8
1_5_____
  6
CONTINUOUS
 62
     0
 10
810.8814035128726
 20
1195.045078706526
 30
0.0
 40
10.62008101851851
  1
140
 50
90.0
  7
YUGOTHIC_MEDIUM
  0
POINT
  5
14C
  8
DEFPOINTS
 62
     0
 10
857.6194035126874
 20
1140.975200234303
 30
0.0
  0
POINT
  5
14D
  8
DEFPOINTS
 62
     0
 10
860.9314035126864
 20
1280.975200234303
 30
0.0
  0
POINT
  5
14E
  8
DEFPOINTS
 62
     0
 10
810.9314035126864
 20
1280.975200234303
 30
0.0
  0
ENDBLK
  5
98
  8
0
  0
BLOCK
  8
0
  2
*D15
 70
     1
 10
0.0
 20
0.0
 30
0.0
  3
*D15
  1

  0
LINE
  5
14F
  8
1_5_____
  6
CONTINUOUS
 62
     0
 10
869.1194035126865
 20
1213.49999997206
 30
0.0
 11
869.1194035126865
 21
1206.0
 31
0.0
  0
LINE
  5
150
  8
1_5_____
  6
CONTINUOUS
 62
     0
 10
861.1194035126865
 20
1213.49999997206
 30
0.0
 11
861.1194035126865
 21
1206.0
 31
0.0
  0
LINE
  5
151
  8
1_5_____
  6
CONTINUOUS
 62
     0
 10
869.1194035126865
 20
1206.0
 30
0.0
 11
972.8122479665772
 21
1206.0
 31
0.0
  0
LINE
  5
152
  8
1_5_____
  6
CONTINUOUS
 62
     0
 10
866.871478707999
 20
1206.0
 30
0.0
 11
863.367328317374
 21
1206.0
 31
0.0
  0
INSERT
  5
153
  8
1_5_____
 62
     0
  2
_DOT
 10
869.1194035126865
 20
1206.0
 30
0.0
 41
2.2479248046875
 42
2.2479248046875
 43
2.2479248046875
  0
INSERT
  5
154
  8
1_5_____
 62
     0
  2
_DOT
 10
861.1194035126865
 20
1206.0
 30
0.0
 41
2.2479248046875
 42
2.2479248046875
 43
2.2479248046875
 50
180.0
  0
TEXT
  5
155
  8
1_5_____
  6
CONTINUOUS
 62
     0
 10
964.1650395232008
 20
1206.049999999814
 30
0.0
 40
10.62008101851851
  1
8
  7
YUGOTHIC_MEDIUM
  0
POINT
  5
156
  8
DEFPOINTS
 62
     0
 10
869.1194035126865
 20
1206.0
 30
0.0
  0
POINT
  5
157
  8
DEFPOINTS
 62
     0
 10
861.1194035126865
 20
1206.0
 30
0.0
  0
POINT
  5
158
  8
DEFPOINTS
 62
     0
 10
861.1194035126865
 20
1206.0
 30
0.0
  0
ENDBLK
  5
9B
  8
0
  0
BLOCK
  8
0
  2
*D16
 70
     1
 10
0.0
 20
0.0
 30
0.0
  3
*D16
  1

  0
LINE
  5
159
  8
1_5__
  6
CONTINUOUS
 62
     0
 10
-199.2888493051182
 20
349.6163695960227
 30
0.0
 11
-292.2341030830582
 21
349.6163695960227
 31
0.0
  0
LINE
  5
15A
  8
1_5__
  6
CONTINUOUS
 62
     0
 10
-199.2888493051182
 20
529.6163695960227
 30
0.0
 11
-292.2341030830582
 21
529.6163695960227
 31
0.0
  0
LINE
  5
15B
  8
1_5__
  6
CONTINUOUS
 62
     0
 10
-292.2341030830582
 20
351.8642944007102
 30
0.0
 11
-292.2341030830582
 21
527.3684447913352
 31
0.0
  0
INSERT
  5
15C
  8
1_5__
 62
     0
  2
_DOT
 10
-292.2341030830582
 20
349.6163695960227
 30
0.0
 41
2.2479248046875
 42
2.2479248046875
 43
2.2479248046875
 50
270.0
  0
INSERT
  5
15D
  8
1_5__
 62
     0
  2
_DOT
 10
-292.2341030830582
 20
529.6163695960227
 30
0.0
 41
2.2479248046875
 42
2.2479248046875
 43
2.2479248046875
 50
90.0
  0
TEXT
  5
15E
  8
1_5__
  6
CONTINUOUS
 62
     0
 10
-292.2841030828719
 20
423.6862480682449
 30
0.0
 40
10.62008101851851
  1
180
 50
90.0
  7
YUGOTHIC_MEDIUM
  0
POINT
  5
15F
  8
DEFPOINTS
 62
     0
 10
-191.7888493330579
 20
349.6163695960227
 30
0.0
  0
POINT
  5
160
  8
DEFPOINTS
 62
     0
 10
-191.7888493330579
 20
529.6163695960227
 30
0.0
  0
POINT
  5
161
  8
DEFPOINTS
 62
     0
 10
-292.2341030830582
 20
529.6163695960227
 30
0.0
  0
ENDBLK
  5
9E
  8
0
  0
BLOCK
  8
0
  2
*D17
 70
     1
 10
0.0
 20
0.0
 30
0.0
  3
*D17
  1

  0
LINE
  5
163
  8
1_5__
  6
CONTINUOUS
 62
     0
 10
-163.3070980551181
 20
732.7395645960737
 30
0.0
 11
-292.2341030830582
 21
732.7395645960737
 31
0.0
  0
LINE
  5
164
  8
1_5__
  6
CONTINUOUS
 62
     0
 10
-163.3070980551181
 20
1192.739564596074
 30
0.0
 11
-292.2341030830582
 21
1192.739564596074
 31
0.0
  0
LINE
  5
165
  8
1_5__
  6
CONTINUOUS
 62
     0
 10
-292.2341030830582
 20
734.9874894007612
 30
0.0
 11
-292.2341030830582
 21
1190.491639791386
 31
0.0
  0
INSERT
  5
166
  8
1_5__
 62
     0
  2
_DOT
 10
-292.2341030830582
 20
732.7395645960737
 30
0.0
 41
2.2479248046875
 42
2.2479248046875
 43
2.2479248046875
 50
270.0
  0
INSERT
  5
167
  8
1_5__
 62
     0
  2
_DOT
 10
-292.2341030830582
 20
1192.739564596074
 30
0.0
 41
2.2479248046875
 42
2.2479248046875
 43
2.2479248046875
 50
90.0
  0
TEXT
  5
168
  8
1_5__
  6
CONTINUOUS
 62
     0
 10
-292.284103082872
 20
947.5680202839046
 30
0.0
 40
10.62008101851851
  1
460
 50
90.0
  7
YUGOTHIC_MEDIUM
  0
POINT
  5
169
  8
DEFPOINTS
 62
     0
 10
-155.8070980830578
 20
732.7395645960737
 30
0.0
  0
POINT
  5
16A
  8
DEFPOINTS
 62
     0
 10
-155.8070980830578
 20
1192.739564596074
 30
0.0
  0
POINT
  5
16B
  8
DEFPOINTS
 62
     0
 10
-292.2341030830582
 20
1192.739564596074
 30
0.0
  0
ENDBLK
  5
A1
  8
0
  0
BLOCK
  8
0
  2
*D18
 70
     1
 10
0.0
 20
0.0
 30
0.0
  3
*D18
  1

  0
LINE
  5
16D
  8
1_5__
  6
CONTINUOUS
 62
     0
 10
-123.3070980551181
 20
747.7395645960737
 30
0.0
 11
-235.5537630830574
 21
747.7395645960737
 31
0.0
  0
LINE
  5
16E
  8
1_5__
  6
CONTINUOUS
 62
     0
 10
-123.3070980551181
 20
1057.739564596074
 30
0.0
 11
-235.5537630830574
 21
1057.739564596074
 31
0.0
  0
LINE
  5
16F
  8
1_5__
  6
CONTINUOUS
 62
     0
 10
-235.5537630830574
 20
749.9874894007612
 30
0.0
 11
-235.5537630830574
 21
1055.491639791386
 31
0.0
  0
INSERT
  5
170
  8
1_5__
 62
     0
  2
_DOT
 10
-235.5537630830574
 20
747.7395645960737
 30
0.0
 41
2.2479248046875
 42
2.2479248046875
 43
2.2479248046875
 50
270.0
  0
INSERT
  5
171
  8
1_5__
 62
     0
  2
_DOT
 10
-235.5537630830574
 20
1057.739564596074
 30
0.0
 41
2.2479248046875
 42
2.2479248046875
 43
2.2479248046875
 50
90.0
  0
TEXT
  5
172
  8
1_5__
  6
CONTINUOUS
 62
     0
 10
-235.6037630828712
 20
887.5680202839044
 30
0.0
 40
10.62008101851851
  1
310
 50
90.0
  7
YUGOTHIC_MEDIUM
  0
POINT
  5
173
  8
DEFPOINTS
 62
     0
 10
-115.8070980830578
 20
747.7395645960737
 30
0.0
  0
POINT
  5
174
  8
DEFPOINTS
 62
     0
 10
-115.8070980830578
 20
1057.739564596074
 30
0.0
  0
POINT
  5
175
  8
DEFPOINTS
 62
     0
 10
-235.5537630830574
 20
1057.739564596074
 30
0.0
  0
ENDBLK
  5
A4
  8
0
  0
BLOCK
  8
0
  2
*D19
 70
     1
 10
0.0
 20
0.0
 30
0.0
  3
*D19
  1

  0
LINE
  5
177
  8
1_5__
  6
CONTINUOUS
 62
     0
 10
162.1929019169422
 20
955.2395646240134
 30
0.0
 11
162.1929019169422
 21
898.3728979292209
 31
0.0
  0
LINE
  5
178
  8
1_5__
  6
CONTINUOUS
 62
     0
 10
116.1929019169422
 20
955.2395646240134
 30
0.0
 11
116.1929019169422
 21
898.3728979292209
 31
0.0
  0
LINE
  5
179
  8
1_5__
  6
CONTINUOUS
 62
     0
 10
116.1929019169422
 20
898.3728979292209
 30
0.0
 11
76.14668031093859
 21
898.3728979292209
 31
0.0
  0
LINE
  5
17A
  8
1_5__
  6
CONTINUOUS
 62
     0
 10
159.9449771122547
 20
898.3728979292209
 30
0.0
 11
118.4408267216297
 21
898.3728979292209
 31
0.0
  0
INSERT
  5
17B
  8
1_5__
 62
     0
  2
_DOT
 10
162.1929019169422
 20
898.3728979292209
 30
0.0
 41
2.2479248046875
 42
2.2479248046875
 43
2.2479248046875
  0
INSERT
  5
17C
  8
1_5__
 62
     0
  2
_DOT
 10
116.1929019169422
 20
898.3728979292209
 30
0.0
 41
2.2479248046875
 42
2.2479248046875
 43
2.2479248046875
 50
180.0
  0
TEXT
  5
17D
  8
1_5__
  6
CONTINUOUS
 62
     0
 10
74.6795258795354
 20
898.4228979290347
 30
0.0
 40
10.62008101851851
  1
46
  7
YUGOTHIC_MEDIUM
  0
POINT
  5
17E
  8
DEFPOINTS
 62
     0
 10
162.1929019169422
 20
962.7395645960737
 30
0.0
  0
POINT
  5
17F
  8
DEFPOINTS
 62
     0
 10
116.1929019169422
 20
962.7395645960737
 30
0.0
  0
POINT
  5
180
  8
DEFPOINTS
 62
     0
 10
116.1929019169422
 20
887.7395645960737
 30
0.0
  0
ENDBLK
  5
A7
  8
0
  0
BLOCK
  8
0
  2
*D20
 70
     1
 10
0.0
 20
0.0
 30
0.0
  3
*D20
  1

  0
LINE
  5
182
  8
1_5__
  6
CONTINUOUS
 62
     0
 10
214.1929018890025
 20
962.7395645960737
 30
0.0
 11
584.1929019169422
 21
962.7395645960737
 31
0.0
  0
LINE
  5
183
  8
1_5__
  6
CONTINUOUS
 62
     0
 10
441.6929018890025
 20
1192.739564596074
 30
0.0
 11
584.1929019169422
 21
1192.739564596074
 31
0.0
  0
LINE
  5
184
  8
1_5__
  6
CONTINUOUS
 62
     0
 10
584.1929019169422
 20
964.9874894007612
 30
0.0
 11
584.1929019169422
 21
1190.491639791386
 31
0.0
  0
INSERT
  5
185
  8
1_5__
 62
     0
  2
_DOT
 10
584.1929019169422
 20
962.7395645960737
 30
0.0
 41
2.2479248046875
 42
2.2479248046875
 43
2.2479248046875
 50
270.0
  0
INSERT
  5
186
  8
1_5__
 62
     0
  2
_DOT
 10
584.1929019169422
 20
1192.739564596074
 30
0.0
 41
2.2479248046875
 42
2.2479248046875
 43
2.2479248046875
 50
90.0
  0
TEXT
  5
187
  8
1_5__
  6
CONTINUOUS
 62
     0
 10
584.1429019171283
 20
1062.568020283904
 30
0.0
 40
10.62008101851851
  1
230
 50
90.0
  7
YUGOTHIC_MEDIUM
  0
POINT
  5
188
  8
DEFPOINTS
 62
     0
 10
206.6929019169422
 20
962.7395645960737
 30
0.0
  0
POINT
  5
189
  8
DEFPOINTS
 62
     0
 10
434.1929019169422
 20
1192.739564596074
 30
0.0
  0
POINT
  5
18A
  8
DEFPOINTS
 62
     0
 10
584.1929019169422
 20
1192.739564596074
 30
0.0
  0
ENDBLK
  5
AA
  8
0
  0
BLOCK
  8
0
  2
*D21
 70
     1
 10
0.0
 20
0.0
 30
0.0
  3
*D21
  1

  0
LINE
  5
18C
  8
1_5__
  6
CONTINUOUS
 62
     0
 10
156.6929019169422
 20
1117.239564623926
 30
0.0
 11
156.6929019169422
 21
1077.975343088137
 31
0.0
  0
LINE
  5
18D
  8
1_5__
  6
CONTINUOUS
 62
     0
 10
121.6929019169422
 20
1117.239564623926
 30
0.0
 11
121.6929019169422
 21
1077.975343088137
 31
0.0
  0
LINE
  5
18E
  8
1_5__
  6
CONTINUOUS
 62
     0
 10
121.6929019169422
 20
1077.975343088137
 30
0.0
 11
78.25046676102059
 21
1077.975343088137
 31
0.0
  0
LINE
  5
18F
  8
1_5__
  6
CONTINUOUS
 62
     0
 10
154.4449771122547
 20
1077.975343088137
 30
0.0
 11
123.9408267216297
 21
1077.975343088137
 31
0.0
  0
INSERT
  5
190
  8
1_5__
 62
     0
  2
_DOT
 10
156.6929019169422
 20
1077.975343088137
 30
0.0
 41
2.2479248046875
 42
2.2479248046875
 43
2.2479248046875
  0
INSERT
  5
191
  8
1_5__
 62
     0
  2
_DOT
 10
121.6929019169422
 20
1077.975343088137
 30
0.0
 41
2.2479248046875
 42
2.2479248046875
 43
2.2479248046875
 50
180.0
  0
TEXT
  5
192
  8
1_5__
  6
CONTINUOUS
 62
     0
 10
76.7833123296174
 20
1078.025343087951
 30
0.0
 40
10.62008101851851
  1
35
  7
YUGOTHIC_MEDIUM
  0
POINT
  5
193
  8
DEFPOINTS
 62
     0
 10
156.6929019169422
 20
1124.739564595986
 30
0.0
  0
POINT
  5
194
  8
DEFPOINTS
 62
     0
 10
121.6929019169422
 20
1124.739564595986
 30
0.0
  0
POINT
  5
195
  8
DEFPOINTS
 62
     0
 10
121.6929019169422
 20
1074.739564595986
 30
0.0
  0
ENDBLK
  5
AD
  8
0
  0
BLOCK
  8
0
  2
*D22
 70
     1
 10
0.0
 20
0.0
 30
0.0
  3
*D22
  1

  0
LINE
  5
197
  8
1_5__
  6
CONTINUOUS
 62
     0
 10
424.1929019169422
 20
1035.239564568134
 30
0.0
 11
424.1929019169422
 21
1264.0
 31
0.0
  0
LINE
  5
198
  8
1_5__
  6
CONTINUOUS
 62
     0
 10
-145.8070980830578
 20
1035.239564568134
 30
0.0
 11
-145.8070980830578
 21
1264.0
 31
0.0
  0
LINE
  5
199
  8
1_5__
  6
CONTINUOUS
 62
     0
 10
421.9449771122547
 20
1264.0
 30
0.0
 11
-143.5591732783703
 21
1264.0
 31
0.0
  0
INSERT
  5
19A
  8
1_5__
 62
     0
  2
_DOT
 10
424.1929019169422
 20
1264.0
 30
0.0
 41
2.2479248046875
 42
2.2479248046875
 43
2.2479248046875
  0
INSERT
  5
19B
  8
1_5__
 62
     0
  2
_DOT
 10
-145.8070980830578
 20
1264.0
 30
0.0
 41
2.2479248046875
 42
2.2479248046875
 43
2.2479248046875
 50
180.0
  0
TEXT
  5
19C
  8
1_5__
  6
CONTINUOUS
 62
     0
 10
124.0213576047729
 20
1264.049999999814
 30
0.0
 40
10.62008101851851
  1
570
  7
YUGOTHIC_MEDIUM
  0
POINT
  5
19D
  8
DEFPOINTS
 62
     0
 10
424.1929019169422
 20
1027.739564596074
 30
0.0
  0
POINT
  5
19E
  8
DEFPOINTS
 62
     0
 10
-145.8070980830578
 20
1027.739564596074
 30
0.0
  0
POINT
  5
19F
  8
DEFPOINTS
 62
     0
 10
-145.8070980830578
 20
1264.0
 30
0.0
  0
ENDBLK
  5
B0
  8
0
  0
BLOCK
  8
0
  2
*D23
 70
     1
 10
0.0
 20
0.0
 30
0.0
  3
*D23
  1

  0
LINE
  5
1A1
  8
1_5__
  6
CONTINUOUS
 62
     0
 10
439.1929019169422
 20
1195.239564568134
 30
0.0
 11
439.1929019169422
 21
1350.239564596074
 31
0.0
  0
LINE
  5
1A2
  8
1_5__
  6
CONTINUOUS
 62
     0
 10
-160.8070980830578
 20
1195.239564568134
 30
0.0
 11
-160.8070980830578
 21
1350.239564596074
 31
0.0
  0
LINE
  5
1A3
  8
1_5__
  6
CONTINUOUS
 62
     0
 10
436.9449771122547
 20
1350.239564596074
 30
0.0
 11
-158.5591732783703
 21
1350.239564596074
 31
0.0
  0
INSERT
  5
1A4
  8
1_5__
 62
     0
  2
_DOT
 10
439.1929019169422
 20
1350.239564596074
 30
0.0
 41
2.2479248046875
 42
2.2479248046875
 43
2.2479248046875
  0
INSERT
  5
1A5
  8
1_5__
 62
     0
  2
_DOT
 10
-160.8070980830578
 20
1350.239564596074
 30
0.0
 41
2.2479248046875
 42
2.2479248046875
 43
2.2479248046875
 50
180.0
  0
TEXT
  5
1A6
  8
1_5__
  6
CONTINUOUS
 62
     0
 10
123.7684985329034
 20
1350.289564595888
 30
0.0
 40
10.62008101851851
  1
600
  7
YUGOTHIC_MEDIUM
  0
POINT
  5
1A7
  8
DEFPOINTS
 62
     0
 10
439.1929019169422
 20
1187.739564596074
 30
0.0
  0
POINT
  5
1A8
  8
DEFPOINTS
 62
     0
 10
-160.8070980830578
 20
1187.739564596074
 30
0.0
  0
POINT
  5
1A9
  8
DEFPOINTS
 62
     0
 10
-160.8070980830578
 20
1350.239564596074
 30
0.0
  0
ENDBLK
  5
B3
  8
0
  0
BLOCK
  8
0
  2
*D24
 70
     1
 10
0.0
 20
0.0
 30
0.0
  3
*D24
  1

  0
LINE
  5
1AB
  8
1_5__
  6
CONTINUOUS
 62
     0
 10
184.1929018890025
 20
1124.739564595986
 30
0.0
 11
534.1929019169422
 21
1124.739564595986
 31
0.0
  0
LINE
  5
1AC
  8
1_5__
  6
CONTINUOUS
 62
     0
 10
441.6929018890025
 20
1192.739564596074
 30
0.0
 11
534.1929019169422
 21
1192.739564596074
 31
0.0
  0
LINE
  5
1AD
  8
1_5__
  6
CONTINUOUS
 62
     0
 10
534.1929019169422
 20
1126.987489400674
 30
0.0
 11
534.1929019169422
 21
1190.491639791386
 31
0.0
  0
INSERT
  5
1AE
  8
1_5__
 62
     0
  2
_DOT
 10
534.1929019169422
 20
1124.739564595986
 30
0.0
 41
2.2479248046875
 42
2.2479248046875
 43
2.2479248046875
 50
270.0
  0
INSERT
  5
1AF
  8
1_5__
 62
     0
  2
_DOT
 10
534.1929019169422
 20
1192.739564596074
 30
0.0
 41
2.2479248046875
 42
2.2479248046875
 43
2.2479248046875
 50
90.0
  0
TEXT
  5
1B0
  8
1_5__
  6
CONTINUOUS
 62
     0
 10
534.1429019171283
 20
1148.372342649381
 30
0.0
 40
10.62008101851851
  1
68
 50
90.0
  7
YUGOTHIC_MEDIUM
  0
POINT
  5
1B1
  8
DEFPOINTS
 62
     0
 10
176.6929019169422
 20
1124.739564595986
 30
0.0
  0
POINT
  5
1B2
  8
DEFPOINTS
 62
     0
 10
434.1929019169422
 20
1192.739564596074
 30
0.0
  0
POINT
  5
1B3
  8
DEFPOINTS
 62
     0
 10
534.1929019169422
 20
1192.739564596074
 30
0.0
  0
ENDBLK
  5
B6
  8
0
  0
BLOCK
  8
0
  2
*D25
 70
     1
 10
0.0
 20
0.0
 30
0.0
  3
*D25
  1

  0
LINE
  5
1B5
  8
1_5__
  6
CONTINUOUS
 62
     0
 10
797.5864719448819
 20
399.6163695960227
 30
0.0
 11
705.0864719169422
 21
399.6163695960227
 31
0.0
  0
LINE
  5
1B6
  8
1_5__
  6
CONTINUOUS
 62
     0
 10
797.5864719448819
 20
529.6163695960227
 30
0.0
 11
705.0864719169422
 21
529.6163695960227
 31
0.0
  0
LINE
  5
1B7
  8
1_5__
  6
CONTINUOUS
 62
     0
 10
705.0864719169422
 20
401.8642944007102
 30
0.0
 11
705.0864719169422
 21
527.3684447913352
 31
0.0
  0
INSERT
  5
1B8
  8
1_5__
 62
     0
  2
_DOT
 10
705.0864719169422
 20
399.6163695960227
 30
0.0
 41
2.2479248046875
 42
2.2479248046875
 43
2.2479248046875
 50
270.0
  0
INSERT
  5
1B9
  8
1_5__
 62
     0
  2
_DOT
 10
705.0864719169422
 20
529.6163695960227
 30
0.0
 41
2.2479248046875
 42
2.2479248046875
 43
2.2479248046875
 50
90.0
  0
TEXT
  5
1BA
  8
1_5__
  6
CONTINUOUS
 62
     0
 10
705.0364719171287
 20
448.6862480682449
 30
0.0
 40
10.62008101851851
  1
130
 50
90.0
  7
YUGOTHIC_MEDIUM
  0
POINT
  5
1BB
  8
DEFPOINTS
 62
     0
 10
805.0864719169422
 20
399.6163695960227
 30
0.0
  0
POINT
  5
1BC
  8
DEFPOINTS
 62
     0
 10
805.0864719169422
 20
529.6163695960227
 30
0.0
  0
POINT
  5
1BD
  8
DEFPOINTS
 62
     0
 10
705.0864719169422
 20
529.6163695960227
 30
0.0
  0
ENDBLK
  5
B9
  8
0
  0
BLOCK
  8
0
  2
*D26
 70
     1
 10
0.0
 20
0.0
 30
0.0
  3
*D26
  1

  0
LINE
  5
1BF
  8
1_5__
  6
CONTINUOUS
 62
     0
 10
444.1929018890025
 20
464.6163695960227
 30
0.0
 11
536.6929019169422
 21
464.6163695960227
 31
0.0
  0
LINE
  5
1C0
  8
1_5__
  6
CONTINUOUS
 62
     0
 10
444.1929018890025
 20
529.6163695960227
 30
0.0
 11
536.6929019169422
 21
529.6163695960227
 31
0.0
  0
LINE
  5
1C1
  8
1_5__
  6
CONTINUOUS
 62
     0
 10
536.6929019169422
 20
466.8642944007102
 30
0.0
 11
536.6929019169422
 21
527.3684447913352
 31
0.0
  0
INSERT
  5
1C2
  8
1_5__
 62
     0
  2
_DOT
 10
536.6929019169422
 20
464.6163695960227
 30
0.0
 41
2.2479248046875
 42
2.2479248046875
 43
2.2479248046875
 50
270.0
  0
INSERT
  5
1C3
  8
1_5__
 62
     0
  2
_DOT
 10
536.6929019169422
 20
529.6163695960227
 30
0.0
 41
2.2479248046875
 42
2.2479248046875
 43
2.2479248046875
 50
90.0
  0
TEXT
  5
1C4
  8
1_5__
  6
CONTINUOUS
 62
     0
 10
536.6429019171285
 20
486.7491476493736
 30
0.0
 40
10.62008101851851
  1
65
 50
90.0
  7
YUGOTHIC_MEDIUM
  0
POINT
  5
1C5
  8
DEFPOINTS
 62
     0
 10
436.6929019169422
 20
464.6163695960227
 30
0.0
  0
POINT
  5
1C6
  8
DEFPOINTS
 62
     0
 10
436.6929019169422
 20
529.6163695960227
 30
0.0
  0
POINT
  5
1C7
  8
DEFPOINTS
 62
     0
 10
536.6929019169422
 20
529.6163695960227
 30
0.0
  0
ENDBLK
  5
BC
  8
0
  0
BLOCK
  8
0
  2
*D27
 70
     1
 10
0.0
 20
0.0
 30
0.0
  3
*D27
  1

  0
LINE
  5
1C9
  8
1_5__
  6
CONTINUOUS
 62
     0
 10
279.1929019169422
 20
502.116369568083
 30
0.0
 11
279.1929019169422
 21
594.6163695960227
 31
0.0
  0
LINE
  5
1CA
  8
1_5__
  6
CONTINUOUS
 62
     0
 10
-0.807098083057781
 20
502.116369568083
 30
0.0
 11
-0.807098083057781
 21
594.6163695960227
 31
0.0
  0
LINE
  5
1CB
  8
1_5__
  6
CONTINUOUS
 62
     0
 10
276.9449771122547
 20
594.6163695960227
 30
0.0
 11
1.440826721629719
 21
594.6163695960227
 31
0.0
  0
INSERT
  5
1CC
  8
1_5__
 62
     0
  2
_DOT
 10
279.1929019169422
 20
594.6163695960227
 30
0.0
 41
2.2479248046875
 42
2.2479248046875
 43
2.2479248046875
  0
INSERT
  5
1CD
  8
1_5__
 62
     0
  2
_DOT
 10
-0.807098083057781
 20
594.6163695960227
 30
0.0
 41
2.2479248046875
 42
2.2479248046875
 43
2.2479248046875
 50
180.0
  0
TEXT
  5
1CE
  8
1_5__
  6
CONTINUOUS
 62
     0
 10
124.0213576047729
 20
594.6663695958364
 30
0.0
 40
10.62008101851851
  1
280
  7
YUGOTHIC_MEDIUM
  0
POINT
  5
1CF
  8
DEFPOINTS
 62
     0
 10
279.1929019169422
 20
494.6163695960227
 30
0.0
  0
POINT
  5
1D0
  8
DEFPOINTS
 62
     0
 10
-0.807098083057781
 20
494.6163695960227
 30
0.0
  0
POINT
  5
1D1
  8
DEFPOINTS
 62
     0
 10
-0.807098083057781
 20
594.6163695960227
 30
0.0
  0
ENDBLK
  5
BF
  8
0
  0
BLOCK
  8
0
  2
_DOT
 70
     0
 10
0.0
 20
0.0
 30
0.0
  3
_DOT
  1

  0
POLYLINE
  5
DA
  8
0
  6
BYBLOCK
 62
     0
 66
     1
 10
0.0
 20
0.0
 30
0.0
 70
     1
 40
0.5
 41
0.5
  0
VERTEX
  5
9C4
  8
0
  6
BYBLOCK
 62
     0
 10
-0.25
 20
0.0
 30
0.0
 42
1.0
  0
VERTEX
  5
9C5
  8
0
  6
BYBLOCK
 62
     0
 10
0.25
 20
0.0
 30
0.0
 42
1.0
  0
SEQEND
  5
9C8
  8
0
  6
BYBLOCK
 62
     0
  0
LINE
  5
DB
  8
0
  6
BYBLOCK
 62
     0
 10
-0.5
 20
0.0
 30
0.0
 11
-1.0
 21
0.0
 31
0.0
  0
ENDBLK
  5
D9
  8
0
  0
ENDSEC
  0
SECTION
  2
ENTITIES
  0
INSERT
  5
1D3
  8
_
 62
     7
  2
__A3
 10
524.4597052377339
 20
106.3691961421841
 30
0.0
 41
0.1
 42
0.1
 43
0.1
  0
TEXT
  5
1D4
  8
_
 62
     4
 10
1299.226184757971
 20
74.86823158540696
 30
0.0
 40
10.62008101851852
  1
2019.04.02
  7
YUGOTHIC_MEDIUM
 11
1299.226184757971
 21
80.17827209466623
 31
0.0
 73
     2
  0
TEXT
  5
1D5
  8
_
 62
     4
 10
1490.355367113541
 20
74.92484655722532
 30
0.0
 40
10.62008101851852
  1
1:5(A3)
  7
YUGOTHIC_MEDIUM
 11
1490.355367113541
 21
80.23488706648459
 31
0.0
 73
     2
  0
TEXT
  5
1D6
  8
_
 62
     4
 10
1094.98432095056
 20
75.068231585407
 30
0.0
 40
10.62008101851852
  1
KB-PR008-04
  7
YUGOTHIC_MEDIUM
 11
1094.98432095056
 21
80.37827209466627
 31
0.0
 73
     2
  0
TEXT
  5
1D7
  8
_
 62
     4
 10
529.0076903595975
 20
74.74449441147803
 30
0.0
 40
10.62008101851852
  1
ウェルラウンドシンク フレームレス600 壁付け
  7
YUGOTHIC_MEDIUM
 11
529.0076903595975
 21
80.0545349207373
 31
0.0
 73
     2
  0
DIMENSION
  5
1D8
  8
1_5_____
  6
CONTINUOUS
 62
    17
  2
*D3
 10
1122.0
 20
1271.186210234303
 30
0.0
 11
1116.639959490927
 21
1233.936210234317
 31
0.0
 70
    32
  3
TOOLBOX
 13
1076.806333512686
 23
1196.686210234332
 33
0.0
 14
1079.556333512686
 24
1271.186210234303
 34
0.0
 50
-90.0
  0
DIMENSION
  5
1D9
  8
1_5_____
  6
CONTINUOUS
 62
    17
  2
*D4
 10
1066.056333512687
 20
1296.186210234303
 30
0.0
 11
1072.806333512687
 21
1301.546250743376
 31
0.0
 70
    32
  3
TOOLBOX
 13
1079.556333512686
 23
1271.186210234303
 33
0.0
 14
1066.056333512687
 24
1271.186210234303
 34
0.0
  0
DIMENSION
  5
1DC
  8
1_5_____
  6
CONTINUOUS
 62
    17
  2
*D5
 10
872.6125385126871
 20
1011.63577523432
 30
0.0
 11
879.6125385126871
 21
1016.995815743393
 31
0.0
 70
    32
  3
TOOLBOX
 13
886.6125385126871
 23
986.6357752343197
 33
0.0
 14
872.6125385126871
 24
986.6357752343197
 34
0.0
  0
LINE
  5
1DF
  8
1_5_____
  6
ISO-10______
 62
     2
 10
139.1929019169422
 20
1212.739564596074
 30
0.0
 11
139.1929019169422
 21
712.7395645960737
 31
0.0
  0
ARC
  5
1E0
  8
1_5_____
  6
CONTINUOUS
 62
     1
 10
-2241.849873083057
 20
874.4888045960201
 30
0.0
 40
3391.980865
 50
353.3715560000001
 51
353.8611159999998
  0
ARC
  5
1E1
  8
1_5_____
  6
CONTINUOUS
 62
     1
 10
1072.891626916941
 20
396.7531595960122
 30
0.0
 40
3.000000000008733
 50
97.25632599994509
 51
132.9995669998513
  0
ARC
  5
1E2
  8
1_5_____
  6
CONTINUOUS
 62
     1
 10
907.8334419169423
 20
498.6792495960058
 30
0.0
 40
220.1865649999975
 50
345.5334570000012
 51
355.9039170000152
  0
ARC
  5
1E3
  8
1_5_____
  6
CONTINUOUS
 62
     1
 10
998.4308119169418
 20
396.6201595960106
 30
0.0
 40
2.999999999998451
 50
47.0003989999542
 51
89.61675099997446
  0
ARC
  5
1E4
  8
1_5_____
  6
CONTINUOUS
 62
     1
 10
1061.740471916943
 20
634.2599895960107
 30
0.0
 40
264.9750450000038
 50
204.2212130000017
 51
225.5790799999874
  0
LINE
  5
1E5
  8
1_5_____
  6
CONTINUOUS
 62
     1
 10
1071.563216916942
 20
399.6163695960227
 30
0.0
 11
999.563976916942
 21
399.6163695960227
 31
0.0
  0
LINE
  5
1E6
  8
1_5_____
  6
CONTINUOUS
 62
     1
 10
1058.589171916943
 20
387.6163695960227
 30
0.0
 11
1012.589171916942
 21
387.6163695960227
 31
0.0
  0
LINE
  5
1E7
  8
1_5_____
  6
CONTINUOUS
 62
     1
 10
1012.589171916942
 20
387.6163695960227
 30
0.0
 11
1012.589171916942
 21
349.6163695960227
 31
0.0
  0
LINE
  5
1E8
  8
1_5_____
  6
CONTINUOUS
 62
     1
 10
1058.589171916943
 20
387.6163695960227
 30
0.0
 11
1058.589171916943
 21
349.6163695960227
 31
0.0
  0
ARC
  5
1E9
  8
1_5_____
  6
CONTINUOUS
 62
     1
 10
813.7325169169426
 20
522.6150945960057
 30
0.0
 40
7.00127500002224
 50
26.43562700035557
 51
89.99353300000107
  0
LINE
  5
1EA
  8
1_5_____
  6
CONTINUOUS
 62
     1
 10
1131.927926916942
 20
523.356804596066
 30
0.0
 11
1130.680011916942
 21
511.7542645960443
 31
0.0
  0
LINE
  5
1EB
  8
1_5_____
  6
CONTINUOUS
 62
     1
 10
1058.693196916942
 20
387.6150595960303
 30
0.0
 11
1070.845651916942
 21
398.9472345960189
 31
0.0
  0
LINE
  5
1EC
  8
1_5_____
  6
CONTINUOUS
 62
     1
 10
1000.476791916942
 20
398.8142345960173
 30
0.0
 11
1012.485151916942
 21
387.6164145960743
 31
0.0
  0
LINE
  5
1ED
  8
1_5_____
  6
CONTINUOUS
 62
     1
 10
820.0017019169418
 20
525.7320045960173
 30
0.0
 11
820.0916369169408
 21
525.5511395960152
 31
0.0
  0
LINE
  5
1EE
  8
1_5_____
  6
CONTINUOUS
 62
     1
 10
820.0015269169417
 20
525.7320145960352
 30
0.0
 11
820.0016969169419
 21
525.7320145960352
 31
0.0
  0
ARC
  5
1EF
  8
1_5_____
  6
CONTINUOUS
 62
     1
 10
1064.779231916942
 20
457.0337495960507
 30
0.0
 40
57.8240949999882
 50
277.6858420000015
 51
346.6410329999637
  0
ARC
  5
1F0
  8
1_5_____
  6
CONTINUOUS
 62
     1
 10
995.3620369169421
 20
578.3985445960229
 30
0.0
 40
178.8111649999904
 50
228.2427309999972
 51
271.0316750000003
  0
POLYLINE
  5
1F1
  8
1_5_____
  6
CONTINUOUS
 62
     1
 66
     1
 10
0.0
 20
0.0
 30
0.0
 70
   128
  0
VERTEX
  5
1F2
  8
1_5_____
  6
CONTINUOUS
 62
     1
 10
1138.888651680836
 20
529.6163675053199
 30
0.0
  0
VERTEX
  5
1F3
  8
1_5_____
  6
CONTINUOUS
 62
     1
 10
1138.80869210423
 20
529.6158436752121
 30
0.0
  0
VERTEX
  5
1F4
  8
1_5_____
  6
CONTINUOUS
 62
     1
 10
1138.728976269617
 20
529.6144154040198
 30
0.0
  0
VERTEX
  5
1F5
  8
1_5_____
  6
CONTINUOUS
 62
     1
 10
1138.649504176997
 20
529.6120826917431
 30
0.0
  0
VERTEX
  5
1F6
  8
1_5_____
  6
CONTINUOUS
 62
     1
 10
1138.570275826369
 20
529.6088455383817
 30
0.0
  0
VERTEX
  5
1F7
  8
1_5_____
  6
CONTINUOUS
 62
     1
 10
1138.491291217734
 20
529.6047039439359
 30
0.0
  0
VERTEX
  5
1F8
  8
1_5_____
  6
CONTINUOUS
 62
     1
 10
1138.412550351092
 20
529.5996579084058
 30
0.0
  0
VERTEX
  5
1F9
  8
1_5_____
  6
CONTINUOUS
 62
     1
 10
1138.334053226443
 20
529.5937074317912
 30
0.0
  0
VERTEX
  5
1FA
  8
1_5_____
  6
CONTINUOUS
 62
     1
 10
1138.255799843787
 20
529.586852514092
 30
0.0
  0
VERTEX
  5
1FB
  8
1_5_____
  6
CONTINUOUS
 62
     1
 10
1138.177790203123
 20
529.5790931553083
 30
0.0
  0
VERTEX
  5
1FC
  8
1_5_____
  6
CONTINUOUS
 62
     1
 10
1138.100024304453
 20
529.5704293554404
 30
0.0
  0
VERTEX
  5
1FD
  8
1_5_____
  6
CONTINUOUS
 62
     1
 10
1138.022502147775
 20
529.5608611144878
 30
0.0
  0
VERTEX
  5
1FE
  8
1_5_____
  6
CONTINUOUS
 62
     1
 10
1137.94522373309
 20
529.5503884324507
 30
0.0
  0
VERTEX
  5
1FF
  8
1_5_____
  6
CONTINUOUS
 62
     1
 10
1137.868189060397
 20
529.539011309329
 30
0.0
  0
VERTEX
  5
200
  8
1_5_____
  6
CONTINUOUS
 62
     1
 10
1137.791398129698
 20
529.526729745123
 30
0.0
  0
VERTEX
  5
201
  8
1_5_____
  6
CONTINUOUS
 62
     1
 10
1137.714850940991
 20
529.5135437398326
 30
0.0
  0
VERTEX
  5
202
  8
1_5_____
  6
CONTINUOUS
 62
     1
 10
1137.638547494277
 20
529.4994532934575
 30
0.0
  0
VERTEX
  5
203
  8
1_5_____
  6
CONTINUOUS
 62
     1
 10
1137.562487789556
 20
529.4844584059979
 30
0.0
  0
VERTEX
  5
204
  8
1_5_____
  6
CONTINUOUS
 62
     1
 10
1137.486671826827
 20
529.4685590774541
 30
0.0
  0
VERTEX
  5
205
  8
1_5_____
  6
CONTINUOUS
 62
     1
 10
1137.411099606092
 20
529.4517553078258
 30
0.0
  0
VERTEX
  5
206
  8
1_5_____
  6
CONTINUOUS
 62
     1
 10
1137.335771127349
 20
529.4340470971129
 30
0.0
  0
VERTEX
  5
207
  8
1_5_____
  6
CONTINUOUS
 62
     1
 10
1137.260686390599
 20
529.4154344453154
 30
0.0
  0
VERTEX
  5
208
  8
1_5_____
  6
CONTINUOUS
 62
     1
 10
1137.185845395842
 20
529.3959173524336
 30
0.0
  0
VERTEX
  5
209
  8
1_5_____
  6
CONTINUOUS
 62
     1
 10
1137.111248143078
 20
529.3754958184672
 30
0.0
  0
VERTEX
  5
20A
  8
1_5_____
  6
CONTINUOUS
 62
     1
 10
1137.036894632306
 20
529.3541698434162
 30
0.0
  0
VERTEX
  5
20B
  8
1_5_____
  6
CONTINUOUS
 62
     1
 10
1136.962784863528
 20
529.3319394272808
 30
0.0
  0
VERTEX
  5
20C
  8
1_5_____
  6
CONTINUOUS
 62
     1
 10
1136.888918836742
 20
529.308804570061
 30
0.0
  0
VERTEX
  5
20D
  8
1_5_____
  6
CONTINUOUS
 62
     1
 10
1136.815296551948
 20
529.2847652717569
 30
0.0
  0
VERTEX
  5
20E
  8
1_5_____
  6
CONTINUOUS
 62
     1
 10
1136.741918009148
 20
529.259821532368
 30
0.0
  0
VERTEX
  5
20F
  8
1_5_____
  6
CONTINUOUS
 62
     1
 10
1136.668783208341
 20
529.2339733518947
 30
0.0
  0
VERTEX
  5
210
  8
1_5_____
  6
CONTINUOUS
 62
     1
 10
1136.595892149526
 20
529.2072207303372
 30
0.0
  0
VERTEX
  5
211
  8
1_5_____
  6
CONTINUOUS
 62
     1
 10
1136.523244832704
 20
529.179563667695
 30
0.0
  0
VERTEX
  5
212
  8
1_5_____
  6
CONTINUOUS
 62
     1
 10
1136.450841257875
 20
529.1510021639683
 30
0.0
  0
VERTEX
  5
213
  8
1_5_____
  6
CONTINUOUS
 62
     1
 10
1136.378681425038
 20
529.1215362191572
 30
0.0
  0
VERTEX
  5
214
  8
1_5_____
  6
CONTINUOUS
 62
     1
 10
1136.306765334195
 20
529.0911658332616
 30
0.0
  0
VERTEX
  5
215
  8
1_5_____
  6
CONTINUOUS
 62
     1
 10
1136.235092985344
 20
529.0598910062813
 30
0.0
  0
VERTEX
  5
216
  8
1_5_____
  6
CONTINUOUS
 62
     1
 10
1136.163664378486
 20
529.0277117382168
 30
0.0
  0
VERTEX
  5
217
  8
1_5_____
  6
CONTINUOUS
 62
     1
 10
1136.092479513621
 20
528.9946280290678
 30
0.0
  0
VERTEX
  5
218
  8
1_5_____
  6
CONTINUOUS
 62
     1
 10
1136.021538390749
 20
528.9606398788342
 30
0.0
  0
VERTEX
  5
219
  8
1_5_____
  6
CONTINUOUS
 62
     1
 10
1135.950841009869
 20
528.9257472875161
 30
0.0
  0
VERTEX
  5
21A
  8
1_5_____
  6
CONTINUOUS
 62
     1
 10
1135.880387370982
 20
528.8899502551137
 30
0.0
  0
VERTEX
  5
21B
  8
1_5_____
  6
CONTINUOUS
 62
     1
 10
1135.810177474089
 20
528.8532487816269
 30
0.0
  0
VERTEX
  5
21C
  8
1_5_____
  6
CONTINUOUS
 62
     1
 10
1135.740211319187
 20
528.8156428670554
 30
0.0
  0
VERTEX
  5
21D
  8
1_5_____
  6
CONTINUOUS
 62
     1
 10
1135.670488906279
 20
528.7771325113995
 30
0.0
  0
VERTEX
  5
21E
  8
1_5_____
  6
CONTINUOUS
 62
     1
 10
1135.601010235363
 20
528.7377177146591
 30
0.0
  0
VERTEX
  5
21F
  8
1_5_____
  6
CONTINUOUS
 62
     1
 10
1135.531775306441
 20
528.6973984768342
 30
0.0
  0
VERTEX
  5
220
  8
1_5_____
  6
CONTINUOUS
 62
     1
 10
1135.462784119511
 20
528.6561747979247
 30
0.0
  0
VERTEX
  5
221
  8
1_5_____
  6
CONTINUOUS
 62
     1
 10
1135.394036674573
 20
528.6140466779307
 30
0.0
  0
VERTEX
  5
222
  8
1_5_____
  6
CONTINUOUS
 62
     1
 10
1135.325532971629
 20
528.5710141168524
 30
0.0
  0
VERTEX
  5
223
  8
1_5_____
  6
CONTINUOUS
 62
     1
 10
1135.257273010678
 20
528.5270771146897
 30
0.0
  0
VERTEX
  5
224
  8
1_5_____
  6
CONTINUOUS
 62
     1
 10
1135.189256791719
 20
528.4822356714424
 30
0.0
  0
VERTEX
  5
225
  8
1_5_____
  6
CONTINUOUS
 62
     1
 10
1135.121484314753
 20
528.4364897871105
 30
0.0
  0
VERTEX
  5
226
  8
1_5_____
  6
CONTINUOUS
 62
     1
 10
1135.05395557978
 20
528.3898394616945
 30
0.0
  0
VERTEX
  5
227
  8
1_5_____
  6
CONTINUOUS
 62
     1
 10
1134.986670586799
 20
528.3422846951937
 30
0.0
  0
VERTEX
  5
228
  8
1_5_____
  6
CONTINUOUS
 62
     1
 10
1134.919629335812
 20
528.2938254876085
 30
0.0
  0
VERTEX
  5
229
  8
1_5_____
  6
CONTINUOUS
 62
     1
 10
1134.852831826817
 20
528.2444618389386
 30
0.0
  0
VERTEX
  5
22A
  8
1_5_____
  6
CONTINUOUS
 62
     1
 10
1134.786278059815
 20
528.1941937491845
 30
0.0
  0
VERTEX
  5
22B
  8
1_5_____
  6
CONTINUOUS
 62
     1
 10
1134.719968034806
 20
528.1430212183459
 30
0.0
  0
VERTEX
  5
22C
  8
1_5_____
  6
CONTINUOUS
 62
     1
 10
1134.65390175179
 20
528.0909442464226
 30
0.0
  0
VERTEX
  5
22D
  8
1_5_____
  6
CONTINUOUS
 62
     1
 10
1134.588079210766
 20
528.0379628334149
 30
0.0
  0
VERTEX
  5
22E
  8
1_5_____
  6
CONTINUOUS
 62
     1
 10
1134.522500411736
 20
527.9840769793229
 30
0.0
  0
VERTEX
  5
22F
  8
1_5_____
  6
CONTINUOUS
 62
     1
 10
1134.457165354698
 20
527.9292866841465
 30
0.0
  0
VERTEX
  5
230
  8
1_5_____
  6
CONTINUOUS
 62
     1
 10
1134.392074039652
 20
527.8735919478854
 30
0.0
  0
VERTEX
  5
231
  8
1_5_____
  6
CONTINUOUS
 62
     1
 10
1134.3272264666
 20
527.8169927705399
 30
0.0
  0
VERTEX
  5
232
  8
1_5_____
  6
CONTINUOUS
 62
     1
 10
1134.262622635541
 20
527.7594891521098
 30
0.0
  0
VERTEX
  5
233
  8
1_5_____
  6
CONTINUOUS
 62
     1
 10
1134.198578209794
 20
527.7013639721126
 30
0.0
  0
VERTEX
  5
234
  8
1_5_____
  6
CONTINUOUS
 62
     1
 10
1134.13540885268
 20
527.6429001100655
 30
0.0
  0
VERTEX
  5
235
  8
1_5_____
  6
CONTINUOUS
 62
     1
 10
1134.073114564198
 20
527.5840975659685
 30
0.0
  0
VERTEX
  5
236
  8
1_5_____
  6
CONTINUOUS
 62
     1
 10
1134.01169534435
 20
527.5249563398215
 30
0.0
  0
VERTEX
  5
237
  8
1_5_____
  6
CONTINUOUS
 62
     1
 10
1133.951151193134
 20
527.4654764316247
 30
0.0
  0
VERTEX
  5
238
  8
1_5_____
  6
CONTINUOUS
 62
     1
 10
1133.891482110551
 20
527.4056578413779
 30
0.0
  0
VERTEX
  5
239
  8
1_5_____
  6
CONTINUOUS
 62
     1
 10
1133.832688096601
 20
527.3455005690812
 30
0.0
  0
VERTEX
  5
23A
  8
1_5_____
  6
CONTINUOUS
 62
     1
 10
1133.774769151284
 20
527.2850046147348
 30
0.0
  0
VERTEX
  5
23B
  8
1_5_____
  6
CONTINUOUS
 62
     1
 10
1133.717725274599
 20
527.2241699783385
 30
0.0
  0
VERTEX
  5
23C
  8
1_5_____
  6
CONTINUOUS
 62
     1
 10
1133.661556466547
 20
527.1629966598921
 30
0.0
  0
VERTEX
  5
23D
  8
1_5_____
  6
CONTINUOUS
 62
     1
 10
1133.606262727128
 20
527.1014846593957
 30
0.0
  0
VERTEX
  5
23E
  8
1_5_____
  6
CONTINUOUS
 62
     1
 10
1133.551844056342
 20
527.0396339768495
 30
0.0
  0
VERTEX
  5
23F
  8
1_5_____
  6
CONTINUOUS
 62
     1
 10
1133.498300454188
 20
526.9774446122533
 30
0.0
  0
VERTEX
  5
240
  8
1_5_____
  6
CONTINUOUS
 62
     1
 10
1133.445631920667
 20
526.9149165656074
 30
0.0
  0
VERTEX
  5
241
  8
1_5_____
  6
CONTINUOUS
 62
     1
 10
1133.393838455779
 20
526.8520498369116
 30
0.0
  0
VERTEX
  5
242
  8
1_5_____
  6
CONTINUOUS
 62
     1
 10
1133.342920059524
 20
526.7888444261657
 30
0.0
  0
VERTEX
  5
243
  8
1_5_____
  6
CONTINUOUS
 62
     1
 10
1133.292876731901
 20
526.7253003333699
 30
0.0
  0
VERTEX
  5
244
  8
1_5_____
  6
CONTINUOUS
 62
     1
 10
1133.243708472911
 20
526.6614175585244
 30
0.0
  0
VERTEX
  5
245
  8
1_5_____
  6
CONTINUOUS
 62
     1
 10
1133.195415282554
 20
526.5971961016289
 30
0.0
  0
VERTEX
  5
246
  8
1_5_____
  6
CONTINUOUS
 62
     1
 10
1133.14799716083
 20
526.5326359626833
 30
0.0
  0
VERTEX
  5
247
  8
1_5_____
  6
CONTINUOUS
 62
     1
 10
1133.101454107739
 20
526.4677371416881
 30
0.0
  0
VERTEX
  5
248
  8
1_5_____
  6
CONTINUOUS
 62
     1
 10
1133.05578612328
 20
526.4024996386429
 30
0.0
  0
VERTEX
  5
249
  8
1_5_____
  6
CONTINUOUS
 62
     1
 10
1133.010993207454
 20
526.3369234535476
 30
0.0
  0
VERTEX
  5
24A
  8
1_5_____
  6
CONTINUOUS
 62
     1
 10
1132.967075360261
 20
526.2710085864026
 30
0.0
  0
VERTEX
  5
24B
  8
1_5_____
  6
CONTINUOUS
 62
     1
 10
1132.9240325817
 20
526.2047550372076
 30
0.0
  0
VERTEX
  5
24C
  8
1_5_____
  6
CONTINUOUS
 62
     1
 10
1132.881864871772
 20
526.1381628059626
 30
0.0
  0
VERTEX
  5
24D
  8
1_5_____
  6
CONTINUOUS
 62
     1
 10
1132.840572230477
 20
526.0712318926678
 30
0.0
  0
VERTEX
  5
24E
  8
1_5_____
  6
CONTINUOUS
 62
     1
 10
1132.800154657815
 20
526.0039622973231
 30
0.0
  0
VERTEX
  5
24F
  8
1_5_____
  6
CONTINUOUS
 62
     1
 10
1132.760612153786
 20
525.9363540199286
 30
0.0
  0
VERTEX
  5
250
  8
1_5_____
  6
CONTINUOUS
 62
     1
 10
1132.721944718389
 20
525.8684070604841
 30
0.0
  0
VERTEX
  5
251
  8
1_5_____
  6
CONTINUOUS
 62
     1
 10
1132.684152351625
 20
525.8001214189896
 30
0.0
  0
VERTEX
  5
252
  8
1_5_____
  6
CONTINUOUS
 62
     1
 10
1132.647235053494
 20
525.7314970954453
 30
0.0
  0
VERTEX
  5
253
  8
1_5_____
  6
CONTINUOUS
 62
     1
 10
1132.611192823996
 20
525.6625340898511
 30
0.0
  0
VERTEX
  5
254
  8
1_5_____
  6
CONTINUOUS
 62
     1
 10
1132.57602566313
 20
525.5932324022069
 30
0.0
  0
VERTEX
  5
255
  8
1_5_____
  6
CONTINUOUS
 62
     1
 10
1132.541733570898
 20
525.5235920325129
 30
0.0
  0
VERTEX
  5
256
  8
1_5_____
  6
CONTINUOUS
 62
     1
 10
1132.508316547297
 20
525.4536129807689
 30
0.0
  0
VERTEX
  5
257
  8
1_5_____
  6
CONTINUOUS
 62
     1
 10
1132.47577459233
 20
525.383295246975
 30
0.0
  0
VERTEX
  5
258
  8
1_5_____
  6
CONTINUOUS
 62
     1
 10
1132.444107705996
 20
525.3126388311312
 30
0.0
  0
VERTEX
  5
259
  8
1_5_____
  6
CONTINUOUS
 62
     1
 10
1132.413315888294
 20
525.2416437332377
 30
0.0
  0
VERTEX
  5
25A
  8
1_5_____
  6
CONTINUOUS
 62
     1
 10
1132.383399139225
 20
525.170309953294
 30
0.0
  0
VERTEX
  5
25B
  8
1_5_____
  6
CONTINUOUS
 62
     1
 10
1132.354357458788
 20
525.0986374913005
 30
0.0
  0
VERTEX
  5
25C
  8
1_5_____
  6
CONTINUOUS
 62
     1
 10
1132.326190846985
 20
525.0266263472572
 30
0.0
  0
VERTEX
  5
25D
  8
1_5_____
  6
CONTINUOUS
 62
     1
 10
1132.298899303814
 20
524.9542765211638
 30
0.0
  0
VERTEX
  5
25E
  8
1_5_____
  6
CONTINUOUS
 62
     1
 10
1132.272482829276
 20
524.8815880130205
 30
0.0
  0
VERTEX
  5
25F
  8
1_5_____
  6
CONTINUOUS
 62
     1
 10
1132.246941423371
 20
524.8085608228275
 30
0.0
  0
VERTEX
  5
260
  8
1_5_____
  6
CONTINUOUS
 62
     1
 10
1132.222275086099
 20
524.7351949505844
 30
0.0
  0
VERTEX
  5
261
  8
1_5_____
  6
CONTINUOUS
 62
     1
 10
1132.198483817459
 20
524.6614903962914
 30
0.0
  0
VERTEX
  5
262
  8
1_5_____
  6
CONTINUOUS
 62
     1
 10
1132.175567617452
 20
524.5874471599486
 30
0.0
  0
VERTEX
  5
263
  8
1_5_____
  6
CONTINUOUS
 62
     1
 10
1132.153526486078
 20
524.513065241556
 30
0.0
  0
VERTEX
  5
264
  8
1_5_____
  6
CONTINUOUS
 62
     1
 10
1132.132360423336
 20
524.4383446411132
 30
0.0
  0
VERTEX
  5
265
  8
1_5_____
  6
CONTINUOUS
 62
     1
 10
1132.112069429228
 20
524.3632853586205
 30
0.0
  0
VERTEX
  5
266
  8
1_5_____
  6
CONTINUOUS
 62
     1
 10
1132.092653503752
 20
524.2878873940781
 30
0.0
  0
VERTEX
  5
267
  8
1_5_____
  6
CONTINUOUS
 62
     1
 10
1132.074112646909
 20
524.2121507474858
 30
0.0
  0
VERTEX
  5
268
  8
1_5_____
  6
CONTINUOUS
 62
     1
 10
1132.056446858699
 20
524.1360754188436
 30
0.0
  0
VERTEX
  5
269
  8
1_5_____
  6
CONTINUOUS
 62
     1
 10
1132.039656139121
 20
524.0596614081514
 30
0.0
  0
VERTEX
  5
26A
  8
1_5_____
  6
CONTINUOUS
 62
     1
 10
1132.023740488176
 20
523.9829087154092
 30
0.0
  0
VERTEX
  5
26B
  8
1_5_____
  6
CONTINUOUS
 62
     1
 10
1132.008699905864
 20
523.905817340617
 30
0.0
  0
VERTEX
  5
26C
  8
1_5_____
  6
CONTINUOUS
 62
     1
 10
1131.994534392185
 20
523.8283872837751
 30
0.0
  0
VERTEX
  5
26D
  8
1_5_____
  6
CONTINUOUS
 62
     1
 10
1131.981243947138
 20
523.7506185448833
 30
0.0
  0
VERTEX
  5
26E
  8
1_5_____
  6
CONTINUOUS
 62
     1
 10
1131.968828570725
 20
523.6725111239416
 30
0.0
  0
VERTEX
  5
26F
  8
1_5_____
  6
CONTINUOUS
 62
     1
 10
1131.957288262944
 20
523.59406502095
 30
0.0
  0
VERTEX
  5
270
  8
1_5_____
  6
CONTINUOUS
 62
     1
 10
1131.946623023795
 20
523.5152802359084
 30
0.0
  0
VERTEX
  5
271
  8
1_5_____
  6
CONTINUOUS
 62
     1
 10
1131.93683285328
 20
523.436156768817
 30
0.0
  0
VERTEX
  5
272
  8
1_5_____
  6
CONTINUOUS
 62
     1
 10
1131.927917751397
 20
523.3566946196756
 30
0.0
  0
VERTEX
  5
273
  8
1_5_____
  6
CONTINUOUS
 62
     1
 10
1131.927917751397
 20
523.3566946196756
 30
0.0
  0
SEQEND
  5
274
  8
1_5_____
  6
CONTINUOUS
 62
     1
  0
ARC
  5
275
  8
1_5_____
  6
CONTINUOUS
 62
     1
 10
992.0446019169412
 20
556.9851545960214
 30
0.0
 40
189.6990199999985
 50
190.6105740000002
 51
218.2899929999904
  0
ARC
  5
276
  8
1_5_____
  6
CONTINUOUS
 62
     1
 10
1068.697901916943
 20
352.6163695960227
 30
0.0
 40
3.0
 50
270.0
 51
356.9995899997854
  0
LINE
  5
277
  8
1_5_____
  6
CONTINUOUS
 62
     1
 10
1071.729571916943
 20
353.1420245960567
 30
0.0
 11
1071.693791916941
 21
352.4593395959914
 31
0.0
  0
ARC
  5
278
  8
1_5_____
  6
CONTINUOUS
 62
     1
 10
1068.697901916943
 20
352.6163695960227
 30
0.0
 40
3.0
 50
270.0
 51
356.9995899997854
  0
ARC
  5
279
  8
1_5_____
  6
CONTINUOUS
 62
     1
 10
1002.480446916942
 20
352.6163695960227
 30
0.0
 40
3.000000000000848
 50
183.0004100002137
 51
270.0
  0
LINE
  5
27A
  8
1_5_____
  6
CONTINUOUS
 62
     1
 10
1068.697901916943
 20
349.6163695960227
 30
0.0
 11
1002.480446916942
 21
349.6163695960227
 31
0.0
  0
LINE
  5
27B
  8
1_5_____
  6
CONTINUOUS
 62
     1
 10
944.315706916941
 20
367.6279895960274
 30
0.0
 11
998.776571916942
 21
365.9620045960278
 31
0.0
  0
LINE
  5
27C
  8
1_5_____
  6
CONTINUOUS
 62
     1
 10
1265.589171916942
 20
527.6163695960227
 30
0.0
 11
1265.589171916942
 21
361.752549596024
 31
0.0
  0
LINE
  5
27D
  8
1_5_____
  6
ISO-10______
 62
     2
 10
1035.589171916942
 20
559.6163695960227
 30
0.0
 11
1035.589171916942
 21
319.6163695960227
 31
0.0
  0
ARC
  5
27E
  8
1_5_____
  6
CONTINUOUS
 62
     1
 10
1235.550926916943
 20
366.6355495959965
 30
0.0
 40
5.997055000002293
 50
263.1956009999965
 51
268.1774609999812
  0
ARC
  5
27F
  8
1_5_____
  6
CONTINUOUS
 62
     1
 10
945.1897719169428
 20
382.6025245960432
 30
0.0
 40
15.00001999999328
 50
250.9569159999901
 51
266.6594259999914
  0
LINE
  5
280
  8
1_5_____
  6
CONTINUOUS
 62
     1
 10
1235.378806916942
 20
360.6456645960375
 30
0.0
 11
1263.525816916942
 21
359.7535545959931
 31
0.0
  0
LINE
  5
281
  8
1_5_____
  6
CONTINUOUS
 62
     1
 10
974.6056119169425
 20
529.6163695960227
 30
0.0
 11
974.5864119169428
 21
529.6163695960227
 31
0.0
  0
LINE
  5
282
  8
1_5_____
  6
CONTINUOUS
 62
     1
 10
826.4533319169423
 20
529.6163695960227
 30
0.0
 11
826.443546916943
 21
529.6163695960227
 31
0.0
  0
LINE
  5
283
  8
1_5_____
  6
CONTINUOUS
 62
     1
 10
974.6256019169414
 20
529.6163695960227
 30
0.0
 11
974.6056119169425
 21
529.6163695960227
 31
0.0
  0
LINE
  5
284
  8
1_5_____
  6
CONTINUOUS
 62
     1
 10
974.5864119169428
 20
529.6163695960227
 30
0.0
 11
974.5664219169421
 21
529.6163695960227
 31
0.0
  0
LINE
  5
285
  8
1_5_____
  6
CONTINUOUS
 62
     1
 10
1263.589171916943
 20
529.6163695960227
 30
0.0
 11
812.586476916942
 21
529.6163695960227
 31
0.0
  0
LINE
  5
286
  8
1_5_____
  6
CONTINUOUS
 62
     1
 10
1153.520896916943
 20
420.4795245960509
 30
0.0
 11
1153.533701916942
 21
420.4795245960509
 31
0.0
  0
LINE
  5
287
  8
1_5_____
  6
CONTINUOUS
 62
     1
 10
1084.119746916942
 20
359.6163595960629
 30
0.0
 11
1084.131566916942
 21
359.6163595960629
 31
0.0
  0
LINE
  5
288
  8
1_5_____
  6
CONTINUOUS
 62
     1
 10
1076.679926916942
 20
357.4396795960297
 30
0.0
 11
1084.119746916942
 21
357.4396795960297
 31
0.0
  0
LINE
  5
289
  8
1_5_____
  6
CONTINUOUS
 62
     1
 10
949.8349419169426
 20
375.3657245960298
 30
0.0
 11
949.8350219169424
 21
375.3657245960298
 31
0.0
  0
LINE
  5
28A
  8
1_5_____
  6
CONTINUOUS
 62
     1
 10
815.7336919169429
 20
529.6163695960227
 30
0.0
 11
814.5870319169417
 21
529.6163695960227
 31
0.0
  0
LINE
  5
28B
  8
1_5_____
  6
CONTINUOUS
 62
     1
 10
1217.880691916943
 20
529.6163695960227
 30
0.0
 11
1218.089861916942
 21
529.6163695960227
 31
0.0
  0
LINE
  5
28C
  8
1_5_____
  6
CONTINUOUS
 62
     1
 10
1217.876796916941
 20
529.6049945960499
 30
0.0
 11
1218.089766916943
 21
529.6163695960227
 31
0.0
  0
LINE
  5
28D
  8
1_5_____
  6
CONTINUOUS
 62
     1
 10
1179.089861916942
 20
529.6163695960227
 30
0.0
 11
1179.310351916942
 21
529.6163695960227
 31
0.0
  0
LINE
  5
28E
  8
1_5_____
  6
CONTINUOUS
 62
     1
 10
1179.089951916942
 20
529.6163695960227
 30
0.0
 11
1179.301771916943
 21
529.6051195960413
 31
0.0
  0
ARC
  5
28F
  8
1_5_____
  6
CONTINUOUS
 62
     1
 10
1263.589171916943
 20
527.6163695960227
 30
0.0
 40
1.999999999999091
 50
0.0
 51
90.0
  0
ARC
  5
290
  8
1_5_____
  6
CONTINUOUS
 62
     1
 10
1263.589171916943
 20
361.752549596024
 30
0.0
 40
1.999999999974047
 50
268.1846329999496
 51
0.0
  0
LINE
  5
291
  8
1_5_____
  6
CONTINUOUS
 62
     1
 10
999.4845569169411
 20
352.4593395959914
 30
0.0
 11
998.776571916942
 21
365.9620045960278
 31
0.0
  0
LINE
  5
292
  8
1_5_____
  6
CONTINUOUS
 62
     1
 10
998.776571916942
 20
365.9620045960278
 30
0.0
 11
1235.378806916942
 21
360.6456645960375
 31
0.0
  0
LINE
  5
293
  8
1_5_____
  6
CONTINUOUS
 62
     1
 10
1280.589171916942
 20
464.6163695960227
 30
0.0
 11
1250.589171916942
 21
464.6163695960227
 31
0.0
  0
ARC
  5
294
  8
1_5_____
  6
CONTINUOUS
 62
     1
 10
812.5666519169426
 20
522.6163945960093
 30
0.0
 40
7.000000000029778
 50
89.83775299999739
 51
184.5971369996502
  0
ARC
  5
295
  8
1_5_____
  6
CONTINUOUS
 62
     1
 10
1010.067271916942
 20
564.0638245960386
 30
0.0
 40
208.3065800000007
 50
216.746289000001
 51
238.7543219999999
  0
ARC
  5
296
  8
1_5_____
  6
CONTINUOUS
 62
     1
 10
1005.062016916942
 20
560.2223795960404
 30
0.0
 40
202.4389750000088
 50
239.4015230000015
 51
251.341267999997
  0
ARC
  5
297
  8
1_5_____
  6
CONTINUOUS
 62
     1
 10
1076.679996916942
 20
352.4396795960297
 30
0.0
 40
5.000000000002419
 50
90.00080799999797
 51
171.9250200001113
  0
ARC
  5
298
  8
1_5_____
  6
CONTINUOUS
 62
     1
 10
1084.118026916942
 20
427.4396795960297
 30
0.0
 40
70.00000000000597
 50
270.0014069999996
 51
293.8331740000179
  0
POLYLINE
  5
299
  8
1_5_____
  6
CONTINUOUS
 62
     1
 66
     1
 10
0.0
 20
0.0
 30
0.0
 70
   128
  0
VERTEX
  5
29A
  8
1_5_____
  6
CONTINUOUS
 62
     1
 10
1235.360543753633
 20
360.6415270247476
 30
0.0
  0
VERTEX
  5
29B
  8
1_5_____
  6
CONTINUOUS
 62
     1
 10
1235.360691335656
 20
360.6415231586889
 30
0.0
  0
VERTEX
  5
29C
  8
1_5_____
  6
CONTINUOUS
 62
     1
 10
1235.360838897864
 20
360.6415198718296
 30
0.0
  0
VERTEX
  5
29D
  8
1_5_____
  6
CONTINUOUS
 62
     1
 10
1235.360986440257
 20
360.6415171641702
 30
0.0
  0
VERTEX
  5
29E
  8
1_5_____
  6
CONTINUOUS
 62
     1
 10
1235.361133962836
 20
360.6415150357102
 30
0.0
  0
VERTEX
  5
29F
  8
1_5_____
  6
CONTINUOUS
 62
     1
 10
1235.3612814656
 20
360.6415134864501
 30
0.0
  0
VERTEX
  5
2A0
  8
1_5_____
  6
CONTINUOUS
 62
     1
 10
1235.361428948549
 20
360.6415125163894
 30
0.0
  0
VERTEX
  5
2A1
  8
1_5_____
  6
CONTINUOUS
 62
     1
 10
1235.361576411683
 20
360.6415121255286
 30
0.0
  0
VERTEX
  5
2A2
  8
1_5_____
  6
CONTINUOUS
 62
     1
 10
1235.361723855003
 20
360.6415123138675
 30
0.0
  0
VERTEX
  5
2A3
  8
1_5_____
  6
CONTINUOUS
 62
     1
 10
1235.361871278508
 20
360.6415130814062
 30
0.0
  0
VERTEX
  5
2A4
  8
1_5_____
  6
CONTINUOUS
 62
     1
 10
1235.362018682199
 20
360.6415144281441
 30
0.0
  0
VERTEX
  5
2A5
  8
1_5_____
  6
CONTINUOUS
 62
     1
 10
1235.362166066075
 20
360.6415163540819
 30
0.0
  0
VERTEX
  5
2A6
  8
1_5_____
  6
CONTINUOUS
 62
     1
 10
1235.362313430136
 20
360.6415188592191
 30
0.0
  0
VERTEX
  5
2A7
  8
1_5_____
  6
CONTINUOUS
 62
     1
 10
1235.362460774383
 20
360.6415219435562
 30
0.0
  0
VERTEX
  5
2A8
  8
1_5_____
  6
CONTINUOUS
 62
     1
 10
1235.362608098815
 20
360.6415256070929
 30
0.0
  0
VERTEX
  5
2A9
  8
1_5_____
  6
CONTINUOUS
 62
     1
 10
1235.362755403432
 20
360.6415298498293
 30
0.0
  0
VERTEX
  5
2AA
  8
1_5_____
  6
CONTINUOUS
 62
     1
 10
1235.362902688235
 20
360.6415346717654
 30
0.0
  0
VERTEX
  5
2AB
  8
1_5_____
  6
CONTINUOUS
 62
     1
 10
1235.363049953223
 20
360.6415400729011
 30
0.0
  0
VERTEX
  5
2AC
  8
1_5_____
  6
CONTINUOUS
 62
     1
 10
1235.363197198396
 20
360.6415460532364
 30
0.0
  0
VERTEX
  5
2AD
  8
1_5_____
  6
CONTINUOUS
 62
     1
 10
1235.363344423755
 20
360.6415526127714
 30
0.0
  0
VERTEX
  5
2AE
  8
1_5_____
  6
CONTINUOUS
 62
     1
 10
1235.363491629299
 20
360.6415597515061
 30
0.0
  0
VERTEX
  5
2AF
  8
1_5_____
  6
CONTINUOUS
 62
     1
 10
1235.363638815028
 20
360.6415674694404
 30
0.0
  0
VERTEX
  5
2B0
  8
1_5_____
  6
CONTINUOUS
 62
     1
 10
1235.363785980942
 20
360.6415757665745
 30
0.0
  0
VERTEX
  5
2B1
  8
1_5_____
  6
CONTINUOUS
 62
     1
 10
1235.363933127042
 20
360.6415846429081
 30
0.0
  0
VERTEX
  5
2B2
  8
1_5_____
  6
CONTINUOUS
 62
     1
 10
1235.364080253328
 20
360.6415940984414
 30
0.0
  0
VERTEX
  5
2B3
  8
1_5_____
  6
CONTINUOUS
 62
     1
 10
1235.364227359798
 20
360.6416041331745
 30
0.0
  0
VERTEX
  5
2B4
  8
1_5_____
  6
CONTINUOUS
 62
     1
 10
1235.364374446454
 20
360.6416147471068
 30
0.0
  0
VERTEX
  5
2B5
  8
1_5_____
  6
CONTINUOUS
 62
     1
 10
1235.364521513296
 20
360.6416259402392
 30
0.0
  0
VERTEX
  5
2B6
  8
1_5_____
  6
CONTINUOUS
 62
     1
 10
1235.364668560322
 20
360.6416377125711
 30
0.0
  0
VERTEX
  5
2B7
  8
1_5_____
  6
CONTINUOUS
 62
     1
 10
1235.364815587534
 20
360.6416500641026
 30
0.0
  0
VERTEX
  5
2B8
  8
1_5_____
  6
CONTINUOUS
 62
     1
 10
1235.364962594932
 20
360.641662994834
 30
0.0
  0
VERTEX
  5
2B9
  8
1_5_____
  6
CONTINUOUS
 62
     1
 10
1235.365109582514
 20
360.641676504765
 30
0.0
  0
VERTEX
  5
2BA
  8
1_5_____
  6
CONTINUOUS
 62
     1
 10
1235.365256550282
 20
360.6416905938954
 30
0.0
  0
VERTEX
  5
2BB
  8
1_5_____
  6
CONTINUOUS
 62
     1
 10
1235.365403498236
 20
360.6417052622255
 30
0.0
  0
VERTEX
  5
2BC
  8
1_5_____
  6
CONTINUOUS
 62
     1
 10
1235.365550426374
 20
360.6417205097555
 30
0.0
  0
VERTEX
  5
2BD
  8
1_5_____
  6
CONTINUOUS
 62
     1
 10
1235.365697334698
 20
360.6417363364851
 30
0.0
  0
VERTEX
  5
2BE
  8
1_5_____
  6
CONTINUOUS
 62
     1
 10
1235.365844223208
 20
360.6417527424142
 30
0.0
  0
VERTEX
  5
2BF
  8
1_5_____
  6
CONTINUOUS
 62
     1
 10
1235.365991091903
 20
360.6417697275429
 30
0.0
  0
VERTEX
  5
2C0
  8
1_5_____
  6
CONTINUOUS
 62
     1
 10
1235.366137940782
 20
360.6417872918714
 30
0.0
  0
VERTEX
  5
2C1
  8
1_5_____
  6
CONTINUOUS
 62
     1
 10
1235.366284769848
 20
360.6418054353996
 30
0.0
  0
VERTEX
  5
2C2
  8
1_5_____
  6
CONTINUOUS
 62
     1
 10
1235.366431579099
 20
360.6418241581275
 30
0.0
  0
VERTEX
  5
2C3
  8
1_5_____
  6
CONTINUOUS
 62
     1
 10
1235.366578368535
 20
360.641843460055
 30
0.0
  0
VERTEX
  5
2C4
  8
1_5_____
  6
CONTINUOUS
 62
     1
 10
1235.366725138156
 20
360.6418633411822
 30
0.0
  0
VERTEX
  5
2C5
  8
1_5_____
  6
CONTINUOUS
 62
     1
 10
1235.366871887963
 20
360.641883801509
 30
0.0
  0
VERTEX
  5
2C6
  8
1_5_____
  6
CONTINUOUS
 62
     1
 10
1235.367018617955
 20
360.6419048410353
 30
0.0
  0
VERTEX
  5
2C7
  8
1_5_____
  6
CONTINUOUS
 62
     1
 10
1235.367165328132
 20
360.6419264597616
 30
0.0
  0
VERTEX
  5
2C8
  8
1_5_____
  6
CONTINUOUS
 62
     1
 10
1235.367312018495
 20
360.6419486576872
 30
0.0
  0
VERTEX
  5
2C9
  8
1_5_____
  6
CONTINUOUS
 62
     1
 10
1235.367458689043
 20
360.6419714348126
 30
0.0
  0
VERTEX
  5
2CA
  8
1_5_____
  6
CONTINUOUS
 62
     1
 10
1235.367605339776
 20
360.6419947911377
 30
0.0
  0
VERTEX
  5
2CB
  8
1_5_____
  6
CONTINUOUS
 62
     1
 10
1235.367751970695
 20
360.6420187266626
 30
0.0
  0
VERTEX
  5
2CC
  8
1_5_____
  6
CONTINUOUS
 62
     1
 10
1235.367898581799
 20
360.6420432413868
 30
0.0
  0
VERTEX
  5
2CD
  8
1_5_____
  6
CONTINUOUS
 62
     1
 10
1235.368045173089
 20
360.6420683353108
 30
0.0
  0
VERTEX
  5
2CE
  8
1_5_____
  6
CONTINUOUS
 62
     1
 10
1235.368191744563
 20
360.6420940084345
 30
0.0
  0
VERTEX
  5
2CF
  8
1_5_____
  6
CONTINUOUS
 62
     1
 10
1235.368338296224
 20
360.642120260758
 30
0.0
  0
VERTEX
  5
2D0
  8
1_5_____
  6
CONTINUOUS
 62
     1
 10
1235.368484828069
 20
360.642147092281
 30
0.0
  0
VERTEX
  5
2D1
  8
1_5_____
  6
CONTINUOUS
 62
     1
 10
1235.3686313401
 20
360.6421745030036
 30
0.0
  0
VERTEX
  5
2D2
  8
1_5_____
  6
CONTINUOUS
 62
     1
 10
1235.368777832316
 20
360.6422024929259
 30
0.0
  0
VERTEX
  5
2D3
  8
1_5_____
  6
CONTINUOUS
 62
     1
 10
1235.368924304717
 20
360.6422310620478
 30
0.0
  0
VERTEX
  5
2D4
  8
1_5_____
  6
CONTINUOUS
 62
     1
 10
1235.369070757304
 20
360.6422602103694
 30
0.0
  0
VERTEX
  5
2D5
  8
1_5_____
  6
CONTINUOUS
 62
     1
 10
1235.369217190076
 20
360.6422899378908
 30
0.0
  0
VERTEX
  5
2D6
  8
1_5_____
  6
CONTINUOUS
 62
     1
 10
1235.369363603034
 20
360.6423202446117
 30
0.0
  0
VERTEX
  5
2D7
  8
1_5_____
  6
CONTINUOUS
 62
     1
 10
1235.369509996176
 20
360.6423511305325
 30
0.0
  0
VERTEX
  5
2D8
  8
1_5_____
  6
CONTINUOUS
 62
     1
 10
1235.369656369505
 20
360.6423825956526
 30
0.0
  0
VERTEX
  5
2D9
  8
1_5_____
  6
CONTINUOUS
 62
     1
 10
1235.369802723018
 20
360.6424146399727
 30
0.0
  0
VERTEX
  5
2DA
  8
1_5_____
  6
CONTINUOUS
 62
     1
 10
1235.369949056717
 20
360.6424472634922
 30
0.0
  0
VERTEX
  5
2DB
  8
1_5_____
  6
CONTINUOUS
 62
     1
 10
1235.37009526275
 20
360.6424804478424
 30
0.0
  0
VERTEX
  5
2DC
  8
1_5_____
  6
CONTINUOUS
 62
     1
 10
1235.370241233265
 20
360.6425141746547
 30
0.0
  0
VERTEX
  5
2DD
  8
1_5_____
  6
CONTINUOUS
 62
     1
 10
1235.370386968263
 20
360.6425484439287
 30
0.0
  0
VERTEX
  5
2DE
  8
1_5_____
  6
CONTINUOUS
 62
     1
 10
1235.370532467743
 20
360.6425832556647
 30
0.0
  0
VERTEX
  5
2DF
  8
1_5_____
  6
CONTINUOUS
 62
     1
 10
1235.370677731706
 20
360.6426186098624
 30
0.0
  0
VERTEX
  5
2E0
  8
1_5_____
  6
CONTINUOUS
 62
     1
 10
1235.370822760151
 20
360.6426545065221
 30
0.0
  0
VERTEX
  5
2E1
  8
1_5_____
  6
CONTINUOUS
 62
     1
 10
1235.370967553079
 20
360.6426909456436
 30
0.0
  0
VERTEX
  5
2E2
  8
1_5_____
  6
CONTINUOUS
 62
     1
 10
1235.371112110489
 20
360.6427279272268
 30
0.0
  0
VERTEX
  5
2E3
  8
1_5_____
  6
CONTINUOUS
 62
     1
 10
1235.371256432381
 20
360.642765451272
 30
0.0
  0
VERTEX
  5
2E4
  8
1_5_____
  6
CONTINUOUS
 62
     1
 10
1235.371400518756
 20
360.6428035177789
 30
0.0
  0
VERTEX
  5
2E5
  8
1_5_____
  6
CONTINUOUS
 62
     1
 10
1235.371544369614
 20
360.6428421267478
 30
0.0
  0
VERTEX
  5
2E6
  8
1_5_____
  6
CONTINUOUS
 62
     1
 10
1235.371687984954
 20
360.6428812781787
 30
0.0
  0
VERTEX
  5
2E7
  8
1_5_____
  6
CONTINUOUS
 62
     1
 10
1235.371831364777
 20
360.6429209720714
 30
0.0
  0
VERTEX
  5
2E8
  8
1_5_____
  6
CONTINUOUS
 62
     1
 10
1235.371974509082
 20
360.6429612084257
 30
0.0
  0
VERTEX
  5
2E9
  8
1_5_____
  6
CONTINUOUS
 62
     1
 10
1235.37211741787
 20
360.6430019872419
 30
0.0
  0
VERTEX
  5
2EA
  8
1_5_____
  6
CONTINUOUS
 62
     1
 10
1235.37226009114
 20
360.6430433085202
 30
0.0
  0
VERTEX
  5
2EB
  8
1_5_____
  6
CONTINUOUS
 62
     1
 10
1235.372402528893
 20
360.6430851722603
 30
0.0
  0
VERTEX
  5
2EC
  8
1_5_____
  6
CONTINUOUS
 62
     1
 10
1235.372544731128
 20
360.6431275784621
 30
0.0
  0
VERTEX
  5
2ED
  8
1_5_____
  6
CONTINUOUS
 62
     1
 10
1235.372686697845
 20
360.6431705271257
 30
0.0
  0
VERTEX
  5
2EE
  8
1_5_____
  6
CONTINUOUS
 62
     1
 10
1235.372828429046
 20
360.6432140182515
 30
0.0
  0
VERTEX
  5
2EF
  8
1_5_____
  6
CONTINUOUS
 62
     1
 10
1235.372969924728
 20
360.643258051839
 30
0.0
  0
VERTEX
  5
2F0
  8
1_5_____
  6
CONTINUOUS
 62
     1
 10
1235.373111184893
 20
360.6433026278883
 30
0.0
  0
VERTEX
  5
2F1
  8
1_5_____
  6
CONTINUOUS
 62
     1
 10
1235.373252209541
 20
360.6433477463993
 30
0.0
  0
VERTEX
  5
2F2
  8
1_5_____
  6
CONTINUOUS
 62
     1
 10
1235.373392998671
 20
360.6433934073723
 30
0.0
  0
VERTEX
  5
2F3
  8
1_5_____
  6
CONTINUOUS
 62
     1
 10
1235.373533552284
 20
360.643439610807
 30
0.0
  0
VERTEX
  5
2F4
  8
1_5_____
  6
CONTINUOUS
 62
     1
 10
1235.373673870379
 20
360.6434863567038
 30
0.0
  0
VERTEX
  5
2F5
  8
1_5_____
  6
CONTINUOUS
 62
     1
 10
1235.373813952956
 20
360.6435336450625
 30
0.0
  0
VERTEX
  5
2F6
  8
1_5_____
  6
CONTINUOUS
 62
     1
 10
1235.373953800016
 20
360.6435814758829
 30
0.0
  0
VERTEX
  5
2F7
  8
1_5_____
  6
CONTINUOUS
 62
     1
 10
1235.374093411559
 20
360.6436298491653
 30
0.0
  0
VERTEX
  5
2F8
  8
1_5_____
  6
CONTINUOUS
 62
     1
 10
1235.374232787584
 20
360.6436787649093
 30
0.0
  0
VERTEX
  5
2F9
  8
1_5_____
  6
CONTINUOUS
 62
     1
 10
1235.374371928091
 20
360.6437282231154
 30
0.0
  0
VERTEX
  5
2FA
  8
1_5_____
  6
CONTINUOUS
 62
     1
 10
1235.374510833082
 20
360.6437782237831
 30
0.0
  0
VERTEX
  5
2FB
  8
1_5_____
  6
CONTINUOUS
 62
     1
 10
1235.374649502554
 20
360.6438287669127
 30
0.0
  0
VERTEX
  5
2FC
  8
1_5_____
  6
CONTINUOUS
 62
     1
 10
1235.374787936509
 20
360.6438798525044
 30
0.0
  0
VERTEX
  5
2FD
  8
1_5_____
  6
CONTINUOUS
 62
     1
 10
1235.374926134947
 20
360.6439314805577
 30
0.0
  0
VERTEX
  5
2FE
  8
1_5_____
  6
CONTINUOUS
 62
     1
 10
1235.375064097867
 20
360.6439836510731
 30
0.0
  0
VERTEX
  5
2FF
  8
1_5_____
  6
CONTINUOUS
 62
     1
 10
1235.375201825269
 20
360.6440363640502
 30
0.0
  0
VERTEX
  5
300
  8
1_5_____
  6
CONTINUOUS
 62
     1
 10
1235.375339317154
 20
360.644089619489
 30
0.0
  0
VERTEX
  5
301
  8
1_5_____
  6
CONTINUOUS
 62
     1
 10
1235.375476573522
 20
360.6441434173898
 30
0.0
  0
VERTEX
  5
302
  8
1_5_____
  6
CONTINUOUS
 62
     1
 10
1235.375613594372
 20
360.6441977577526
 30
0.0
  0
VERTEX
  5
303
  8
1_5_____
  6
CONTINUOUS
 62
     1
 10
1235.375750379704
 20
360.6442526405772
 30
0.0
  0
VERTEX
  5
304
  8
1_5_____
  6
CONTINUOUS
 62
     1
 10
1235.375886929519
 20
360.6443080658637
 30
0.0
  0
VERTEX
  5
305
  8
1_5_____
  6
CONTINUOUS
 62
     1
 10
1235.376023243817
 20
360.6443640336117
 30
0.0
  0
VERTEX
  5
306
  8
1_5_____
  6
CONTINUOUS
 62
     1
 10
1235.376159322597
 20
360.644420543822
 30
0.0
  0
VERTEX
  5
307
  8
1_5_____
  6
CONTINUOUS
 62
     1
 10
1235.376295165859
 20
360.6444775964937
 30
0.0
  0
VERTEX
  5
308
  8
1_5_____
  6
CONTINUOUS
 62
     1
 10
1235.376430773604
 20
360.6445351916277
 30
0.0
  0
VERTEX
  5
309
  8
1_5_____
  6
CONTINUOUS
 62
     1
 10
1235.376566145832
 20
360.6445933292234
 30
0.0
  0
VERTEX
  5
30A
  8
1_5_____
  6
CONTINUOUS
 62
     1
 10
1235.376701282542
 20
360.6446520092809
 30
0.0
  0
VERTEX
  5
30B
  8
1_5_____
  6
CONTINUOUS
 62
     1
 10
1235.376836183734
 20
360.6447112318001
 30
0.0
  0
VERTEX
  5
30C
  8
1_5_____
  6
CONTINUOUS
 62
     1
 10
1235.376970849409
 20
360.6447709967815
 30
0.0
  0
VERTEX
  5
30D
  8
1_5_____
  6
CONTINUOUS
 62
     1
 10
1235.377105279567
 20
360.6448313042247
 30
0.0
  0
VERTEX
  5
30E
  8
1_5_____
  6
CONTINUOUS
 62
     1
 10
1235.377239474207
 20
360.6448921541296
 30
0.0
  0
VERTEX
  5
30F
  8
1_5_____
  6
CONTINUOUS
 62
     1
 10
1235.377373433329
 20
360.6449535464963
 30
0.0
  0
VERTEX
  5
310
  8
1_5_____
  6
CONTINUOUS
 62
     1
 10
1235.377507156934
 20
360.6450154813249
 30
0.0
  0
VERTEX
  5
311
  8
1_5_____
  6
CONTINUOUS
 62
     1
 10
1235.377640645022
 20
360.6450779586153
 30
0.0
  0
VERTEX
  5
312
  8
1_5_____
  6
CONTINUOUS
 62
     1
 10
1235.377773897591
 20
360.6451409783679
 30
0.0
  0
VERTEX
  5
313
  8
1_5_____
  6
CONTINUOUS
 62
     1
 10
1235.377906914644
 20
360.6452045405822
 30
0.0
  0
VERTEX
  5
314
  8
1_5_____
  6
CONTINUOUS
 62
     1
 10
1235.378039696179
 20
360.6452686452583
 30
0.0
  0
VERTEX
  5
315
  8
1_5_____
  6
CONTINUOUS
 62
     1
 10
1235.378172242196
 20
360.6453332923961
 30
0.0
  0
VERTEX
  5
316
  8
1_5_____
  6
CONTINUOUS
 62
     1
 10
1235.378304552696
 20
360.6453984819959
 30
0.0
  0
VERTEX
  5
317
  8
1_5_____
  6
CONTINUOUS
 62
     1
 10
1235.378436627678
 20
360.6454642140575
 30
0.0
  0
VERTEX
  5
318
  8
1_5_____
  6
CONTINUOUS
 62
     1
 10
1235.378568467143
 20
360.645530488581
 30
0.0
  0
VERTEX
  5
319
  8
1_5_____
  6
CONTINUOUS
 62
     1
 10
1235.378700071091
 20
360.6455973055663
 30
0.0
  0
VERTEX
  5
31A
  8
1_5_____
  6
CONTINUOUS
 62
     1
 10
1235.378831439521
 20
360.6456646650136
 30
0.0
  0
VERTEX
  5
31B
  8
1_5_____
  6
CONTINUOUS
 62
     1
 10
1235.378831439521
 20
360.6456646650136
 30
0.0
  0
SEQEND
  5
31C
  8
1_5_____
  6
CONTINUOUS
 62
     1
  0
POLYLINE
  5
31D
  8
1_5_____
  6
CONTINUOUS
 62
     1
 66
     1
 10
0.0
 20
0.0
 30
0.0
 70
   128
  0
VERTEX
  5
31E
  8
1_5_____
  6
CONTINUOUS
 62
     1
 10
805.5893556299943
 20
522.6195240194306
 30
0.0
  0
VERTEX
  5
31F
  8
1_5_____
  6
CONTINUOUS
 62
     1
 10
805.5893892060942
 20
522.6195611540559
 30
0.0
  0
VERTEX
  5
320
  8
1_5_____
  6
CONTINUOUS
 62
     1
 10
805.5894224985022
 20
522.6195985126935
 30
0.0
  0
VERTEX
  5
321
  8
1_5_____
  6
CONTINUOUS
 62
     1
 10
805.5894555072186
 20
522.6196360953436
 30
0.0
  0
VERTEX
  5
322
  8
1_5_____
  6
CONTINUOUS
 62
     1
 10
805.5894882322432
 20
522.6196739020065
 30
0.0
  0
VERTEX
  5
323
  8
1_5_____
  6
CONTINUOUS
 62
     1
 10
805.589520673576
 20
522.6197119326816
 30
0.0
  0
VERTEX
  5
324
  8
1_5_____
  6
CONTINUOUS
 62
     1
 10
805.589552831217
 20
522.6197501873696
 30
0.0
  0
VERTEX
  5
325
  8
1_5_____
  6
CONTINUOUS
 62
     1
 10
805.5895847051663
 20
522.61978866607
 30
0.0
  0
VERTEX
  5
326
  8
1_5_____
  6
CONTINUOUS
 62
     1
 10
805.5896162954238
 20
522.6198273687828
 30
0.0
  0
VERTEX
  5
327
  8
1_5_____
  6
CONTINUOUS
 62
     1
 10
805.5896476019894
 20
522.6198662955082
 30
0.0
  0
VERTEX
  5
328
  8
1_5_____
  6
CONTINUOUS
 62
     1
 10
805.5896786248634
 20
522.6199054462461
 30
0.0
  0
VERTEX
  5
329
  8
1_5_____
  6
CONTINUOUS
 62
     1
 10
805.5897093640456
 20
522.6199448209964
 30
0.0
  0
VERTEX
  5
32A
  8
1_5_____
  6
CONTINUOUS
 62
     1
 10
805.5897398195359
 20
522.6199844197595
 30
0.0
  0
VERTEX
  5
32B
  8
1_5_____
  6
CONTINUOUS
 62
     1
 10
805.5897699913345
 20
522.6200242425348
 30
0.0
  0
VERTEX
  5
32C
  8
1_5_____
  6
CONTINUOUS
 62
     1
 10
805.5897998794413
 20
522.620064289323
 30
0.0
  0
VERTEX
  5
32D
  8
1_5_____
  6
CONTINUOUS
 62
     1
 10
805.5898294838564
 20
522.6201045601235
 30
0.0
  0
VERTEX
  5
32E
  8
1_5_____
  6
CONTINUOUS
 62
     1
 10
805.5898588045798
 20
522.6201450549365
 30
0.0
  0
VERTEX
  5
32F
  8
1_5_____
  6
CONTINUOUS
 62
     1
 10
805.5898878416112
 20
522.6201857737622
 30
0.0
  0
VERTEX
  5
330
  8
1_5_____
  6
CONTINUOUS
 62
     1
 10
805.589916594951
 20
522.6202267166002
 30
0.0
  0
VERTEX
  5
331
  8
1_5_____
  6
CONTINUOUS
 62
     1
 10
805.589945064599
 20
522.6202678834507
 30
0.0
  0
VERTEX
  5
332
  8
1_5_____
  6
CONTINUOUS
 62
     1
 10
805.5899732505552
 20
522.620309274314
 30
0.0
  0
VERTEX
  5
333
  8
1_5_____
  6
CONTINUOUS
 62
     1
 10
805.5900011528196
 20
522.6203508891895
 30
0.0
  0
VERTEX
  5
334
  8
1_5_____
  6
CONTINUOUS
 62
     1
 10
805.5900287713922
 20
522.6203927280778
 30
0.0
  0
VERTEX
  5
335
  8
1_5_____
  6
CONTINUOUS
 62
     1
 10
805.5900561062731
 20
522.6204347909786
 30
0.0
  0
VERTEX
  5
336
  8
1_5_____
  6
CONTINUOUS
 62
     1
 10
805.5900831574622
 20
522.6204770778918
 30
0.0
  0
VERTEX
  5
337
  8
1_5_____
  6
CONTINUOUS
 62
     1
 10
805.5901099249595
 20
522.6205195888176
 30
0.0
  0
VERTEX
  5
338
  8
1_5_____
  6
CONTINUOUS
 62
     1
 10
805.5901364087651
 20
522.6205623237558
 30
0.0
  0
VERTEX
  5
339
  8
1_5_____
  6
CONTINUOUS
 62
     1
 10
805.5901626088789
 20
522.6206052827065
 30
0.0
  0
VERTEX
  5
33A
  8
1_5_____
  6
CONTINUOUS
 62
     1
 10
805.590188525301
 20
522.62064846567
 30
0.0
  0
VERTEX
  5
33B
  8
1_5_____
  6
CONTINUOUS
 62
     1
 10
805.5902141580311
 20
522.6206918726457
 30
0.0
  0
VERTEX
  5
33C
  8
1_5_____
  6
CONTINUOUS
 62
     1
 10
805.5902395070697
 20
522.6207355036343
 30
0.0
  0
VERTEX
  5
33D
  8
1_5_____
  6
CONTINUOUS
 62
     1
 10
805.5902645724163
 20
522.6207793586352
 30
0.0
  0
VERTEX
  5
33E
  8
1_5_____
  6
CONTINUOUS
 62
     1
 10
805.5902893540713
 20
522.6208234376486
 30
0.0
  0
VERTEX
  5
33F
  8
1_5_____
  6
CONTINUOUS
 62
     1
 10
805.5903138520345
 20
522.6208677406746
 30
0.0
  0
VERTEX
  5
340
  8
1_5_____
  6
CONTINUOUS
 62
     1
 10
805.5903380663058
 20
522.620912267713
 30
0.0
  0
VERTEX
  5
341
  8
1_5_____
  6
CONTINUOUS
 62
     1
 10
805.5903619968855
 20
522.6209570187639
 30
0.0
  0
VERTEX
  5
342
  8
1_5_____
  6
CONTINUOUS
 62
     1
 10
805.5903856437733
 20
522.6210019938276
 30
0.0
  0
VERTEX
  5
343
  8
1_5_____
  6
CONTINUOUS
 62
     1
 10
805.5904090069694
 20
522.6210471929035
 30
0.0
  0
VERTEX
  5
344
  8
1_5_____
  6
CONTINUOUS
 62
     1
 10
805.5904320864736
 20
522.6210926159922
 30
0.0
  0
VERTEX
  5
345
  8
1_5_____
  6
CONTINUOUS
 62
     1
 10
805.5904548822862
 20
522.6211382630934
 30
0.0
  0
VERTEX
  5
346
  8
1_5_____
  6
CONTINUOUS
 62
     1
 10
805.5904773944069
 20
522.6211841342069
 30
0.0
  0
VERTEX
  5
347
  8
1_5_____
  6
CONTINUOUS
 62
     1
 10
805.5904996228359
 20
522.6212302293332
 30
0.0
  0
VERTEX
  5
348
  8
1_5_____
  6
CONTINUOUS
 62
     1
 10
805.590521567573
 20
522.6212765484718
 30
0.0
  0
VERTEX
  5
349
  8
1_5_____
  6
CONTINUOUS
 62
     1
 10
805.5905432286185
 20
522.6213230916228
 30
0.0
  0
VERTEX
  5
34A
  8
1_5_____
  6
CONTINUOUS
 62
     1
 10
805.5905646059721
 20
522.6213698587867
 30
0.0
  0
VERTEX
  5
34B
  8
1_5_____
  6
CONTINUOUS
 62
     1
 10
805.5905856996341
 20
522.6214168499628
 30
0.0
  0
VERTEX
  5
34C
  8
1_5_____
  6
CONTINUOUS
 62
     1
 10
805.5906065096042
 20
522.6214640651517
 30
0.0
  0
VERTEX
  5
34D
  8
1_5_____
  6
CONTINUOUS
 62
     1
 10
805.5906270358824
 20
522.6215115043531
 30
0.0
  0
VERTEX
  5
34E
  8
1_5_____
  6
CONTINUOUS
 62
     1
 10
805.5906472784691
 20
522.6215591675668
 30
0.0
  0
VERTEX
  5
34F
  8
1_5_____
  6
CONTINUOUS
 62
     1
 10
805.5906672373638
 20
522.6216070547932
 30
0.0
  0
VERTEX
  5
350
  8
1_5_____
  6
CONTINUOUS
 62
     1
 10
805.5906869125668
 20
522.621655166032
 30
0.0
  0
VERTEX
  5
351
  8
1_5_____
  6
CONTINUOUS
 62
     1
 10
805.5907063040781
 20
522.6217035012833
 30
0.0
  0
VERTEX
  5
352
  8
1_5_____
  6
CONTINUOUS
 62
     1
 10
805.5907254118976
 20
522.6217520605474
 30
0.0
  0
VERTEX
  5
353
  8
1_5_____
  6
CONTINUOUS
 62
     1
 10
805.5907442360253
 20
522.6218008438236
 30
0.0
  0
VERTEX
  5
354
  8
1_5_____
  6
CONTINUOUS
 62
     1
 10
805.5907627764611
 20
522.6218498511128
 30
0.0
  0
VERTEX
  5
355
  8
1_5_____
  6
CONTINUOUS
 62
     1
 10
805.5907810332053
 20
522.6218990824143
 30
0.0
  0
VERTEX
  5
356
  8
1_5_____
  6
CONTINUOUS
 62
     1
 10
805.5907990062577
 20
522.6219485377283
 30
0.0
  0
VERTEX
  5
357
  8
1_5_____
  6
CONTINUOUS
 62
     1
 10
805.5908166956183
 20
522.6219982170549
 30
0.0
  0
VERTEX
  5
358
  8
1_5_____
  6
CONTINUOUS
 62
     1
 10
805.5908341012871
 20
522.6220481203939
 30
0.0
  0
VERTEX
  5
359
  8
1_5_____
  6
CONTINUOUS
 62
     1
 10
805.5908512232643
 20
522.6220982477453
 30
0.0
  0
VERTEX
  5
35A
  8
1_5_____
  6
CONTINUOUS
 62
     1
 10
805.5908680615495
 20
522.6221485991096
 30
0.0
  0
VERTEX
  5
35B
  8
1_5_____
  6
CONTINUOUS
 62
     1
 10
805.5908846161431
 20
522.622199174486
 30
0.0
  0
VERTEX
  5
35C
  8
1_5_____
  6
CONTINUOUS
 62
     1
 10
805.5909008870448
 20
522.6222499738753
 30
0.0
  0
VERTEX
  5
35D
  8
1_5_____
  6
CONTINUOUS
 62
     1
 10
805.5909168742547
 20
522.6223009972771
 30
0.0
  0
VERTEX
  5
35E
  8
1_5_____
  6
CONTINUOUS
 62
     1
 10
805.590932577773
 20
522.6223522446912
 30
0.0
  0
VERTEX
  5
35F
  8
1_5_____
  6
CONTINUOUS
 62
     1
 10
805.5909479129738
 20
522.6224035797575
 30
0.0
  0
VERTEX
  5
360
  8
1_5_____
  6
CONTINUOUS
 62
     1
 10
805.5909627952315
 20
522.6224548661153
 30
0.0
  0
VERTEX
  5
361
  8
1_5_____
  6
CONTINUOUS
 62
     1
 10
805.5909772245464
 20
522.6225061037646
 30
0.0
  0
VERTEX
  5
362
  8
1_5_____
  6
CONTINUOUS
 62
     1
 10
805.5909912009181
 20
522.6225572927058
 30
0.0
  0
VERTEX
  5
363
  8
1_5_____
  6
CONTINUOUS
 62
     1
 10
805.5910047243467
 20
522.6226084329385
 30
0.0
  0
VERTEX
  5
364
  8
1_5_____
  6
CONTINUOUS
 62
     1
 10
805.5910177948324
 20
522.6226595244625
 30
0.0
  0
VERTEX
  5
365
  8
1_5_____
  6
CONTINUOUS
 62
     1
 10
805.5910304123752
 20
522.6227105672783
 30
0.0
  0
VERTEX
  5
366
  8
1_5_____
  6
CONTINUOUS
 62
     1
 10
805.5910425769748
 20
522.6227615613857
 30
0.0
  0
VERTEX
  5
367
  8
1_5_____
  6
CONTINUOUS
 62
     1
 10
805.5910542886313
 20
522.6228125067846
 30
0.0
  0
VERTEX
  5
368
  8
1_5_____
  6
CONTINUOUS
 62
     1
 10
805.591065547345
 20
522.6228634034751
 30
0.0
  0
VERTEX
  5
369
  8
1_5_____
  6
CONTINUOUS
 62
     1
 10
805.5910763531156
 20
522.6229142514571
 30
0.0
  0
VERTEX
  5
36A
  8
1_5_____
  6
CONTINUOUS
 62
     1
 10
805.5910867059431
 20
522.622965050731
 30
0.0
  0
VERTEX
  5
36B
  8
1_5_____
  6
CONTINUOUS
 62
     1
 10
805.5910966058277
 20
522.6230158012963
 30
0.0
  0
VERTEX
  5
36C
  8
1_5_____
  6
CONTINUOUS
 62
     1
 10
805.5911060527692
 20
522.623066503153
 30
0.0
  0
VERTEX
  5
36D
  8
1_5_____
  6
CONTINUOUS
 62
     1
 10
805.5911150467678
 20
522.6231171563015
 30
0.0
  0
VERTEX
  5
36E
  8
1_5_____
  6
CONTINUOUS
 62
     1
 10
805.5911235878232
 20
522.6231677607416
 30
0.0
  0
VERTEX
  5
36F
  8
1_5_____
  6
CONTINUOUS
 62
     1
 10
805.5911316759357
 20
522.6232183164732
 30
0.0
  0
VERTEX
  5
370
  8
1_5_____
  6
CONTINUOUS
 62
     1
 10
805.591139311105
 20
522.6232688234963
 30
0.0
  0
VERTEX
  5
371
  8
1_5_____
  6
CONTINUOUS
 62
     1
 10
805.5911464933315
 20
522.6233192818113
 30
0.0
  0
VERTEX
  5
372
  8
1_5_____
  6
CONTINUOUS
 62
     1
 10
805.5911532226148
 20
522.6233696914176
 30
0.0
  0
VERTEX
  5
373
  8
1_5_____
  6
CONTINUOUS
 62
     1
 10
805.5911594989552
 20
522.6234200523154
 30
0.0
  0
VERTEX
  5
374
  8
1_5_____
  6
CONTINUOUS
 62
     1
 10
805.5911653223526
 20
522.623470364505
 30
0.0
  0
VERTEX
  5
375
  8
1_5_____
  6
CONTINUOUS
 62
     1
 10
805.5911706928068
 20
522.6235206279862
 30
0.0
  0
VERTEX
  5
376
  8
1_5_____
  6
CONTINUOUS
 62
     1
 10
805.5911756103183
 20
522.6235708427589
 30
0.0
  0
VERTEX
  5
377
  8
1_5_____
  6
CONTINUOUS
 62
     1
 10
805.5911800748866
 20
522.6236210088232
 30
0.0
  0
VERTEX
  5
378
  8
1_5_____
  6
CONTINUOUS
 62
     1
 10
805.5911840865117
 20
522.623671126179
 30
0.0
  0
VERTEX
  5
379
  8
1_5_____
  6
CONTINUOUS
 62
     1
 10
805.5911876451939
 20
522.6237211948267
 30
0.0
  0
VERTEX
  5
37A
  8
1_5_____
  6
CONTINUOUS
 62
     1
 10
805.5911907509333
 20
522.6237712147656
 30
0.0
  0
VERTEX
  5
37B
  8
1_5_____
  6
CONTINUOUS
 62
     1
 10
805.5911934037294
 20
522.6238211859961
 30
0.0
  0
VERTEX
  5
37C
  8
1_5_____
  6
CONTINUOUS
 62
     1
 10
805.5911956035825
 20
522.6238711085184
 30
0.0
  0
VERTEX
  5
37D
  8
1_5_____
  6
CONTINUOUS
 62
     1
 10
805.5911973504927
 20
522.6239209823323
 30
0.0
  0
VERTEX
  5
37E
  8
1_5_____
  6
CONTINUOUS
 62
     1
 10
805.5911986444598
 20
522.6239708074377
 30
0.0
  0
VERTEX
  5
37F
  8
1_5_____
  6
CONTINUOUS
 62
     1
 10
805.5911994854839
 20
522.6240205838346
 30
0.0
  0
VERTEX
  5
380
  8
1_5_____
  6
CONTINUOUS
 62
     1
 10
805.5911998735651
 20
522.6240703115232
 30
0.0
  0
VERTEX
  5
381
  8
1_5_____
  6
CONTINUOUS
 62
     1
 10
805.5911998087031
 20
522.6241199905032
 30
0.0
  0
VERTEX
  5
382
  8
1_5_____
  6
CONTINUOUS
 62
     1
 10
805.5911992908982
 20
522.6241696207751
 30
0.0
  0
VERTEX
  5
383
  8
1_5_____
  6
CONTINUOUS
 62
     1
 10
805.5911983201502
 20
522.6242192023385
 30
0.0
  0
VERTEX
  5
384
  8
1_5_____
  6
CONTINUOUS
 62
     1
 10
805.5911968964592
 20
522.6242687351933
 30
0.0
  0
VERTEX
  5
385
  8
1_5_____
  6
CONTINUOUS
 62
     1
 10
805.5911950198251
 20
522.6243182193398
 30
0.0
  0
VERTEX
  5
386
  8
1_5_____
  6
CONTINUOUS
 62
     1
 10
805.5911926902481
 20
522.6243676547779
 30
0.0
  0
VERTEX
  5
387
  8
1_5_____
  6
CONTINUOUS
 62
     1
 10
805.591189907728
 20
522.6244170415075
 30
0.0
  0
VERTEX
  5
388
  8
1_5_____
  6
CONTINUOUS
 62
     1
 10
805.5911866722649
 20
522.6244663795287
 30
0.0
  0
VERTEX
  5
389
  8
1_5_____
  6
CONTINUOUS
 62
     1
 10
805.5911829838587
 20
522.6245156688415
 30
0.0
  0
VERTEX
  5
38A
  8
1_5_____
  6
CONTINUOUS
 62
     1
 10
805.5911788425096
 20
522.624564909446
 30
0.0
  0
VERTEX
  5
38B
  8
1_5_____
  6
CONTINUOUS
 62
     1
 10
805.5911742482175
 20
522.6246141013421
 30
0.0
  0
VERTEX
  5
38C
  8
1_5_____
  6
CONTINUOUS
 62
     1
 10
805.5911692009823
 20
522.6246632445295
 30
0.0
  0
VERTEX
  5
38D
  8
1_5_____
  6
CONTINUOUS
 62
     1
 10
805.5911637008041
 20
522.6247123390087
 30
0.0
  0
VERTEX
  5
38E
  8
1_5_____
  6
CONTINUOUS
 62
     1
 10
805.5911577476829
 20
522.6247613847795
 30
0.0
  0
VERTEX
  5
38F
  8
1_5_____
  6
CONTINUOUS
 62
     1
 10
805.5911513416187
 20
522.6248103818418
 30
0.0
  0
VERTEX
  5
390
  8
1_5_____
  6
CONTINUOUS
 62
     1
 10
805.5911444826114
 20
522.6248593301957
 30
0.0
  0
VERTEX
  5
391
  8
1_5_____
  6
CONTINUOUS
 62
     1
 10
805.5911371706611
 20
522.6249082298414
 30
0.0
  0
VERTEX
  5
392
  8
1_5_____
  6
CONTINUOUS
 62
     1
 10
805.5911294057678
 20
522.6249570807784
 30
0.0
  0
VERTEX
  5
393
  8
1_5_____
  6
CONTINUOUS
 62
     1
 10
805.5911211879315
 20
522.6250058830069
 30
0.0
  0
VERTEX
  5
394
  8
1_5_____
  6
CONTINUOUS
 62
     1
 10
805.5911125171522
 20
522.6250546365272
 30
0.0
  0
VERTEX
  5
395
  8
1_5_____
  6
CONTINUOUS
 62
     1
 10
805.5911033934298
 20
522.6251033413391
 30
0.0
  0
VERTEX
  5
396
  8
1_5_____
  6
CONTINUOUS
 62
     1
 10
805.5910938167644
 20
522.6251519974426
 30
0.0
  0
VERTEX
  5
397
  8
1_5_____
  6
CONTINUOUS
 62
     1
 10
805.591083787156
 20
522.6252006048376
 30
0.0
  0
VERTEX
  5
398
  8
1_5_____
  6
CONTINUOUS
 62
     1
 10
805.5910733046046
 20
522.6252491635241
 30
0.0
  0
VERTEX
  5
399
  8
1_5_____
  6
CONTINUOUS
 62
     1
 10
805.5910623691101
 20
522.6252976735025
 30
0.0
  0
VERTEX
  5
39A
  8
1_5_____
  6
CONTINUOUS
 62
     1
 10
805.5910509806727
 20
522.6253461347721
 30
0.0
  0
VERTEX
  5
39B
  8
1_5_____
  6
CONTINUOUS
 62
     1
 10
805.5910391392921
 20
522.6253945473334
 30
0.0
  0
VERTEX
  5
39C
  8
1_5_____
  6
CONTINUOUS
 62
     1
 10
805.5910268449686
 20
522.6254429111864
 30
0.0
  0
VERTEX
  5
39D
  8
1_5_____
  6
CONTINUOUS
 62
     1
 10
805.591014097702
 20
522.625491226331
 30
0.0
  0
VERTEX
  5
39E
  8
1_5_____
  6
CONTINUOUS
 62
     1
 10
805.5910008974924
 20
522.6255394927671
 30
0.0
  0
VERTEX
  5
39F
  8
1_5_____
  6
CONTINUOUS
 62
     1
 10
805.5910008974924
 20
522.6255394927671
 30
0.0
  0
SEQEND
  5
3A0
  8
1_5_____
  6
CONTINUOUS
 62
     1
  0
LINE
  5
3A1
  8
1_5_____
  6
ISO-10______
 62
     2
 10
206.6929019169422
 20
962.7395645960737
 30
0.0
 11
71.69290191694222
 21
962.7395645960737
 31
0.0
  0
LINE
  5
3A2
  8
1_5_____
  6
CONTINUOUS
 62
     1
 10
-160.8070980830578
 20
1187.739564596074
 30
0.0
 11
-160.8070980830578
 21
777.7395645960737
 31
0.0
  0
LINE
  5
3A3
  8
1_5_____
  6
CONTINUOUS
 62
     1
 10
439.1929019169422
 20
1187.739564596074
 30
0.0
 11
439.1929019169422
 21
777.7395645960737
 31
0.0
  0
LINE
  5
3A4
  8
1_5_____
  6
CONTINUOUS
 62
     1
 10
-155.8070980830578
 20
1192.739564596074
 30
0.0
 11
434.1929019169422
 21
1192.739564596074
 31
0.0
  0
LINE
  5
3A5
  8
1_5_____
  6
CONTINUOUS
 62
     1
 10
-115.8070980830578
 20
1057.739564596074
 30
0.0
 11
394.1929019169422
 21
1057.739564596074
 31
0.0
  0
LINE
  5
3A6
  8
1_5_____
  6
CONTINUOUS
 62
     1
 10
-115.8070980830578
 20
732.7395645960737
 30
0.0
 11
394.1929019169422
 21
732.7395645960737
 31
0.0
  0
LINE
  5
3A7
  8
1_5_____
  6
CONTINUOUS
 62
     1
 10
-115.8070980830578
 20
747.7395645960737
 30
0.0
 11
394.1929019169422
 21
747.7395645960737
 31
0.0
  0
LINE
  5
3A8
  8
1_5_____
  6
CONTINUOUS
 62
     1
 10
-145.8070980830578
 20
1027.739564596074
 30
0.0
 11
-145.8070980830578
 21
777.7395645960737
 31
0.0
  0
LINE
  5
3A9
  8
1_5_____
  6
CONTINUOUS
 62
     1
 10
424.1929019169422
 20
1027.739564596074
 30
0.0
 11
424.1929019169422
 21
777.7395645960737
 31
0.0
  0
ARC
  5
3AA
  8
1_5_____
  6
CONTINUOUS
 62
     1
 10
-115.8070980830578
 20
1027.739564596074
 30
0.0
 40
30.0
 50
90.0
 51
180.0
  0
ARC
  5
3AB
  8
1_5_____
  6
CONTINUOUS
 62
     1
 10
394.1929019169422
 20
1027.739564596074
 30
0.0
 40
30.0
 50
0.0
 51
90.0
  0
ARC
  5
3AC
  8
1_5_____
  6
CONTINUOUS
 62
     1
 10
394.1929019169422
 20
777.7395645960737
 30
0.0
 40
30.0
 50
270.0
 51
0.0
  0
ARC
  5
3AD
  8
1_5_____
  6
CONTINUOUS
 62
     1
 10
-115.8070980830578
 20
777.7395645960737
 30
0.0
 40
30.0
 50
180.0
 51
270.0
  0
CIRCLE
  5
3AE
  8
1_5_____
  6
CONTINUOUS
 62
     1
 10
139.1929019169422
 20
962.7395645960737
 30
0.0
 40
23.0
  0
CIRCLE
  5
3AF
  8
1_5_____
  6
CONTINUOUS
 62
     1
 10
139.1929019169422
 20
962.7395645960737
 30
0.0
 40
37.5
  0
ARC
  5
3B0
  8
1_5_____
  6
CONTINUOUS
 62
     1
 10
-115.8070980830578
 20
777.7395645960737
 30
0.0
 40
45.0
 50
180.0
 51
270.0
  0
ARC
  5
3B1
  8
1_5_____
  6
CONTINUOUS
 62
     1
 10
394.1929019169422
 20
777.7395645960737
 30
0.0
 40
45.0
 50
270.0
 51
0.0
  0
ARC
  5
3B2
  8
1_5_____
  6
CONTINUOUS
 62
     1
 10
394.1929019169422
 20
777.7395645960737
 30
0.0
 40
30.0
 50
270.0
 51
0.0
  0
ARC
  5
3B3
  8
1_5_____
  6
CONTINUOUS
 62
     1
 10
434.1929019169422
 20
1187.739564596074
 30
0.0
 40
5.0
 50
0.0
 51
90.0
  0
ARC
  5
3B4
  8
1_5_____
  6
CONTINUOUS
 62
     1
 10
-155.8070980830578
 20
1187.739564596074
 30
0.0
 40
5.0
 50
90.0
 51
180.0
  0
POLYLINE
  5
3B5
  8
1_5_____
  6
CONTINUOUS
 62
     1
 66
     1
 10
0.0
 20
0.0
 30
0.0
 70
     1
  0
VERTEX
  5
984
  8
1_5_____
  6
CONTINUOUS
 62
     1
 10
151.6929019169422
 20
1044.739564596001
 30
0.0
  0
VERTEX
  5
985
  8
1_5_____
  6
CONTINUOUS
 62
     1
 10
151.4527179219826
 20
1045.363853626452
 30
0.0
  0
VERTEX
  5
986
  8
1_5_____
  6
CONTINUOUS
 62
     1
 10
150.7413960733333
 20
1045.964151579568
 30
0.0
  0
VERTEX
  5
987
  8
1_5_____
  6
CONTINUOUS
 62
     1
 10
149.586272070724
 20
1046.517389341662
 30
0.0
  0
VERTEX
  5
988
  8
1_5_____
  6
CONTINUOUS
 62
     1
 10
148.0317366817741
 20
1047.002306295796
 30
0.0
  0
VERTEX
  5
989
  8
1_5_____
  6
CONTINUOUS
 62
     1
 10
146.1375298296873
 20
1047.400267355367
 30
0.0
  0
VERTEX
  5
98A
  8
1_5_____
  6
CONTINUOUS
 62
     1
 10
143.9764448215059
 20
1047.695979100034
 30
0.0
  0
VERTEX
  5
98B
  8
1_5_____
  6
CONTINUOUS
 62
     1
 10
141.6315309421438
 20
1047.878077493288
 30
0.0
  0
VERTEX
  5
98C
  8
1_5_____
  6
CONTINUOUS
 62
     1
 10
139.1929019169422
 20
1047.939564595998
 30
0.0
  0
VERTEX
  5
98D
  8
1_5_____
  6
CONTINUOUS
 62
     1
 10
136.7542728917406
 20
1047.878077493288
 30
0.0
  0
VERTEX
  5
98E
  8
1_5_____
  6
CONTINUOUS
 62
     1
 10
134.4093590123786
 20
1047.695979100034
 30
0.0
  0
VERTEX
  5
98F
  8
1_5_____
  6
CONTINUOUS
 62
     1
 10
132.2482740041972
 20
1047.400267355367
 30
0.0
  0
VERTEX
  5
990
  8
1_5_____
  6
CONTINUOUS
 62
     1
 10
130.3540671521104
 20
1047.002306295796
 30
0.0
  0
VERTEX
  5
991
  8
1_5_____
  6
CONTINUOUS
 62
     1
 10
128.7995317631604
 20
1046.517389341662
 30
0.0
  0
VERTEX
  5
992
  8
1_5_____
  6
CONTINUOUS
 62
     1
 10
127.6444077605511
 20
1045.964151579568
 30
0.0
  0
VERTEX
  5
993
  8
1_5_____
  6
CONTINUOUS
 62
     1
 10
126.9330859119018
 20
1045.363853626452
 30
0.0
  0
VERTEX
  5
994
  8
1_5_____
  6
CONTINUOUS
 62
     1
 10
126.6929019169422
 20
1044.739564596001
 30
0.0
  0
VERTEX
  5
995
  8
1_5_____
  6
CONTINUOUS
 62
     1
 10
126.9330859119018
 20
1044.11527556555
 30
0.0
  0
VERTEX
  5
996
  8
1_5_____
  6
CONTINUOUS
 62
     1
 10
127.6444077605511
 20
1043.514977612434
 30
0.0
  0
VERTEX
  5
997
  8
1_5_____
  6
CONTINUOUS
 62
     1
 10
128.7995317631604
 20
1042.96173985034
 30
0.0
  0
VERTEX
  5
998
  8
1_5_____
  6
CONTINUOUS
 62
     1
 10
130.3540671521104
 20
1042.476822896206
 30
0.0
  0
VERTEX
  5
999
  8
1_5_____
  6
CONTINUOUS
 62
     1
 10
132.2482740041972
 20
1042.078861836635
 30
0.0
  0
VERTEX
  5
99A
  8
1_5_____
  6
CONTINUOUS
 62
     1
 10
134.4093590123786
 20
1041.783150091968
 30
0.0
  0
VERTEX
  5
99B
  8
1_5_____
  6
CONTINUOUS
 62
     1
 10
136.7542728917406
 20
1041.601051698713
 30
0.0
  0
VERTEX
  5
99C
  8
1_5_____
  6
CONTINUOUS
 62
     1
 10
139.1929019169422
 20
1041.539564596004
 30
0.0
  0
VERTEX
  5
99D
  8
1_5_____
  6
CONTINUOUS
 62
     1
 10
141.6315309421439
 20
1041.601051698713
 30
0.0
  0
VERTEX
  5
99E
  8
1_5_____
  6
CONTINUOUS
 62
     1
 10
143.9764448215059
 20
1041.783150091968
 30
0.0
  0
VERTEX
  5
99F
  8
1_5_____
  6
CONTINUOUS
 62
     1
 10
146.1375298296873
 20
1042.078861836635
 30
0.0
  0
VERTEX
  5
9A0
  8
1_5_____
  6
CONTINUOUS
 62
     1
 10
148.0317366817741
 20
1042.476822896206
 30
0.0
  0
VERTEX
  5
9A1
  8
1_5_____
  6
CONTINUOUS
 62
     1
 10
149.586272070724
 20
1042.96173985034
 30
0.0
  0
VERTEX
  5
9A2
  8
1_5_____
  6
CONTINUOUS
 62
     1
 10
150.7413960733333
 20
1043.514977612434
 30
0.0
  0
VERTEX
  5
9A3
  8
1_5_____
  6
CONTINUOUS
 62
     1
 10
151.4527179219826
 20
1044.11527556555
 30
0.0
  0
SEQEND
  5
9C6
  8
1_5_____
  6
CONTINUOUS
 62
     1
  0
POINT
  5
3B6
  8
1_5_____
  6
CONTINUOUS
 62
     1
 10
139.1929019169422
 20
1124.739564595986
 30
0.0
  0
LINE
  5
3B7
  8
1_5_____
  6
CONTINUOUS
 62
     1
 10
-160.8070980830578
 20
1187.739564596074
 30
0.0
 11
-160.8070980830578
 21
777.7395645960737
 31
0.0
  0
LINE
  5
3B8
  8
1_5_____
  6
CONTINUOUS
 62
     1
 10
439.1929019169422
 20
1187.739564596074
 30
0.0
 11
439.1929019169422
 21
777.7395645960737
 31
0.0
  0
LINE
  5
3B9
  8
1_5_____
  6
CONTINUOUS
 62
     1
 10
-155.8070980830578
 20
1192.739564596074
 30
0.0
 11
434.1929019169422
 21
1192.739564596074
 31
0.0
  0
LINE
  5
3BA
  8
1_5_____
  6
CONTINUOUS
 62
     1
 10
-115.8070980830578
 20
1057.739564596074
 30
0.0
 11
394.1929019169422
 21
1057.739564596074
 31
0.0
  0
LINE
  5
3BB
  8
1_5_____
  6
CONTINUOUS
 62
     1
 10
-115.8070980830578
 20
732.7395645960737
 30
0.0
 11
394.1929019169422
 21
732.7395645960737
 31
0.0
  0
LINE
  5
3BC
  8
1_5_____
  6
CONTINUOUS
 62
     1
 10
-115.8070980830578
 20
747.7395645960737
 30
0.0
 11
394.1929019169422
 21
747.7395645960737
 31
0.0
  0
LINE
  5
3BD
  8
1_5_____
  6
CONTINUOUS
 62
     1
 10
-145.8070980830578
 20
1027.739564596074
 30
0.0
 11
-145.8070980830578
 21
777.7395645960737
 31
0.0
  0
LINE
  5
3BE
  8
1_5_____
  6
CONTINUOUS
 62
     1
 10
424.1929019169422
 20
1027.739564596074
 30
0.0
 11
424.1929019169422
 21
777.7395645960737
 31
0.0
  0
ARC
  5
3BF
  8
1_5_____
  6
CONTINUOUS
 62
     1
 10
-115.8070980830578
 20
1027.739564596074
 30
0.0
 40
30.0
 50
90.0
 51
180.0
  0
ARC
  5
3C0
  8
1_5_____
  6
CONTINUOUS
 62
     1
 10
394.1929019169422
 20
1027.739564596074
 30
0.0
 40
30.0
 50
0.0
 51
90.0
  0
ARC
  5
3C1
  8
1_5_____
  6
CONTINUOUS
 62
     1
 10
394.1929019169422
 20
777.7395645960737
 30
0.0
 40
30.0
 50
270.0
 51
0.0
  0
ARC
  5
3C2
  8
1_5_____
  6
CONTINUOUS
 62
     1
 10
-115.8070980830578
 20
777.7395645960737
 30
0.0
 40
30.0
 50
180.0
 51
270.0
  0
CIRCLE
  5
3C3
  8
1_5_____
  6
CONTINUOUS
 62
     1
 10
139.1929019169422
 20
1124.739564595986
 30
0.0
 40
17.5
  0
CIRCLE
  5
3C4
  8
1_5_____
  6
CONTINUOUS
 62
     1
 10
139.1929019169422
 20
962.7395645960737
 30
0.0
 40
23.0
  0
CIRCLE
  5
3C5
  8
1_5_____
  6
CONTINUOUS
 62
     1
 10
139.1929019169422
 20
962.7395645960737
 30
0.0
 40
37.5
  0
ARC
  5
3C6
  8
1_5_____
  6
CONTINUOUS
 62
     1
 10
-115.8070980830578
 20
777.7395645960737
 30
0.0
 40
45.0
 50
180.0
 51
270.0
  0
ARC
  5
3C7
  8
1_5_____
  6
CONTINUOUS
 62
     1
 10
394.1929019169422
 20
777.7395645960737
 30
0.0
 40
45.0
 50
270.0
 51
0.0
  0
ARC
  5
3C8
  8
1_5_____
  6
CONTINUOUS
 62
     1
 10
394.1929019169422
 20
777.7395645960737
 30
0.0
 40
30.0
 50
270.0
 51
0.0
  0
ARC
  5
3C9
  8
1_5_____
  6
CONTINUOUS
 62
     1
 10
434.1929019169422
 20
1187.739564596074
 30
0.0
 40
5.0
 50
0.0
 51
90.0
  0
ARC
  5
3CA
  8
1_5_____
  6
CONTINUOUS
 62
     1
 10
-155.8070980830578
 20
1187.739564596074
 30
0.0
 40
5.0
 50
90.0
 51
180.0
  0
LINE
  5
3CB
  8
1_5_____
  6
CONTINUOUS
 62
     1
 10
-150.8070980830578
 20
529.6163695960227
 30
0.0
 11
429.1929019169422
 21
529.6163695960227
 31
0.0
  0
ARC
  5
3CC
  8
1_5_____
  6
CONTINUOUS
 62
     1
 10
-150.8070980830578
 20
519.6163695960227
 30
0.0
 40
10.0
 50
90.0
 51
180.0
  0
LINE
  5
3CD
  8
1_5_____
  6
CONTINUOUS
 62
     1
 10
106.6929019169422
 20
349.6163695960227
 30
0.0
 11
171.6929019169422
 21
349.6163695960227
 31
0.0
  0
LINE
  5
3CE
  8
1_5_____
  6
CONTINUOUS
 62
     1
 10
104.1929019169422
 20
369.6163695960227
 30
0.0
 11
104.1929019169422
 21
352.1163695960227
 31
0.0
  0
ARC
  5
3CF
  8
1_5_____
  6
CONTINUOUS
 62
     1
 10
-55.80709808305778
 20
367.6163695960227
 30
0.0
 40
9.99999999999154
 50
244.0107659999748
 51
279.4618770000052
  0
ARC
  5
3D0
  8
1_5_____
  6
CONTINUOUS
 62
     1
 10
18.29290191694258
 20
519.6163695960227
 30
0.0
 40
179.1000000000004
 50
180.0
 51
244.0107659999993
  0
ARC
  5
3D1
  8
1_5_____
  6
CONTINUOUS
 62
     1
 10
89.19290191694222
 20
-502.4253004039542
 30
0.0
 40
872.041664999997
 50
90.0
 51
99.46187700000011
  0
ARC
  5
3D2
  8
1_5_____
  6
CONTINUOUS
 62
     1
 10
106.6929019169422
 20
352.1163695960227
 30
0.0
 40
2.5
 50
180.0
 51
270.0
  0
LINE
  5
3D3
  8
1_5_____
  6
ISO-10______
 62
     2
 10
-0.807098083057781
 20
494.6163695960227
 30
0.0
 11
-0.807098083057781
 21
434.6163695960227
 31
0.0
  0
LINE
  5
3D4
  8
1_5_____
  6
ISO-10______
 62
     2
 10
-38.30709808305778
 20
464.6163695960227
 30
0.0
 11
36.69290191694222
 21
464.6163695960227
 31
0.0
  0
LINE
  5
3D5
  8
1_5_____
  6
CONTINUOUS
 62
     1
 10
-8.307098083057781
 20
474.6163695960227
 30
0.0
 11
6.692901916942219
 21
474.6163695960227
 31
0.0
  0
ARC
  5
3D6
  8
1_5_____
  6
CONTINUOUS
 62
     1
 10
-8.307098083057781
 20
464.6163695960227
 30
0.0
 40
10.0
 50
90.0
 51
270.0
  0
ARC
  5
3D7
  8
1_5_____
  6
CONTINUOUS
 62
     1
 10
6.692901916942219
 20
464.6163695960227
 30
0.0
 40
10.0
 50
270.0
 51
90.0
  0
LINE
  5
3D8
  8
1_5_____
  6
CONTINUOUS
 62
     1
 10
-8.307098083057781
 20
454.6163695960227
 30
0.0
 11
6.692901916942219
 21
454.6163695960227
 31
0.0
  0
LINE
  5
3D9
  8
1_5_____
  6
ISO-10______
 62
     2
 10
139.1929019169422
 20
549.6163695960227
 30
0.0
 11
139.1929019169422
 21
329.6163695960227
 31
0.0
  0
ARC
  5
3DA
  8
1_5_____
  6
CONTINUOUS
 62
     1
 10
429.1929019169422
 20
519.6163695960227
 30
0.0
 40
10.0
 50
0.0
 51
90.0
  0
ARC
  5
3DB
  8
1_5_____
  6
CONTINUOUS
 62
     1
 10
260.0929019169419
 20
519.6163695960227
 30
0.0
 40
179.0999999999979
 50
295.9892340000005
 51
0.0
  0
LINE
  5
3DC
  8
1_5_____
  6
CONTINUOUS
 62
     1
 10
286.6929019169422
 20
454.6163695960227
 30
0.0
 11
271.6929019169422
 21
454.6163695960227
 31
0.0
  0
ARC
  5
3DD
  8
1_5_____
  6
CONTINUOUS
 62
     1
 10
271.6929019169422
 20
464.6163695960227
 30
0.0
 40
10.0
 50
90.0
 51
270.0
  0
ARC
  5
3DE
  8
1_5_____
  6
CONTINUOUS
 62
     1
 10
286.6929019169422
 20
464.6163695960227
 30
0.0
 40
10.0
 50
270.0
 51
90.0
  0
LINE
  5
3DF
  8
1_5_____
  6
CONTINUOUS
 62
     1
 10
286.6929019169422
 20
474.6163695960227
 30
0.0
 11
271.6929019169422
 21
474.6163695960227
 31
0.0
  0
LINE
  5
3E0
  8
1_5_____
  6
ISO-10______
 62
     2
 10
316.6929019169422
 20
464.6163695960227
 30
0.0
 11
241.6929019169422
 21
464.6163695960227
 31
0.0
  0
LINE
  5
3E1
  8
1_5_____
  6
ISO-10______
 62
     2
 10
279.1929019169422
 20
494.6163695960227
 30
0.0
 11
279.1929019169422
 21
434.6163695960227
 31
0.0
  0
ARC
  5
3E2
  8
1_5_____
  6
CONTINUOUS
 62
     1
 10
189.1929019169422
 20
-502.4253004039542
 30
0.0
 40
872.0416649999618
 50
80.53812299999963
 51
90.0
  0
ARC
  5
3E3
  8
1_5_____
  6
CONTINUOUS
 62
     1
 10
334.1929019169422
 20
367.6163695960227
 30
0.0
 40
9.99999999998976
 50
260.5381229999948
 51
295.9892340000346
  0
LINE
  5
3E4
  8
1_5_____
  6
CONTINUOUS
 62
     1
 10
189.1929019169422
 20
369.6163695960227
 30
0.0
 11
89.19290191694222
 21
369.6163695960227
 31
0.0
  0
LINE
  5
3E5
  8
1_5_____
  6
CONTINUOUS
 62
     1
 10
174.1929019169422
 20
369.6163695960227
 30
0.0
 11
174.1929019169422
 21
352.1163695960227
 31
0.0
  0
ARC
  5
3E6
  8
1_5_____
  6
CONTINUOUS
 62
     1
 10
171.6929019169422
 20
352.1163695960227
 30
0.0
 40
2.5
 50
270.0
 51
0.0
  0
POLYLINE
  5
3E7
  8
1_5_____
  6
CONTINUOUS
 62
     1
 66
     1
 10
0.0
 20
0.0
 30
0.0
 70
     1
  0
VERTEX
  5
9A4
  8
1_5_____
  6
CONTINUOUS
 62
     1
 10
151.6929019169422
 20
1044.739564596001
 30
0.0
  0
VERTEX
  5
9A5
  8
1_5_____
  6
CONTINUOUS
 62
     1
 10
151.4527179219826
 20
1045.363853626452
 30
0.0
  0
VERTEX
  5
9A6
  8
1_5_____
  6
CONTINUOUS
 62
     1
 10
150.7413960733333
 20
1045.964151579568
 30
0.0
  0
VERTEX
  5
9A7
  8
1_5_____
  6
CONTINUOUS
 62
     1
 10
149.586272070724
 20
1046.517389341662
 30
0.0
  0
VERTEX
  5
9A8
  8
1_5_____
  6
CONTINUOUS
 62
     1
 10
148.0317366817741
 20
1047.002306295796
 30
0.0
  0
VERTEX
  5
9A9
  8
1_5_____
  6
CONTINUOUS
 62
     1
 10
146.1375298296873
 20
1047.400267355367
 30
0.0
  0
VERTEX
  5
9AA
  8
1_5_____
  6
CONTINUOUS
 62
     1
 10
143.9764448215059
 20
1047.695979100034
 30
0.0
  0
VERTEX
  5
9AB
  8
1_5_____
  6
CONTINUOUS
 62
     1
 10
141.6315309421438
 20
1047.878077493288
 30
0.0
  0
VERTEX
  5
9AC
  8
1_5_____
  6
CONTINUOUS
 62
     1
 10
139.1929019169422
 20
1047.939564595998
 30
0.0
  0
VERTEX
  5
9AD
  8
1_5_____
  6
CONTINUOUS
 62
     1
 10
136.7542728917406
 20
1047.878077493288
 30
0.0
  0
VERTEX
  5
9AE
  8
1_5_____
  6
CONTINUOUS
 62
     1
 10
134.4093590123786
 20
1047.695979100034
 30
0.0
  0
VERTEX
  5
9AF
  8
1_5_____
  6
CONTINUOUS
 62
     1
 10
132.2482740041972
 20
1047.400267355367
 30
0.0
  0
VERTEX
  5
9B0
  8
1_5_____
  6
CONTINUOUS
 62
     1
 10
130.3540671521104
 20
1047.002306295796
 30
0.0
  0
VERTEX
  5
9B1
  8
1_5_____
  6
CONTINUOUS
 62
     1
 10
128.7995317631604
 20
1046.517389341662
 30
0.0
  0
VERTEX
  5
9B2
  8
1_5_____
  6
CONTINUOUS
 62
     1
 10
127.6444077605511
 20
1045.964151579568
 30
0.0
  0
VERTEX
  5
9B3
  8
1_5_____
  6
CONTINUOUS
 62
     1
 10
126.9330859119018
 20
1045.363853626452
 30
0.0
  0
VERTEX
  5
9B4
  8
1_5_____
  6
CONTINUOUS
 62
     1
 10
126.6929019169422
 20
1044.739564596001
 30
0.0
  0
VERTEX
  5
9B5
  8
1_5_____
  6
CONTINUOUS
 62
     1
 10
126.9330859119018
 20
1044.11527556555
 30
0.0
  0
VERTEX
  5
9B6
  8
1_5_____
  6
CONTINUOUS
 62
     1
 10
127.6444077605511
 20
1043.514977612434
 30
0.0
  0
VERTEX
  5
9B7
  8
1_5_____
  6
CONTINUOUS
 62
     1
 10
128.7995317631604
 20
1042.96173985034
 30
0.0
  0
VERTEX
  5
9B8
  8
1_5_____
  6
CONTINUOUS
 62
     1
 10
130.3540671521104
 20
1042.476822896206
 30
0.0
  0
VERTEX
  5
9B9
  8
1_5_____
  6
CONTINUOUS
 62
     1
 10
132.2482740041972
 20
1042.078861836635
 30
0.0
  0
VERTEX
  5
9BA
  8
1_5_____
  6
CONTINUOUS
 62
     1
 10
134.4093590123786
 20
1041.783150091968
 30
0.0
  0
VERTEX
  5
9BB
  8
1_5_____
  6
CONTINUOUS
 62
     1
 10
136.7542728917406
 20
1041.601051698713
 30
0.0
  0
VERTEX
  5
9BC
  8
1_5_____
  6
CONTINUOUS
 62
     1
 10
139.1929019169422
 20
1041.539564596004
 30
0.0
  0
VERTEX
  5
9BD
  8
1_5_____
  6
CONTINUOUS
 62
     1
 10
141.6315309421439
 20
1041.601051698713
 30
0.0
  0
VERTEX
  5
9BE
  8
1_5_____
  6
CONTINUOUS
 62
     1
 10
143.9764448215059
 20
1041.783150091968
 30
0.0
  0
VERTEX
  5
9BF
  8
1_5_____
  6
CONTINUOUS
 62
     1
 10
146.1375298296873
 20
1042.078861836635
 30
0.0
  0
VERTEX
  5
9C0
  8
1_5_____
  6
CONTINUOUS
 62
     1
 10
148.0317366817741
 20
1042.476822896206
 30
0.0
  0
VERTEX
  5
9C1
  8
1_5_____
  6
CONTINUOUS
 62
     1
 10
149.586272070724
 20
1042.96173985034
 30
0.0
  0
VERTEX
  5
9C2
  8
1_5_____
  6
CONTINUOUS
 62
     1
 10
150.7413960733333
 20
1043.514977612434
 30
0.0
  0
VERTEX
  5
9C3
  8
1_5_____
  6
CONTINUOUS
 62
     1
 10
151.4527179219826
 20
1044.11527556555
 30
0.0
  0
SEQEND
  5
9C7
  8
1_5_____
  6
CONTINUOUS
 62
     1
  0
LINE
  5
3E8
  8
1_5_____
  6
ISO-10______
 62
     2
 10
176.6929019169422
 20
1124.739564595986
 30
0.0
 11
101.6929019169422
 21
1124.739564595986
 31
0.0
  0
POLYLINE
  5
3E9
  8
1_5_____
  6
CONTINUOUS
 62
     5
 66
     1
 10
0.0
 20
0.0
 30
0.0
 70
   128
  0
VERTEX
  5
3EA
  8
1_5_____
  6
CONTINUOUS
 62
     5
 10
147.355636916943
 20
1042.316074596058
 30
0.0
  0
VERTEX
  5
3EB
  8
1_5_____
  6
CONTINUOUS
 62
     5
 10
164.0417640638665
 20
1013.414854596029
 30
0.0
  0
VERTEX
  5
3EC
  8
1_5_____
  6
CONTINUOUS
 62
     5
 10
314.6723108127878
 20
1013.414854596029
 30
0.0
  0
SEQEND
  5
3ED
  8
1_5_____
  6
CONTINUOUS
 62
     5
  0
TEXT
  5
3EE
  8
1_5_____
 62
     1
 10
201.7834219238989
 20
1015.160369642326
 30
0.0
 40
10.62008101851852
  1
オーバーフロー穴
  7
YUGOTHIC_MEDIUM
 11
201.7834219238989
 21
1020.470410151585
 31
0.0
 73
     2
  0
LINE
  5
3EF
  8
1_5_____
  6
CONTINUOUS
 62
     1
 10
1066.056333512687
 20
1271.186210234303
 30
0.0
 11
1079.556333512686
 21
1271.186210234303
 31
0.0
  0
TEXT
  5
3F0
  8
1_5_____
 62
     1
 10
1050.857673512686
 20
1341.59147542976
 30
0.0
 40
10.62008101851852
  1
アンカープラグS14（×2）
  7
YUGOTHIC_MEDIUM
 11
1050.857673512686
 21
1352.211556448279
 31
0.0
 73
     3
  0
LINE
  5
3F1
  8
1_5_____
  6
ISO-10______
 62
     2
 10
1072.806333512687
 20
1273.94363523432
 30
0.0
 11
1072.806333512687
 21
1194.036205234299
 31
0.0
  0
LINE
  5
3F2
  8
1_5_____
  6
CONTINUOUS
 62
     1
 10
1073.306333512686
 20
1196.686210234332
 30
0.0
 11
1076.806333512686
 21
1196.686210234332
 31
0.0
  0
LINE
  5
3F3
  8
1_5_____
  6
CONTINUOUS
 62
     1
 10
1072.306333512687
 20
1263.686210234303
 30
0.0
 11
1072.306333512687
 21
1196.686210234332
 31
0.0
  0
LINE
  5
3F4
  8
1_5_____
  6
CONTINUOUS
 62
     1
 10
1073.306333512686
 20
1263.686210234303
 30
0.0
 11
1073.306333512686
 21
1196.686210234332
 31
0.0
  0
LINE
  5
3F5
  8
1_5_____
  6
CONTINUOUS
 62
     1
 10
1072.306333512687
 20
1263.686210234303
 30
0.0
 11
1073.306333512686
 21
1263.686210234303
 31
0.0
  0
LINE
  5
3F6
  8
1_5_____
  6
CONTINUOUS
 62
     1
 10
1068.306333512686
 20
1205.686210234332
 30
0.0
 11
1066.056333512687
 21
1205.686210234332
 31
0.0
  0
LINE
  5
3F7
  8
1_5_____
  6
CONTINUOUS
 62
     1
 10
1068.306333512686
 20
1208.686210234303
 30
0.0
 11
1068.306333512686
 21
1205.686210234332
 31
0.0
  0
LINE
  5
3F8
  8
1_5_____
  6
CONTINUOUS
 62
     1
 10
1068.306333512686
 20
1208.686210234303
 30
0.0
 11
1066.056333512687
 21
1213.686210234303
 31
0.0
  0
LINE
  5
3F9
  8
1_5_____
  6
CONTINUOUS
 62
     1
 10
1066.056333512687
 20
1205.686210234332
 30
0.0
 11
1066.056333512687
 21
1200.686210234332
 31
0.0
  0
LINE
  5
3FA
  8
1_5_____
  6
CONTINUOUS
 62
     1
 10
1068.306333512686
 20
1216.186210234303
 30
0.0
 11
1066.056333512687
 21
1216.186210234303
 31
0.0
  0
LINE
  5
3FB
  8
1_5_____
  6
CONTINUOUS
 62
     1
 10
1068.306333512686
 20
1219.186210234332
 30
0.0
 11
1066.056333512687
 21
1224.186210234332
 31
0.0
  0
LINE
  5
3FC
  8
1_5_____
  6
CONTINUOUS
 62
     1
 10
1068.306333512686
 20
1219.186210234332
 30
0.0
 11
1068.306333512686
 21
1216.186210234303
 31
0.0
  0
LINE
  5
3FD
  8
1_5_____
  6
CONTINUOUS
 62
     1
 10
1068.306333512686
 20
1226.686210234332
 30
0.0
 11
1066.056333512687
 21
1226.686210234332
 31
0.0
  0
LINE
  5
3FE
  8
1_5_____
  6
CONTINUOUS
 62
     1
 10
1068.306333512686
 20
1229.686210234303
 30
0.0
 11
1066.056333512687
 21
1234.686210234303
 31
0.0
  0
LINE
  5
3FF
  8
1_5_____
  6
CONTINUOUS
 62
     1
 10
1068.306333512686
 20
1229.686210234303
 30
0.0
 11
1068.306333512686
 21
1226.686210234332
 31
0.0
  0
LINE
  5
400
  8
1_5_____
  6
CONTINUOUS
 62
     1
 10
1068.306333512686
 20
1237.186210234303
 30
0.0
 11
1066.056333512687
 21
1237.186210234303
 31
0.0
  0
LINE
  5
401
  8
1_5_____
  6
CONTINUOUS
 62
     1
 10
1068.306333512686
 20
1240.186210234303
 30
0.0
 11
1066.056333512687
 21
1245.186210234303
 31
0.0
  0
LINE
  5
402
  8
1_5_____
  6
CONTINUOUS
 62
     1
 10
1068.306333512686
 20
1240.186210234303
 30
0.0
 11
1068.306333512686
 21
1237.186210234303
 31
0.0
  0
LINE
  5
403
  8
1_5_____
  6
CONTINUOUS
 62
     1
 10
1066.056333512687
 20
1216.186210234303
 30
0.0
 11
1066.056333512687
 21
1213.686210234303
 31
0.0
  0
LINE
  5
404
  8
1_5_____
  6
CONTINUOUS
 62
     1
 10
1066.056333512687
 20
1226.686210234332
 30
0.0
 11
1066.056333512687
 21
1224.186210234332
 31
0.0
  0
LINE
  5
405
  8
1_5_____
  6
CONTINUOUS
 62
     1
 10
1066.056333512687
 20
1237.186210234303
 30
0.0
 11
1066.056333512687
 21
1234.686210234303
 31
0.0
  0
ARC
  5
406
  8
1_5_____
  6
CONTINUOUS
 62
     1
 10
1037.612523512686
 20
1229.65695023435
 30
0.0
 40
31.51236499999164
 50
13.82342299993251
 51
37.917243999978
  0
ARC
  5
407
  8
1_5_____
  6
CONTINUOUS
 62
     1
 10
1037.612523512686
 20
1229.65695023435
 30
0.0
 40
29.51236499999627
 50
14.78083399996721
 51
37.91724399987559
  0
ARC
  5
408
  8
1_5_____
  6
CONTINUOUS
 62
     1
 10
1061.683703512687
 20
1248.40749023433
 30
0.0
 40
1.000000000003064
 50
37.91724400030299
 51
217.9172440023871
  0
LINE
  5
409
  8
1_5_____
  6
CONTINUOUS
 62
     1
 10
1067.556333512686
 20
1249.852880234308
 30
0.0
 11
1067.556333512686
 21
1241.852880234308
 31
0.0
  0
LINE
  5
40A
  8
1_5_____
  6
CONTINUOUS
 62
     1
 10
1066.056333512687
 20
1249.852880234308
 30
0.0
 11
1067.556333512686
 21
1249.852880234308
 31
0.0
  0
LINE
  5
40B
  8
1_5_____
  6
CONTINUOUS
 62
     1
 10
1068.806333512686
 20
1196.686210234332
 30
0.0
 11
1066.056333512687
 21
1200.686210234332
 31
0.0
  0
LINE
  5
40C
  8
1_5_____
  6
CONTINUOUS
 62
     1
 10
1066.056333512687
 20
1271.186210234303
 30
0.0
 11
1066.056333512687
 21
1245.186210234303
 31
0.0
  0
LINE
  5
40D
  8
1_5_____
  6
CONTINUOUS
 62
     1
 10
1079.556333512686
 20
1249.852880234308
 30
0.0
 11
1078.056333512686
 21
1249.852880234308
 31
0.0
  0
LINE
  5
40E
  8
1_5_____
  6
CONTINUOUS
 62
     1
 10
1078.056333512686
 20
1249.852880234308
 30
0.0
 11
1078.056333512686
 21
1241.852880234308
 31
0.0
  0
ARC
  5
40F
  8
1_5_____
  6
CONTINUOUS
 62
     1
 10
1083.928968512688
 20
1248.40749023433
 30
0.0
 40
1.000000000020943
 50
322.0827559983812
 51
142.0827560005616
  0
ARC
  5
410
  8
1_5_____
  6
CONTINUOUS
 62
     1
 10
1108.000148512687
 20
1229.65695023435
 30
0.0
 40
29.51236499996591
 50
142.0827560000853
 51
165.2191660000171
  0
ARC
  5
411
  8
1_5_____
  6
CONTINUOUS
 62
     1
 10
1108.000148512687
 20
1229.65695023435
 30
0.0
 40
31.51236499999136
 50
142.082756000021
 51
166.1765770000671
  0
LINE
  5
412
  8
1_5_____
  6
CONTINUOUS
 62
     1
 10
1079.556333512686
 20
1237.186210234303
 30
0.0
 11
1079.556333512686
 21
1234.686210234303
 31
0.0
  0
LINE
  5
413
  8
1_5_____
  6
CONTINUOUS
 62
     1
 10
1079.556333512686
 20
1226.686210234332
 30
0.0
 11
1079.556333512686
 21
1224.186210234332
 31
0.0
  0
LINE
  5
414
  8
1_5_____
  6
CONTINUOUS
 62
     1
 10
1079.556333512686
 20
1216.186210234303
 30
0.0
 11
1079.556333512686
 21
1213.686210234303
 31
0.0
  0
LINE
  5
415
  8
1_5_____
  6
CONTINUOUS
 62
     1
 10
1077.306333512687
 20
1240.186210234303
 30
0.0
 11
1077.306333512687
 21
1237.186210234303
 31
0.0
  0
LINE
  5
416
  8
1_5_____
  6
CONTINUOUS
 62
     1
 10
1077.306333512687
 20
1240.186210234303
 30
0.0
 11
1079.556333512686
 21
1245.186210234303
 31
0.0
  0
LINE
  5
417
  8
1_5_____
  6
CONTINUOUS
 62
     1
 10
1077.306333512687
 20
1237.186210234303
 30
0.0
 11
1079.556333512686
 21
1237.186210234303
 31
0.0
  0
LINE
  5
418
  8
1_5_____
  6
CONTINUOUS
 62
     1
 10
1077.306333512687
 20
1229.686210234303
 30
0.0
 11
1077.306333512687
 21
1226.686210234332
 31
0.0
  0
LINE
  5
419
  8
1_5_____
  6
CONTINUOUS
 62
     1
 10
1077.306333512687
 20
1229.686210234303
 30
0.0
 11
1079.556333512686
 21
1234.686210234303
 31
0.0
  0
LINE
  5
41A
  8
1_5_____
  6
CONTINUOUS
 62
     1
 10
1077.306333512687
 20
1226.686210234332
 30
0.0
 11
1079.556333512686
 21
1226.686210234332
 31
0.0
  0
LINE
  5
41B
  8
1_5_____
  6
CONTINUOUS
 62
     1
 10
1077.306333512687
 20
1219.186210234332
 30
0.0
 11
1077.306333512687
 21
1216.186210234303
 31
0.0
  0
LINE
  5
41C
  8
1_5_____
  6
CONTINUOUS
 62
     1
 10
1077.306333512687
 20
1219.186210234332
 30
0.0
 11
1079.556333512686
 21
1224.186210234332
 31
0.0
  0
LINE
  5
41D
  8
1_5_____
  6
CONTINUOUS
 62
     1
 10
1077.306333512687
 20
1216.186210234303
 30
0.0
 11
1079.556333512686
 21
1216.186210234303
 31
0.0
  0
LINE
  5
41E
  8
1_5_____
  6
CONTINUOUS
 62
     1
 10
1079.556333512686
 20
1205.686210234332
 30
0.0
 11
1079.556333512686
 21
1200.686210234332
 31
0.0
  0
LINE
  5
41F
  8
1_5_____
  6
CONTINUOUS
 62
     1
 10
1077.306333512687
 20
1208.686210234303
 30
0.0
 11
1079.556333512686
 21
1213.686210234303
 31
0.0
  0
LINE
  5
420
  8
1_5_____
  6
CONTINUOUS
 62
     1
 10
1077.306333512687
 20
1208.686210234303
 30
0.0
 11
1077.306333512687
 21
1205.686210234332
 31
0.0
  0
LINE
  5
421
  8
1_5_____
  6
CONTINUOUS
 62
     1
 10
1077.306333512687
 20
1205.686210234332
 30
0.0
 11
1079.556333512686
 21
1205.686210234332
 31
0.0
  0
LINE
  5
422
  8
1_5_____
  6
CONTINUOUS
 62
     1
 10
1076.806333512686
 20
1196.686210234332
 30
0.0
 11
1079.556333512686
 21
1200.686210234332
 31
0.0
  0
LINE
  5
423
  8
1_5_____
  6
CONTINUOUS
 62
     1
 10
1079.556333512686
 20
1271.186210234303
 30
0.0
 11
1079.556333512686
 21
1245.186210234303
 31
0.0
  0
LINE
  5
424
  8
1_5_____
  6
CONTINUOUS
 62
     1
 10
1068.806333512686
 20
1196.686210234332
 30
0.0
 11
1072.306333512687
 21
1196.686210234332
 31
0.0
  0
TEXT
  5
425
  8
1_5_____
 62
     1
 10
830.9451035126859
 20
1341.59147542976
 30
0.0
 40
10.62008101851852
  1
ハンガーボルト（×2）
  7
YUGOTHIC_MEDIUM
 11
830.9451035126859
 21
1352.211556448279
 31
0.0
 73
     3
  0
LINE
  5
426
  8
1_5_____
  6
CONTINUOUS
 62
     1
 10
870.1194035126874
 20
1227.975200234303
 30
0.0
 11
869.3074035126866
 21
1229.381625234326
 31
0.0
  0
LINE
  5
427
  8
1_5_____
  6
CONTINUOUS
 62
     1
 10
869.3074035126866
 20
1229.381625234326
 30
0.0
 11
869.3074035126866
 21
1280.975200234303
 31
0.0
  0
LINE
  5
428
  8
1_5_____
  6
CONTINUOUS
 62
     1
 10
870.1194035126874
 20
1227.975200234303
 30
0.0
 11
870.1194035126874
 21
1280.163200234327
 31
0.0
  0
LINE
  5
429
  8
1_5_____
  6
CONTINUOUS
 62
     1
 10
869.3074035126866
 20
1280.975200234303
 30
0.0
 11
870.1194035126874
 21
1280.163200234327
 31
0.0
  0
LINE
  5
42A
  8
1_5_____
  6
CONTINUOUS
 62
     1
 10
860.1194035126874
 20
1280.163200234327
 30
0.0
 11
870.1194035126874
 21
1280.163200234327
 31
0.0
  0
LINE
  5
42B
  8
1_5_____
  6
CONTINUOUS
 62
     1
 10
860.1194035126874
 20
1229.381625234326
 30
0.0
 11
870.1194035126874
 21
1229.381625234326
 31
0.0
  0
LINE
  5
42C
  8
1_5_____
  6
CONTINUOUS
 62
     1
 10
860.9314035126864
 20
1280.975200234303
 30
0.0
 11
860.1194035126874
 21
1280.163200234327
 31
0.0
  0
LINE
  5
42D
  8
1_5_____
  6
CONTINUOUS
 62
     1
 10
860.1194035126874
 20
1227.975200234303
 30
0.0
 11
860.9314035126864
 21
1229.381625234326
 31
0.0
  0
LINE
  5
42E
  8
1_5_____
  6
CONTINUOUS
 62
     1
 10
860.9314035126864
 20
1229.381625234326
 30
0.0
 11
860.9314035126864
 21
1280.975200234303
 31
0.0
  0
LINE
  5
42F
  8
1_5_____
  6
CONTINUOUS
 62
     1
 10
860.1194035126874
 20
1227.975200234303
 30
0.0
 11
860.1194035126874
 21
1280.163200234327
 31
0.0
  0
LINE
  5
430
  8
1_5_____
  6
CONTINUOUS
 62
     1
 10
860.1194035126874
 20
1227.975200234303
 30
0.0
 11
870.1194035126874
 21
1227.975200234303
 31
0.0
  0
LINE
  5
431
  8
1_5_____
  6
CONTINUOUS
 62
     1
 10
863.1729035126865
 20
1142.982045234329
 30
0.0
 11
865.1194035126874
 21
1140.975200234303
 31
0.0
  0
LINE
  5
432
  8
1_5_____
  6
CONTINUOUS
 62
     1
 10
869.0661185126866
 20
1145.127000234296
 30
0.0
 11
863.1729035126865
 21
1142.982045234329
 31
0.0
  0
LINE
  5
433
  8
1_5_____
  6
CONTINUOUS
 62
     1
 10
860.6194035126865
 20
1148.201350234364
 30
0.0
 11
869.0661185126866
 21
1145.127000234296
 31
0.0
  0
LINE
  5
434
  8
1_5_____
  6
CONTINUOUS
 62
     1
 10
869.6194035126874
 20
1151.477085234309
 30
0.0
 11
860.6194035126865
 21
1148.201350234364
 31
0.0
  0
LINE
  5
435
  8
1_5_____
  6
CONTINUOUS
 62
     1
 10
860.6194035126865
 20
1154.752815234302
 30
0.0
 11
869.6194035126874
 21
1151.477085234309
 31
0.0
  0
LINE
  5
436
  8
1_5_____
  6
CONTINUOUS
 62
     1
 10
869.6194035126874
 20
1158.028545234326
 30
0.0
 11
860.6194035126865
 21
1154.752815234302
 31
0.0
  0
LINE
  5
437
  8
1_5_____
  6
CONTINUOUS
 62
     1
 10
860.6194035126865
 20
1161.304280234328
 30
0.0
 11
869.6194035126874
 21
1158.028545234326
 31
0.0
  0
LINE
  5
438
  8
1_5_____
  6
CONTINUOUS
 62
     1
 10
869.6194035126874
 20
1164.580010234351
 30
0.0
 11
860.6194035126865
 21
1161.304280234328
 31
0.0
  0
LINE
  5
439
  8
1_5_____
  6
CONTINUOUS
 62
     1
 10
860.6194035126865
 20
1167.855745234325
 30
0.0
 11
869.6194035126874
 21
1164.580010234351
 31
0.0
  0
LINE
  5
43A
  8
1_5_____
  6
CONTINUOUS
 62
     1
 10
869.6194035126874
 20
1171.13147523429
 30
0.0
 11
860.6194035126865
 21
1167.855745234325
 31
0.0
  0
LINE
  5
43B
  8
1_5_____
  6
CONTINUOUS
 62
     1
 10
860.6194035126865
 20
1174.407210234351
 30
0.0
 11
869.6194035126874
 21
1171.13147523429
 31
0.0
  0
LINE
  5
43C
  8
1_5_____
  6
CONTINUOUS
 62
     1
 10
869.6194035126874
 20
1177.682940234316
 30
0.0
 11
860.6194035126865
 21
1174.407210234351
 31
0.0
  0
LINE
  5
43D
  8
1_5_____
  6
CONTINUOUS
 62
     1
 10
860.6194035126865
 20
1180.95867023431
 30
0.0
 11
869.6194035126874
 21
1177.682940234316
 31
0.0
  0
LINE
  5
43E
  8
1_5_____
  6
CONTINUOUS
 62
     1
 10
869.6194035126874
 20
1184.234405234371
 30
0.0
 11
860.6194035126865
 21
1180.95867023431
 31
0.0
  0
LINE
  5
43F
  8
1_5_____
  6
CONTINUOUS
 62
     1
 10
860.6194035126865
 20
1187.510135234336
 30
0.0
 11
869.6194035126874
 21
1184.234405234371
 31
0.0
  0
LINE
  5
440
  8
1_5_____
  6
CONTINUOUS
 62
     1
 10
869.6194035126874
 20
1190.78587023431
 30
0.0
 11
860.6194035126865
 21
1187.510135234336
 31
0.0
  0
LINE
  5
441
  8
1_5_____
  6
CONTINUOUS
 62
     1
 10
860.6194035126865
 20
1194.061600234333
 30
0.0
 11
869.6194035126874
 21
1190.78587023431
 31
0.0
  0
LINE
  5
442
  8
1_5_____
  6
CONTINUOUS
 62
     1
 10
869.6194035126874
 20
1197.337335234336
 30
0.0
 11
860.6194035126865
 21
1194.061600234333
 31
0.0
  0
LINE
  5
443
  8
1_5_____
  6
CONTINUOUS
 62
     1
 10
865.1194035126874
 20
1198.975200234333
 30
0.0
 11
869.6194035126874
 21
1197.337335234336
 31
0.0
  0
ARC
  5
444
  8
1_5_____
  6
CONTINUOUS
 62
     1
 10
865.8694035126874
 20
1151.519200234327
 30
0.0
 40
2.999999999993298
 50
339.4439550003398
 51
0.0
  0
ARC
  5
445
  8
1_5_____
  6
CONTINUOUS
 62
     1
 10
864.3694035126865
 20
1151.519200234327
 30
0.0
 40
2.999999999999091
 50
180.0
 51
200.5560449996237
  0
LINE
  5
446
  8
1_5_____
  6
CONTINUOUS
 62
     1
 10
865.1194035126874
 20
1140.975200234303
 30
0.0
 11
868.6783935126879
 21
1150.465830234318
 31
0.0
  0
LINE
  5
447
  8
1_5_____
  6
CONTINUOUS
 62
     1
 10
861.5604185126869
 20
1150.465830234318
 30
0.0
 11
865.1194035126874
 21
1140.975200234303
 31
0.0
  0
LINE
  5
448
  8
1_5_____
  6
CONTINUOUS
 62
     1
 10
868.8694035126874
 20
1151.519200234327
 30
0.0
 11
868.8694035126874
 21
1198.975200234333
 31
0.0
  0
LINE
  5
449
  8
1_5_____
  6
CONTINUOUS
 62
     1
 10
861.3694035126874
 20
1151.519200234327
 30
0.0
 11
861.3694035126874
 21
1198.975200234333
 31
0.0
  0
LINE
  5
44A
  8
1_5_____
  6
ISO-10______
 62
     2
 10
865.1194035126874
 20
1139.672430234352
 30
0.0
 11
865.1194035126874
 21
1281.997280234299
 31
0.0
  0
LINE
  5
44B
  8
1_5_____
  6
CONTINUOUS
 62
     1
 10
860.9314035126864
 20
1280.975200234303
 30
0.0
 11
869.3074035126866
 21
1280.975200234303
 31
0.0
  0
LINE
  5
44C
  8
1_5_____
  6
ISO-10______
 62
     2
 10
900.6264335126863
 20
986.6357752343197
 30
0.0
 11
858.2985035126868
 21
986.6357752343197
 31
0.0
  0
CIRCLE
  5
44D
  8
1_5_____
  6
CONTINUOUS
 62
     1
 10
1303.801693512687
 20
990.728080234318
 30
0.0
 40
4.323499999999513
  0
CIRCLE
  5
44E
  8
1_5_____
  6
CONTINUOUS
 62
     1
 10
1303.801693512687
 20
990.728080234318
 30
0.0
 40
4.999999999999972
  0
CIRCLE
  5
44F
  8
1_5_____
  6
CONTINUOUS
 62
     1
 10
1303.801693512687
 20
990.728080234318
 30
0.0
 40
8.5
  0
LINE
  5
450
  8
1_5_____
  6
CONTINUOUS
 62
     1
 10
1308.709168512687
 20
999.228080234318
 30
0.0
 11
1313.616648512686
 21
990.728080234318
 31
0.0
  0
LINE
  5
451
  8
1_5_____
  6
CONTINUOUS
 62
     1
 10
1293.986738512687
 20
990.728080234318
 30
0.0
 11
1298.894213512687
 21
982.2280802343471
 31
0.0
  0
LINE
  5
452
  8
1_5_____
  6
CONTINUOUS
 62
     1
 10
1313.616648512686
 20
990.728080234318
 30
0.0
 11
1308.709168512687
 21
982.2280802343471
 31
0.0
  0
LINE
  5
453
  8
1_5_____
  6
CONTINUOUS
 62
     1
 10
1298.894213512687
 20
999.228080234318
 30
0.0
 11
1293.986738512687
 21
990.728080234318
 31
0.0
  0
LINE
  5
454
  8
1_5_____
  6
CONTINUOUS
 62
     1
 10
1308.709168512687
 20
982.2280802343471
 30
0.0
 11
1298.894213512687
 21
982.2280802343471
 31
0.0
  0
LINE
  5
455
  8
1_5_____
  6
CONTINUOUS
 62
     1
 10
1308.709168512687
 20
999.228080234318
 30
0.0
 11
1298.894213512687
 21
999.228080234318
 31
0.0
  0
LINE
  5
456
  8
1_5_____
  6
ISO-10______
 62
     2
 10
1303.801693512687
 20
1001.594030234325
 30
0.0
 11
1303.801693512687
 21
979.758220234306
 31
0.0
  0
LINE
  5
457
  8
1_5_____
  6
ISO-10______
 62
     2
 10
1314.723818512686
 20
990.728080234318
 30
0.0
 11
1292.123538512687
 21
990.728080234318
 31
0.0
  0
LINE
  5
458
  8
1_5_____
  6
CONTINUOUS
 62
     1
 10
1081.025083512686
 20
914.764465234332
 30
0.0
 11
1081.025083512686
 21
910.7173602343269
 31
0.0
  0
LINE
  5
459
  8
1_5_____
  6
CONTINUOUS
 62
     1
 10
1066.025083512686
 20
911.8737802343117
 30
0.0
 11
1096.025083512686
 21
911.8737802343117
 31
0.0
  0
LINE
  5
45A
  8
1_5_____
  6
ISO-10______
 62
     2
 10
1081.025083512686
 20
1010.825815234336
 30
0.0
 11
1081.025083512686
 21
970.219320234321
 31
0.0
  0
LINE
  5
45B
  8
1_5_____
  6
ISO-10______
 62
     2
 10
1100.886118512687
 20
990.5773952343466
 30
0.0
 11
1061.075828512687
 21
990.5773952343466
 31
0.0
  0
LINE
  5
45C
  8
1_5_____
  6
CONTINUOUS
 62
     1
 10
867.1125385126871
 20
907.932160234343
 30
0.0
 11
892.1125385126871
 21
907.932160234343
 31
0.0
  0
LINE
  5
45D
  8
1_5_____
  6
CONTINUOUS
 62
     1
 10
879.6125385126871
 20
925.5558552343305
 30
0.0
 11
879.6125385126871
 21
906.5798202343308
 31
0.0
  0
LINE
  5
45E
  8
1_5_____
  6
ISO-10______
 62
     2
 10
879.6125385126871
 20
1006.421100234353
 30
0.0
 11
879.6125385126871
 21
966.8084752343443
 31
0.0
  0
TEXT
  5
45F
  8
1_5_____
 62
     1
 10
1269.389713512687
 20
1063.787480429766
 30
0.0
 40
10.62008101851852
  1
取付ナット（×2）
  7
YUGOTHIC_MEDIUM
 11
1269.389713512687
 21
1074.407561448284
 31
0.0
 73
     3
  0
TEXT
  5
460
  8
1_5_____
 62
     1
 10
1050.781683512687
 20
1063.787480429766
 30
0.0
 40
10.62008101851852
  1
スリップワッシャ（×2）
  7
YUGOTHIC_MEDIUM
 11
1050.781683512687
 21
1074.407561448284
 31
0.0
 73
     3
  0
CIRCLE
  5
461
  8
1_5_____
  6
CONTINUOUS
 62
     1
 10
879.6125385126871
 20
986.6357752343197
 30
0.0
 40
18.0
  0
CIRCLE
  5
462
  8
1_5_____
  6
CONTINUOUS
 62
     1
 10
879.6125385126871
 20
986.6357752343197
 30
0.0
 40
7.0
  0
CIRCLE
  5
463
  8
1_5_____
  6
CONTINUOUS
 62
     1
 10
879.6125385126871
 20
986.6357752343197
 30
0.0
 40
5.5
  0
LINE
  5
464
  8
1_5_____
  6
CONTINUOUS
 62
     1
 10
861.6125385126871
 20
909.9321602343139
 30
0.0
 11
897.6125385126871
 21
909.9321602343139
 31
0.0
  0
LINE
  5
465
  8
1_5_____
  6
CONTINUOUS
 62
     1
 10
861.6125385126871
 20
911.932160234343
 30
0.0
 11
897.6125385126871
 21
911.932160234343
 31
0.0
  0
LINE
  5
466
  8
1_5_____
  6
CONTINUOUS
 62
     1
 10
861.6125385126871
 20
911.932160234343
 30
0.0
 11
861.6125385126871
 21
909.9321602343139
 31
0.0
  0
LINE
  5
467
  8
1_5_____
  6
CONTINUOUS
 62
     1
 10
897.6125385126871
 20
911.932160234343
 30
0.0
 11
897.6125385126871
 21
909.9321602343139
 31
0.0
  0
LINE
  5
468
  8
1_5_____
  6
CONTINUOUS
 62
     1
 10
867.1125385126871
 20
907.932160234343
 30
0.0
 11
861.6125385126871
 21
909.9321602343139
 31
0.0
  0
LINE
  5
469
  8
1_5_____
  6
CONTINUOUS
 62
     1
 10
892.1125385126871
 20
907.932160234343
 30
0.0
 11
897.6125385126871
 21
909.9321602343139
 31
0.0
  0
LINE
  5
46A
  8
1_5_____
  6
CONTINUOUS
 62
     1
 10
872.6125385126871
 20
923.4321602343139
 30
0.0
 11
886.6125385126871
 21
923.4321602343139
 31
0.0
  0
LINE
  5
46B
  8
1_5_____
  6
CONTINUOUS
 62
     1
 10
872.6125385126871
 20
923.4321602343139
 30
0.0
 11
872.6125385126871
 21
911.932160234343
 31
0.0
  0
LINE
  5
46C
  8
1_5_____
  6
CONTINUOUS
 62
     1
 10
886.6125385126871
 20
923.4321602343139
 30
0.0
 11
886.6125385126871
 21
911.932160234343
 31
0.0
  0
LINE
  5
46D
  8
1_5_____
  6
CONTINUOUS
 62
     1
 10
853.4314085126872
 20
1280.975200234303
 30
0.0
 11
818.5112785126868
 21
1280.975200234303
 31
0.0
  0
LINE
  5
46E
  8
1_5_____
  6
CONTINUOUS
 62
     1
 10
860.627088512687
 20
1212.975200234303
 30
0.0
 11
860.6219635126873
 21
1212.975200234303
 31
0.0
  0
LINE
  5
46F
  8
1_5_____
  6
CONTINUOUS
 62
     1
 10
869.6219635126873
 20
1212.975200234303
 30
0.0
 11
869.6168435126857
 21
1212.975200234303
 31
0.0
  0
LINE
  5
470
  8
1_5_____
  6
CONTINUOUS
 62
     1
 10
863.060413512687
 20
1212.975200234303
 30
0.0
 11
862.6886385126874
 21
1212.975200234303
 31
0.0
  0
LINE
  5
471
  8
1_5_____
  6
CONTINUOUS
 62
     1
 10
860.6194035126865
 20
1212.975200234303
 30
0.0
 11
862.6886385126874
 21
1212.975200234303
 31
0.0
  0
LINE
  5
472
  8
1_5_____
  6
CONTINUOUS
 62
     1
 10
863.060413512687
 20
1212.975200234303
 30
0.0
 11
867.5501685126866
 21
1212.975200234303
 31
0.0
  0
LINE
  5
473
  8
1_5_____
  6
CONTINUOUS
 62
     1
 10
860.627088512687
 20
1202.428230234308
 30
0.0
 11
860.6219635126873
 21
1202.428230234308
 31
0.0
  0
LINE
  5
474
  8
1_5_____
  6
CONTINUOUS
 62
     1
 10
861.3719635126873
 20
1198.975200234333
 30
0.0
 11
868.8719635126873
 21
1198.975200234333
 31
0.0
  0
LINE
  5
475
  8
1_5_____
  6
CONTINUOUS
 62
     1
 10
869.6219635126873
 20
1202.428230234308
 30
0.0
 11
869.6168435126857
 21
1202.428230234308
 31
0.0
  0
POLYLINE
  5
476
  8
1_5_____
  6
CONTINUOUS
 62
     1
 66
     1
 10
0.0
 20
0.0
 30
0.0
 70
   128
  0
VERTEX
  5
477
  8
1_5_____
  6
CONTINUOUS
 62
     1
 10
868.904761869787
 20
1202.4282289063
 30
0.0
  0
VERTEX
  5
478
  8
1_5_____
  6
CONTINUOUS
 62
     1
 10
868.895634426393
 20
1202.40614459851
 30
0.0
  0
VERTEX
  5
479
  8
1_5_____
  6
CONTINUOUS
 62
     1
 10
868.886282699169
 20
1202.383818001432
 30
0.0
  0
VERTEX
  5
47A
  8
1_5_____
  6
CONTINUOUS
 62
     1
 10
868.8767066881151
 20
1202.361249115066
 30
0.0
  0
VERTEX
  5
47B
  8
1_5_____
  6
CONTINUOUS
 62
     1
 10
868.8669063932311
 20
1202.338437939412
 30
0.0
  0
VERTEX
  5
47C
  8
1_5_____
  6
CONTINUOUS
 62
     1
 10
868.856881814517
 20
1202.315384474468
 30
0.0
  0
VERTEX
  5
47D
  8
1_5_____
  6
CONTINUOUS
 62
     1
 10
868.846632951973
 20
1202.292088720236
 30
0.0
  0
VERTEX
  5
47E
  8
1_5_____
  6
CONTINUOUS
 62
     1
 10
868.836159805599
 20
1202.268550676716
 30
0.0
  0
VERTEX
  5
47F
  8
1_5_____
  6
CONTINUOUS
 62
     1
 10
868.8254623753949
 20
1202.244770343908
 30
0.0
  0
VERTEX
  5
480
  8
1_5_____
  6
CONTINUOUS
 62
     1
 10
868.8145406613609
 20
1202.220747721811
 30
0.0
  0
VERTEX
  5
481
  8
1_5_____
  6
CONTINUOUS
 62
     1
 10
868.8033946634968
 20
1202.196482810426
 30
0.0
  0
VERTEX
  5
482
  8
1_5_____
  6
CONTINUOUS
 62
     1
 10
868.7920243818027
 20
1202.171975609752
 30
0.0
  0
VERTEX
  5
483
  8
1_5_____
  6
CONTINUOUS
 62
     1
 10
868.7804298162786
 20
1202.14722611979
 30
0.0
  0
VERTEX
  5
484
  8
1_5_____
  6
CONTINUOUS
 62
     1
 10
868.7686109669244
 20
1202.122234340539
 30
0.0
  0
VERTEX
  5
485
  8
1_5_____
  6
CONTINUOUS
 62
     1
 10
868.7565678337403
 20
1202.097000272
 30
0.0
  0
VERTEX
  5
486
  8
1_5_____
  6
CONTINUOUS
 62
     1
 10
868.744300416726
 20
1202.071523914173
 30
0.0
  0
VERTEX
  5
487
  8
1_5_____
  6
CONTINUOUS
 62
     1
 10
868.7318087158819
 20
1202.045805267057
 30
0.0
  0
VERTEX
  5
488
  8
1_5_____
  6
CONTINUOUS
 62
     1
 10
868.7190927312076
 20
1202.019844330653
 30
0.0
  0
VERTEX
  5
489
  8
1_5_____
  6
CONTINUOUS
 62
     1
 10
868.7061524627034
 20
1201.99364110496
 30
0.0
  0
VERTEX
  5
48A
  8
1_5_____
  6
CONTINUOUS
 62
     1
 10
868.6929879103692
 20
1201.967195589979
 30
0.0
  0
VERTEX
  5
48B
  8
1_5_____
  6
CONTINUOUS
 62
     1
 10
868.6795990742049
 20
1201.94050778571
 30
0.0
  0
VERTEX
  5
48C
  8
1_5_____
  6
CONTINUOUS
 62
     1
 10
868.6659859542107
 20
1201.913577692152
 30
0.0
  0
VERTEX
  5
48D
  8
1_5_____
  6
CONTINUOUS
 62
     1
 10
868.6521485503863
 20
1201.886405309305
 30
0.0
  0
VERTEX
  5
48E
  8
1_5_____
  6
CONTINUOUS
 62
     1
 10
868.638086862732
 20
1201.85899063717
 30
0.0
  0
VERTEX
  5
48F
  8
1_5_____
  6
CONTINUOUS
 62
     1
 10
868.6238008912478
 20
1201.831333675747
 30
0.0
  0
VERTEX
  5
490
  8
1_5_____
  6
CONTINUOUS
 62
     1
 10
868.6092906359333
 20
1201.803434425035
 30
0.0
  0
VERTEX
  5
491
  8
1_5_____
  6
CONTINUOUS
 62
     1
 10
868.5945560967891
 20
1201.775292885035
 30
0.0
  0
VERTEX
  5
492
  8
1_5_____
  6
CONTINUOUS
 62
     1
 10
868.5795972738147
 20
1201.746909055747
 30
0.0
  0
VERTEX
  5
493
  8
1_5_____
  6
CONTINUOUS
 62
     1
 10
868.5644141670103
 20
1201.71828293717
 30
0.0
  0
VERTEX
  5
494
  8
1_5_____
  6
CONTINUOUS
 62
     1
 10
868.549006776376
 20
1201.689414529304
 30
0.0
  0
VERTEX
  5
495
  8
1_5_____
  6
CONTINUOUS
 62
     1
 10
868.5333751019116
 20
1201.66030383215
 30
0.0
  0
VERTEX
  5
496
  8
1_5_____
  6
CONTINUOUS
 62
     1
 10
868.5175191436172
 20
1201.630950845708
 30
0.0
  0
VERTEX
  5
497
  8
1_5_____
  6
CONTINUOUS
 62
     1
 10
868.5014389014926
 20
1201.601355569978
 30
0.0
  0
VERTEX
  5
498
  8
1_5_____
  6
CONTINUOUS
 62
     1
 10
868.4851343755381
 20
1201.571518004959
 30
0.0
  0
VERTEX
  5
499
  8
1_5_____
  6
CONTINUOUS
 62
     1
 10
868.4686055657537
 20
1201.541438150651
 30
0.0
  0
VERTEX
  5
49A
  8
1_5_____
  6
CONTINUOUS
 62
     1
 10
868.4518524721392
 20
1201.511116007056
 30
0.0
  0
VERTEX
  5
49B
  8
1_5_____
  6
CONTINUOUS
 62
     1
 10
868.4348750946947
 20
1201.480551574171
 30
0.0
  0
VERTEX
  5
49C
  8
1_5_____
  6
CONTINUOUS
 62
     1
 10
868.4176734334202
 20
1201.449744851998
 30
0.0
  0
VERTEX
  5
49D
  8
1_5_____
  6
CONTINUOUS
 62
     1
 10
868.4002474883156
 20
1201.418695840537
 30
0.0
  0
VERTEX
  5
49E
  8
1_5_____
  6
CONTINUOUS
 62
     1
 10
868.3825972593811
 20
1201.387404539787
 30
0.0
  0
VERTEX
  5
49F
  8
1_5_____
  6
CONTINUOUS
 62
     1
 10
868.3647227466165
 20
1201.35587094975
 30
0.0
  0
VERTEX
  5
4A0
  8
1_5_____
  6
CONTINUOUS
 62
     1
 10
868.3466239500219
 20
1201.324095070423
 30
0.0
  0
VERTEX
  5
4A1
  8
1_5_____
  6
CONTINUOUS
 62
     1
 10
868.3283008695972
 20
1201.292076901809
 30
0.0
  0
VERTEX
  5
4A2
  8
1_5_____
  6
CONTINUOUS
 62
     1
 10
868.3097535053427
 20
1201.259816443905
 30
0.0
  0
VERTEX
  5
4A3
  8
1_5_____
  6
CONTINUOUS
 62
     1
 10
868.290981857258
 20
1201.227313696714
 30
0.0
  0
VERTEX
  5
4A4
  8
1_5_____
  6
CONTINUOUS
 62
     1
 10
868.2719859253433
 20
1201.194568660233
 30
0.0
  0
VERTEX
  5
4A5
  8
1_5_____
  6
CONTINUOUS
 62
     1
 10
868.2527657095986
 20
1201.161581334465
 30
0.0
  0
VERTEX
  5
4A6
  8
1_5_____
  6
CONTINUOUS
 62
     1
 10
868.233321210024
 20
1201.128351719408
 30
0.0
  0
VERTEX
  5
4A7
  8
1_5_____
  6
CONTINUOUS
 62
     1
 10
868.2136524266193
 20
1201.094879815063
 30
0.0
  0
VERTEX
  5
4A8
  8
1_5_____
  6
CONTINUOUS
 62
     1
 10
868.1937593593846
 20
1201.061165621429
 30
0.0
  0
VERTEX
  5
4A9
  8
1_5_____
  6
CONTINUOUS
 62
     1
 10
868.1736420083198
 20
1201.027209138506
 30
0.0
  0
VERTEX
  5
4AA
  8
1_5_____
  6
CONTINUOUS
 62
     1
 10
868.153300373425
 20
1200.993010366296
 30
0.0
  0
VERTEX
  5
4AB
  8
1_5_____
  6
CONTINUOUS
 62
     1
 10
868.1327344547003
 20
1200.958569304797
 30
0.0
  0
VERTEX
  5
4AC
  8
1_5_____
  6
CONTINUOUS
 62
     1
 10
868.1119442521455
 20
1200.92388595401
 30
0.0
  0
VERTEX
  5
4AD
  8
1_5_____
  6
CONTINUOUS
 62
     1
 10
868.0909297657606
 20
1200.888960313934
 30
0.0
  0
VERTEX
  5
4AE
  8
1_5_____
  6
CONTINUOUS
 62
     1
 10
868.0696909955459
 20
1200.853792384569
 30
0.0
  0
VERTEX
  5
4AF
  8
1_5_____
  6
CONTINUOUS
 62
     1
 10
868.048227941501
 20
1200.818382165916
 30
0.0
  0
VERTEX
  5
4B0
  8
1_5_____
  6
CONTINUOUS
 62
     1
 10
868.0265406036262
 20
1200.782729657975
 30
0.0
  0
VERTEX
  5
4B1
  8
1_5_____
  6
CONTINUOUS
 62
     1
 10
868.0046289819213
 20
1200.746834860745
 30
0.0
  0
VERTEX
  5
4B2
  8
1_5_____
  6
CONTINUOUS
 62
     1
 10
867.9824930763864
 20
1200.710697774227
 30
0.0
  0
VERTEX
  5
4B3
  8
1_5_____
  6
CONTINUOUS
 62
     1
 10
867.9601328870215
 20
1200.674318398421
 30
0.0
  0
VERTEX
  5
4B4
  8
1_5_____
  6
CONTINUOUS
 62
     1
 10
867.9375484138266
 20
1200.637696733326
 30
0.0
  0
VERTEX
  5
4B5
  8
1_5_____
  6
CONTINUOUS
 62
     1
 10
867.9147396568017
 20
1200.600832778943
 30
0.0
  0
VERTEX
  5
4B6
  8
1_5_____
  6
CONTINUOUS
 62
     1
 10
867.8917066159468
 20
1200.563726535271
 30
0.0
  0
VERTEX
  5
4B7
  8
1_5_____
  6
CONTINUOUS
 62
     1
 10
867.8684492912618
 20
1200.526378002311
 30
0.0
  0
VERTEX
  5
4B8
  8
1_5_____
  6
CONTINUOUS
 62
     1
 10
867.8450789461734
 20
1200.489493552529
 30
0.0
  0
VERTEX
  5
4B9
  8
1_5_____
  6
CONTINUOUS
 62
     1
 10
867.8217068441086
 20
1200.453779558394
 30
0.0
  0
VERTEX
  5
4BA
  8
1_5_____
  6
CONTINUOUS
 62
     1
 10
867.798332985067
 20
1200.419236019905
 30
0.0
  0
VERTEX
  5
4BB
  8
1_5_____
  6
CONTINUOUS
 62
     1
 10
867.7749573690488
 20
1200.385862937062
 30
0.0
  0
VERTEX
  5
4BC
  8
1_5_____
  6
CONTINUOUS
 62
     1
 10
867.751579996054
 20
1200.353660309864
 30
0.0
  0
VERTEX
  5
4BD
  8
1_5_____
  6
CONTINUOUS
 62
     1
 10
867.7282008660826
 20
1200.322628138313
 30
0.0
  0
VERTEX
  5
4BE
  8
1_5_____
  6
CONTINUOUS
 62
     1
 10
867.7048199791345
 20
1200.292766422407
 30
0.0
  0
VERTEX
  5
4BF
  8
1_5_____
  6
CONTINUOUS
 62
     1
 10
867.6814373352098
 20
1200.264075162147
 30
0.0
  0
VERTEX
  5
4C0
  8
1_5_____
  6
CONTINUOUS
 62
     1
 10
867.6580529343084
 20
1200.236554357534
 30
0.0
  0
VERTEX
  5
4C1
  8
1_5_____
  6
CONTINUOUS
 62
     1
 10
867.6346667764305
 20
1200.210204008566
 30
0.0
  0
VERTEX
  5
4C2
  8
1_5_____
  6
CONTINUOUS
 62
     1
 10
867.6112788615759
 20
1200.185024115244
 30
0.0
  0
VERTEX
  5
4C3
  8
1_5_____
  6
CONTINUOUS
 62
     1
 10
867.5878891897447
 20
1200.161014677569
 30
0.0
  0
VERTEX
  5
4C4
  8
1_5_____
  6
CONTINUOUS
 62
     1
 10
867.5644977609369
 20
1200.138175695539
 30
0.0
  0
VERTEX
  5
4C5
  8
1_5_____
  6
CONTINUOUS
 62
     1
 10
867.5411045751524
 20
1200.116507169156
 30
0.0
  0
VERTEX
  5
4C6
  8
1_5_____
  6
CONTINUOUS
 62
     1
 10
867.5177096323913
 20
1200.096009098418
 30
0.0
  0
VERTEX
  5
4C7
  8
1_5_____
  6
CONTINUOUS
 62
     1
 10
867.4943129326535
 20
1200.076681483326
 30
0.0
  0
VERTEX
  5
4C8
  8
1_5_____
  6
CONTINUOUS
 62
     1
 10
867.4709144759391
 20
1200.058524323881
 30
0.0
  0
VERTEX
  5
4C9
  8
1_5_____
  6
CONTINUOUS
 62
     1
 10
867.4475142622482
 20
1200.041537620081
 30
0.0
  0
VERTEX
  5
4CA
  8
1_5_____
  6
CONTINUOUS
 62
     1
 10
867.4241122915805
 20
1200.025721371927
 30
0.0
  0
VERTEX
  5
4CB
  8
1_5_____
  6
CONTINUOUS
 62
     1
 10
867.4007085639363
 20
1200.011075579419
 30
0.0
  0
VERTEX
  5
4CC
  8
1_5_____
  6
CONTINUOUS
 62
     1
 10
867.3773030793154
 20
1199.997600242557
 30
0.0
  0
VERTEX
  5
4CD
  8
1_5_____
  6
CONTINUOUS
 62
     1
 10
867.3538958377179
 20
1199.985295361341
 30
0.0
  0
VERTEX
  5
4CE
  8
1_5_____
  6
CONTINUOUS
 62
     1
 10
867.3304868391438
 20
1199.974160935771
 30
0.0
  0
VERTEX
  5
4CF
  8
1_5_____
  6
CONTINUOUS
 62
     1
 10
867.307076083593
 20
1199.964196965848
 30
0.0
  0
VERTEX
  5
4D0
  8
1_5_____
  6
CONTINUOUS
 62
     1
 10
867.2836635710655
 20
1199.95540345157
 30
0.0
  0
VERTEX
  5
4D1
  8
1_5_____
  6
CONTINUOUS
 62
     1
 10
867.2602493015615
 20
1199.947780392938
 30
0.0
  0
VERTEX
  5
4D2
  8
1_5_____
  6
CONTINUOUS
 62
     1
 10
867.2368332750808
 20
1199.941327789952
 30
0.0
  0
VERTEX
  5
4D3
  8
1_5_____
  6
CONTINUOUS
 62
     1
 10
867.2134154916236
 20
1199.936045642612
 30
0.0
  0
VERTEX
  5
4D4
  8
1_5_____
  6
CONTINUOUS
 62
     1
 10
867.1899959511896
 20
1199.931933950918
 30
0.0
  0
VERTEX
  5
4D5
  8
1_5_____
  6
CONTINUOUS
 62
     1
 10
867.1665746537791
 20
1199.92899271487
 30
0.0
  0
VERTEX
  5
4D6
  8
1_5_____
  6
CONTINUOUS
 62
     1
 10
867.1431515993919
 20
1199.927221934468
 30
0.0
  0
VERTEX
  5
4D7
  8
1_5_____
  6
CONTINUOUS
 62
     1
 10
867.1197267880281
 20
1199.926621609712
 30
0.0
  0
VERTEX
  5
4D8
  8
1_5_____
  6
CONTINUOUS
 62
     1
 10
867.0963002196876
 20
1199.927191740601
 30
0.0
  0
VERTEX
  5
4D9
  8
1_5_____
  6
CONTINUOUS
 62
     1
 10
867.0728718943706
 20
1199.928932327137
 30
0.0
  0
VERTEX
  5
4DA
  8
1_5_____
  6
CONTINUOUS
 62
     1
 10
867.0494418120768
 20
1199.931843369319
 30
0.0
  0
VERTEX
  5
4DB
  8
1_5_____
  6
CONTINUOUS
 62
     1
 10
867.0260099728065
 20
1199.935924867147
 30
0.0
  0
VERTEX
  5
4DC
  8
1_5_____
  6
CONTINUOUS
 62
     1
 10
867.0025763765595
 20
1199.941176820621
 30
0.0
  0
VERTEX
  5
4DD
  8
1_5_____
  6
CONTINUOUS
 62
     1
 10
866.979141023336
 20
1199.947599229741
 30
0.0
  0
VERTEX
  5
4DE
  8
1_5_____
  6
CONTINUOUS
 62
     1
 10
866.9557039131357
 20
1199.955192094506
 30
0.0
  0
VERTEX
  5
4DF
  8
1_5_____
  6
CONTINUOUS
 62
     1
 10
866.9322650459588
 20
1199.963955414918
 30
0.0
  0
VERTEX
  5
4E0
  8
1_5_____
  6
CONTINUOUS
 62
     1
 10
866.9088244218053
 20
1199.973889190976
 30
0.0
  0
VERTEX
  5
4E1
  8
1_5_____
  6
CONTINUOUS
 62
     1
 10
866.8853820406753
 20
1199.984993422679
 30
0.0
  0
VERTEX
  5
4E2
  8
1_5_____
  6
CONTINUOUS
 62
     1
 10
866.8619379025685
 20
1199.997268110028
 30
0.0
  0
VERTEX
  5
4E3
  8
1_5_____
  6
CONTINUOUS
 62
     1
 10
866.8384920074851
 20
1200.010713253024
 30
0.0
  0
VERTEX
  5
4E4
  8
1_5_____
  6
CONTINUOUS
 62
     1
 10
866.8150443554251
 20
1200.025328851666
 30
0.0
  0
VERTEX
  5
4E5
  8
1_5_____
  6
CONTINUOUS
 62
     1
 10
866.7915949463885
 20
1200.041114905954
 30
0.0
  0
VERTEX
  5
4E6
  8
1_5_____
  6
CONTINUOUS
 62
     1
 10
866.7681437803752
 20
1200.058071415887
 30
0.0
  0
VERTEX
  5
4E7
  8
1_5_____
  6
CONTINUOUS
 62
     1
 10
866.7446908573853
 20
1200.076198381467
 30
0.0
  0
VERTEX
  5
4E8
  8
1_5_____
  6
CONTINUOUS
 62
     1
 10
866.7212361774187
 20
1200.095495802692
 30
0.0
  0
VERTEX
  5
4E9
  8
1_5_____
  6
CONTINUOUS
 62
     1
 10
866.6977797404757
 20
1200.115963679564
 30
0.0
  0
VERTEX
  5
4EA
  8
1_5_____
  6
CONTINUOUS
 62
     1
 10
866.6743215465558
 20
1200.137602012081
 30
0.0
  0
VERTEX
  5
4EB
  8
1_5_____
  6
CONTINUOUS
 62
     1
 10
866.6508615956594
 20
1200.160410800244
 30
0.0
  0
VERTEX
  5
4EC
  8
1_5_____
  6
CONTINUOUS
 62
     1
 10
866.6273998877864
 20
1200.184390044054
 30
0.0
  0
VERTEX
  5
4ED
  8
1_5_____
  6
CONTINUOUS
 62
     1
 10
866.6039364229367
 20
1200.209539743509
 30
0.0
  0
VERTEX
  5
4EE
  8
1_5_____
  6
CONTINUOUS
 62
     1
 10
866.5804712011104
 20
1200.235859898611
 30
0.0
  0
VERTEX
  5
4EF
  8
1_5_____
  6
CONTINUOUS
 62
     1
 10
866.5570042223075
 20
1200.263350509358
 30
0.0
  0
VERTEX
  5
4F0
  8
1_5_____
  6
CONTINUOUS
 62
     1
 10
866.5335354865279
 20
1200.292011575751
 30
0.0
  0
VERTEX
  5
4F1
  8
1_5_____
  6
CONTINUOUS
 62
     1
 10
866.5100649937717
 20
1200.321843097791
 30
0.0
  0
VERTEX
  5
4F2
  8
1_5_____
  6
CONTINUOUS
 62
     1
 10
866.4865927440388
 20
1200.352845075476
 30
0.0
  0
VERTEX
  5
4F3
  8
1_5_____
  6
CONTINUOUS
 62
     1
 10
866.4631187373294
 20
1200.385017508807
 30
0.0
  0
VERTEX
  5
4F4
  8
1_5_____
  6
CONTINUOUS
 62
     1
 10
866.4396429736433
 20
1200.418360397784
 30
0.0
  0
VERTEX
  5
4F5
  8
1_5_____
  6
CONTINUOUS
 62
     1
 10
866.4161654529806
 20
1200.452873742408
 30
0.0
  0
VERTEX
  5
4F6
  8
1_5_____
  6
CONTINUOUS
 62
     1
 10
866.3926861753413
 20
1200.488557542677
 30
0.0
  0
VERTEX
  5
4F7
  8
1_5_____
  6
CONTINUOUS
 62
     1
 10
866.3692051407253
 20
1200.525411798592
 30
0.0
  0
VERTEX
  5
4F8
  8
1_5_____
  6
CONTINUOUS
 62
     1
 10
866.3458374085178
 20
1200.562730845355
 30
0.0
  0
VERTEX
  5
4F9
  8
1_5_____
  6
CONTINUOUS
 62
     1
 10
866.3226980381041
 20
1200.599809018166
 30
0.0
  0
VERTEX
  5
4FA
  8
1_5_____
  6
CONTINUOUS
 62
     1
 10
866.2997870294839
 20
1200.636646317027
 30
0.0
  0
VERTEX
  5
4FB
  8
1_5_____
  6
CONTINUOUS
 62
     1
 10
866.2771043826576
 20
1200.673242741937
 30
0.0
  0
VERTEX
  5
4FC
  8
1_5_____
  6
CONTINUOUS
 62
     1
 10
866.2546500976249
 20
1200.709598292896
 30
0.0
  0
VERTEX
  5
4FD
  8
1_5_____
  6
CONTINUOUS
 62
     1
 10
866.2324241743859
 20
1200.745712969904
 30
0.0
  0
VERTEX
  5
4FE
  8
1_5_____
  6
CONTINUOUS
 62
     1
 10
866.2104266129405
 20
1200.781586772961
 30
0.0
  0
VERTEX
  5
4FF
  8
1_5_____
  6
CONTINUOUS
 62
     1
 10
866.1886574132889
 20
1200.817219702067
 30
0.0
  0
VERTEX
  5
500
  8
1_5_____
  6
CONTINUOUS
 62
     1
 10
866.1671165754308
 20
1200.852611757221
 30
0.0
  0
VERTEX
  5
501
  8
1_5_____
  6
CONTINUOUS
 62
     1
 10
866.1458040993666
 20
1200.887762938426
 30
0.0
  0
VERTEX
  5
502
  8
1_5_____
  6
CONTINUOUS
 62
     1
 10
866.1247199850959
 20
1200.922673245679
 30
0.0
  0
VERTEX
  5
503
  8
1_5_____
  6
CONTINUOUS
 62
     1
 10
866.103864232619
 20
1200.957342678982
 30
0.0
  0
VERTEX
  5
504
  8
1_5_____
  6
CONTINUOUS
 62
     1
 10
866.0832368419358
 20
1200.991771238333
 30
0.0
  0
VERTEX
  5
505
  8
1_5_____
  6
CONTINUOUS
 62
     1
 10
866.0628378130463
 20
1201.025958923733
 30
0.0
  0
VERTEX
  5
506
  8
1_5_____
  6
CONTINUOUS
 62
     1
 10
866.0426671459504
 20
1201.059905735182
 30
0.0
  0
VERTEX
  5
507
  8
1_5_____
  6
CONTINUOUS
 62
     1
 10
866.0227248406482
 20
1201.093611672681
 30
0.0
  0
VERTEX
  5
508
  8
1_5_____
  6
CONTINUOUS
 62
     1
 10
866.0030108971396
 20
1201.127076736229
 30
0.0
  0
VERTEX
  5
509
  8
1_5_____
  6
CONTINUOUS
 62
     1
 10
865.9835253154248
 20
1201.160300925826
 30
0.0
  0
VERTEX
  5
50A
  8
1_5_____
  6
CONTINUOUS
 62
     1
 10
865.9642680955037
 20
1201.193284241471
 30
0.0
  0
VERTEX
  5
50B
  8
1_5_____
  6
CONTINUOUS
 62
     1
 10
865.9452392373762
 20
1201.226026683166
 30
0.0
  0
VERTEX
  5
50C
  8
1_5_____
  6
CONTINUOUS
 62
     1
 10
865.9264387410424
 20
1201.258528250909
 30
0.0
  0
VERTEX
  5
50D
  8
1_5_____
  6
CONTINUOUS
 62
     1
 10
865.9078666065024
 20
1201.290788944702
 30
0.0
  0
VERTEX
  5
50E
  8
1_5_____
  6
CONTINUOUS
 62
     1
 10
865.889522833756
 20
1201.322808764544
 30
0.0
  0
VERTEX
  5
50F
  8
1_5_____
  6
CONTINUOUS
 62
     1
 10
865.8714074228033
 20
1201.354587710435
 30
0.0
  0
VERTEX
  5
510
  8
1_5_____
  6
CONTINUOUS
 62
     1
 10
865.8535203736442
 20
1201.386125782375
 30
0.0
  0
VERTEX
  5
511
  8
1_5_____
  6
CONTINUOUS
 62
     1
 10
865.8358616862788
 20
1201.417422980364
 30
0.0
  0
VERTEX
  5
512
  8
1_5_____
  6
CONTINUOUS
 62
     1
 10
865.8184313607071
 20
1201.448479304403
 30
0.0
  0
VERTEX
  5
513
  8
1_5_____
  6
CONTINUOUS
 62
     1
 10
865.8012293969292
 20
1201.47929475449
 30
0.0
  0
VERTEX
  5
514
  8
1_5_____
  6
CONTINUOUS
 62
     1
 10
865.7842557949449
 20
1201.509869330626
 30
0.0
  0
VERTEX
  5
515
  8
1_5_____
  6
CONTINUOUS
 62
     1
 10
865.7675105547543
 20
1201.540203032811
 30
0.0
  0
VERTEX
  5
516
  8
1_5_____
  6
CONTINUOUS
 62
     1
 10
865.7509936763573
 20
1201.570295861045
 30
0.0
  0
VERTEX
  5
517
  8
1_5_____
  6
CONTINUOUS
 62
     1
 10
865.7347051597541
 20
1201.600147815329
 30
0.0
  0
VERTEX
  5
518
  8
1_5_____
  6
CONTINUOUS
 62
     1
 10
865.7186450049445
 20
1201.629758895661
 30
0.0
  0
VERTEX
  5
519
  8
1_5_____
  6
CONTINUOUS
 62
     1
 10
865.7028132119286
 20
1201.659129102043
 30
0.0
  0
VERTEX
  5
51A
  8
1_5_____
  6
CONTINUOUS
 62
     1
 10
865.6872097807064
 20
1201.688258434473
 30
0.0
  0
VERTEX
  5
51B
  8
1_5_____
  6
CONTINUOUS
 62
     1
 10
865.6718347112779
 20
1201.717146892953
 30
0.0
  0
VERTEX
  5
51C
  8
1_5_____
  6
CONTINUOUS
 62
     1
 10
865.656688003643
 20
1201.745794477482
 30
0.0
  0
VERTEX
  5
51D
  8
1_5_____
  6
CONTINUOUS
 62
     1
 10
865.6417696578019
 20
1201.77420118806
 30
0.0
  0
VERTEX
  5
51E
  8
1_5_____
  6
CONTINUOUS
 62
     1
 10
865.6270796737545
 20
1201.802367024686
 30
0.0
  0
VERTEX
  5
51F
  8
1_5_____
  6
CONTINUOUS
 62
     1
 10
865.6126180515007
 20
1201.830291987362
 30
0.0
  0
VERTEX
  5
520
  8
1_5_____
  6
CONTINUOUS
 62
     1
 10
865.5983847910406
 20
1201.857976076087
 30
0.0
  0
VERTEX
  5
521
  8
1_5_____
  6
CONTINUOUS
 62
     1
 10
865.5843798923742
 20
1201.885419290861
 30
0.0
  0
VERTEX
  5
522
  8
1_5_____
  6
CONTINUOUS
 62
     1
 10
865.5706033555014
 20
1201.912621631684
 30
0.0
  0
VERTEX
  5
523
  8
1_5_____
  6
CONTINUOUS
 62
     1
 10
865.5570551804224
 20
1201.939583098556
 30
0.0
  0
VERTEX
  5
524
  8
1_5_____
  6
CONTINUOUS
 62
     1
 10
865.5437353671371
 20
1201.966303691478
 30
0.0
  0
VERTEX
  5
525
  8
1_5_____
  6
CONTINUOUS
 62
     1
 10
865.5306439156453
 20
1201.992783410448
 30
0.0
  0
VERTEX
  5
526
  8
1_5_____
  6
CONTINUOUS
 62
     1
 10
865.5177808259473
 20
1202.019022255467
 30
0.0
  0
VERTEX
  5
527
  8
1_5_____
  6
CONTINUOUS
 62
     1
 10
865.505146098043
 20
1202.045020226535
 30
0.0
  0
VERTEX
  5
528
  8
1_5_____
  6
CONTINUOUS
 62
     1
 10
865.4927397319325
 20
1202.070777323652
 30
0.0
  0
VERTEX
  5
529
  8
1_5_____
  6
CONTINUOUS
 62
     1
 10
865.4805617276155
 20
1202.096293546819
 30
0.0
  0
VERTEX
  5
52A
  8
1_5_____
  6
CONTINUOUS
 62
     1
 10
865.4686120850922
 20
1202.121568896034
 30
0.0
  0
VERTEX
  5
52B
  8
1_5_____
  6
CONTINUOUS
 62
     1
 10
865.4568908043626
 20
1202.146603371299
 30
0.0
  0
VERTEX
  5
52C
  8
1_5_____
  6
CONTINUOUS
 62
     1
 10
865.4453978854267
 20
1202.171396972612
 30
0.0
  0
VERTEX
  5
52D
  8
1_5_____
  6
CONTINUOUS
 62
     1
 10
865.4341333282846
 20
1202.195949699975
 30
0.0
  0
VERTEX
  5
52E
  8
1_5_____
  6
CONTINUOUS
 62
     1
 10
865.4230971329359
 20
1202.220261553387
 30
0.0
  0
VERTEX
  5
52F
  8
1_5_____
  6
CONTINUOUS
 62
     1
 10
865.4122892993812
 20
1202.244332532848
 30
0.0
  0
VERTEX
  5
530
  8
1_5_____
  6
CONTINUOUS
 62
     1
 10
865.40170982762
 20
1202.268162638358
 30
0.0
  0
VERTEX
  5
531
  8
1_5_____
  6
CONTINUOUS
 62
     1
 10
865.3913587176526
 20
1202.291751869916
 30
0.0
  0
VERTEX
  5
532
  8
1_5_____
  6
CONTINUOUS
 62
     1
 10
865.3812359694788
 20
1202.315100227524
 30
0.0
  0
VERTEX
  5
533
  8
1_5_____
  6
CONTINUOUS
 62
     1
 10
865.3713415830987
 20
1202.338207711181
 30
0.0
  0
VERTEX
  5
534
  8
1_5_____
  6
CONTINUOUS
 62
     1
 10
865.3616755585122
 20
1202.361074320887
 30
0.0
  0
VERTEX
  5
535
  8
1_5_____
  6
CONTINUOUS
 62
     1
 10
865.3522378957196
 20
1202.383700056642
 30
0.0
  0
VERTEX
  5
536
  8
1_5_____
  6
CONTINUOUS
 62
     1
 10
865.3430285947204
 20
1202.406084918447
 30
0.0
  0
VERTEX
  5
537
  8
1_5_____
  6
CONTINUOUS
 62
     1
 10
865.3340476555151
 20
1202.4282289063
 30
0.0
  0
VERTEX
  5
538
  8
1_5_____
  6
CONTINUOUS
 62
     1
 10
865.3340476555151
 20
1202.4282289063
 30
0.0
  0
SEQEND
  5
539
  8
1_5_____
  6
CONTINUOUS
 62
     1
  0
POLYLINE
  5
53A
  8
1_5_____
  6
CONTINUOUS
 62
     1
 66
     1
 10
0.0
 20
0.0
 30
0.0
 70
   128
  0
VERTEX
  5
53B
  8
1_5_____
  6
CONTINUOUS
 62
     1
 10
864.9047618697861
 20
1202.4282289063
 30
0.0
  0
VERTEX
  5
53C
  8
1_5_____
  6
CONTINUOUS
 62
     1
 10
864.8956768259419
 20
1202.406128349817
 30
0.0
  0
VERTEX
  5
53D
  8
1_5_____
  6
CONTINUOUS
 62
     1
 10
864.8863662762878
 20
1202.383785814563
 30
0.0
  0
VERTEX
  5
53E
  8
1_5_____
  6
CONTINUOUS
 62
     1
 10
864.8768302208239
 20
1202.361201300535
 30
0.0
  0
VERTEX
  5
53F
  8
1_5_____
  6
CONTINUOUS
 62
     1
 10
864.8670686595499
 20
1202.338374807736
 30
0.0
  0
VERTEX
  5
540
  8
1_5_____
  6
CONTINUOUS
 62
     1
 10
864.857081592466
 20
1202.315306336164
 30
0.0
  0
VERTEX
  5
541
  8
1_5_____
  6
CONTINUOUS
 62
     1
 10
864.8468690195721
 20
1202.29199588582
 30
0.0
  0
VERTEX
  5
542
  8
1_5_____
  6
CONTINUOUS
 62
     1
 10
864.8364309408682
 20
1202.268443456704
 30
0.0
  0
VERTEX
  5
543
  8
1_5_____
  6
CONTINUOUS
 62
     1
 10
864.8257673563545
 20
1202.244649048815
 30
0.0
  0
VERTEX
  5
544
  8
1_5_____
  6
CONTINUOUS
 62
     1
 10
864.8148782660307
 20
1202.220612662154
 30
0.0
  0
VERTEX
  5
545
  8
1_5_____
  6
CONTINUOUS
 62
     1
 10
864.8037636698971
 20
1202.196334296721
 30
0.0
  0
VERTEX
  5
546
  8
1_5_____
  6
CONTINUOUS
 62
     1
 10
864.7924235679535
 20
1202.171813952515
 30
0.0
  0
VERTEX
  5
547
  8
1_5_____
  6
CONTINUOUS
 62
     1
 10
864.7808579601999
 20
1202.147051629538
 30
0.0
  0
VERTEX
  5
548
  8
1_5_____
  6
CONTINUOUS
 62
     1
 10
864.7690668466364
 20
1202.122047327788
 30
0.0
  0
VERTEX
  5
549
  8
1_5_____
  6
CONTINUOUS
 62
     1
 10
864.7570502272629
 20
1202.096801047265
 30
0.0
  0
VERTEX
  5
54A
  8
1_5_____
  6
CONTINUOUS
 62
     1
 10
864.7448081020794
 20
1202.07131278797
 30
0.0
  0
VERTEX
  5
54B
  8
1_5_____
  6
CONTINUOUS
 62
     1
 10
864.732340471086
 20
1202.045582549903
 30
0.0
  0
VERTEX
  5
54C
  8
1_5_____
  6
CONTINUOUS
 62
     1
 10
864.7196473342827
 20
1202.019610333064
 30
0.0
  0
VERTEX
  5
54D
  8
1_5_____
  6
CONTINUOUS
 62
     1
 10
864.7067286916695
 20
1201.993396137453
 30
0.0
  0
VERTEX
  5
54E
  8
1_5_____
  6
CONTINUOUS
 62
     1
 10
864.6935845432462
 20
1201.966939963069
 30
0.0
  0
VERTEX
  5
54F
  8
1_5_____
  6
CONTINUOUS
 62
     1
 10
864.680214889013
 20
1201.940241809913
 30
0.0
  0
VERTEX
  5
550
  8
1_5_____
  6
CONTINUOUS
 62
     1
 10
864.6666197289699
 20
1201.913301677984
 30
0.0
  0
VERTEX
  5
551
  8
1_5_____
  6
CONTINUOUS
 62
     1
 10
864.6527990631167
 20
1201.886119567283
 30
0.0
  0
VERTEX
  5
552
  8
1_5_____
  6
CONTINUOUS
 62
     1
 10
864.6387528914537
 20
1201.85869547781
 30
0.0
  0
VERTEX
  5
553
  8
1_5_____
  6
CONTINUOUS
 62
     1
 10
864.6244812139807
 20
1201.831029409565
 30
0.0
  0
VERTEX
  5
554
  8
1_5_____
  6
CONTINUOUS
 62
     1
 10
864.6099840306978
 20
1201.803121362547
 30
0.0
  0
VERTEX
  5
555
  8
1_5_____
  6
CONTINUOUS
 62
     1
 10
864.5952613416049
 20
1201.774971336757
 30
0.0
  0
VERTEX
  5
556
  8
1_5_____
  6
CONTINUOUS
 62
     1
 10
864.5803131467021
 20
1201.746579332195
 30
0.0
  0
VERTEX
  5
557
  8
1_5_____
  6
CONTINUOUS
 62
     1
 10
864.5651394459892
 20
1201.717945348861
 30
0.0
  0
VERTEX
  5
558
  8
1_5_____
  6
CONTINUOUS
 62
     1
 10
864.5497402394665
 20
1201.689069386754
 30
0.0
  0
VERTEX
  5
559
  8
1_5_____
  6
CONTINUOUS
 62
     1
 10
864.5341155271337
 20
1201.659951445875
 30
0.0
  0
VERTEX
  5
55A
  8
1_5_____
  6
CONTINUOUS
 62
     1
 10
864.5182653089912
 20
1201.630591526223
 30
0.0
  0
VERTEX
  5
55B
  8
1_5_____
  6
CONTINUOUS
 62
     1
 10
864.5021895850385
 20
1201.6009896278
 30
0.0
  0
VERTEX
  5
55C
  8
1_5_____
  6
CONTINUOUS
 62
     1
 10
864.485888355276
 20
1201.571145750604
 30
0.0
  0
VERTEX
  5
55D
  8
1_5_____
  6
CONTINUOUS
 62
     1
 10
864.4693616197035
 20
1201.541059894636
 30
0.0
  0
VERTEX
  5
55E
  8
1_5_____
  6
CONTINUOUS
 62
     1
 10
864.4526093783211
 20
1201.510732059895
 30
0.0
  0
VERTEX
  5
55F
  8
1_5_____
  6
CONTINUOUS
 62
     1
 10
864.4356316311287
 20
1201.480162246382
 30
0.0
  0
VERTEX
  5
560
  8
1_5_____
  6
CONTINUOUS
 62
     1
 10
864.4184283781262
 20
1201.449350454096
 30
0.0
  0
VERTEX
  5
561
  8
1_5_____
  6
CONTINUOUS
 62
     1
 10
864.400999619314
 20
1201.418296683039
 30
0.0
  0
VERTEX
  5
562
  8
1_5_____
  6
CONTINUOUS
 62
     1
 10
864.3833453546918
 20
1201.387000933209
 30
0.0
  0
VERTEX
  5
563
  8
1_5_____
  6
CONTINUOUS
 62
     1
 10
864.3654655842595
 20
1201.355463204608
 30
0.0
  0
VERTEX
  5
564
  8
1_5_____
  6
CONTINUOUS
 62
     1
 10
864.3473603080173
 20
1201.323683497233
 30
0.0
  0
VERTEX
  5
565
  8
1_5_____
  6
CONTINUOUS
 62
     1
 10
864.3290295259652
 20
1201.291661811086
 30
0.0
  0
VERTEX
  5
566
  8
1_5_____
  6
CONTINUOUS
 62
     1
 10
864.3104732381031
 20
1201.259398146167
 30
0.0
  0
VERTEX
  5
567
  8
1_5_____
  6
CONTINUOUS
 62
     1
 10
864.2916914444311
 20
1201.226892502476
 30
0.0
  0
VERTEX
  5
568
  8
1_5_____
  6
CONTINUOUS
 62
     1
 10
864.2726841449492
 20
1201.194144880013
 30
0.0
  0
VERTEX
  5
569
  8
1_5_____
  6
CONTINUOUS
 62
     1
 10
864.2534513396572
 20
1201.161155278777
 30
0.0
  0
VERTEX
  5
56A
  8
1_5_____
  6
CONTINUOUS
 62
     1
 10
864.2339930285553
 20
1201.127923698769
 30
0.0
  0
VERTEX
  5
56B
  8
1_5_____
  6
CONTINUOUS
 62
     1
 10
864.2143092116435
 20
1201.094450139989
 30
0.0
  0
VERTEX
  5
56C
  8
1_5_____
  6
CONTINUOUS
 62
     1
 10
864.1943998889218
 20
1201.060734602436
 30
0.0
  0
VERTEX
  5
56D
  8
1_5_____
  6
CONTINUOUS
 62
     1
 10
864.1742650603901
 20
1201.026777086111
 30
0.0
  0
VERTEX
  5
56E
  8
1_5_____
  6
CONTINUOUS
 62
     1
 10
864.1539047260484
 20
1200.992577591014
 30
0.0
  0
VERTEX
  5
56F
  8
1_5_____
  6
CONTINUOUS
 62
     1
 10
864.1333188858968
 20
1200.958136117144
 30
0.0
  0
VERTEX
  5
570
  8
1_5_____
  6
CONTINUOUS
 62
     1
 10
864.1125075399352
 20
1200.923452664502
 30
0.0
  0
VERTEX
  5
571
  8
1_5_____
  6
CONTINUOUS
 62
     1
 10
864.0914706881636
 20
1200.888527233088
 30
0.0
  0
VERTEX
  5
572
  8
1_5_____
  6
CONTINUOUS
 62
     1
 10
864.0702083305821
 20
1200.853359822901
 30
0.0
  0
VERTEX
  5
573
  8
1_5_____
  6
CONTINUOUS
 62
     1
 10
864.0487204671907
 20
1200.817950433943
 30
0.0
  0
VERTEX
  5
574
  8
1_5_____
  6
CONTINUOUS
 62
     1
 10
864.0270070979893
 20
1200.782299066212
 30
0.0
  0
VERTEX
  5
575
  8
1_5_____
  6
CONTINUOUS
 62
     1
 10
864.005068222978
 20
1200.746405719708
 30
0.0
  0
VERTEX
  5
576
  8
1_5_____
  6
CONTINUOUS
 62
     1
 10
863.9829038421567
 20
1200.710270394432
 30
0.0
  0
VERTEX
  5
577
  8
1_5_____
  6
CONTINUOUS
 62
     1
 10
863.9605139555255
 20
1200.673893090385
 30
0.0
  0
VERTEX
  5
578
  8
1_5_____
  6
CONTINUOUS
 62
     1
 10
863.9378985630842
 20
1200.637273807565
 30
0.0
  0
VERTEX
  5
579
  8
1_5_____
  6
CONTINUOUS
 62
     1
 10
863.9150576648332
 20
1200.600412545972
 30
0.0
  0
VERTEX
  5
57A
  8
1_5_____
  6
CONTINUOUS
 62
     1
 10
863.8919912607721
 20
1200.563309305607
 30
0.0
  0
VERTEX
  5
57B
  8
1_5_____
  6
CONTINUOUS
 62
     1
 10
863.868699350901
 20
1200.52596408647
 30
0.0
  0
VERTEX
  5
57C
  8
1_5_____
  6
CONTINUOUS
 62
     1
 10
863.8452944078406
 20
1200.489083207721
 30
0.0
  0
VERTEX
  5
57D
  8
1_5_____
  6
CONTINUOUS
 62
     1
 10
863.8218889042116
 20
1200.453372988522
 30
0.0
  0
VERTEX
  5
57E
  8
1_5_____
  6
CONTINUOUS
 62
     1
 10
863.7984828400138
 20
1200.418833428871
 30
0.0
  0
VERTEX
  5
57F
  8
1_5_____
  6
CONTINUOUS
 62
     1
 10
863.7750762152474
 20
1200.385464528771
 30
0.0
  0
VERTEX
  5
580
  8
1_5_____
  6
CONTINUOUS
 62
     1
 10
863.7516690299123
 20
1200.353266288218
 30
0.0
  0
VERTEX
  5
581
  8
1_5_____
  6
CONTINUOUS
 62
     1
 10
863.7282612840085
 20
1200.322238707216
 30
0.0
  0
VERTEX
  5
582
  8
1_5_____
  6
CONTINUOUS
 62
     1
 10
863.7048529775359
 20
1200.292381785762
 30
0.0
  0
VERTEX
  5
583
  8
1_5_____
  6
CONTINUOUS
 62
     1
 10
863.6814441104948
 20
1200.263695523858
 30
0.0
  0
VERTEX
  5
584
  8
1_5_____
  6
CONTINUOUS
 62
     1
 10
863.6580346828848
 20
1200.236179921503
 30
0.0
  0
VERTEX
  5
585
  8
1_5_____
  6
CONTINUOUS
 62
     1
 10
863.6346246947062
 20
1200.209834978697
 30
0.0
  0
VERTEX
  5
586
  8
1_5_____
  6
CONTINUOUS
 62
     1
 10
863.6112141459589
 20
1200.18466069544
 30
0.0
  0
VERTEX
  5
587
  8
1_5_____
  6
CONTINUOUS
 62
     1
 10
863.587803036643
 20
1200.160657071732
 30
0.0
  0
VERTEX
  5
588
  8
1_5_____
  6
CONTINUOUS
 62
     1
 10
863.5643913667584
 20
1200.137824107573
 30
0.0
  0
VERTEX
  5
589
  8
1_5_____
  6
CONTINUOUS
 62
     1
 10
863.5409791363049
 20
1200.116161802964
 30
0.0
  0
VERTEX
  5
58A
  8
1_5_____
  6
CONTINUOUS
 62
     1
 10
863.517566345283
 20
1200.095670157904
 30
0.0
  0
VERTEX
  5
58B
  8
1_5_____
  6
CONTINUOUS
 62
     1
 10
863.4941529936922
 20
1200.076349172393
 30
0.0
  0
VERTEX
  5
58C
  8
1_5_____
  6
CONTINUOUS
 62
     1
 10
863.4707390815327
 20
1200.058198846431
 30
0.0
  0
VERTEX
  5
58D
  8
1_5_____
  6
CONTINUOUS
 62
     1
 10
863.4473246088046
 20
1200.041219180019
 30
0.0
  0
VERTEX
  5
58E
  8
1_5_____
  6
CONTINUOUS
 62
     1
 10
863.4239095755078
 20
1200.025410173156
 30
0.0
  0
VERTEX
  5
58F
  8
1_5_____
  6
CONTINUOUS
 62
     1
 10
863.4004939816423
 20
1200.010771825841
 30
0.0
  0
VERTEX
  5
590
  8
1_5_____
  6
CONTINUOUS
 62
     1
 10
863.377077827208
 20
1199.997304138076
 30
0.0
  0
VERTEX
  5
591
  8
1_5_____
  6
CONTINUOUS
 62
     1
 10
863.3536611122051
 20
1199.98500710986
 30
0.0
  0
VERTEX
  5
592
  8
1_5_____
  6
CONTINUOUS
 62
     1
 10
863.3302438366336
 20
1199.973880741194
 30
0.0
  0
VERTEX
  5
593
  8
1_5_____
  6
CONTINUOUS
 62
     1
 10
863.3068260004933
 20
1199.963925032077
 30
0.0
  0
VERTEX
  5
594
  8
1_5_____
  6
CONTINUOUS
 62
     1
 10
863.2834076037843
 20
1199.955139982508
 30
0.0
  0
VERTEX
  5
595
  8
1_5_____
  6
CONTINUOUS
 62
     1
 10
863.2599886465066
 20
1199.947525592489
 30
0.0
  0
VERTEX
  5
596
  8
1_5_____
  6
CONTINUOUS
 62
     1
 10
863.2365691286602
 20
1199.941081862019
 30
0.0
  0
VERTEX
  5
597
  8
1_5_____
  6
CONTINUOUS
 62
     1
 10
863.2131490502452
 20
1199.935808791098
 30
0.0
  0
VERTEX
  5
598
  8
1_5_____
  6
CONTINUOUS
 62
     1
 10
863.1897284112615
 20
1199.931706379727
 30
0.0
  0
VERTEX
  5
599
  8
1_5_____
  6
CONTINUOUS
 62
     1
 10
863.1663072117091
 20
1199.928774627904
 30
0.0
  0
VERTEX
  5
59A
  8
1_5_____
  6
CONTINUOUS
 62
     1
 10
863.142885451588
 20
1199.927013535631
 30
0.0
  0
VERTEX
  5
59B
  8
1_5_____
  6
CONTINUOUS
 62
     1
 10
863.1194631308981
 20
1199.926423102907
 30
0.0
  0
VERTEX
  5
59C
  8
1_5_____
  6
CONTINUOUS
 62
     1
 10
863.0960402496396
 20
1199.927003329732
 30
0.0
  0
VERTEX
  5
59D
  8
1_5_____
  6
CONTINUOUS
 62
     1
 10
863.0726168078124
 20
1199.928754216106
 30
0.0
  0
VERTEX
  5
59E
  8
1_5_____
  6
CONTINUOUS
 62
     1
 10
863.0491928054165
 20
1199.93167576203
 30
0.0
  0
VERTEX
  5
59F
  8
1_5_____
  6
CONTINUOUS
 62
     1
 10
863.0257682424519
 20
1199.935767967503
 30
0.0
  0
VERTEX
  5
5A0
  8
1_5_____
  6
CONTINUOUS
 62
     1
 10
863.0023431189186
 20
1199.941030832525
 30
0.0
  0
VERTEX
  5
5A1
  8
1_5_____
  6
CONTINUOUS
 62
     1
 10
862.9789174348167
 20
1199.947464357096
 30
0.0
  0
VERTEX
  5
5A2
  8
1_5_____
  6
CONTINUOUS
 62
     1
 10
862.955491190146
 20
1199.955068541216
 30
0.0
  0
VERTEX
  5
5A3
  8
1_5_____
  6
CONTINUOUS
 62
     1
 10
862.9320643849067
 20
1199.963843384885
 30
0.0
  0
VERTEX
  5
5A4
  8
1_5_____
  6
CONTINUOUS
 62
     1
 10
862.9086370190986
 20
1199.973788888104
 30
0.0
  0
VERTEX
  5
5A5
  8
1_5_____
  6
CONTINUOUS
 62
     1
 10
862.8852090927219
 20
1199.984905050871
 30
0.0
  0
VERTEX
  5
5A6
  8
1_5_____
  6
CONTINUOUS
 62
     1
 10
862.8617806057764
 20
1199.997191873189
 30
0.0
  0
VERTEX
  5
5A7
  8
1_5_____
  6
CONTINUOUS
 62
     1
 10
862.8383515582623
 20
1200.010649355055
 30
0.0
  0
VERTEX
  5
5A8
  8
1_5_____
  6
CONTINUOUS
 62
     1
 10
862.8149219501795
 20
1200.02527749647
 30
0.0
  0
VERTEX
  5
5A9
  8
1_5_____
  6
CONTINUOUS
 62
     1
 10
862.791491781528
 20
1200.041076297435
 30
0.0
  0
VERTEX
  5
5AA
  8
1_5_____
  6
CONTINUOUS
 62
     1
 10
862.7680610523078
 20
1200.058045757948
 30
0.0
  0
VERTEX
  5
5AB
  8
1_5_____
  6
CONTINUOUS
 62
     1
 10
862.7446297625189
 20
1200.076185878011
 30
0.0
  0
VERTEX
  5
5AC
  8
1_5_____
  6
CONTINUOUS
 62
     1
 10
862.7211979121613
 20
1200.095496657623
 30
0.0
  0
VERTEX
  5
5AD
  8
1_5_____
  6
CONTINUOUS
 62
     1
 10
862.697765501235
 20
1200.115978096784
 30
0.0
  0
VERTEX
  5
5AE
  8
1_5_____
  6
CONTINUOUS
 62
     1
 10
862.67433252974
 20
1200.137630195495
 30
0.0
  0
VERTEX
  5
5AF
  8
1_5_____
  6
CONTINUOUS
 62
     1
 10
862.6508989976764
 20
1200.160452953754
 30
0.0
  0
VERTEX
  5
5B0
  8
1_5_____
  6
CONTINUOUS
 62
     1
 10
862.627464905044
 20
1200.184446371563
 30
0.0
  0
VERTEX
  5
5B1
  8
1_5_____
  6
CONTINUOUS
 62
     1
 10
862.604030251843
 20
1200.209610448921
 30
0.0
  0
VERTEX
  5
5B2
  8
1_5_____
  6
CONTINUOUS
 62
     1
 10
862.5805950380733
 20
1200.235945185828
 30
0.0
  0
VERTEX
  5
5B3
  8
1_5_____
  6
CONTINUOUS
 62
     1
 10
862.5571592637348
 20
1200.263450582285
 30
0.0
  0
VERTEX
  5
5B4
  8
1_5_____
  6
CONTINUOUS
 62
     1
 10
862.5337229288277
 20
1200.29212663829
 30
0.0
  0
VERTEX
  5
5B5
  8
1_5_____
  6
CONTINUOUS
 62
     1
 10
862.5102860333519
 20
1200.321973353845
 30
0.0
  0
VERTEX
  5
5B6
  8
1_5_____
  6
CONTINUOUS
 62
     1
 10
862.4868485773073
 20
1200.352990728948
 30
0.0
  0
VERTEX
  5
5B7
  8
1_5_____
  6
CONTINUOUS
 62
     1
 10
862.4634105606942
 20
1200.385178763602
 30
0.0
  0
VERTEX
  5
5B8
  8
1_5_____
  6
CONTINUOUS
 62
     1
 10
862.4399719835124
 20
1200.418537457804
 30
0.0
  0
VERTEX
  5
5B9
  8
1_5_____
  6
CONTINUOUS
 62
     1
 10
862.4165328457617
 20
1200.453066811555
 30
0.0
  0
VERTEX
  5
5BA
  8
1_5_____
  6
CONTINUOUS
 62
     1
 10
862.3930931474424
 20
1200.488766824856
 30
0.0
  0
VERTEX
  5
5BB
  8
1_5_____
  6
CONTINUOUS
 62
     1
 10
862.3696528885545
 20
1200.525637497706
 30
0.0
  0
VERTEX
  5
5BC
  8
1_5_____
  6
CONTINUOUS
 62
     1
 10
862.3463257744979
 20
1200.562972750145
 30
0.0
  0
VERTEX
  5
5BD
  8
1_5_____
  6
CONTINUOUS
 62
     1
 10
862.3232255106727
 20
1200.600066502213
 30
0.0
  0
VERTEX
  5
5BE
  8
1_5_____
  6
CONTINUOUS
 62
     1
 10
862.300352097079
 20
1200.636918753911
 30
0.0
  0
VERTEX
  5
5BF
  8
1_5_____
  6
CONTINUOUS
 62
     1
 10
862.2777055337167
 20
1200.673529505237
 30
0.0
  0
VERTEX
  5
5C0
  8
1_5_____
  6
CONTINUOUS
 62
     1
 10
862.2552858205859
 20
1200.709898756193
 30
0.0
  0
VERTEX
  5
5C1
  8
1_5_____
  6
CONTINUOUS
 62
     1
 10
862.2330929576865
 20
1200.746026506778
 30
0.0
  0
VERTEX
  5
5C2
  8
1_5_____
  6
CONTINUOUS
 62
     1
 10
862.2111269450186
 20
1200.781912756992
 30
0.0
  0
VERTEX
  5
5C3
  8
1_5_____
  6
CONTINUOUS
 62
     1
 10
862.189387782582
 20
1200.817557506836
 30
0.0
  0
VERTEX
  5
5C4
  8
1_5_____
  6
CONTINUOUS
 62
     1
 10
862.1678754703769
 20
1200.852960756308
 30
0.0
  0
VERTEX
  5
5C5
  8
1_5_____
  6
CONTINUOUS
 62
     1
 10
862.1465900084033
 20
1200.88812250541
 30
0.0
  0
VERTEX
  5
5C6
  8
1_5_____
  6
CONTINUOUS
 62
     1
 10
862.1255313966611
 20
1200.923042754141
 30
0.0
  0
VERTEX
  5
5C7
  8
1_5_____
  6
CONTINUOUS
 62
     1
 10
862.1046996351504
 20
1200.957721502501
 30
0.0
  0
VERTEX
  5
5C8
  8
1_5_____
  6
CONTINUOUS
 62
     1
 10
862.084094723871
 20
1200.992158750491
 30
0.0
  0
VERTEX
  5
5C9
  8
1_5_____
  6
CONTINUOUS
 62
     1
 10
862.0637166628231
 20
1201.02635449811
 30
0.0
  0
VERTEX
  5
5CA
  8
1_5_____
  6
CONTINUOUS
 62
     1
 10
862.0435654520068
 20
1201.060308745358
 30
0.0
  0
VERTEX
  5
5CB
  8
1_5_____
  6
CONTINUOUS
 62
     1
 10
862.0236410914217
 20
1201.094021492235
 30
0.0
  0
VERTEX
  5
5CC
  8
1_5_____
  6
CONTINUOUS
 62
     1
 10
862.0039435810681
 20
1201.127492738742
 30
0.0
  0
VERTEX
  5
5CD
  8
1_5_____
  6
CONTINUOUS
 62
     1
 10
861.984472920946
 20
1201.160722484878
 30
0.0
  0
VERTEX
  5
5CE
  8
1_5_____
  6
CONTINUOUS
 62
     1
 10
861.9652291110554
 20
1201.193710730643
 30
0.0
  0
VERTEX
  5
5CF
  8
1_5_____
  6
CONTINUOUS
 62
     1
 10
861.9462121513961
 20
1201.226457476037
 30
0.0
  0
VERTEX
  5
5D0
  8
1_5_____
  6
CONTINUOUS
 62
     1
 10
861.9274220419684
 20
1201.25896272106
 30
0.0
  0
VERTEX
  5
5D1
  8
1_5_____
  6
CONTINUOUS
 62
     1
 10
861.9088587827721
 20
1201.291226465712
 30
0.0
  0
VERTEX
  5
5D2
  8
1_5_____
  6
CONTINUOUS
 62
     1
 10
861.8905223738071
 20
1201.323248709994
 30
0.0
  0
VERTEX
  5
5D3
  8
1_5_____
  6
CONTINUOUS
 62
     1
 10
861.8724128150736
 20
1201.355029453905
 30
0.0
  0
VERTEX
  5
5D4
  8
1_5_____
  6
CONTINUOUS
 62
     1
 10
861.8545301065716
 20
1201.386568697445
 30
0.0
  0
VERTEX
  5
5D5
  8
1_5_____
  6
CONTINUOUS
 62
     1
 10
861.836874248301
 20
1201.417866440614
 30
0.0
  0
VERTEX
  5
5D6
  8
1_5_____
  6
CONTINUOUS
 62
     1
 10
861.8194452402618
 20
1201.448922683413
 30
0.0
  0
VERTEX
  5
5D7
  8
1_5_____
  6
CONTINUOUS
 62
     1
 10
861.8022430824541
 20
1201.479737425841
 30
0.0
  0
VERTEX
  5
5D8
  8
1_5_____
  6
CONTINUOUS
 62
     1
 10
861.7852677748779
 20
1201.510310667898
 30
0.0
  0
VERTEX
  5
5D9
  8
1_5_____
  6
CONTINUOUS
 62
     1
 10
861.768519317533
 20
1201.540642409584
 30
0.0
  0
VERTEX
  5
5DA
  8
1_5_____
  6
CONTINUOUS
 62
     1
 10
861.7519977104196
 20
1201.5707326509
 30
0.0
  0
VERTEX
  5
5DB
  8
1_5_____
  6
CONTINUOUS
 62
     1
 10
861.7357029535376
 20
1201.600581391844
 30
0.0
  0
VERTEX
  5
5DC
  8
1_5_____
  6
CONTINUOUS
 62
     1
 10
861.7196350468871
 20
1201.630188632418
 30
0.0
  0
VERTEX
  5
5DD
  8
1_5_____
  6
CONTINUOUS
 62
     1
 10
861.7037939904681
 20
1201.659554372621
 30
0.0
  0
VERTEX
  5
5DE
  8
1_5_____
  6
CONTINUOUS
 62
     1
 10
861.6881797842804
 20
1201.688678612454
 30
0.0
  0
VERTEX
  5
5DF
  8
1_5_____
  6
CONTINUOUS
 62
     1
 10
861.6727924283242
 20
1201.717561351915
 30
0.0
  0
VERTEX
  5
5E0
  8
1_5_____
  6
CONTINUOUS
 62
     1
 10
861.6576319225994
 20
1201.746202591006
 30
0.0
  0
VERTEX
  5
5E1
  8
1_5_____
  6
CONTINUOUS
 62
     1
 10
861.6426982671061
 20
1201.774602329726
 30
0.0
  0
VERTEX
  5
5E2
  8
1_5_____
  6
CONTINUOUS
 62
     1
 10
861.6279914618442
 20
1201.802760568075
 30
0.0
  0
VERTEX
  5
5E3
  8
1_5_____
  6
CONTINUOUS
 62
     1
 10
861.6135115068138
 20
1201.830677306054
 30
0.0
  0
VERTEX
  5
5E4
  8
1_5_____
  6
CONTINUOUS
 62
     1
 10
861.5992584020148
 20
1201.858352543661
 30
0.0
  0
VERTEX
  5
5E5
  8
1_5_____
  6
CONTINUOUS
 62
     1
 10
861.5852321474472
 20
1201.885786280898
 30
0.0
  0
VERTEX
  5
5E6
  8
1_5_____
  6
CONTINUOUS
 62
     1
 10
861.571432743111
 20
1201.912978517764
 30
0.0
  0
VERTEX
  5
5E7
  8
1_5_____
  6
CONTINUOUS
 62
     1
 10
861.5578601890064
 20
1201.939929254259
 30
0.0
  0
VERTEX
  5
5E8
  8
1_5_____
  6
CONTINUOUS
 62
     1
 10
861.5445144851332
 20
1201.966638490384
 30
0.0
  0
VERTEX
  5
5E9
  8
1_5_____
  6
CONTINUOUS
 62
     1
 10
861.5313956314914
 20
1201.993106226137
 30
0.0
  0
VERTEX
  5
5EA
  8
1_5_____
  6
CONTINUOUS
 62
     1
 10
861.5185036280809
 20
1202.01933246152
 30
0.0
  0
VERTEX
  5
5EB
  8
1_5_____
  6
CONTINUOUS
 62
     1
 10
861.505838474902
 20
1202.045317196532
 30
0.0
  0
VERTEX
  5
5EC
  8
1_5_____
  6
CONTINUOUS
 62
     1
 10
861.4934001719546
 20
1202.071060431174
 30
0.0
  0
VERTEX
  5
5ED
  8
1_5_____
  6
CONTINUOUS
 62
     1
 10
861.4811887192385
 20
1202.096562165444
 30
0.0
  0
VERTEX
  5
5EE
  8
1_5_____
  6
CONTINUOUS
 62
     1
 10
861.4692041167539
 20
1202.121822399344
 30
0.0
  0
VERTEX
  5
5EF
  8
1_5_____
  6
CONTINUOUS
 62
     1
 10
861.4574463645008
 20
1202.146841132873
 30
0.0
  0
VERTEX
  5
5F0
  8
1_5_____
  6
CONTINUOUS
 62
     1
 10
861.445915462479
 20
1202.171618366031
 30
0.0
  0
VERTEX
  5
5F1
  8
1_5_____
  6
CONTINUOUS
 62
     1
 10
861.4346114106887
 20
1202.196154098819
 30
0.0
  0
VERTEX
  5
5F2
  8
1_5_____
  6
CONTINUOUS
 62
     1
 10
861.4235342091299
 20
1202.220448331235
 30
0.0
  0
VERTEX
  5
5F3
  8
1_5_____
  6
CONTINUOUS
 62
     1
 10
861.4126838578024
 20
1202.244501063281
 30
0.0
  0
VERTEX
  5
5F4
  8
1_5_____
  6
CONTINUOUS
 62
     1
 10
861.4020603567064
 20
1202.268312294956
 30
0.0
  0
VERTEX
  5
5F5
  8
1_5_____
  6
CONTINUOUS
 62
     1
 10
861.391663705842
 20
1202.291882026261
 30
0.0
  0
VERTEX
  5
5F6
  8
1_5_____
  6
CONTINUOUS
 62
     1
 10
861.3814939052089
 20
1202.315210257194
 30
0.0
  0
VERTEX
  5
5F7
  8
1_5_____
  6
CONTINUOUS
 62
     1
 10
861.3715509548073
 20
1202.338296987757
 30
0.0
  0
VERTEX
  5
5F8
  8
1_5_____
  6
CONTINUOUS
 62
     1
 10
861.361834854637
 20
1202.361142217949
 30
0.0
  0
VERTEX
  5
5F9
  8
1_5_____
  6
CONTINUOUS
 62
     1
 10
861.3523456046983
 20
1202.38374594777
 30
0.0
  0
VERTEX
  5
5FA
  8
1_5_____
  6
CONTINUOUS
 62
     1
 10
861.343083204991
 20
1202.40610817722
 30
0.0
  0
VERTEX
  5
5FB
  8
1_5_____
  6
CONTINUOUS
 62
     1
 10
861.3340476555151
 20
1202.4282289063
 30
0.0
  0
VERTEX
  5
5FC
  8
1_5_____
  6
CONTINUOUS
 62
     1
 10
861.3340476555151
 20
1202.4282289063
 30
0.0
  0
SEQEND
  5
5FD
  8
1_5_____
  6
CONTINUOUS
 62
     1
  0
LINE
  5
5FE
  8
1_5_____
  6
CONTINUOUS
 62
     1
 10
869.1194035126865
 20
1212.975200234303
 30
0.0
 11
868.9047635126864
 21
1212.975200234303
 31
0.0
  0
LINE
  5
5FF
  8
1_5_____
  6
CONTINUOUS
 62
     1
 10
869.1194035126865
 20
1202.428230234308
 30
0.0
 11
869.1194035126865
 21
1212.975200234303
 31
0.0
  0
LINE
  5
600
  8
1_5_____
  6
CONTINUOUS
 62
     1
 10
861.3340485126874
 20
1212.975200234303
 30
0.0
 11
861.1194035126865
 21
1212.975200234303
 31
0.0
  0
LINE
  5
601
  8
1_5_____
  6
CONTINUOUS
 62
     1
 10
861.1194035126865
 20
1212.975200234303
 30
0.0
 11
861.1194035126865
 21
1202.428230234308
 31
0.0
  0
LINE
  5
602
  8
1_5_____
  6
CONTINUOUS
 62
     1
 10
868.9047635126864
 20
1212.975200234303
 30
0.0
 11
868.9047635126864
 21
1202.428230234308
 31
0.0
  0
LINE
  5
603
  8
1_5_____
  6
CONTINUOUS
 62
     1
 10
865.3340485126865
 20
1212.975200234303
 30
0.0
 11
864.9047635126864
 21
1212.975200234303
 31
0.0
  0
LINE
  5
604
  8
1_5_____
  6
CONTINUOUS
 62
     1
 10
865.3340485126865
 20
1202.428230234308
 30
0.0
 11
865.3340485126865
 21
1212.975200234303
 31
0.0
  0
LINE
  5
605
  8
1_5_____
  6
CONTINUOUS
 62
     1
 10
864.9047635126864
 20
1212.975200234303
 30
0.0
 11
864.9047635126864
 21
1202.428230234308
 31
0.0
  0
LINE
  5
606
  8
1_5_____
  6
CONTINUOUS
 62
     1
 10
861.3340485126874
 20
1212.975200234303
 30
0.0
 11
864.9047635126864
 21
1212.975200234303
 31
0.0
  0
LINE
  5
607
  8
1_5_____
  6
CONTINUOUS
 62
     1
 10
861.3340485126874
 20
1202.428230234308
 30
0.0
 11
861.3340485126874
 21
1212.975200234303
 31
0.0
  0
LINE
  5
608
  8
1_5_____
  6
CONTINUOUS
 62
     1
 10
869.1194035126865
 20
1202.428230234308
 30
0.0
 11
868.9047635126864
 21
1202.428230234308
 31
0.0
  0
LINE
  5
609
  8
1_5_____
  6
CONTINUOUS
 62
     1
 10
865.3340485126865
 20
1202.428230234308
 30
0.0
 11
864.9047635126864
 21
1202.428230234308
 31
0.0
  0
LINE
  5
60A
  8
1_5_____
  6
CONTINUOUS
 62
     1
 10
861.3340485126874
 20
1202.428230234308
 30
0.0
 11
861.1194035126865
 21
1202.428230234308
 31
0.0
  0
LINE
  5
60B
  8
1_5_____
  6
CONTINUOUS
 62
     1
 10
861.1194035126865
 20
1202.428230234308
 30
0.0
 11
861.1194035126865
 21
1200.126210234305
 31
0.0
  0
LINE
  5
60C
  8
1_5_____
  6
CONTINUOUS
 62
     1
 10
868.8694035126874
 20
1198.975200234333
 30
0.0
 11
869.1198685126866
 21
1200.128345234322
 31
0.0
  0
LINE
  5
60D
  8
1_5_____
  6
CONTINUOUS
 62
     1
 10
861.1189435126872
 20
1200.128345234322
 30
0.0
 11
861.3694035126874
 21
1198.975200234333
 31
0.0
  0
LINE
  5
60E
  8
1_5_____
  6
CONTINUOUS
 62
     1
 10
861.3694035126874
 20
1198.975200234333
 30
0.0
 11
868.8694035126874
 21
1198.975200234333
 31
0.0
  0
LINE
  5
60F
  8
1_5_____
  6
CONTINUOUS
 62
     1
 10
869.1194035126865
 20
1202.428230234308
 30
0.0
 11
869.1194035126865
 21
1200.126210234305
 31
0.0
  0
ARC
  5
610
  8
1_5_____
  6
CONTINUOUS
 62
     1
 10
863.1194035126865
 20
1213.321660234304
 30
0.0
 40
1.818664999995583
 50
190.9820939994108
 51
349.0179060005893
  0
ARC
  5
611
  8
1_5_____
  6
CONTINUOUS
 62
     1
 10
867.1194035126874
 20
1213.321660234304
 30
0.0
 40
1.818664999996476
 50
190.9820939994053
 51
349.0179060005947
  0
LINE
  5
612
  8
1_5_____
  6
CONTINUOUS
 62
     1
 10
860.6194035126865
 20
1227.975200234303
 30
0.0
 11
860.6194035126865
 21
1212.975200234303
 31
0.0
  0
LINE
  5
613
  8
1_5_____
  6
CONTINUOUS
 62
     1
 10
860.6194035126865
 20
1212.975200234303
 30
0.0
 11
861.1194035126865
 21
1211.502995234334
 31
0.0
  0
LINE
  5
614
  8
1_5_____
  6
CONTINUOUS
 62
     1
 10
869.6194035126874
 20
1212.975200234303
 30
0.0
 11
867.5501685126866
 21
1212.975200234303
 31
0.0
  0
LINE
  5
615
  8
1_5_____
  6
CONTINUOUS
 62
     1
 10
869.6194035126874
 20
1227.975200234303
 30
0.0
 11
869.6194035126874
 21
1212.975200234303
 31
0.0
  0
LINE
  5
616
  8
1_5_____
  6
CONTINUOUS
 62
     1
 10
869.6194035126874
 20
1212.975200234303
 30
0.0
 11
869.1194035126865
 21
1211.502995234334
 31
0.0
  0
LINE
  5
617
  8
1_5_____
  6
CONTINUOUS
 62
     1
 10
869.6117235126868
 20
1212.975200234303
 30
0.0
 11
869.6168435126857
 21
1212.975200234303
 31
0.0
  0
LINE
  5
618
  8
1_5_____
  6
CONTINUOUS
 62
     1
 10
1303.801693512687
 20
932.9589652342861
 30
0.0
 11
1303.801693512687
 21
922.2924902343098
 31
0.0
  0
POLYLINE
  5
619
  8
1_5_____
  6
CONTINUOUS
 62
     1
 66
     1
 10
0.0
 20
0.0
 30
0.0
 70
   128
  0
VERTEX
  5
61A
  8
1_5_____
  6
CONTINUOUS
 62
     1
 10
1293.986737774657
 20
930.0244651251146
 30
0.0
  0
VERTEX
  5
61B
  8
1_5_____
  6
CONTINUOUS
 62
     1
 10
1294.01830370884
 20
930.0558522184388
 30
0.0
  0
VERTEX
  5
61C
  8
1_5_____
  6
CONTINUOUS
 62
     1
 10
1294.050084927214
 20
930.0867452683879
 30
0.0
  0
VERTEX
  5
61D
  8
1_5_____
  6
CONTINUOUS
 62
     1
 10
1294.082081429779
 20
930.1171442749614
 30
0.0
  0
VERTEX
  5
61E
  8
1_5_____
  6
CONTINUOUS
 62
     1
 10
1294.114293216535
 20
930.14704923816
 30
0.0
  0
VERTEX
  5
61F
  8
1_5_____
  6
CONTINUOUS
 62
     1
 10
1294.146720287483
 20
930.176460157983
 30
0.0
  0
VERTEX
  5
620
  8
1_5_____
  6
CONTINUOUS
 62
     1
 10
1294.179362642622
 20
930.205377034431
 30
0.0
  0
VERTEX
  5
621
  8
1_5_____
  6
CONTINUOUS
 62
     1
 10
1294.212220281951
 20
930.2337998675034
 30
0.0
  0
VERTEX
  5
622
  8
1_5_____
  6
CONTINUOUS
 62
     1
 10
1294.245293205472
 20
930.2617286572008
 30
0.0
  0
VERTEX
  5
623
  8
1_5_____
  6
CONTINUOUS
 62
     1
 10
1294.278581413184
 20
930.2891634035227
 30
0.0
  0
VERTEX
  5
624
  8
1_5_____
  6
CONTINUOUS
 62
     1
 10
1294.312084905088
 20
930.3161041064695
 30
0.0
  0
VERTEX
  5
625
  8
1_5_____
  6
CONTINUOUS
 62
     1
 10
1294.345803681182
 20
930.3425507660413
 30
0.0
  0
VERTEX
  5
626
  8
1_5_____
  6
CONTINUOUS
 62
     1
 10
1294.379737741468
 20
930.3685033822376
 30
0.0
  0
VERTEX
  5
627
  8
1_5_____
  6
CONTINUOUS
 62
     1
 10
1294.413887085944
 20
930.3939619550588
 30
0.0
  0
VERTEX
  5
628
  8
1_5_____
  6
CONTINUOUS
 62
     1
 10
1294.448251714613
 20
930.4189264845045
 30
0.0
  0
VERTEX
  5
629
  8
1_5_____
  6
CONTINUOUS
 62
     1
 10
1294.482831627472
 20
930.4433969705747
 30
0.0
  0
VERTEX
  5
62A
  8
1_5_____
  6
CONTINUOUS
 62
     1
 10
1294.517626824522
 20
930.4673734132698
 30
0.0
  0
VERTEX
  5
62B
  8
1_5_____
  6
CONTINUOUS
 62
     1
 10
1294.552637305763
 20
930.4908558125894
 30
0.0
  0
VERTEX
  5
62C
  8
1_5_____
  6
CONTINUOUS
 62
     1
 10
1294.587863071196
 20
930.513844168534
 30
0.0
  0
VERTEX
  5
62D
  8
1_5_____
  6
CONTINUOUS
 62
     1
 10
1294.62330412082
 20
930.5363384811035
 30
0.0
  0
VERTEX
  5
62E
  8
1_5_____
  6
CONTINUOUS
 62
     1
 10
1294.658960454634
 20
930.5583387502975
 30
0.0
  0
VERTEX
  5
62F
  8
1_5_____
  6
CONTINUOUS
 62
     1
 10
1294.69483207264
 20
930.5798449761164
 30
0.0
  0
VERTEX
  5
630
  8
1_5_____
  6
CONTINUOUS
 62
     1
 10
1294.730918974838
 20
930.6008571585598
 30
0.0
  0
VERTEX
  5
631
  8
1_5_____
  6
CONTINUOUS
 62
     1
 10
1294.767221161226
 20
930.6213752976278
 30
0.0
  0
VERTEX
  5
632
  8
1_5_____
  6
CONTINUOUS
 62
     1
 10
1294.803738631805
 20
930.6413993933206
 30
0.0
  0
VERTEX
  5
633
  8
1_5_____
  6
CONTINUOUS
 62
     1
 10
1294.840471386576
 20
930.660929445638
 30
0.0
  0
VERTEX
  5
634
  8
1_5_____
  6
CONTINUOUS
 62
     1
 10
1294.877419425538
 20
930.6799654545807
 30
0.0
  0
VERTEX
  5
635
  8
1_5_____
  6
CONTINUOUS
 62
     1
 10
1294.914582748691
 20
930.698507420148
 30
0.0
  0
VERTEX
  5
636
  8
1_5_____
  6
CONTINUOUS
 62
     1
 10
1294.951961356035
 20
930.7165553423397
 30
0.0
  0
VERTEX
  5
637
  8
1_5_____
  6
CONTINUOUS
 62
     1
 10
1294.98955524757
 20
930.7341092211559
 30
0.0
  0
VERTEX
  5
638
  8
1_5_____
  6
CONTINUOUS
 62
     1
 10
1295.027364423297
 20
930.7511690565975
 30
0.0
  0
VERTEX
  5
639
  8
1_5_____
  6
CONTINUOUS
 62
     1
 10
1295.065388883215
 20
930.7677348486636
 30
0.0
  0
VERTEX
  5
63A
  8
1_5_____
  6
CONTINUOUS
 62
     1
 10
1295.103628627323
 20
930.7838065973542
 30
0.0
  0
VERTEX
  5
63B
  8
1_5_____
  6
CONTINUOUS
 62
     1
 10
1295.142083655623
 20
930.7993843026693
 30
0.0
  0
VERTEX
  5
63C
  8
1_5_____
  6
CONTINUOUS
 62
     1
 10
1295.180753968114
 20
930.8144679646098
 30
0.0
  0
VERTEX
  5
63D
  8
1_5_____
  6
CONTINUOUS
 62
     1
 10
1295.219639564797
 20
930.8290575831747
 30
0.0
  0
VERTEX
  5
63E
  8
1_5_____
  6
CONTINUOUS
 62
     1
 10
1295.25874044567
 20
930.8431531583642
 30
0.0
  0
VERTEX
  5
63F
  8
1_5_____
  6
CONTINUOUS
 62
     1
 10
1295.298056610735
 20
930.8567546901781
 30
0.0
  0
VERTEX
  5
640
  8
1_5_____
  6
CONTINUOUS
 62
     1
 10
1295.33758805999
 20
930.8698621786175
 30
0.0
  0
VERTEX
  5
641
  8
1_5_____
  6
CONTINUOUS
 62
     1
 10
1295.377334793437
 20
930.8824756236813
 30
0.0
  0
VERTEX
  5
642
  8
1_5_____
  6
CONTINUOUS
 62
     1
 10
1295.417296811075
 20
930.8945950253697
 30
0.0
  0
VERTEX
  5
643
  8
1_5_____
  6
CONTINUOUS
 62
     1
 10
1295.457474112904
 20
930.9062203836829
 30
0.0
  0
VERTEX
  5
644
  8
1_5_____
  6
CONTINUOUS
 62
     1
 10
1295.497866698925
 20
930.9173516986207
 30
0.0
  0
VERTEX
  5
645
  8
1_5_____
  6
CONTINUOUS
 62
     1
 10
1295.538474569136
 20
930.9279889701834
 30
0.0
  0
VERTEX
  5
646
  8
1_5_____
  6
CONTINUOUS
 62
     1
 10
1295.579297723539
 20
930.938132198371
 30
0.0
  0
VERTEX
  5
647
  8
1_5_____
  6
CONTINUOUS
 62
     1
 10
1295.620336162133
 20
930.9477813831832
 30
0.0
  0
VERTEX
  5
648
  8
1_5_____
  6
CONTINUOUS
 62
     1
 10
1295.661589884918
 20
930.9569365246202
 30
0.0
  0
VERTEX
  5
649
  8
1_5_____
  6
CONTINUOUS
 62
     1
 10
1295.703058891894
 20
930.9655976226818
 30
0.0
  0
VERTEX
  5
64A
  8
1_5_____
  6
CONTINUOUS
 62
     1
 10
1295.744743183062
 20
930.9737646773679
 30
0.0
  0
VERTEX
  5
64B
  8
1_5_____
  6
CONTINUOUS
 62
     1
 10
1295.78664275842
 20
930.9814376886789
 30
0.0
  0
VERTEX
  5
64C
  8
1_5_____
  6
CONTINUOUS
 62
     1
 10
1295.82875761797
 20
930.9886166566143
 30
0.0
  0
VERTEX
  5
64D
  8
1_5_____
  6
CONTINUOUS
 62
     1
 10
1295.871087761711
 20
930.9953015811748
 30
0.0
  0
VERTEX
  5
64E
  8
1_5_____
  6
CONTINUOUS
 62
     1
 10
1295.913633189642
 20
931.0014924623601
 30
0.0
  0
VERTEX
  5
64F
  8
1_5_____
  6
CONTINUOUS
 62
     1
 10
1295.956393901766
 20
931.00718930017
 30
0.0
  0
VERTEX
  5
650
  8
1_5_____
  6
CONTINUOUS
 62
     1
 10
1295.99936989808
 20
931.0123920946048
 30
0.0
  0
VERTEX
  5
651
  8
1_5_____
  6
CONTINUOUS
 62
     1
 10
1296.042561178585
 20
931.0171008456641
 30
0.0
  0
VERTEX
  5
652
  8
1_5_____
  6
CONTINUOUS
 62
     1
 10
1296.085967743282
 20
931.0213155533479
 30
0.0
  0
VERTEX
  5
653
  8
1_5_____
  6
CONTINUOUS
 62
     1
 10
1296.12958959217
 20
931.0250362176566
 30
0.0
  0
VERTEX
  5
654
  8
1_5_____
  6
CONTINUOUS
 62
     1
 10
1296.173426725249
 20
931.0282628385903
 30
0.0
  0
VERTEX
  5
655
  8
1_5_____
  6
CONTINUOUS
 62
     1
 10
1296.217479142519
 20
931.0309954161485
 30
0.0
  0
VERTEX
  5
656
  8
1_5_____
  6
CONTINUOUS
 62
     1
 10
1296.26174684398
 20
931.0332339503316
 30
0.0
  0
VERTEX
  5
657
  8
1_5_____
  6
CONTINUOUS
 62
     1
 10
1296.306229829632
 20
931.0349784411396
 30
0.0
  0
VERTEX
  5
658
  8
1_5_____
  6
CONTINUOUS
 62
     1
 10
1296.350928099476
 20
931.0362288885717
 30
0.0
  0
VERTEX
  5
659
  8
1_5_____
  6
CONTINUOUS
 62
     1
 10
1296.395841653511
 20
931.0369852926292
 30
0.0
  0
VERTEX
  5
65A
  8
1_5_____
  6
CONTINUOUS
 62
     1
 10
1296.440970491737
 20
931.0372476533107
 30
0.0
  0
VERTEX
  5
65B
  8
1_5_____
  6
CONTINUOUS
 62
     1
 10
1296.486099088716
 20
931.0370154912735
 30
0.0
  0
VERTEX
  5
65C
  8
1_5_____
  6
CONTINUOUS
 62
     1
 10
1296.531011919011
 20
931.0362883271741
 30
0.0
  0
VERTEX
  5
65D
  8
1_5_____
  6
CONTINUOUS
 62
     1
 10
1296.575708982622
 20
931.0350661610123
 30
0.0
  0
VERTEX
  5
65E
  8
1_5_____
  6
CONTINUOUS
 62
     1
 10
1296.620190279548
 20
931.0333489927884
 30
0.0
  0
VERTEX
  5
65F
  8
1_5_____
  6
CONTINUOUS
 62
     1
 10
1296.66445580979
 20
931.0311368225016
 30
0.0
  0
VERTEX
  5
660
  8
1_5_____
  6
CONTINUOUS
 62
     1
 10
1296.708505573347
 20
931.0284296501527
 30
0.0
  0
VERTEX
  5
661
  8
1_5_____
  6
CONTINUOUS
 62
     1
 10
1296.75233957022
 20
931.0252274757408
 30
0.0
  0
VERTEX
  5
662
  8
1_5_____
  6
CONTINUOUS
 62
     1
 10
1296.795957800409
 20
931.0215302992669
 30
0.0
  0
VERTEX
  5
663
  8
1_5_____
  6
CONTINUOUS
 62
     1
 10
1296.839360263914
 20
931.017338120731
 30
0.0
  0
VERTEX
  5
664
  8
1_5_____
  6
CONTINUOUS
 62
     1
 10
1296.882546960734
 20
931.0126509401321
 30
0.0
  0
VERTEX
  5
665
  8
1_5_____
  6
CONTINUOUS
 62
     1
 10
1296.92551789087
 20
931.0074687574711
 30
0.0
  0
VERTEX
  5
666
  8
1_5_____
  6
CONTINUOUS
 62
     1
 10
1296.968273054321
 20
931.0017915727476
 30
0.0
  0
VERTEX
  5
667
  8
1_5_____
  6
CONTINUOUS
 62
     1
 10
1297.010812451088
 20
930.9956193859612
 30
0.0
  0
VERTEX
  5
668
  8
1_5_____
  6
CONTINUOUS
 62
     1
 10
1297.053136081171
 20
930.9889521971131
 30
0.0
  0
VERTEX
  5
669
  8
1_5_____
  6
CONTINUOUS
 62
     1
 10
1297.09524394457
 20
930.9817900062021
 30
0.0
  0
VERTEX
  5
66A
  8
1_5_____
  6
CONTINUOUS
 62
     1
 10
1297.137136041284
 20
930.9741328132291
 30
0.0
  0
VERTEX
  5
66B
  8
1_5_____
  6
CONTINUOUS
 62
     1
 10
1297.178812371314
 20
930.965980618193
 30
0.0
  0
VERTEX
  5
66C
  8
1_5_____
  6
CONTINUOUS
 62
     1
 10
1297.220272934659
 20
930.957333421095
 30
0.0
  0
VERTEX
  5
66D
  8
1_5_____
  6
CONTINUOUS
 62
     1
 10
1297.26151773132
 20
930.9481912219348
 30
0.0
  0
VERTEX
  5
66E
  8
1_5_____
  6
CONTINUOUS
 62
     1
 10
1297.302546761297
 20
930.9385540207118
 30
0.0
  0
VERTEX
  5
66F
  8
1_5_____
  6
CONTINUOUS
 62
     1
 10
1297.343360024589
 20
930.9284218174262
 30
0.0
  0
VERTEX
  5
670
  8
1_5_____
  6
CONTINUOUS
 62
     1
 10
1297.383957521197
 20
930.9177946120785
 30
0.0
  0
VERTEX
  5
671
  8
1_5_____
  6
CONTINUOUS
 62
     1
 10
1297.424339251121
 20
930.9066724046684
 30
0.0
  0
VERTEX
  5
672
  8
1_5_____
  6
CONTINUOUS
 62
     1
 10
1297.46450521436
 20
930.8950551951962
 30
0.0
  0
VERTEX
  5
673
  8
1_5_____
  6
CONTINUOUS
 62
     1
 10
1297.504455410915
 20
930.882942983661
 30
0.0
  0
VERTEX
  5
674
  8
1_5_____
  6
CONTINUOUS
 62
     1
 10
1297.544189840786
 20
930.8703357700638
 30
0.0
  0
VERTEX
  5
675
  8
1_5_____
  6
CONTINUOUS
 62
     1
 10
1297.583708503972
 20
930.857233554404
 30
0.0
  0
VERTEX
  5
676
  8
1_5_____
  6
CONTINUOUS
 62
     1
 10
1297.623011400474
 20
930.8436363366823
 30
0.0
  0
VERTEX
  5
677
  8
1_5_____
  6
CONTINUOUS
 62
     1
 10
1297.662098530292
 20
930.8295441168971
 30
0.0
  0
VERTEX
  5
678
  8
1_5_____
  6
CONTINUOUS
 62
     1
 10
1297.700969893425
 20
930.8149568950503
 30
0.0
  0
VERTEX
  5
679
  8
1_5_____
  6
CONTINUOUS
 62
     1
 10
1297.739625489874
 20
930.799874671141
 30
0.0
  0
VERTEX
  5
67A
  8
1_5_____
  6
CONTINUOUS
 62
     1
 10
1297.778065319638
 20
930.7842974451692
 30
0.0
  0
VERTEX
  5
67B
  8
1_5_____
  6
CONTINUOUS
 62
     1
 10
1297.816289382719
 20
930.7682252171348
 30
0.0
  0
VERTEX
  5
67C
  8
1_5_____
  6
CONTINUOUS
 62
     1
 10
1297.854297679115
 20
930.7516579870385
 30
0.0
  0
VERTEX
  5
67D
  8
1_5_____
  6
CONTINUOUS
 62
     1
 10
1297.892090208826
 20
930.7345957548791
 30
0.0
  0
VERTEX
  5
67E
  8
1_5_____
  6
CONTINUOUS
 62
     1
 10
1297.929666971853
 20
930.7170385206578
 30
0.0
  0
VERTEX
  5
67F
  8
1_5_____
  6
CONTINUOUS
 62
     1
 10
1297.967027968196
 20
930.6989862843734
 30
0.0
  0
VERTEX
  5
680
  8
1_5_____
  6
CONTINUOUS
 62
     1
 10
1298.004173197854
 20
930.680439046027
 30
0.0
  0
VERTEX
  5
681
  8
1_5_____
  6
CONTINUOUS
 62
     1
 10
1298.041102660829
 20
930.6613968056186
 30
0.0
  0
VERTEX
  5
682
  8
1_5_____
  6
CONTINUOUS
 62
     1
 10
1298.077816357119
 20
930.6418595631471
 30
0.0
  0
VERTEX
  5
683
  8
1_5_____
  6
CONTINUOUS
 62
     1
 10
1298.114314286724
 20
930.6218273186132
 30
0.0
  0
VERTEX
  5
684
  8
1_5_____
  6
CONTINUOUS
 62
     1
 10
1298.150596449645
 20
930.6013000720172
 30
0.0
  0
VERTEX
  5
685
  8
1_5_____
  6
CONTINUOUS
 62
     1
 10
1298.186662845882
 20
930.5802778233588
 30
0.0
  0
VERTEX
  5
686
  8
1_5_____
  6
CONTINUOUS
 62
     1
 10
1298.222513475434
 20
930.5587605726382
 30
0.0
  0
VERTEX
  5
687
  8
1_5_____
  6
CONTINUOUS
 62
     1
 10
1298.258148338302
 20
930.5367483198547
 30
0.0
  0
VERTEX
  5
688
  8
1_5_____
  6
CONTINUOUS
 62
     1
 10
1298.293567434486
 20
930.5142410650092
 30
0.0
  0
VERTEX
  5
689
  8
1_5_____
  6
CONTINUOUS
 62
     1
 10
1298.328770763985
 20
930.4912388081011
 30
0.0
  0
VERTEX
  5
68A
  8
1_5_____
  6
CONTINUOUS
 62
     1
 10
1298.363758326801
 20
930.467741549131
 30
0.0
  0
VERTEX
  5
68B
  8
1_5_____
  6
CONTINUOUS
 62
     1
 10
1298.398530122931
 20
930.4437492880984
 30
0.0
  0
VERTEX
  5
68C
  8
1_5_____
  6
CONTINUOUS
 62
     1
 10
1298.433086152377
 20
930.4192620250028
 30
0.0
  0
VERTEX
  5
68D
  8
1_5_____
  6
CONTINUOUS
 62
     1
 10
1298.467426415139
 20
930.3942797598452
 30
0.0
  0
VERTEX
  5
68E
  8
1_5_____
  6
CONTINUOUS
 62
     1
 10
1298.501550911217
 20
930.368802492625
 30
0.0
  0
VERTEX
  5
68F
  8
1_5_____
  6
CONTINUOUS
 62
     1
 10
1298.53545964061
 20
930.3428302233419
 30
0.0
  0
VERTEX
  5
690
  8
1_5_____
  6
CONTINUOUS
 62
     1
 10
1298.569152603319
 20
930.3163629519972
 30
0.0
  0
VERTEX
  5
691
  8
1_5_____
  6
CONTINUOUS
 62
     1
 10
1298.602629799344
 20
930.2894006785896
 30
0.0
  0
VERTEX
  5
692
  8
1_5_____
  6
CONTINUOUS
 62
     1
 10
1298.635891228684
 20
930.2619434031199
 30
0.0
  0
VERTEX
  5
693
  8
1_5_____
  6
CONTINUOUS
 62
     1
 10
1298.66893689134
 20
930.2339911255876
 30
0.0
  0
VERTEX
  5
694
  8
1_5_____
  6
CONTINUOUS
 62
     1
 10
1298.701766787312
 20
930.2055438459929
 30
0.0
  0
VERTEX
  5
695
  8
1_5_____
  6
CONTINUOUS
 62
     1
 10
1298.734380916599
 20
930.1766015643357
 30
0.0
  0
VERTEX
  5
696
  8
1_5_____
  6
CONTINUOUS
 62
     1
 10
1298.766779279202
 20
930.1471642806168
 30
0.0
  0
VERTEX
  5
697
  8
1_5_____
  6
CONTINUOUS
 62
     1
 10
1298.798961875121
 20
930.1172319948346
 30
0.0
  0
VERTEX
  5
698
  8
1_5_____
  6
CONTINUOUS
 62
     1
 10
1298.830928704355
 20
930.0868047069903
 30
0.0
  0
VERTEX
  5
699
  8
1_5_____
  6
CONTINUOUS
 62
     1
 10
1298.862679766904
 20
930.0558824170835
 30
0.0
  0
VERTEX
  5
69A
  8
1_5_____
  6
CONTINUOUS
 62
     1
 10
1298.89421506277
 20
930.0244651251146
 30
0.0
  0
VERTEX
  5
69B
  8
1_5_____
  6
CONTINUOUS
 62
     1
 10
1298.89421506277
 20
930.0244651251146
 30
0.0
  0
SEQEND
  5
69C
  8
1_5_____
  6
CONTINUOUS
 62
     1
  0
POLYLINE
  5
69D
  8
1_5_____
  6
CONTINUOUS
 62
     1
 66
     1
 10
0.0
 20
0.0
 30
0.0
 70
   128
  0
VERTEX
  5
69E
  8
1_5_____
  6
CONTINUOUS
 62
     1
 10
1298.89421506277
 20
930.0244651251146
 30
0.0
  0
VERTEX
  5
69F
  8
1_5_____
  6
CONTINUOUS
 62
     1
 10
1298.965854679472
 20
930.0601656614776
 30
0.0
  0
VERTEX
  5
6A0
  8
1_5_____
  6
CONTINUOUS
 62
     1
 10
1299.03765479958
 20
930.0953049935015
 30
0.0
  0
VERTEX
  5
6A1
  8
1_5_____
  6
CONTINUOUS
 62
     1
 10
1299.109615423092
 20
930.1298831211866
 30
0.0
  0
VERTEX
  5
6A2
  8
1_5_____
  6
CONTINUOUS
 62
     1
 10
1299.18173655001
 20
930.163900044533
 30
0.0
  0
VERTEX
  5
6A3
  8
1_5_____
  6
CONTINUOUS
 62
     1
 10
1299.254018180333
 20
930.1973557635406
 30
0.0
  0
VERTEX
  5
6A4
  8
1_5_____
  6
CONTINUOUS
 62
     1
 10
1299.326460314061
 20
930.2302502782086
 30
0.0
  0
VERTEX
  5
6A5
  8
1_5_____
  6
CONTINUOUS
 62
     1
 10
1299.399062951195
 20
930.2625835885378
 30
0.0
  0
VERTEX
  5
6A6
  8
1_5_____
  6
CONTINUOUS
 62
     1
 10
1299.471826091733
 20
930.2943556945283
 30
0.0
  0
VERTEX
  5
6A7
  8
1_5_____
  6
CONTINUOUS
 62
     1
 10
1299.544749735677
 20
930.3255665961801
 30
0.0
  0
VERTEX
  5
6A8
  8
1_5_____
  6
CONTINUOUS
 62
     1
 10
1299.617833883026
 20
930.3562162934927
 30
0.0
  0
VERTEX
  5
6A9
  8
1_5_____
  6
CONTINUOUS
 62
     1
 10
1299.69107853378
 20
930.3863047864661
 30
0.0
  0
VERTEX
  5
6AA
  8
1_5_____
  6
CONTINUOUS
 62
     1
 10
1299.764483687939
 20
930.4158320751008
 30
0.0
  0
VERTEX
  5
6AB
  8
1_5_____
  6
CONTINUOUS
 62
     1
 10
1299.838049345504
 20
930.4447981593971
 30
0.0
  0
VERTEX
  5
6AC
  8
1_5_____
  6
CONTINUOUS
 62
     1
 10
1299.911775506474
 20
930.4732030393538
 30
0.0
  0
VERTEX
  5
6AD
  8
1_5_____
  6
CONTINUOUS
 62
     1
 10
1299.985662170849
 20
930.5010467149718
 30
0.0
  0
VERTEX
  5
6AE
  8
1_5_____
  6
CONTINUOUS
 62
     1
 10
1300.059709338629
 20
930.5283291862511
 30
0.0
  0
VERTEX
  5
6AF
  8
1_5_____
  6
CONTINUOUS
 62
     1
 10
1300.133917009814
 20
930.5550504531916
 30
0.0
  0
VERTEX
  5
6B0
  8
1_5_____
  6
CONTINUOUS
 62
     1
 10
1300.208285184405
 20
930.5812105157925
 30
0.0
  0
VERTEX
  5
6B1
  8
1_5_____
  6
CONTINUOUS
 62
     1
 10
1300.282813862401
 20
930.6068093740546
 30
0.0
  0
VERTEX
  5
6B2
  8
1_5_____
  6
CONTINUOUS
 62
     1
 10
1300.357503043802
 20
930.631847027978
 30
0.0
  0
VERTEX
  5
6B3
  8
1_5_____
  6
CONTINUOUS
 62
     1
 10
1300.432352728608
 20
930.6563234775626
 30
0.0
  0
VERTEX
  5
6B4
  8
1_5_____
  6
CONTINUOUS
 62
     1
 10
1300.507362916819
 20
930.6802387228081
 30
0.0
  0
VERTEX
  5
6B5
  8
1_5_____
  6
CONTINUOUS
 62
     1
 10
1300.582533608436
 20
930.7035927637148
 30
0.0
  0
VERTEX
  5
6B6
  8
1_5_____
  6
CONTINUOUS
 62
     1
 10
1300.657864803458
 20
930.7263856002828
 30
0.0
  0
VERTEX
  5
6B7
  8
1_5_____
  6
CONTINUOUS
 62
     1
 10
1300.733356501885
 20
930.7486172325121
 30
0.0
  0
VERTEX
  5
6B8
  8
1_5_____
  6
CONTINUOUS
 62
     1
 10
1300.809008703717
 20
930.7702876604017
 30
0.0
  0
VERTEX
  5
6B9
  8
1_5_____
  6
CONTINUOUS
 62
     1
 10
1300.884821408954
 20
930.7913968839525
 30
0.0
  0
VERTEX
  5
6BA
  8
1_5_____
  6
CONTINUOUS
 62
     1
 10
1300.960794617597
 20
930.8119449031647
 30
0.0
  0
VERTEX
  5
6BB
  8
1_5_____
  6
CONTINUOUS
 62
     1
 10
1301.036928329645
 20
930.831931718038
 30
0.0
  0
VERTEX
  5
6BC
  8
1_5_____
  6
CONTINUOUS
 62
     1
 10
1301.113222545098
 20
930.8513573285722
 30
0.0
  0
VERTEX
  5
6BD
  8
1_5_____
  6
CONTINUOUS
 62
     1
 10
1301.189677263956
 20
930.8702217347673
 30
0.0
  0
VERTEX
  5
6BE
  8
1_5_____
  6
CONTINUOUS
 62
     1
 10
1301.266292486219
 20
930.8885249366235
 30
0.0
  0
VERTEX
  5
6BF
  8
1_5_____
  6
CONTINUOUS
 62
     1
 10
1301.343068211888
 20
930.9062669341411
 30
0.0
  0
VERTEX
  5
6C0
  8
1_5_____
  6
CONTINUOUS
 62
     1
 10
1301.420004440962
 20
930.9234477273199
 30
0.0
  0
VERTEX
  5
6C1
  8
1_5_____
  6
CONTINUOUS
 62
     1
 10
1301.497101173441
 20
930.9400673161595
 30
0.0
  0
VERTEX
  5
6C2
  8
1_5_____
  6
CONTINUOUS
 62
     1
 10
1301.574358409325
 20
930.9561257006599
 30
0.0
  0
VERTEX
  5
6C3
  8
1_5_____
  6
CONTINUOUS
 62
     1
 10
1301.651776148614
 20
930.9716228808215
 30
0.0
  0
VERTEX
  5
6C4
  8
1_5_____
  6
CONTINUOUS
 62
     1
 10
1301.729354391309
 20
930.9865588566445
 30
0.0
  0
VERTEX
  5
6C5
  8
1_5_____
  6
CONTINUOUS
 62
     1
 10
1301.807093137409
 20
931.0009336281282
 30
0.0
  0
VERTEX
  5
6C6
  8
1_5_____
  6
CONTINUOUS
 62
     1
 10
1301.884992386914
 20
931.0147471952732
 30
0.0
  0
VERTEX
  5
6C7
  8
1_5_____
  6
CONTINUOUS
 62
     1
 10
1301.963052139824
 20
931.027999558079
 30
0.0
  0
VERTEX
  5
6C8
  8
1_5_____
  6
CONTINUOUS
 62
     1
 10
1302.041272396139
 20
931.0406907165461
 30
0.0
  0
VERTEX
  5
6C9
  8
1_5_____
  6
CONTINUOUS
 62
     1
 10
1302.11965315586
 20
931.0528206706745
 30
0.0
  0
VERTEX
  5
6CA
  8
1_5_____
  6
CONTINUOUS
 62
     1
 10
1302.198194418986
 20
931.0643894204636
 30
0.0
  0
VERTEX
  5
6CB
  8
1_5_____
  6
CONTINUOUS
 62
     1
 10
1302.276896185517
 20
931.075396965914
 30
0.0
  0
VERTEX
  5
6CC
  8
1_5_____
  6
CONTINUOUS
 62
     1
 10
1302.355758455453
 20
931.0858433070257
 30
0.0
  0
VERTEX
  5
6CD
  8
1_5_____
  6
CONTINUOUS
 62
     1
 10
1302.434781228794
 20
931.0957284437986
 30
0.0
  0
VERTEX
  5
6CE
  8
1_5_____
  6
CONTINUOUS
 62
     1
 10
1302.513964505541
 20
931.1050523762319
 30
0.0
  0
VERTEX
  5
6CF
  8
1_5_____
  6
CONTINUOUS
 62
     1
 10
1302.593308285693
 20
931.1138151043265
 30
0.0
  0
VERTEX
  5
6D0
  8
1_5_____
  6
CONTINUOUS
 62
     1
 10
1302.67281256925
 20
931.1220166280823
 30
0.0
  0
VERTEX
  5
6D1
  8
1_5_____
  6
CONTINUOUS
 62
     1
 10
1302.752477356212
 20
931.1296569474994
 30
0.0
  0
VERTEX
  5
6D2
  8
1_5_____
  6
CONTINUOUS
 62
     1
 10
1302.832302646579
 20
931.1367360625768
 30
0.0
  0
VERTEX
  5
6D3
  8
1_5_____
  6
CONTINUOUS
 62
     1
 10
1302.912288440352
 20
931.143253973316
 30
0.0
  0
VERTEX
  5
6D4
  8
1_5_____
  6
CONTINUOUS
 62
     1
 10
1302.99243473753
 20
931.1492106797164
 30
0.0
  0
VERTEX
  5
6D5
  8
1_5_____
  6
CONTINUOUS
 62
     1
 10
1303.072741538113
 20
931.1546061817776
 30
0.0
  0
VERTEX
  5
6D6
  8
1_5_____
  6
CONTINUOUS
 62
     1
 10
1303.153208842101
 20
931.1594404794996
 30
0.0
  0
VERTEX
  5
6D7
  8
1_5_____
  6
CONTINUOUS
 62
     1
 10
1303.233836649494
 20
931.1637135728829
 30
0.0
  0
VERTEX
  5
6D8
  8
1_5_____
  6
CONTINUOUS
 62
     1
 10
1303.314624960293
 20
931.1674254619275
 30
0.0
  0
VERTEX
  5
6D9
  8
1_5_____
  6
CONTINUOUS
 62
     1
 10
1303.395573774497
 20
931.1705761466328
 30
0.0
  0
VERTEX
  5
6DA
  8
1_5_____
  6
CONTINUOUS
 62
     1
 10
1303.476683092106
 20
931.1731656269994
 30
0.0
  0
VERTEX
  5
6DB
  8
1_5_____
  6
CONTINUOUS
 62
     1
 10
1303.55795291312
 20
931.1751939030269
 30
0.0
  0
VERTEX
  5
6DC
  8
1_5_____
  6
CONTINUOUS
 62
     1
 10
1303.639383237539
 20
931.1766609747156
 30
0.0
  0
VERTEX
  5
6DD
  8
1_5_____
  6
CONTINUOUS
 62
     1
 10
1303.720974065364
 20
931.1775668420655
 30
0.0
  0
VERTEX
  5
6DE
  8
1_5_____
  6
CONTINUOUS
 62
     1
 10
1303.802725396594
 20
931.1779115050763
 30
0.0
  0
VERTEX
  5
6DF
  8
1_5_____
  6
CONTINUOUS
 62
     1
 10
1303.884476223407
 20
931.1776929618468
 30
0.0
  0
VERTEX
  5
6E0
  8
1_5_____
  6
CONTINUOUS
 62
     1
 10
1303.966065537981
 20
931.176909210476
 30
0.0
  0
VERTEX
  5
6E1
  8
1_5_____
  6
CONTINUOUS
 62
     1
 10
1304.047493340316
 20
931.1755602509638
 30
0.0
  0
VERTEX
  5
6E2
  8
1_5_____
  6
CONTINUOUS
 62
     1
 10
1304.128759630412
 20
931.1736460833099
 30
0.0
  0
VERTEX
  5
6E3
  8
1_5_____
  6
CONTINUOUS
 62
     1
 10
1304.20986440827
 20
931.1711667075147
 30
0.0
  0
VERTEX
  5
6E4
  8
1_5_____
  6
CONTINUOUS
 62
     1
 10
1304.290807673888
 20
931.1681221235776
 30
0.0
  0
VERTEX
  5
6E5
  8
1_5_____
  6
CONTINUOUS
 62
     1
 10
1304.371589427268
 20
931.1645123314988
 30
0.0
  0
VERTEX
  5
6E6
  8
1_5_____
  6
CONTINUOUS
 62
     1
 10
1304.452209668408
 20
931.1603373312792
 30
0.0
  0
VERTEX
  5
6E7
  8
1_5_____
  6
CONTINUOUS
 62
     1
 10
1304.53266839731
 20
931.1555971229177
 30
0.0
  0
VERTEX
  5
6E8
  8
1_5_____
  6
CONTINUOUS
 62
     1
 10
1304.612965613973
 20
931.1502917064149
 30
0.0
  0
VERTEX
  5
6E9
  8
1_5_____
  6
CONTINUOUS
 62
     1
 10
1304.693101318397
 20
931.1444210817699
 30
0.0
  0
VERTEX
  5
6EA
  8
1_5_____
  6
CONTINUOUS
 62
     1
 10
1304.773075510582
 20
931.137985248984
 30
0.0
  0
VERTEX
  5
6EB
  8
1_5_____
  6
CONTINUOUS
 62
     1
 10
1304.852888190528
 20
931.1309842080568
 30
0.0
  0
VERTEX
  5
6EC
  8
1_5_____
  6
CONTINUOUS
 62
     1
 10
1304.932539358235
 20
931.1234179589878
 30
0.0
  0
VERTEX
  5
6ED
  8
1_5_____
  6
CONTINUOUS
 62
     1
 10
1305.012029013703
 20
931.1152865017771
 30
0.0
  0
VERTEX
  5
6EE
  8
1_5_____
  6
CONTINUOUS
 62
     1
 10
1305.091357156933
 20
931.1065898364254
 30
0.0
  0
VERTEX
  5
6EF
  8
1_5_____
  6
CONTINUOUS
 62
     1
 10
1305.170523787923
 20
931.097327962932
 30
0.0
  0
VERTEX
  5
6F0
  8
1_5_____
  6
CONTINUOUS
 62
     1
 10
1305.249528906675
 20
931.0875008812968
 30
0.0
  0
VERTEX
  5
6F1
  8
1_5_____
  6
CONTINUOUS
 62
     1
 10
1305.328372513187
 20
931.0771085915198
 30
0.0
  0
VERTEX
  5
6F2
  8
1_5_____
  6
CONTINUOUS
 62
     1
 10
1305.407054607461
 20
931.066151093602
 30
0.0
  0
VERTEX
  5
6F3
  8
1_5_____
  6
CONTINUOUS
 62
     1
 10
1305.485575189496
 20
931.0546283875424
 30
0.0
  0
VERTEX
  5
6F4
  8
1_5_____
  6
CONTINUOUS
 62
     1
 10
1305.563934259292
 20
931.0425404733414
 30
0.0
  0
VERTEX
  5
6F5
  8
1_5_____
  6
CONTINUOUS
 62
     1
 10
1305.642131816849
 20
931.0298873509992
 30
0.0
  0
VERTEX
  5
6F6
  8
1_5_____
  6
CONTINUOUS
 62
     1
 10
1305.720167862167
 20
931.0166690205151
 30
0.0
  0
VERTEX
  5
6F7
  8
1_5_____
  6
CONTINUOUS
 62
     1
 10
1305.798042395247
 20
931.0028854818897
 30
0.0
  0
VERTEX
  5
6F8
  8
1_5_____
  6
CONTINUOUS
 62
     1
 10
1305.875755416087
 20
930.9885367351226
 30
0.0
  0
VERTEX
  5
6F9
  8
1_5_____
  6
CONTINUOUS
 62
     1
 10
1305.953306924688
 20
930.9736227802136
 30
0.0
  0
VERTEX
  5
6FA
  8
1_5_____
  6
CONTINUOUS
 62
     1
 10
1306.030696921051
 20
930.9581436171638
 30
0.0
  0
VERTEX
  5
6FB
  8
1_5_____
  6
CONTINUOUS
 62
     1
 10
1306.107925405174
 20
930.9420992459723
 30
0.0
  0
VERTEX
  5
6FC
  8
1_5_____
  6
CONTINUOUS
 62
     1
 10
1306.184992377059
 20
930.9254896666394
 30
0.0
  0
VERTEX
  5
6FD
  8
1_5_____
  6
CONTINUOUS
 62
     1
 10
1306.261897836705
 20
930.9083148791642
 30
0.0
  0
VERTEX
  5
6FE
  8
1_5_____
  6
CONTINUOUS
 62
     1
 10
1306.338641784112
 20
930.8905748835482
 30
0.0
  0
VERTEX
  5
6FF
  8
1_5_____
  6
CONTINUOUS
 62
     1
 10
1306.41522421928
 20
930.8722696797909
 30
0.0
  0
VERTEX
  5
700
  8
1_5_____
  6
CONTINUOUS
 62
     1
 10
1306.491645142209
 20
930.8533992678917
 30
0.0
  0
VERTEX
  5
701
  8
1_5_____
  6
CONTINUOUS
 62
     1
 10
1306.567904552899
 20
930.8339636478509
 30
0.0
  0
VERTEX
  5
702
  8
1_5_____
  6
CONTINUOUS
 62
     1
 10
1306.644002451351
 20
930.8139628196686
 30
0.0
  0
VERTEX
  5
703
  8
1_5_____
  6
CONTINUOUS
 62
     1
 10
1306.719938837563
 20
930.7933967833451
 30
0.0
  0
VERTEX
  5
704
  8
1_5_____
  6
CONTINUOUS
 62
     1
 10
1306.795713711537
 20
930.7722655388798
 30
0.0
  0
VERTEX
  5
705
  8
1_5_____
  6
CONTINUOUS
 62
     1
 10
1306.871327073271
 20
930.7505690862731
 30
0.0
  0
VERTEX
  5
706
  8
1_5_____
  6
CONTINUOUS
 62
     1
 10
1306.946778922767
 20
930.7283074255247
 30
0.0
  0
VERTEX
  5
707
  8
1_5_____
  6
CONTINUOUS
 62
     1
 10
1307.022069260024
 20
930.7054805566345
 30
0.0
  0
VERTEX
  5
708
  8
1_5_____
  6
CONTINUOUS
 62
     1
 10
1307.097198085042
 20
930.6820884796034
 30
0.0
  0
VERTEX
  5
709
  8
1_5_____
  6
CONTINUOUS
 62
     1
 10
1307.172165397821
 20
930.6581311944306
 30
0.0
  0
VERTEX
  5
70A
  8
1_5_____
  6
CONTINUOUS
 62
     1
 10
1307.246971198361
 20
930.6336087011164
 30
0.0
  0
VERTEX
  5
70B
  8
1_5_____
  6
CONTINUOUS
 62
     1
 10
1307.321615486662
 20
930.6085209996604
 30
0.0
  0
VERTEX
  5
70C
  8
1_5_____
  6
CONTINUOUS
 62
     1
 10
1307.396098262724
 20
930.5828680900636
 30
0.0
  0
VERTEX
  5
70D
  8
1_5_____
  6
CONTINUOUS
 62
     1
 10
1307.470419526548
 20
930.556649972325
 30
0.0
  0
VERTEX
  5
70E
  8
1_5_____
  6
CONTINUOUS
 62
     1
 10
1307.544579278132
 20
930.5298666464446
 30
0.0
  0
VERTEX
  5
70F
  8
1_5_____
  6
CONTINUOUS
 62
     1
 10
1307.618577517478
 20
930.5025181124224
 30
0.0
  0
VERTEX
  5
710
  8
1_5_____
  6
CONTINUOUS
 62
     1
 10
1307.692414244584
 20
930.4746043702594
 30
0.0
  0
VERTEX
  5
711
  8
1_5_____
  6
CONTINUOUS
 62
     1
 10
1307.766089459452
 20
930.4461254199546
 30
0.0
  0
VERTEX
  5
712
  8
1_5_____
  6
CONTINUOUS
 62
     1
 10
1307.839603162081
 20
930.417081261508
 30
0.0
  0
VERTEX
  5
713
  8
1_5_____
  6
CONTINUOUS
 62
     1
 10
1307.912955352471
 20
930.3874718949205
 30
0.0
  0
VERTEX
  5
714
  8
1_5_____
  6
CONTINUOUS
 62
     1
 10
1307.986146030622
 20
930.3572973201913
 30
0.0
  0
VERTEX
  5
715
  8
1_5_____
  6
CONTINUOUS
 62
     1
 10
1308.059175196534
 20
930.3265575373202
 30
0.0
  0
VERTEX
  5
716
  8
1_5_____
  6
CONTINUOUS
 62
     1
 10
1308.132042850207
 20
930.2952525463079
 30
0.0
  0
VERTEX
  5
717
  8
1_5_____
  6
CONTINUOUS
 62
     1
 10
1308.204748991642
 20
930.2633823471542
 30
0.0
  0
VERTEX
  5
718
  8
1_5_____
  6
CONTINUOUS
 62
     1
 10
1308.277293620837
 20
930.2309469398588
 30
0.0
  0
VERTEX
  5
719
  8
1_5_____
  6
CONTINUOUS
 62
     1
 10
1308.349676737794
 20
930.197946324422
 30
0.0
  0
VERTEX
  5
71A
  8
1_5_____
  6
CONTINUOUS
 62
     1
 10
1308.421898342511
 20
930.1643805008434
 30
0.0
  0
VERTEX
  5
71B
  8
1_5_____
  6
CONTINUOUS
 62
     1
 10
1308.49395843499
 20
930.1302494691231
 30
0.0
  0
VERTEX
  5
71C
  8
1_5_____
  6
CONTINUOUS
 62
     1
 10
1308.56585701523
 20
930.0955532292619
 30
0.0
  0
VERTEX
  5
71D
  8
1_5_____
  6
CONTINUOUS
 62
     1
 10
1308.637594083231
 20
930.0602917812589
 30
0.0
  0
VERTEX
  5
71E
  8
1_5_____
  6
CONTINUOUS
 62
     1
 10
1308.709169638993
 20
930.0244651251146
 30
0.0
  0
VERTEX
  5
71F
  8
1_5_____
  6
CONTINUOUS
 62
     1
 10
1308.709169638993
 20
930.0244651251146
 30
0.0
  0
SEQEND
  5
720
  8
1_5_____
  6
CONTINUOUS
 62
     1
  0
POLYLINE
  5
721
  8
1_5_____
  6
CONTINUOUS
 62
     1
 66
     1
 10
0.0
 20
0.0
 30
0.0
 70
   128
  0
VERTEX
  5
722
  8
1_5_____
  6
CONTINUOUS
 62
     1
 10
1308.709169638993
 20
930.0244651251146
 30
0.0
  0
VERTEX
  5
723
  8
1_5_____
  6
CONTINUOUS
 62
     1
 10
1308.740735573175
 20
930.0558522184388
 30
0.0
  0
VERTEX
  5
724
  8
1_5_____
  6
CONTINUOUS
 62
     1
 10
1308.77251679155
 20
930.0867452683879
 30
0.0
  0
VERTEX
  5
725
  8
1_5_____
  6
CONTINUOUS
 62
     1
 10
1308.804513294115
 20
930.1171442749614
 30
0.0
  0
VERTEX
  5
726
  8
1_5_____
  6
CONTINUOUS
 62
     1
 10
1308.836725080871
 20
930.14704923816
 30
0.0
  0
VERTEX
  5
727
  8
1_5_____
  6
CONTINUOUS
 62
     1
 10
1308.869152151819
 20
930.176460157983
 30
0.0
  0
VERTEX
  5
728
  8
1_5_____
  6
CONTINUOUS
 62
     1
 10
1308.901794506957
 20
930.205377034431
 30
0.0
  0
VERTEX
  5
729
  8
1_5_____
  6
CONTINUOUS
 62
     1
 10
1308.934652146287
 20
930.2337998675034
 30
0.0
  0
VERTEX
  5
72A
  8
1_5_____
  6
CONTINUOUS
 62
     1
 10
1308.967725069808
 20
930.2617286572008
 30
0.0
  0
VERTEX
  5
72B
  8
1_5_____
  6
CONTINUOUS
 62
     1
 10
1309.001013277521
 20
930.2891634035227
 30
0.0
  0
VERTEX
  5
72C
  8
1_5_____
  6
CONTINUOUS
 62
     1
 10
1309.034516769424
 20
930.3161041064695
 30
0.0
  0
VERTEX
  5
72D
  8
1_5_____
  6
CONTINUOUS
 62
     1
 10
1309.068235545518
 20
930.3425507660413
 30
0.0
  0
VERTEX
  5
72E
  8
1_5_____
  6
CONTINUOUS
 62
     1
 10
1309.102169605804
 20
930.3685033822376
 30
0.0
  0
VERTEX
  5
72F
  8
1_5_____
  6
CONTINUOUS
 62
     1
 10
1309.136318950281
 20
930.3939619550588
 30
0.0
  0
VERTEX
  5
730
  8
1_5_____
  6
CONTINUOUS
 62
     1
 10
1309.170683578949
 20
930.4189264845045
 30
0.0
  0
VERTEX
  5
731
  8
1_5_____
  6
CONTINUOUS
 62
     1
 10
1309.205263491808
 20
930.4433969705747
 30
0.0
  0
VERTEX
  5
732
  8
1_5_____
  6
CONTINUOUS
 62
     1
 10
1309.240058688858
 20
930.4673734132698
 30
0.0
  0
VERTEX
  5
733
  8
1_5_____
  6
CONTINUOUS
 62
     1
 10
1309.275069170099
 20
930.4908558125894
 30
0.0
  0
VERTEX
  5
734
  8
1_5_____
  6
CONTINUOUS
 62
     1
 10
1309.310294935532
 20
930.513844168534
 30
0.0
  0
VERTEX
  5
735
  8
1_5_____
  6
CONTINUOUS
 62
     1
 10
1309.345735985156
 20
930.5363384811035
 30
0.0
  0
VERTEX
  5
736
  8
1_5_____
  6
CONTINUOUS
 62
     1
 10
1309.381392318971
 20
930.5583387502975
 30
0.0
  0
VERTEX
  5
737
  8
1_5_____
  6
CONTINUOUS
 62
     1
 10
1309.417263936977
 20
930.5798449761164
 30
0.0
  0
VERTEX
  5
738
  8
1_5_____
  6
CONTINUOUS
 62
     1
 10
1309.453350839174
 20
930.6008571585598
 30
0.0
  0
VERTEX
  5
739
  8
1_5_____
  6
CONTINUOUS
 62
     1
 10
1309.489653025562
 20
930.6213752976278
 30
0.0
  0
VERTEX
  5
73A
  8
1_5_____
  6
CONTINUOUS
 62
     1
 10
1309.526170496142
 20
930.6413993933206
 30
0.0
  0
VERTEX
  5
73B
  8
1_5_____
  6
CONTINUOUS
 62
     1
 10
1309.562903250913
 20
930.660929445638
 30
0.0
  0
VERTEX
  5
73C
  8
1_5_____
  6
CONTINUOUS
 62
     1
 10
1309.599851289875
 20
930.6799654545807
 30
0.0
  0
VERTEX
  5
73D
  8
1_5_____
  6
CONTINUOUS
 62
     1
 10
1309.637014613028
 20
930.698507420148
 30
0.0
  0
VERTEX
  5
73E
  8
1_5_____
  6
CONTINUOUS
 62
     1
 10
1309.674393220372
 20
930.7165553423397
 30
0.0
  0
VERTEX
  5
73F
  8
1_5_____
  6
CONTINUOUS
 62
     1
 10
1309.711987111907
 20
930.7341092211559
 30
0.0
  0
VERTEX
  5
740
  8
1_5_____
  6
CONTINUOUS
 62
     1
 10
1309.749796287633
 20
930.7511690565975
 30
0.0
  0
VERTEX
  5
741
  8
1_5_____
  6
CONTINUOUS
 62
     1
 10
1309.787820747551
 20
930.7677348486636
 30
0.0
  0
VERTEX
  5
742
  8
1_5_____
  6
CONTINUOUS
 62
     1
 10
1309.82606049166
 20
930.7838065973542
 30
0.0
  0
VERTEX
  5
743
  8
1_5_____
  6
CONTINUOUS
 62
     1
 10
1309.86451551996
 20
930.7993843026693
 30
0.0
  0
VERTEX
  5
744
  8
1_5_____
  6
CONTINUOUS
 62
     1
 10
1309.903185832451
 20
930.8144679646098
 30
0.0
  0
VERTEX
  5
745
  8
1_5_____
  6
CONTINUOUS
 62
     1
 10
1309.942071429133
 20
930.8290575831747
 30
0.0
  0
VERTEX
  5
746
  8
1_5_____
  6
CONTINUOUS
 62
     1
 10
1309.981172310007
 20
930.8431531583642
 30
0.0
  0
VERTEX
  5
747
  8
1_5_____
  6
CONTINUOUS
 62
     1
 10
1310.020488475071
 20
930.8567546901781
 30
0.0
  0
VERTEX
  5
748
  8
1_5_____
  6
CONTINUOUS
 62
     1
 10
1310.060019924327
 20
930.8698621786175
 30
0.0
  0
VERTEX
  5
749
  8
1_5_____
  6
CONTINUOUS
 62
     1
 10
1310.099766657774
 20
930.8824756236813
 30
0.0
  0
VERTEX
  5
74A
  8
1_5_____
  6
CONTINUOUS
 62
     1
 10
1310.139728675412
 20
930.8945950253697
 30
0.0
  0
VERTEX
  5
74B
  8
1_5_____
  6
CONTINUOUS
 62
     1
 10
1310.179905977241
 20
930.9062203836829
 30
0.0
  0
VERTEX
  5
74C
  8
1_5_____
  6
CONTINUOUS
 62
     1
 10
1310.220298563262
 20
930.9173516986207
 30
0.0
  0
VERTEX
  5
74D
  8
1_5_____
  6
CONTINUOUS
 62
     1
 10
1310.260906433473
 20
930.9279889701834
 30
0.0
  0
VERTEX
  5
74E
  8
1_5_____
  6
CONTINUOUS
 62
     1
 10
1310.301729587876
 20
930.938132198371
 30
0.0
  0
VERTEX
  5
74F
  8
1_5_____
  6
CONTINUOUS
 62
     1
 10
1310.34276802647
 20
930.9477813831832
 30
0.0
  0
VERTEX
  5
750
  8
1_5_____
  6
CONTINUOUS
 62
     1
 10
1310.384021749255
 20
930.9569365246202
 30
0.0
  0
VERTEX
  5
751
  8
1_5_____
  6
CONTINUOUS
 62
     1
 10
1310.425490756231
 20
930.9655976226818
 30
0.0
  0
VERTEX
  5
752
  8
1_5_____
  6
CONTINUOUS
 62
     1
 10
1310.467175047398
 20
930.9737646773679
 30
0.0
  0
VERTEX
  5
753
  8
1_5_____
  6
CONTINUOUS
 62
     1
 10
1310.509074622757
 20
930.9814376886789
 30
0.0
  0
VERTEX
  5
754
  8
1_5_____
  6
CONTINUOUS
 62
     1
 10
1310.551189482306
 20
930.9886166566143
 30
0.0
  0
VERTEX
  5
755
  8
1_5_____
  6
CONTINUOUS
 62
     1
 10
1310.593519626047
 20
930.9953015811748
 30
0.0
  0
VERTEX
  5
756
  8
1_5_____
  6
CONTINUOUS
 62
     1
 10
1310.636065053979
 20
931.0014924623601
 30
0.0
  0
VERTEX
  5
757
  8
1_5_____
  6
CONTINUOUS
 62
     1
 10
1310.678825766102
 20
931.00718930017
 30
0.0
  0
VERTEX
  5
758
  8
1_5_____
  6
CONTINUOUS
 62
     1
 10
1310.721801762416
 20
931.0123920946048
 30
0.0
  0
VERTEX
  5
759
  8
1_5_____
  6
CONTINUOUS
 62
     1
 10
1310.764993042922
 20
931.0171008456641
 30
0.0
  0
VERTEX
  5
75A
  8
1_5_____
  6
CONTINUOUS
 62
     1
 10
1310.808399607618
 20
931.0213155533479
 30
0.0
  0
VERTEX
  5
75B
  8
1_5_____
  6
CONTINUOUS
 62
     1
 10
1310.852021456506
 20
931.0250362176566
 30
0.0
  0
VERTEX
  5
75C
  8
1_5_____
  6
CONTINUOUS
 62
     1
 10
1310.895858589585
 20
931.0282628385903
 30
0.0
  0
VERTEX
  5
75D
  8
1_5_____
  6
CONTINUOUS
 62
     1
 10
1310.939911006855
 20
931.0309954161485
 30
0.0
  0
VERTEX
  5
75E
  8
1_5_____
  6
CONTINUOUS
 62
     1
 10
1310.984178708316
 20
931.0332339503316
 30
0.0
  0
VERTEX
  5
75F
  8
1_5_____
  6
CONTINUOUS
 62
     1
 10
1311.028661693969
 20
931.0349784411396
 30
0.0
  0
VERTEX
  5
760
  8
1_5_____
  6
CONTINUOUS
 62
     1
 10
1311.073359963812
 20
931.0362288885717
 30
0.0
  0
VERTEX
  5
761
  8
1_5_____
  6
CONTINUOUS
 62
     1
 10
1311.118273517847
 20
931.0369852926292
 30
0.0
  0
VERTEX
  5
762
  8
1_5_____
  6
CONTINUOUS
 62
     1
 10
1311.163402356073
 20
931.0372476533107
 30
0.0
  0
VERTEX
  5
763
  8
1_5_____
  6
CONTINUOUS
 62
     1
 10
1311.208530953052
 20
931.0370154912735
 30
0.0
  0
VERTEX
  5
764
  8
1_5_____
  6
CONTINUOUS
 62
     1
 10
1311.253443783347
 20
931.0362883271741
 30
0.0
  0
VERTEX
  5
765
  8
1_5_____
  6
CONTINUOUS
 62
     1
 10
1311.298140846957
 20
931.0350661610123
 30
0.0
  0
VERTEX
  5
766
  8
1_5_____
  6
CONTINUOUS
 62
     1
 10
1311.342622143884
 20
931.0333489927884
 30
0.0
  0
VERTEX
  5
767
  8
1_5_____
  6
CONTINUOUS
 62
     1
 10
1311.386887674126
 20
931.0311368225016
 30
0.0
  0
VERTEX
  5
768
  8
1_5_____
  6
CONTINUOUS
 62
     1
 10
1311.430937437683
 20
931.0284296501527
 30
0.0
  0
VERTEX
  5
769
  8
1_5_____
  6
CONTINUOUS
 62
     1
 10
1311.474771434556
 20
931.0252274757408
 30
0.0
  0
VERTEX
  5
76A
  8
1_5_____
  6
CONTINUOUS
 62
     1
 10
1311.518389664745
 20
931.0215302992669
 30
0.0
  0
VERTEX
  5
76B
  8
1_5_____
  6
CONTINUOUS
 62
     1
 10
1311.56179212825
 20
931.017338120731
 30
0.0
  0
VERTEX
  5
76C
  8
1_5_____
  6
CONTINUOUS
 62
     1
 10
1311.60497882507
 20
931.0126509401321
 30
0.0
  0
VERTEX
  5
76D
  8
1_5_____
  6
CONTINUOUS
 62
     1
 10
1311.647949755205
 20
931.0074687574711
 30
0.0
  0
VERTEX
  5
76E
  8
1_5_____
  6
CONTINUOUS
 62
     1
 10
1311.690704918657
 20
931.0017915727476
 30
0.0
  0
VERTEX
  5
76F
  8
1_5_____
  6
CONTINUOUS
 62
     1
 10
1311.733244315424
 20
930.9956193859612
 30
0.0
  0
VERTEX
  5
770
  8
1_5_____
  6
CONTINUOUS
 62
     1
 10
1311.775567945507
 20
930.9889521971131
 30
0.0
  0
VERTEX
  5
771
  8
1_5_____
  6
CONTINUOUS
 62
     1
 10
1311.817675808905
 20
930.9817900062021
 30
0.0
  0
VERTEX
  5
772
  8
1_5_____
  6
CONTINUOUS
 62
     1
 10
1311.859567905619
 20
930.9741328132291
 30
0.0
  0
VERTEX
  5
773
  8
1_5_____
  6
CONTINUOUS
 62
     1
 10
1311.901244235649
 20
930.965980618193
 30
0.0
  0
VERTEX
  5
774
  8
1_5_____
  6
CONTINUOUS
 62
     1
 10
1311.942704798994
 20
930.957333421095
 30
0.0
  0
VERTEX
  5
775
  8
1_5_____
  6
CONTINUOUS
 62
     1
 10
1311.983949595655
 20
930.9481912219348
 30
0.0
  0
VERTEX
  5
776
  8
1_5_____
  6
CONTINUOUS
 62
     1
 10
1312.024978625632
 20
930.9385540207118
 30
0.0
  0
VERTEX
  5
777
  8
1_5_____
  6
CONTINUOUS
 62
     1
 10
1312.065791888924
 20
930.9284218174262
 30
0.0
  0
VERTEX
  5
778
  8
1_5_____
  6
CONTINUOUS
 62
     1
 10
1312.106389385532
 20
930.9177946120785
 30
0.0
  0
VERTEX
  5
779
  8
1_5_____
  6
CONTINUOUS
 62
     1
 10
1312.146771115456
 20
930.9066724046684
 30
0.0
  0
VERTEX
  5
77A
  8
1_5_____
  6
CONTINUOUS
 62
     1
 10
1312.186937078695
 20
930.8950551951962
 30
0.0
  0
VERTEX
  5
77B
  8
1_5_____
  6
CONTINUOUS
 62
     1
 10
1312.22688727525
 20
930.882942983661
 30
0.0
  0
VERTEX
  5
77C
  8
1_5_____
  6
CONTINUOUS
 62
     1
 10
1312.266621705121
 20
930.8703357700638
 30
0.0
  0
VERTEX
  5
77D
  8
1_5_____
  6
CONTINUOUS
 62
     1
 10
1312.306140368307
 20
930.857233554404
 30
0.0
  0
VERTEX
  5
77E
  8
1_5_____
  6
CONTINUOUS
 62
     1
 10
1312.345443264809
 20
930.8436363366823
 30
0.0
  0
VERTEX
  5
77F
  8
1_5_____
  6
CONTINUOUS
 62
     1
 10
1312.384530394626
 20
930.8295441168971
 30
0.0
  0
VERTEX
  5
780
  8
1_5_____
  6
CONTINUOUS
 62
     1
 10
1312.42340175776
 20
930.8149568950503
 30
0.0
  0
VERTEX
  5
781
  8
1_5_____
  6
CONTINUOUS
 62
     1
 10
1312.462057354209
 20
930.799874671141
 30
0.0
  0
VERTEX
  5
782
  8
1_5_____
  6
CONTINUOUS
 62
     1
 10
1312.500497183973
 20
930.7842974451692
 30
0.0
  0
VERTEX
  5
783
  8
1_5_____
  6
CONTINUOUS
 62
     1
 10
1312.538721247053
 20
930.7682252171348
 30
0.0
  0
VERTEX
  5
784
  8
1_5_____
  6
CONTINUOUS
 62
     1
 10
1312.576729543449
 20
930.7516579870385
 30
0.0
  0
VERTEX
  5
785
  8
1_5_____
  6
CONTINUOUS
 62
     1
 10
1312.614522073161
 20
930.7345957548791
 30
0.0
  0
VERTEX
  5
786
  8
1_5_____
  6
CONTINUOUS
 62
     1
 10
1312.652098836188
 20
930.7170385206578
 30
0.0
  0
VERTEX
  5
787
  8
1_5_____
  6
CONTINUOUS
 62
     1
 10
1312.68945983253
 20
930.6989862843734
 30
0.0
  0
VERTEX
  5
788
  8
1_5_____
  6
CONTINUOUS
 62
     1
 10
1312.726605062189
 20
930.680439046027
 30
0.0
  0
VERTEX
  5
789
  8
1_5_____
  6
CONTINUOUS
 62
     1
 10
1312.763534525163
 20
930.6613968056186
 30
0.0
  0
VERTEX
  5
78A
  8
1_5_____
  6
CONTINUOUS
 62
     1
 10
1312.800248221453
 20
930.6418595631471
 30
0.0
  0
VERTEX
  5
78B
  8
1_5_____
  6
CONTINUOUS
 62
     1
 10
1312.836746151058
 20
930.6218273186132
 30
0.0
  0
VERTEX
  5
78C
  8
1_5_____
  6
CONTINUOUS
 62
     1
 10
1312.873028313979
 20
930.6013000720172
 30
0.0
  0
VERTEX
  5
78D
  8
1_5_____
  6
CONTINUOUS
 62
     1
 10
1312.909094710216
 20
930.5802778233588
 30
0.0
  0
VERTEX
  5
78E
  8
1_5_____
  6
CONTINUOUS
 62
     1
 10
1312.944945339768
 20
930.5587605726382
 30
0.0
  0
VERTEX
  5
78F
  8
1_5_____
  6
CONTINUOUS
 62
     1
 10
1312.980580202636
 20
930.5367483198547
 30
0.0
  0
VERTEX
  5
790
  8
1_5_____
  6
CONTINUOUS
 62
     1
 10
1313.01599929882
 20
930.5142410650092
 30
0.0
  0
VERTEX
  5
791
  8
1_5_____
  6
CONTINUOUS
 62
     1
 10
1313.051202628319
 20
930.4912388081011
 30
0.0
  0
VERTEX
  5
792
  8
1_5_____
  6
CONTINUOUS
 62
     1
 10
1313.086190191134
 20
930.467741549131
 30
0.0
  0
VERTEX
  5
793
  8
1_5_____
  6
CONTINUOUS
 62
     1
 10
1313.120961987265
 20
930.4437492880984
 30
0.0
  0
VERTEX
  5
794
  8
1_5_____
  6
CONTINUOUS
 62
     1
 10
1313.155518016711
 20
930.4192620250028
 30
0.0
  0
VERTEX
  5
795
  8
1_5_____
  6
CONTINUOUS
 62
     1
 10
1313.189858279473
 20
930.3942797598452
 30
0.0
  0
VERTEX
  5
796
  8
1_5_____
  6
CONTINUOUS
 62
     1
 10
1313.223982775551
 20
930.368802492625
 30
0.0
  0
VERTEX
  5
797
  8
1_5_____
  6
CONTINUOUS
 62
     1
 10
1313.257891504944
 20
930.3428302233419
 30
0.0
  0
VERTEX
  5
798
  8
1_5_____
  6
CONTINUOUS
 62
     1
 10
1313.291584467653
 20
930.3163629519972
 30
0.0
  0
VERTEX
  5
799
  8
1_5_____
  6
CONTINUOUS
 62
     1
 10
1313.325061663677
 20
930.2894006785896
 30
0.0
  0
VERTEX
  5
79A
  8
1_5_____
  6
CONTINUOUS
 62
     1
 10
1313.358323093018
 20
930.2619434031199
 30
0.0
  0
VERTEX
  5
79B
  8
1_5_____
  6
CONTINUOUS
 62
     1
 10
1313.391368755674
 20
930.2339911255876
 30
0.0
  0
VERTEX
  5
79C
  8
1_5_____
  6
CONTINUOUS
 62
     1
 10
1313.424198651645
 20
930.2055438459929
 30
0.0
  0
VERTEX
  5
79D
  8
1_5_____
  6
CONTINUOUS
 62
     1
 10
1313.456812780932
 20
930.1766015643357
 30
0.0
  0
VERTEX
  5
79E
  8
1_5_____
  6
CONTINUOUS
 62
     1
 10
1313.489211143535
 20
930.1471642806168
 30
0.0
  0
VERTEX
  5
79F
  8
1_5_____
  6
CONTINUOUS
 62
     1
 10
1313.521393739454
 20
930.1172319948346
 30
0.0
  0
VERTEX
  5
7A0
  8
1_5_____
  6
CONTINUOUS
 62
     1
 10
1313.553360568688
 20
930.0868047069903
 30
0.0
  0
VERTEX
  5
7A1
  8
1_5_____
  6
CONTINUOUS
 62
     1
 10
1313.585111631237
 20
930.0558824170835
 30
0.0
  0
VERTEX
  5
7A2
  8
1_5_____
  6
CONTINUOUS
 62
     1
 10
1313.616646927103
 20
930.0244651251146
 30
0.0
  0
VERTEX
  5
7A3
  8
1_5_____
  6
CONTINUOUS
 62
     1
 10
1313.616646927103
 20
930.0244651251146
 30
0.0
  0
SEQEND
  5
7A4
  8
1_5_____
  6
CONTINUOUS
 62
     1
  0
POLYLINE
  5
7A5
  8
1_5_____
  6
CONTINUOUS
 62
     1
 66
     1
 10
0.0
 20
0.0
 30
0.0
 70
   128
  0
VERTEX
  5
7A6
  8
1_5_____
  6
CONTINUOUS
 62
     1
 10
1308.709169638993
 20
925.0244651251146
 30
0.0
  0
VERTEX
  5
7A7
  8
1_5_____
  6
CONTINUOUS
 62
     1
 10
1308.740735573175
 20
924.9930780317923
 30
0.0
  0
VERTEX
  5
7A8
  8
1_5_____
  6
CONTINUOUS
 62
     1
 10
1308.772516791549
 20
924.962184981845
 30
0.0
  0
VERTEX
  5
7A9
  8
1_5_____
  6
CONTINUOUS
 62
     1
 10
1308.804513294114
 20
924.9317859752732
 30
0.0
  0
VERTEX
  5
7AA
  8
1_5_____
  6
CONTINUOUS
 62
     1
 10
1308.836725080871
 20
924.9018810120765
 30
0.0
  0
VERTEX
  5
7AB
  8
1_5_____
  6
CONTINUOUS
 62
     1
 10
1308.869152151819
 20
924.8724700922553
 30
0.0
  0
VERTEX
  5
7AC
  8
1_5_____
  6
CONTINUOUS
 62
     1
 10
1308.901794506957
 20
924.8435532158087
 30
0.0
  0
VERTEX
  5
7AD
  8
1_5_____
  6
CONTINUOUS
 62
     1
 10
1308.934652146287
 20
924.8151303827376
 30
0.0
  0
VERTEX
  5
7AE
  8
1_5_____
  6
CONTINUOUS
 62
     1
 10
1308.967725069808
 20
924.787201593042
 30
0.0
  0
VERTEX
  5
7AF
  8
1_5_____
  6
CONTINUOUS
 62
     1
 10
1309.00101327752
 20
924.7597668467215
 30
0.0
  0
VERTEX
  5
7B0
  8
1_5_____
  6
CONTINUOUS
 62
     1
 10
1309.034516769423
 20
924.732826143776
 30
0.0
  0
VERTEX
  5
7B1
  8
1_5_____
  6
CONTINUOUS
 62
     1
 10
1309.068235545518
 20
924.7063794842061
 30
0.0
  0
VERTEX
  5
7B2
  8
1_5_____
  6
CONTINUOUS
 62
     1
 10
1309.102169605803
 20
924.6804268680112
 30
0.0
  0
VERTEX
  5
7B3
  8
1_5_____
  6
CONTINUOUS
 62
     1
 10
1309.13631895028
 20
924.6549682951913
 30
0.0
  0
VERTEX
  5
7B4
  8
1_5_____
  6
CONTINUOUS
 62
     1
 10
1309.170683578948
 20
924.6300037657475
 30
0.0
  0
VERTEX
  5
7B5
  8
1_5_____
  6
CONTINUOUS
 62
     1
 10
1309.205263491807
 20
924.6055332796782
 30
0.0
  0
VERTEX
  5
7B6
  8
1_5_____
  6
CONTINUOUS
 62
     1
 10
1309.240058688857
 20
924.5815568369849
 30
0.0
  0
VERTEX
  5
7B7
  8
1_5_____
  6
CONTINUOUS
 62
     1
 10
1309.275069170099
 20
924.5580744376666
 30
0.0
  0
VERTEX
  5
7B8
  8
1_5_____
  6
CONTINUOUS
 62
     1
 10
1309.310294935531
 20
924.535086081723
 30
0.0
  0
VERTEX
  5
7B9
  8
1_5_____
  6
CONTINUOUS
 62
     1
 10
1309.345735985155
 20
924.5125917691553
 30
0.0
  0
VERTEX
  5
7BA
  8
1_5_____
  6
CONTINUOUS
 62
     1
 10
1309.38139231897
 20
924.4905914999626
 30
0.0
  0
VERTEX
  5
7BB
  8
1_5_____
  6
CONTINUOUS
 62
     1
 10
1309.417263936976
 20
924.4690852741455
 30
0.0
  0
VERTEX
  5
7BC
  8
1_5_____
  6
CONTINUOUS
 62
     1
 10
1309.453350839173
 20
924.448073091703
 30
0.0
  0
VERTEX
  5
7BD
  8
1_5_____
  6
CONTINUOUS
 62
     1
 10
1309.489653025561
 20
924.427554952636
 30
0.0
  0
VERTEX
  5
7BE
  8
1_5_____
  6
CONTINUOUS
 62
     1
 10
1309.526170496141
 20
924.407530856944
 30
0.0
  0
VERTEX
  5
7BF
  8
1_5_____
  6
CONTINUOUS
 62
     1
 10
1309.562903250912
 20
924.3880008046276
 30
0.0
  0
VERTEX
  5
7C0
  8
1_5_____
  6
CONTINUOUS
 62
     1
 10
1309.599851289873
 20
924.3689647956862
 30
0.0
  0
VERTEX
  5
7C1
  8
1_5_____
  6
CONTINUOUS
 62
     1
 10
1309.637014613026
 20
924.3504228301204
 30
0.0
  0
VERTEX
  5
7C2
  8
1_5_____
  6
CONTINUOUS
 62
     1
 10
1309.67439322037
 20
924.3323749079295
 30
0.0
  0
VERTEX
  5
7C3
  8
1_5_____
  6
CONTINUOUS
 62
     1
 10
1309.711987111906
 20
924.3148210291142
 30
0.0
  0
VERTEX
  5
7C4
  8
1_5_____
  6
CONTINUOUS
 62
     1
 10
1309.749796287632
 20
924.2977611936735
 30
0.0
  0
VERTEX
  5
7C5
  8
1_5_____
  6
CONTINUOUS
 62
     1
 10
1309.78782074755
 20
924.2811954016083
 30
0.0
  0
VERTEX
  5
7C6
  8
1_5_____
  6
CONTINUOUS
 62
     1
 10
1309.826060491659
 20
924.2651236529186
 30
0.0
  0
VERTEX
  5
7C7
  8
1_5_____
  6
CONTINUOUS
 62
     1
 10
1309.864515519959
 20
924.2495459476045
 30
0.0
  0
VERTEX
  5
7C8
  8
1_5_____
  6
CONTINUOUS
 62
     1
 10
1309.90318583245
 20
924.2344622856649
 30
0.0
  0
VERTEX
  5
7C9
  8
1_5_____
  6
CONTINUOUS
 62
     1
 10
1309.942071429132
 20
924.2198726671008
 30
0.0
  0
VERTEX
  5
7CA
  8
1_5_____
  6
CONTINUOUS
 62
     1
 10
1309.981172310005
 20
924.2057770919123
 30
0.0
  0
VERTEX
  5
7CB
  8
1_5_____
  6
CONTINUOUS
 62
     1
 10
1310.02048847507
 20
924.1921755600988
 30
0.0
  0
VERTEX
  5
7CC
  8
1_5_____
  6
CONTINUOUS
 62
     1
 10
1310.060019924326
 20
924.1790680716604
 30
0.0
  0
VERTEX
  5
7CD
  8
1_5_____
  6
CONTINUOUS
 62
     1
 10
1310.099766657773
 20
924.1664546265974
 30
0.0
  0
VERTEX
  5
7CE
  8
1_5_____
  6
CONTINUOUS
 62
     1
 10
1310.13972867541
 20
924.1543352249096
 30
0.0
  0
VERTEX
  5
7CF
  8
1_5_____
  6
CONTINUOUS
 62
     1
 10
1310.17990597724
 20
924.1427098665968
 30
0.0
  0
VERTEX
  5
7D0
  8
1_5_____
  6
CONTINUOUS
 62
     1
 10
1310.22029856326
 20
924.1315785516595
 30
0.0
  0
VERTEX
  5
7D1
  8
1_5_____
  6
CONTINUOUS
 62
     1
 10
1310.260906433472
 20
924.1209412800977
 30
0.0
  0
VERTEX
  5
7D2
  8
1_5_____
  6
CONTINUOUS
 62
     1
 10
1310.301729587874
 20
924.1107980519109
 30
0.0
  0
VERTEX
  5
7D3
  8
1_5_____
  6
CONTINUOUS
 62
     1
 10
1310.342768026468
 20
924.1011488670993
 30
0.0
  0
VERTEX
  5
7D4
  8
1_5_____
  6
CONTINUOUS
 62
     1
 10
1310.384021749253
 20
924.0919937256631
 30
0.0
  0
VERTEX
  5
7D5
  8
1_5_____
  6
CONTINUOUS
 62
     1
 10
1310.425490756229
 20
924.083332627602
 30
0.0
  0
VERTEX
  5
7D6
  8
1_5_____
  6
CONTINUOUS
 62
     1
 10
1310.467175047396
 20
924.0751655729159
 30
0.0
  0
VERTEX
  5
7D7
  8
1_5_____
  6
CONTINUOUS
 62
     1
 10
1310.509074622755
 20
924.0674925616054
 30
0.0
  0
VERTEX
  5
7D8
  8
1_5_____
  6
CONTINUOUS
 62
     1
 10
1310.551189482305
 20
924.0603135936699
 30
0.0
  0
VERTEX
  5
7D9
  8
1_5_____
  6
CONTINUOUS
 62
     1
 10
1310.593519626045
 20
924.0536286691099
 30
0.0
  0
VERTEX
  5
7DA
  8
1_5_____
  6
CONTINUOUS
 62
     1
 10
1310.636065053977
 20
924.047437787925
 30
0.0
  0
VERTEX
  5
7DB
  8
1_5_____
  6
CONTINUOUS
 62
     1
 10
1310.6788257661
 20
924.0417409501156
 30
0.0
  0
VERTEX
  5
7DC
  8
1_5_____
  6
CONTINUOUS
 62
     1
 10
1310.721801762415
 20
924.0365381556812
 30
0.0
  0
VERTEX
  5
7DD
  8
1_5_____
  6
CONTINUOUS
 62
     1
 10
1310.76499304292
 20
924.0318294046224
 30
0.0
  0
VERTEX
  5
7DE
  8
1_5_____
  6
CONTINUOUS
 62
     1
 10
1310.808399607617
 20
924.0276146969386
 30
0.0
  0
VERTEX
  5
7DF
  8
1_5_____
  6
CONTINUOUS
 62
     1
 10
1310.852021456504
 20
924.0238940326303
 30
0.0
  0
VERTEX
  5
7E0
  8
1_5_____
  6
CONTINUOUS
 62
     1
 10
1310.895858589583
 20
924.0206674116966
 30
0.0
  0
VERTEX
  5
7E1
  8
1_5_____
  6
CONTINUOUS
 62
     1
 10
1310.939911006853
 20
924.0179348341385
 30
0.0
  0
VERTEX
  5
7E2
  8
1_5_____
  6
CONTINUOUS
 62
     1
 10
1310.984178708315
 20
924.0156962999558
 30
0.0
  0
VERTEX
  5
7E3
  8
1_5_____
  6
CONTINUOUS
 62
     1
 10
1311.028661693967
 20
924.0139518091478
 30
0.0
  0
VERTEX
  5
7E4
  8
1_5_____
  6
CONTINUOUS
 62
     1
 10
1311.07335996381
 20
924.0127013617157
 30
0.0
  0
VERTEX
  5
7E5
  8
1_5_____
  6
CONTINUOUS
 62
     1
 10
1311.118273517845
 20
924.0119449576582
 30
0.0
  0
VERTEX
  5
7E6
  8
1_5_____
  6
CONTINUOUS
 62
     1
 10
1311.163402356071
 20
924.0116825969767
 30
0.0
  0
VERTEX
  5
7E7
  8
1_5_____
  6
CONTINUOUS
 62
     1
 10
1311.20853095305
 20
924.011914759014
 30
0.0
  0
VERTEX
  5
7E8
  8
1_5_____
  6
CONTINUOUS
 62
     1
 10
1311.253443783345
 20
924.0126419231133
 30
0.0
  0
VERTEX
  5
7E9
  8
1_5_____
  6
CONTINUOUS
 62
     1
 10
1311.298140846956
 20
924.0138640892751
 30
0.0
  0
VERTEX
  5
7EA
  8
1_5_____
  6
CONTINUOUS
 62
     1
 10
1311.342622143882
 20
924.015581257499
 30
0.0
  0
VERTEX
  5
7EB
  8
1_5_____
  6
CONTINUOUS
 62
     1
 10
1311.386887674124
 20
924.0177934277858
 30
0.0
  0
VERTEX
  5
7EC
  8
1_5_____
  6
CONTINUOUS
 62
     1
 10
1311.430937437681
 20
924.0205006001347
 30
0.0
  0
VERTEX
  5
7ED
  8
1_5_____
  6
CONTINUOUS
 62
     1
 10
1311.474771434554
 20
924.0237027745461
 30
0.0
  0
VERTEX
  5
7EE
  8
1_5_____
  6
CONTINUOUS
 62
     1
 10
1311.518389664743
 20
924.0273999510196
 30
0.0
  0
VERTEX
  5
7EF
  8
1_5_____
  6
CONTINUOUS
 62
     1
 10
1311.561792128248
 20
924.0315921295555
 30
0.0
  0
VERTEX
  5
7F0
  8
1_5_____
  6
CONTINUOUS
 62
     1
 10
1311.604978825068
 20
924.0362793101544
 30
0.0
  0
VERTEX
  5
7F1
  8
1_5_____
  6
CONTINUOUS
 62
     1
 10
1311.647949755204
 20
924.0414614928154
 30
0.0
  0
VERTEX
  5
7F2
  8
1_5_____
  6
CONTINUOUS
 62
     1
 10
1311.690704918655
 20
924.047138677538
 30
0.0
  0
VERTEX
  5
7F3
  8
1_5_____
  6
CONTINUOUS
 62
     1
 10
1311.733244315422
 20
924.0533108643235
 30
0.0
  0
VERTEX
  5
7F4
  8
1_5_____
  6
CONTINUOUS
 62
     1
 10
1311.775567945505
 20
924.0599780531716
 30
0.0
  0
VERTEX
  5
7F5
  8
1_5_____
  6
CONTINUOUS
 62
     1
 10
1311.817675808903
 20
924.0671402440817
 30
0.0
  0
VERTEX
  5
7F6
  8
1_5_____
  6
CONTINUOUS
 62
     1
 10
1311.859567905617
 20
924.0747974370547
 30
0.0
  0
VERTEX
  5
7F7
  8
1_5_____
  6
CONTINUOUS
 62
     1
 10
1311.901244235647
 20
924.0829496320903
 30
0.0
  0
VERTEX
  5
7F8
  8
1_5_____
  6
CONTINUOUS
 62
     1
 10
1311.942704798993
 20
924.0915968291879
 30
0.0
  0
VERTEX
  5
7F9
  8
1_5_____
  6
CONTINUOUS
 62
     1
 10
1311.983949595654
 20
924.1007390283476
 30
0.0
  0
VERTEX
  5
7FA
  8
1_5_____
  6
CONTINUOUS
 62
     1
 10
1312.02497862563
 20
924.1103762295697
 30
0.0
  0
VERTEX
  5
7FB
  8
1_5_____
  6
CONTINUOUS
 62
     1
 10
1312.065791888923
 20
924.1205084328544
 30
0.0
  0
VERTEX
  5
7FC
  8
1_5_____
  6
CONTINUOUS
 62
     1
 10
1312.106389385531
 20
924.1311356382016
 30
0.0
  0
VERTEX
  5
7FD
  8
1_5_____
  6
CONTINUOUS
 62
     1
 10
1312.146771115454
 20
924.1422578456113
 30
0.0
  0
VERTEX
  5
7FE
  8
1_5_____
  6
CONTINUOUS
 62
     1
 10
1312.186937078694
 20
924.1538750550831
 30
0.0
  0
VERTEX
  5
7FF
  8
1_5_____
  6
CONTINUOUS
 62
     1
 10
1312.226887275249
 20
924.1659872666173
 30
0.0
  0
VERTEX
  5
800
  8
1_5_____
  6
CONTINUOUS
 62
     1
 10
1312.266621705119
 20
924.1785944802136
 30
0.0
  0
VERTEX
  5
801
  8
1_5_____
  6
CONTINUOUS
 62
     1
 10
1312.306140368305
 20
924.1916966958729
 30
0.0
  0
VERTEX
  5
802
  8
1_5_____
  6
CONTINUOUS
 62
     1
 10
1312.345443264807
 20
924.2052939135942
 30
0.0
  0
VERTEX
  5
803
  8
1_5_____
  6
CONTINUOUS
 62
     1
 10
1312.384530394625
 20
924.2193861333781
 30
0.0
  0
VERTEX
  5
804
  8
1_5_____
  6
CONTINUOUS
 62
     1
 10
1312.423401757758
 20
924.2339733552244
 30
0.0
  0
VERTEX
  5
805
  8
1_5_____
  6
CONTINUOUS
 62
     1
 10
1312.462057354207
 20
924.2490555791333
 30
0.0
  0
VERTEX
  5
806
  8
1_5_____
  6
CONTINUOUS
 62
     1
 10
1312.500497183972
 20
924.2646328051037
 30
0.0
  0
VERTEX
  5
807
  8
1_5_____
  6
CONTINUOUS
 62
     1
 10
1312.538721247052
 20
924.2807050331371
 30
0.0
  0
VERTEX
  5
808
  8
1_5_____
  6
CONTINUOUS
 62
     1
 10
1312.576729543448
 20
924.2972722632326
 30
0.0
  0
VERTEX
  5
809
  8
1_5_____
  6
CONTINUOUS
 62
     1
 10
1312.614522073159
 20
924.314334495391
 30
0.0
  0
VERTEX
  5
80A
  8
1_5_____
  6
CONTINUOUS
 62
     1
 10
1312.652098836186
 20
924.3318917296115
 30
0.0
  0
VERTEX
  5
80B
  8
1_5_____
  6
CONTINUOUS
 62
     1
 10
1312.689459832529
 20
924.3499439658949
 30
0.0
  0
VERTEX
  5
80C
  8
1_5_____
  6
CONTINUOUS
 62
     1
 10
1312.726605062188
 20
924.36849120424
 30
0.0
  0
VERTEX
  5
80D
  8
1_5_____
  6
CONTINUOUS
 62
     1
 10
1312.763534525162
 20
924.3875334446475
 30
0.0
  0
VERTEX
  5
80E
  8
1_5_____
  6
CONTINUOUS
 62
     1
 10
1312.800248221452
 20
924.4070706871175
 30
0.0
  0
VERTEX
  5
80F
  8
1_5_____
  6
CONTINUOUS
 62
     1
 10
1312.836746151057
 20
924.4271029316501
 30
0.0
  0
VERTEX
  5
810
  8
1_5_____
  6
CONTINUOUS
 62
     1
 10
1312.873028313978
 20
924.4476301782447
 30
0.0
  0
VERTEX
  5
811
  8
1_5_____
  6
CONTINUOUS
 62
     1
 10
1312.909094710215
 20
924.4686524269023
 30
0.0
  0
VERTEX
  5
812
  8
1_5_____
  6
CONTINUOUS
 62
     1
 10
1312.944945339767
 20
924.4901696776215
 30
0.0
  0
VERTEX
  5
813
  8
1_5_____
  6
CONTINUOUS
 62
     1
 10
1312.980580202635
 20
924.5121819304031
 30
0.0
  0
VERTEX
  5
814
  8
1_5_____
  6
CONTINUOUS
 62
     1
 10
1313.015999298819
 20
924.5346891852478
 30
0.0
  0
VERTEX
  5
815
  8
1_5_____
  6
CONTINUOUS
 62
     1
 10
1313.051202628319
 20
924.5576914421549
 30
0.0
  0
VERTEX
  5
816
  8
1_5_____
  6
CONTINUOUS
 62
     1
 10
1313.086190191133
 20
924.5811887011237
 30
0.0
  0
VERTEX
  5
817
  8
1_5_____
  6
CONTINUOUS
 62
     1
 10
1313.120961987264
 20
924.6051809621554
 30
0.0
  0
VERTEX
  5
818
  8
1_5_____
  6
CONTINUOUS
 62
     1
 10
1313.155518016711
 20
924.6296682252491
 30
0.0
  0
VERTEX
  5
819
  8
1_5_____
  6
CONTINUOUS
 62
     1
 10
1313.189858279472
 20
924.6546504904054
 30
0.0
  0
VERTEX
  5
81A
  8
1_5_____
  6
CONTINUOUS
 62
     1
 10
1313.22398277555
 20
924.6801277576242
 30
0.0
  0
VERTEX
  5
81B
  8
1_5_____
  6
CONTINUOUS
 62
     1
 10
1313.257891504943
 20
924.7061000269055
 30
0.0
  0
VERTEX
  5
81C
  8
1_5_____
  6
CONTINUOUS
 62
     1
 10
1313.291584467652
 20
924.7325672982488
 30
0.0
  0
VERTEX
  5
81D
  8
1_5_____
  6
CONTINUOUS
 62
     1
 10
1313.325061663677
 20
924.7595295716546
 30
0.0
  0
VERTEX
  5
81E
  8
1_5_____
  6
CONTINUOUS
 62
     1
 10
1313.358323093017
 20
924.786986847123
 30
0.0
  0
VERTEX
  5
81F
  8
1_5_____
  6
CONTINUOUS
 62
     1
 10
1313.391368755673
 20
924.8149391246538
 30
0.0
  0
VERTEX
  5
820
  8
1_5_____
  6
CONTINUOUS
 62
     1
 10
1313.424198651645
 20
924.8433864042468
 30
0.0
  0
VERTEX
  5
821
  8
1_5_____
  6
CONTINUOUS
 62
     1
 10
1313.456812780932
 20
924.8723286859017
 30
0.0
  0
VERTEX
  5
822
  8
1_5_____
  6
CONTINUOUS
 62
     1
 10
1313.489211143535
 20
924.9017659696196
 30
0.0
  0
VERTEX
  5
823
  8
1_5_____
  6
CONTINUOUS
 62
     1
 10
1313.521393739453
 20
924.9316982554001
 30
0.0
  0
VERTEX
  5
824
  8
1_5_____
  6
CONTINUOUS
 62
     1
 10
1313.553360568688
 20
924.9621255432426
 30
0.0
  0
VERTEX
  5
825
  8
1_5_____
  6
CONTINUOUS
 62
     1
 10
1313.585111631237
 20
924.9930478331476
 30
0.0
  0
VERTEX
  5
826
  8
1_5_____
  6
CONTINUOUS
 62
     1
 10
1313.616646927103
 20
925.0244651251146
 30
0.0
  0
VERTEX
  5
827
  8
1_5_____
  6
CONTINUOUS
 62
     1
 10
1313.616646927103
 20
925.0244651251146
 30
0.0
  0
SEQEND
  5
828
  8
1_5_____
  6
CONTINUOUS
 62
     1
  0
POLYLINE
  5
829
  8
1_5_____
  6
CONTINUOUS
 62
     1
 66
     1
 10
0.0
 20
0.0
 30
0.0
 70
   128
  0
VERTEX
  5
82A
  8
1_5_____
  6
CONTINUOUS
 62
     1
 10
1298.89421506277
 20
925.0244651251146
 30
0.0
  0
VERTEX
  5
82B
  8
1_5_____
  6
CONTINUOUS
 62
     1
 10
1298.965854679472
 20
924.9887645887534
 30
0.0
  0
VERTEX
  5
82C
  8
1_5_____
  6
CONTINUOUS
 62
     1
 10
1299.03765479958
 20
924.9536252567314
 30
0.0
  0
VERTEX
  5
82D
  8
1_5_____
  6
CONTINUOUS
 62
     1
 10
1299.109615423092
 20
924.9190471290481
 30
0.0
  0
VERTEX
  5
82E
  8
1_5_____
  6
CONTINUOUS
 62
     1
 10
1299.18173655001
 20
924.8850302057035
 30
0.0
  0
VERTEX
  5
82F
  8
1_5_____
  6
CONTINUOUS
 62
     1
 10
1299.254018180333
 20
924.8515744866977
 30
0.0
  0
VERTEX
  5
830
  8
1_5_____
  6
CONTINUOUS
 62
     1
 10
1299.326460314061
 20
924.8186799720311
 30
0.0
  0
VERTEX
  5
831
  8
1_5_____
  6
CONTINUOUS
 62
     1
 10
1299.399062951195
 20
924.7863466617032
 30
0.0
  0
VERTEX
  5
832
  8
1_5_____
  6
CONTINUOUS
 62
     1
 10
1299.471826091733
 20
924.7545745557145
 30
0.0
  0
VERTEX
  5
833
  8
1_5_____
  6
CONTINUOUS
 62
     1
 10
1299.544749735677
 20
924.7233636540645
 30
0.0
  0
VERTEX
  5
834
  8
1_5_____
  6
CONTINUOUS
 62
     1
 10
1299.617833883026
 20
924.6927139567533
 30
0.0
  0
VERTEX
  5
835
  8
1_5_____
  6
CONTINUOUS
 62
     1
 10
1299.69107853378
 20
924.6626254637808
 30
0.0
  0
VERTEX
  5
836
  8
1_5_____
  6
CONTINUOUS
 62
     1
 10
1299.764483687939
 20
924.6330981751476
 30
0.0
  0
VERTEX
  5
837
  8
1_5_____
  6
CONTINUOUS
 62
     1
 10
1299.838049345504
 20
924.604132090853
 30
0.0
  0
VERTEX
  5
838
  8
1_5_____
  6
CONTINUOUS
 62
     1
 10
1299.911775506474
 20
924.5757272108976
 30
0.0
  0
VERTEX
  5
839
  8
1_5_____
  6
CONTINUOUS
 62
     1
 10
1299.985662170849
 20
924.547883535281
 30
0.0
  0
VERTEX
  5
83A
  8
1_5_____
  6
CONTINUOUS
 62
     1
 10
1300.059709338629
 20
924.5206010640036
 30
0.0
  0
VERTEX
  5
83B
  8
1_5_____
  6
CONTINUOUS
 62
     1
 10
1300.133917009814
 20
924.4938797970649
 30
0.0
  0
VERTEX
  5
83C
  8
1_5_____
  6
CONTINUOUS
 62
     1
 10
1300.208285184405
 20
924.4677197344649
 30
0.0
  0
VERTEX
  5
83D
  8
1_5_____
  6
CONTINUOUS
 62
     1
 10
1300.282813862401
 20
924.4421208762037
 30
0.0
  0
VERTEX
  5
83E
  8
1_5_____
  6
CONTINUOUS
 62
     1
 10
1300.357503043802
 20
924.4170832222812
 30
0.0
  0
VERTEX
  5
83F
  8
1_5_____
  6
CONTINUOUS
 62
     1
 10
1300.432352728608
 20
924.392606772698
 30
0.0
  0
VERTEX
  5
840
  8
1_5_____
  6
CONTINUOUS
 62
     1
 10
1300.507362916819
 20
924.3686915274534
 30
0.0
  0
VERTEX
  5
841
  8
1_5_____
  6
CONTINUOUS
 62
     1
 10
1300.582533608436
 20
924.345337486548
 30
0.0
  0
VERTEX
  5
842
  8
1_5_____
  6
CONTINUOUS
 62
     1
 10
1300.657864803458
 20
924.3225446499819
 30
0.0
  0
VERTEX
  5
843
  8
1_5_____
  6
CONTINUOUS
 62
     1
 10
1300.733356501885
 20
924.3003130177544
 30
0.0
  0
VERTEX
  5
844
  8
1_5_____
  6
CONTINUOUS
 62
     1
 10
1300.809008703717
 20
924.2786425898657
 30
0.0
  0
VERTEX
  5
845
  8
1_5_____
  6
CONTINUOUS
 62
     1
 10
1300.884821408954
 20
924.2575333663158
 30
0.0
  0
VERTEX
  5
846
  8
1_5_____
  6
CONTINUOUS
 62
     1
 10
1300.960794617597
 20
924.2369853471046
 30
0.0
  0
VERTEX
  5
847
  8
1_5_____
  6
CONTINUOUS
 62
     1
 10
1301.036928329645
 20
924.2169985322321
 30
0.0
  0
VERTEX
  5
848
  8
1_5_____
  6
CONTINUOUS
 62
     1
 10
1301.113222545098
 20
924.1975729216988
 30
0.0
  0
VERTEX
  5
849
  8
1_5_____
  6
CONTINUOUS
 62
     1
 10
1301.189677263956
 20
924.1787085155047
 30
0.0
  0
VERTEX
  5
84A
  8
1_5_____
  6
CONTINUOUS
 62
     1
 10
1301.266292486219
 20
924.1604053136493
 30
0.0
  0
VERTEX
  5
84B
  8
1_5_____
  6
CONTINUOUS
 62
     1
 10
1301.343068211888
 20
924.1426633161327
 30
0.0
  0
VERTEX
  5
84C
  8
1_5_____
  6
CONTINUOUS
 62
     1
 10
1301.420004440962
 20
924.1254825229548
 30
0.0
  0
VERTEX
  5
84D
  8
1_5_____
  6
CONTINUOUS
 62
     1
 10
1301.497101173441
 20
924.1088629341161
 30
0.0
  0
VERTEX
  5
84E
  8
1_5_____
  6
CONTINUOUS
 62
     1
 10
1301.574358409325
 20
924.0928045496166
 30
0.0
  0
VERTEX
  5
84F
  8
1_5_____
  6
CONTINUOUS
 62
     1
 10
1301.651776148614
 20
924.0773073694559
 30
0.0
  0
VERTEX
  5
850
  8
1_5_____
  6
CONTINUOUS
 62
     1
 10
1301.729354391309
 20
924.0623713936338
 30
0.0
  0
VERTEX
  5
851
  8
1_5_____
  6
CONTINUOUS
 62
     1
 10
1301.807093137409
 20
924.0479966221505
 30
0.0
  0
VERTEX
  5
852
  8
1_5_____
  6
CONTINUOUS
 62
     1
 10
1301.884992386914
 20
924.034183055006
 30
0.0
  0
VERTEX
  5
853
  8
1_5_____
  6
CONTINUOUS
 62
     1
 10
1301.963052139824
 20
924.0209306922002
 30
0.0
  0
VERTEX
  5
854
  8
1_5_____
  6
CONTINUOUS
 62
     1
 10
1302.041272396139
 20
924.0082395337336
 30
0.0
  0
VERTEX
  5
855
  8
1_5_____
  6
CONTINUOUS
 62
     1
 10
1302.11965315586
 20
923.9961095796061
 30
0.0
  0
VERTEX
  5
856
  8
1_5_____
  6
CONTINUOUS
 62
     1
 10
1302.198194418986
 20
923.9845408298174
 30
0.0
  0
VERTEX
  5
857
  8
1_5_____
  6
CONTINUOUS
 62
     1
 10
1302.276896185517
 20
923.9735332843679
 30
0.0
  0
VERTEX
  5
858
  8
1_5_____
  6
CONTINUOUS
 62
     1
 10
1302.355758455453
 20
923.9630869432572
 30
0.0
  0
VERTEX
  5
859
  8
1_5_____
  6
CONTINUOUS
 62
     1
 10
1302.434781228794
 20
923.9532018064851
 30
0.0
  0
VERTEX
  5
85A
  8
1_5_____
  6
CONTINUOUS
 62
     1
 10
1302.513964505541
 20
923.9438778740519
 30
0.0
  0
VERTEX
  5
85B
  8
1_5_____
  6
CONTINUOUS
 62
     1
 10
1302.593308285693
 20
923.9351151459573
 30
0.0
  0
VERTEX
  5
85C
  8
1_5_____
  6
CONTINUOUS
 62
     1
 10
1302.67281256925
 20
923.9269136222019
 30
0.0
  0
VERTEX
  5
85D
  8
1_5_____
  6
CONTINUOUS
 62
     1
 10
1302.752477356212
 20
923.9192733027853
 30
0.0
  0
VERTEX
  5
85E
  8
1_5_____
  6
CONTINUOUS
 62
     1
 10
1302.832302646579
 20
923.9121941877079
 30
0.0
  0
VERTEX
  5
85F
  8
1_5_____
  6
CONTINUOUS
 62
     1
 10
1302.912288440352
 20
923.9056762769692
 30
0.0
  0
VERTEX
  5
860
  8
1_5_____
  6
CONTINUOUS
 62
     1
 10
1302.99243473753
 20
923.8997195705697
 30
0.0
  0
VERTEX
  5
861
  8
1_5_____
  6
CONTINUOUS
 62
     1
 10
1303.072741538113
 20
923.8943240685089
 30
0.0
  0
VERTEX
  5
862
  8
1_5_____
  6
CONTINUOUS
 62
     1
 10
1303.153208842101
 20
923.8894897707869
 30
0.0
  0
VERTEX
  5
863
  8
1_5_____
  6
CONTINUOUS
 62
     1
 10
1303.233836649494
 20
923.8852166774036
 30
0.0
  0
VERTEX
  5
864
  8
1_5_____
  6
CONTINUOUS
 62
     1
 10
1303.314624960293
 20
923.8815047883595
 30
0.0
  0
VERTEX
  5
865
  8
1_5_____
  6
CONTINUOUS
 62
     1
 10
1303.395573774497
 20
923.8783541036541
 30
0.0
  0
VERTEX
  5
866
  8
1_5_____
  6
CONTINUOUS
 62
     1
 10
1303.476683092106
 20
923.875764623288
 30
0.0
  0
VERTEX
  5
867
  8
1_5_____
  6
CONTINUOUS
 62
     1
 10
1303.55795291312
 20
923.8737363472605
 30
0.0
  0
VERTEX
  5
868
  8
1_5_____
  6
CONTINUOUS
 62
     1
 10
1303.639383237539
 20
923.8722692755719
 30
0.0
  0
VERTEX
  5
869
  8
1_5_____
  6
CONTINUOUS
 62
     1
 10
1303.720974065364
 20
923.8713634082219
 30
0.0
  0
VERTEX
  5
86A
  8
1_5_____
  6
CONTINUOUS
 62
     1
 10
1303.802725396594
 20
923.8710187452111
 30
0.0
  0
VERTEX
  5
86B
  8
1_5_____
  6
CONTINUOUS
 62
     1
 10
1303.884476223407
 20
923.8712372884406
 30
0.0
  0
VERTEX
  5
86C
  8
1_5_____
  6
CONTINUOUS
 62
     1
 10
1303.966065537981
 20
923.8720210398114
 30
0.0
  0
VERTEX
  5
86D
  8
1_5_____
  6
CONTINUOUS
 62
     1
 10
1304.047493340316
 20
923.8733699993236
 30
0.0
  0
VERTEX
  5
86E
  8
1_5_____
  6
CONTINUOUS
 62
     1
 10
1304.128759630412
 20
923.8752841669775
 30
0.0
  0
VERTEX
  5
86F
  8
1_5_____
  6
CONTINUOUS
 62
     1
 10
1304.20986440827
 20
923.8777635427728
 30
0.0
  0
VERTEX
  5
870
  8
1_5_____
  6
CONTINUOUS
 62
     1
 10
1304.290807673888
 20
923.8808081267093
 30
0.0
  0
VERTEX
  5
871
  8
1_5_____
  6
CONTINUOUS
 62
     1
 10
1304.371589427268
 20
923.8844179187877
 30
0.0
  0
VERTEX
  5
872
  8
1_5_____
  6
CONTINUOUS
 62
     1
 10
1304.452209668408
 20
923.8885929190074
 30
0.0
  0
VERTEX
  5
873
  8
1_5_____
  6
CONTINUOUS
 62
     1
 10
1304.53266839731
 20
923.8933331273684
 30
0.0
  0
VERTEX
  5
874
  8
1_5_____
  6
CONTINUOUS
 62
     1
 10
1304.612965613973
 20
923.8986385438711
 30
0.0
  0
VERTEX
  5
875
  8
1_5_____
  6
CONTINUOUS
 62
     1
 10
1304.693101318397
 20
923.9045091685152
 30
0.0
  0
VERTEX
  5
876
  8
1_5_____
  6
CONTINUOUS
 62
     1
 10
1304.773075510582
 20
923.9109450013007
 30
0.0
  0
VERTEX
  5
877
  8
1_5_____
  6
CONTINUOUS
 62
     1
 10
1304.852888190528
 20
923.9179460422279
 30
0.0
  0
VERTEX
  5
878
  8
1_5_____
  6
CONTINUOUS
 62
     1
 10
1304.932539358235
 20
923.9255122912964
 30
0.0
  0
VERTEX
  5
879
  8
1_5_____
  6
CONTINUOUS
 62
     1
 10
1305.012029013703
 20
923.9336437485067
 30
0.0
  0
VERTEX
  5
87A
  8
1_5_____
  6
CONTINUOUS
 62
     1
 10
1305.091357156933
 20
923.9423404138583
 30
0.0
  0
VERTEX
  5
87B
  8
1_5_____
  6
CONTINUOUS
 62
     1
 10
1305.170523787923
 20
923.9516022873518
 30
0.0
  0
VERTEX
  5
87C
  8
1_5_____
  6
CONTINUOUS
 62
     1
 10
1305.249528906675
 20
923.961429368986
 30
0.0
  0
VERTEX
  5
87D
  8
1_5_____
  6
CONTINUOUS
 62
     1
 10
1305.328372513187
 20
923.9718216587621
 30
0.0
  0
VERTEX
  5
87E
  8
1_5_____
  6
CONTINUOUS
 62
     1
 10
1305.407054607461
 20
923.982779156679
 30
0.0
  0
VERTEX
  5
87F
  8
1_5_____
  6
CONTINUOUS
 62
     1
 10
1305.485575189496
 20
923.9943018627382
 30
0.0
  0
VERTEX
  5
880
  8
1_5_____
  6
CONTINUOUS
 62
     1
 10
1305.563934259292
 20
924.0063897769382
 30
0.0
  0
VERTEX
  5
881
  8
1_5_____
  6
CONTINUOUS
 62
     1
 10
1305.642131816849
 20
924.0190428992805
 30
0.0
  0
VERTEX
  5
882
  8
1_5_____
  6
CONTINUOUS
 62
     1
 10
1305.720167862167
 20
924.0322612297641
 30
0.0
  0
VERTEX
  5
883
  8
1_5_____
  6
CONTINUOUS
 62
     1
 10
1305.798042395247
 20
924.0460447683895
 30
0.0
  0
VERTEX
  5
884
  8
1_5_____
  6
CONTINUOUS
 62
     1
 10
1305.875755416087
 20
924.0603935151557
 30
0.0
  0
VERTEX
  5
885
  8
1_5_____
  6
CONTINUOUS
 62
     1
 10
1305.953306924688
 20
924.0753074700633
 30
0.0
  0
VERTEX
  5
886
  8
1_5_____
  6
CONTINUOUS
 62
     1
 10
1306.030696921051
 20
924.0907866331127
 30
0.0
  0
VERTEX
  5
887
  8
1_5_____
  6
CONTINUOUS
 62
     1
 10
1306.107925405174
 20
924.1068310043033
 30
0.0
  0
VERTEX
  5
888
  8
1_5_____
  6
CONTINUOUS
 62
     1
 10
1306.184992377059
 20
924.1234405836353
 30
0.0
  0
VERTEX
  5
889
  8
1_5_____
  6
CONTINUOUS
 62
     1
 10
1306.261897836705
 20
924.1406153711091
 30
0.0
  0
VERTEX
  5
88A
  8
1_5_____
  6
CONTINUOUS
 62
     1
 10
1306.338641784112
 20
924.1583553667247
 30
0.0
  0
VERTEX
  5
88B
  8
1_5_____
  6
CONTINUOUS
 62
     1
 10
1306.41522421928
 20
924.1766605704815
 30
0.0
  0
VERTEX
  5
88C
  8
1_5_____
  6
CONTINUOUS
 62
     1
 10
1306.491645142209
 20
924.1955309823793
 30
0.0
  0
VERTEX
  5
88D
  8
1_5_____
  6
CONTINUOUS
 62
     1
 10
1306.567904552899
 20
924.2149666024193
 30
0.0
  0
VERTEX
  5
88E
  8
1_5_____
  6
CONTINUOUS
 62
     1
 10
1306.644002451351
 20
924.2349674306006
 30
0.0
  0
VERTEX
  5
88F
  8
1_5_____
  6
CONTINUOUS
 62
     1
 10
1306.719938837563
 20
924.2555334669237
 30
0.0
  0
VERTEX
  5
890
  8
1_5_____
  6
CONTINUOUS
 62
     1
 10
1306.795713711537
 20
924.2766647113876
 30
0.0
  0
VERTEX
  5
891
  8
1_5_____
  6
CONTINUOUS
 62
     1
 10
1306.871327073271
 20
924.2983611639929
 30
0.0
  0
VERTEX
  5
892
  8
1_5_____
  6
CONTINUOUS
 62
     1
 10
1306.946778922767
 20
924.32062282474
 30
0.0
  0
VERTEX
  5
893
  8
1_5_____
  6
CONTINUOUS
 62
     1
 10
1307.022069260024
 20
924.3434496936284
 30
0.0
  0
VERTEX
  5
894
  8
1_5_____
  6
CONTINUOUS
 62
     1
 10
1307.097198085042
 20
924.3668417706581
 30
0.0
  0
VERTEX
  5
895
  8
1_5_____
  6
CONTINUOUS
 62
     1
 10
1307.172165397821
 20
924.3907990558296
 30
0.0
  0
VERTEX
  5
896
  8
1_5_____
  6
CONTINUOUS
 62
     1
 10
1307.246971198361
 20
924.4153215491428
 30
0.0
  0
VERTEX
  5
897
  8
1_5_____
  6
CONTINUOUS
 62
     1
 10
1307.321615486662
 20
924.4404092505979
 30
0.0
  0
VERTEX
  5
898
  8
1_5_____
  6
CONTINUOUS
 62
     1
 10
1307.396098262724
 20
924.4660621601938
 30
0.0
  0
VERTEX
  5
899
  8
1_5_____
  6
CONTINUOUS
 62
     1
 10
1307.470419526548
 20
924.4922802779315
 30
0.0
  0
VERTEX
  5
89A
  8
1_5_____
  6
CONTINUOUS
 62
     1
 10
1307.544579278132
 20
924.5190636038101
 30
0.0
  0
VERTEX
  5
89B
  8
1_5_____
  6
CONTINUOUS
 62
     1
 10
1307.618577517478
 20
924.5464121378304
 30
0.0
  0
VERTEX
  5
89C
  8
1_5_____
  6
CONTINUOUS
 62
     1
 10
1307.692414244584
 20
924.5743258799921
 30
0.0
  0
VERTEX
  5
89D
  8
1_5_____
  6
CONTINUOUS
 62
     1
 10
1307.766089459452
 20
924.6028048302956
 30
0.0
  0
VERTEX
  5
89E
  8
1_5_____
  6
CONTINUOUS
 62
     1
 10
1307.839603162081
 20
924.6318489887403
 30
0.0
  0
VERTEX
  5
89F
  8
1_5_____
  6
CONTINUOUS
 62
     1
 10
1307.912955352471
 20
924.6614583553269
 30
0.0
  0
VERTEX
  5
8A0
  8
1_5_____
  6
CONTINUOUS
 62
     1
 10
1307.986146030622
 20
924.6916329300548
 30
0.0
  0
VERTEX
  5
8A1
  8
1_5_____
  6
CONTINUOUS
 62
     1
 10
1308.059175196534
 20
924.7223727129244
 30
0.0
  0
VERTEX
  5
8A2
  8
1_5_____
  6
CONTINUOUS
 62
     1
 10
1308.132042850207
 20
924.753677703935
 30
0.0
  0
VERTEX
  5
8A3
  8
1_5_____
  6
CONTINUOUS
 62
     1
 10
1308.204748991642
 20
924.7855479030873
 30
0.0
  0
VERTEX
  5
8A4
  8
1_5_____
  6
CONTINUOUS
 62
     1
 10
1308.277293620837
 20
924.8179833103809
 30
0.0
  0
VERTEX
  5
8A5
  8
1_5_____
  6
CONTINUOUS
 62
     1
 10
1308.349676737794
 20
924.8509839258163
 30
0.0
  0
VERTEX
  5
8A6
  8
1_5_____
  6
CONTINUOUS
 62
     1
 10
1308.421898342511
 20
924.884549749393
 30
0.0
  0
VERTEX
  5
8A7
  8
1_5_____
  6
CONTINUOUS
 62
     1
 10
1308.49395843499
 20
924.9186807811116
 30
0.0
  0
VERTEX
  5
8A8
  8
1_5_____
  6
CONTINUOUS
 62
     1
 10
1308.56585701523
 20
924.953377020971
 30
0.0
  0
VERTEX
  5
8A9
  8
1_5_____
  6
CONTINUOUS
 62
     1
 10
1308.637594083231
 20
924.9886384689721
 30
0.0
  0
VERTEX
  5
8AA
  8
1_5_____
  6
CONTINUOUS
 62
     1
 10
1308.709169638993
 20
925.0244651251146
 30
0.0
  0
VERTEX
  5
8AB
  8
1_5_____
  6
CONTINUOUS
 62
     1
 10
1308.709169638993
 20
925.0244651251146
 30
0.0
  0
SEQEND
  5
8AC
  8
1_5_____
  6
CONTINUOUS
 62
     1
  0
POLYLINE
  5
8AD
  8
1_5_____
  6
CONTINUOUS
 62
     1
 66
     1
 10
0.0
 20
0.0
 30
0.0
 70
   128
  0
VERTEX
  5
8AE
  8
1_5_____
  6
CONTINUOUS
 62
     1
 10
1293.986737774657
 20
925.0244651251146
 30
0.0
  0
VERTEX
  5
8AF
  8
1_5_____
  6
CONTINUOUS
 62
     1
 10
1294.01830370884
 20
924.9930780317923
 30
0.0
  0
VERTEX
  5
8B0
  8
1_5_____
  6
CONTINUOUS
 62
     1
 10
1294.050084927214
 20
924.962184981845
 30
0.0
  0
VERTEX
  5
8B1
  8
1_5_____
  6
CONTINUOUS
 62
     1
 10
1294.082081429779
 20
924.9317859752732
 30
0.0
  0
VERTEX
  5
8B2
  8
1_5_____
  6
CONTINUOUS
 62
     1
 10
1294.114293216535
 20
924.9018810120765
 30
0.0
  0
VERTEX
  5
8B3
  8
1_5_____
  6
CONTINUOUS
 62
     1
 10
1294.146720287483
 20
924.8724700922553
 30
0.0
  0
VERTEX
  5
8B4
  8
1_5_____
  6
CONTINUOUS
 62
     1
 10
1294.179362642622
 20
924.8435532158087
 30
0.0
  0
VERTEX
  5
8B5
  8
1_5_____
  6
CONTINUOUS
 62
     1
 10
1294.212220281951
 20
924.8151303827376
 30
0.0
  0
VERTEX
  5
8B6
  8
1_5_____
  6
CONTINUOUS
 62
     1
 10
1294.245293205472
 20
924.787201593042
 30
0.0
  0
VERTEX
  5
8B7
  8
1_5_____
  6
CONTINUOUS
 62
     1
 10
1294.278581413184
 20
924.7597668467215
 30
0.0
  0
VERTEX
  5
8B8
  8
1_5_____
  6
CONTINUOUS
 62
     1
 10
1294.312084905088
 20
924.732826143776
 30
0.0
  0
VERTEX
  5
8B9
  8
1_5_____
  6
CONTINUOUS
 62
     1
 10
1294.345803681182
 20
924.7063794842061
 30
0.0
  0
VERTEX
  5
8BA
  8
1_5_____
  6
CONTINUOUS
 62
     1
 10
1294.379737741468
 20
924.6804268680112
 30
0.0
  0
VERTEX
  5
8BB
  8
1_5_____
  6
CONTINUOUS
 62
     1
 10
1294.413887085944
 20
924.6549682951913
 30
0.0
  0
VERTEX
  5
8BC
  8
1_5_____
  6
CONTINUOUS
 62
     1
 10
1294.448251714613
 20
924.6300037657475
 30
0.0
  0
VERTEX
  5
8BD
  8
1_5_____
  6
CONTINUOUS
 62
     1
 10
1294.482831627472
 20
924.6055332796782
 30
0.0
  0
VERTEX
  5
8BE
  8
1_5_____
  6
CONTINUOUS
 62
     1
 10
1294.517626824522
 20
924.5815568369849
 30
0.0
  0
VERTEX
  5
8BF
  8
1_5_____
  6
CONTINUOUS
 62
     1
 10
1294.552637305763
 20
924.5580744376666
 30
0.0
  0
VERTEX
  5
8C0
  8
1_5_____
  6
CONTINUOUS
 62
     1
 10
1294.587863071196
 20
924.535086081723
 30
0.0
  0
VERTEX
  5
8C1
  8
1_5_____
  6
CONTINUOUS
 62
     1
 10
1294.62330412082
 20
924.5125917691553
 30
0.0
  0
VERTEX
  5
8C2
  8
1_5_____
  6
CONTINUOUS
 62
     1
 10
1294.658960454634
 20
924.4905914999626
 30
0.0
  0
VERTEX
  5
8C3
  8
1_5_____
  6
CONTINUOUS
 62
     1
 10
1294.69483207264
 20
924.4690852741455
 30
0.0
  0
VERTEX
  5
8C4
  8
1_5_____
  6
CONTINUOUS
 62
     1
 10
1294.730918974838
 20
924.448073091703
 30
0.0
  0
VERTEX
  5
8C5
  8
1_5_____
  6
CONTINUOUS
 62
     1
 10
1294.767221161226
 20
924.427554952636
 30
0.0
  0
VERTEX
  5
8C6
  8
1_5_____
  6
CONTINUOUS
 62
     1
 10
1294.803738631805
 20
924.407530856944
 30
0.0
  0
VERTEX
  5
8C7
  8
1_5_____
  6
CONTINUOUS
 62
     1
 10
1294.840471386576
 20
924.3880008046276
 30
0.0
  0
VERTEX
  5
8C8
  8
1_5_____
  6
CONTINUOUS
 62
     1
 10
1294.877419425538
 20
924.3689647956862
 30
0.0
  0
VERTEX
  5
8C9
  8
1_5_____
  6
CONTINUOUS
 62
     1
 10
1294.914582748691
 20
924.3504228301204
 30
0.0
  0
VERTEX
  5
8CA
  8
1_5_____
  6
CONTINUOUS
 62
     1
 10
1294.951961356035
 20
924.3323749079295
 30
0.0
  0
VERTEX
  5
8CB
  8
1_5_____
  6
CONTINUOUS
 62
     1
 10
1294.98955524757
 20
924.3148210291142
 30
0.0
  0
VERTEX
  5
8CC
  8
1_5_____
  6
CONTINUOUS
 62
     1
 10
1295.027364423297
 20
924.2977611936735
 30
0.0
  0
VERTEX
  5
8CD
  8
1_5_____
  6
CONTINUOUS
 62
     1
 10
1295.065388883215
 20
924.2811954016083
 30
0.0
  0
VERTEX
  5
8CE
  8
1_5_____
  6
CONTINUOUS
 62
     1
 10
1295.103628627323
 20
924.2651236529186
 30
0.0
  0
VERTEX
  5
8CF
  8
1_5_____
  6
CONTINUOUS
 62
     1
 10
1295.142083655623
 20
924.2495459476045
 30
0.0
  0
VERTEX
  5
8D0
  8
1_5_____
  6
CONTINUOUS
 62
     1
 10
1295.180753968114
 20
924.2344622856649
 30
0.0
  0
VERTEX
  5
8D1
  8
1_5_____
  6
CONTINUOUS
 62
     1
 10
1295.219639564797
 20
924.2198726671008
 30
0.0
  0
VERTEX
  5
8D2
  8
1_5_____
  6
CONTINUOUS
 62
     1
 10
1295.25874044567
 20
924.2057770919123
 30
0.0
  0
VERTEX
  5
8D3
  8
1_5_____
  6
CONTINUOUS
 62
     1
 10
1295.298056610735
 20
924.1921755600988
 30
0.0
  0
VERTEX
  5
8D4
  8
1_5_____
  6
CONTINUOUS
 62
     1
 10
1295.33758805999
 20
924.1790680716604
 30
0.0
  0
VERTEX
  5
8D5
  8
1_5_____
  6
CONTINUOUS
 62
     1
 10
1295.377334793437
 20
924.1664546265974
 30
0.0
  0
VERTEX
  5
8D6
  8
1_5_____
  6
CONTINUOUS
 62
     1
 10
1295.417296811075
 20
924.1543352249096
 30
0.0
  0
VERTEX
  5
8D7
  8
1_5_____
  6
CONTINUOUS
 62
     1
 10
1295.457474112904
 20
924.1427098665968
 30
0.0
  0
VERTEX
  5
8D8
  8
1_5_____
  6
CONTINUOUS
 62
     1
 10
1295.497866698925
 20
924.1315785516595
 30
0.0
  0
VERTEX
  5
8D9
  8
1_5_____
  6
CONTINUOUS
 62
     1
 10
1295.538474569136
 20
924.1209412800977
 30
0.0
  0
VERTEX
  5
8DA
  8
1_5_____
  6
CONTINUOUS
 62
     1
 10
1295.579297723539
 20
924.1107980519109
 30
0.0
  0
VERTEX
  5
8DB
  8
1_5_____
  6
CONTINUOUS
 62
     1
 10
1295.620336162133
 20
924.1011488670993
 30
0.0
  0
VERTEX
  5
8DC
  8
1_5_____
  6
CONTINUOUS
 62
     1
 10
1295.661589884918
 20
924.0919937256631
 30
0.0
  0
VERTEX
  5
8DD
  8
1_5_____
  6
CONTINUOUS
 62
     1
 10
1295.703058891894
 20
924.083332627602
 30
0.0
  0
VERTEX
  5
8DE
  8
1_5_____
  6
CONTINUOUS
 62
     1
 10
1295.744743183062
 20
924.0751655729159
 30
0.0
  0
VERTEX
  5
8DF
  8
1_5_____
  6
CONTINUOUS
 62
     1
 10
1295.78664275842
 20
924.0674925616054
 30
0.0
  0
VERTEX
  5
8E0
  8
1_5_____
  6
CONTINUOUS
 62
     1
 10
1295.82875761797
 20
924.0603135936699
 30
0.0
  0
VERTEX
  5
8E1
  8
1_5_____
  6
CONTINUOUS
 62
     1
 10
1295.871087761711
 20
924.0536286691099
 30
0.0
  0
VERTEX
  5
8E2
  8
1_5_____
  6
CONTINUOUS
 62
     1
 10
1295.913633189642
 20
924.047437787925
 30
0.0
  0
VERTEX
  5
8E3
  8
1_5_____
  6
CONTINUOUS
 62
     1
 10
1295.956393901766
 20
924.0417409501156
 30
0.0
  0
VERTEX
  5
8E4
  8
1_5_____
  6
CONTINUOUS
 62
     1
 10
1295.99936989808
 20
924.0365381556812
 30
0.0
  0
VERTEX
  5
8E5
  8
1_5_____
  6
CONTINUOUS
 62
     1
 10
1296.042561178585
 20
924.0318294046224
 30
0.0
  0
VERTEX
  5
8E6
  8
1_5_____
  6
CONTINUOUS
 62
     1
 10
1296.085967743282
 20
924.0276146969386
 30
0.0
  0
VERTEX
  5
8E7
  8
1_5_____
  6
CONTINUOUS
 62
     1
 10
1296.12958959217
 20
924.0238940326303
 30
0.0
  0
VERTEX
  5
8E8
  8
1_5_____
  6
CONTINUOUS
 62
     1
 10
1296.173426725249
 20
924.0206674116966
 30
0.0
  0
VERTEX
  5
8E9
  8
1_5_____
  6
CONTINUOUS
 62
     1
 10
1296.217479142519
 20
924.0179348341385
 30
0.0
  0
VERTEX
  5
8EA
  8
1_5_____
  6
CONTINUOUS
 62
     1
 10
1296.26174684398
 20
924.0156962999558
 30
0.0
  0
VERTEX
  5
8EB
  8
1_5_____
  6
CONTINUOUS
 62
     1
 10
1296.306229829632
 20
924.0139518091478
 30
0.0
  0
VERTEX
  5
8EC
  8
1_5_____
  6
CONTINUOUS
 62
     1
 10
1296.350928099476
 20
924.0127013617157
 30
0.0
  0
VERTEX
  5
8ED
  8
1_5_____
  6
CONTINUOUS
 62
     1
 10
1296.395841653511
 20
924.0119449576582
 30
0.0
  0
VERTEX
  5
8EE
  8
1_5_____
  6
CONTINUOUS
 62
     1
 10
1296.440970491737
 20
924.0116825969767
 30
0.0
  0
VERTEX
  5
8EF
  8
1_5_____
  6
CONTINUOUS
 62
     1
 10
1296.486099088716
 20
924.011914759014
 30
0.0
  0
VERTEX
  5
8F0
  8
1_5_____
  6
CONTINUOUS
 62
     1
 10
1296.531011919011
 20
924.0126419231133
 30
0.0
  0
VERTEX
  5
8F1
  8
1_5_____
  6
CONTINUOUS
 62
     1
 10
1296.575708982622
 20
924.0138640892751
 30
0.0
  0
VERTEX
  5
8F2
  8
1_5_____
  6
CONTINUOUS
 62
     1
 10
1296.620190279548
 20
924.015581257499
 30
0.0
  0
VERTEX
  5
8F3
  8
1_5_____
  6
CONTINUOUS
 62
     1
 10
1296.66445580979
 20
924.0177934277858
 30
0.0
  0
VERTEX
  5
8F4
  8
1_5_____
  6
CONTINUOUS
 62
     1
 10
1296.708505573347
 20
924.0205006001347
 30
0.0
  0
VERTEX
  5
8F5
  8
1_5_____
  6
CONTINUOUS
 62
     1
 10
1296.75233957022
 20
924.0237027745461
 30
0.0
  0
VERTEX
  5
8F6
  8
1_5_____
  6
CONTINUOUS
 62
     1
 10
1296.795957800409
 20
924.0273999510196
 30
0.0
  0
VERTEX
  5
8F7
  8
1_5_____
  6
CONTINUOUS
 62
     1
 10
1296.839360263914
 20
924.0315921295555
 30
0.0
  0
VERTEX
  5
8F8
  8
1_5_____
  6
CONTINUOUS
 62
     1
 10
1296.882546960734
 20
924.0362793101544
 30
0.0
  0
VERTEX
  5
8F9
  8
1_5_____
  6
CONTINUOUS
 62
     1
 10
1296.92551789087
 20
924.0414614928154
 30
0.0
  0
VERTEX
  5
8FA
  8
1_5_____
  6
CONTINUOUS
 62
     1
 10
1296.968273054321
 20
924.047138677538
 30
0.0
  0
VERTEX
  5
8FB
  8
1_5_____
  6
CONTINUOUS
 62
     1
 10
1297.010812451088
 20
924.0533108643235
 30
0.0
  0
VERTEX
  5
8FC
  8
1_5_____
  6
CONTINUOUS
 62
     1
 10
1297.053136081171
 20
924.0599780531716
 30
0.0
  0
VERTEX
  5
8FD
  8
1_5_____
  6
CONTINUOUS
 62
     1
 10
1297.09524394457
 20
924.0671402440817
 30
0.0
  0
VERTEX
  5
8FE
  8
1_5_____
  6
CONTINUOUS
 62
     1
 10
1297.137136041284
 20
924.0747974370547
 30
0.0
  0
VERTEX
  5
8FF
  8
1_5_____
  6
CONTINUOUS
 62
     1
 10
1297.178812371314
 20
924.0829496320903
 30
0.0
  0
VERTEX
  5
900
  8
1_5_____
  6
CONTINUOUS
 62
     1
 10
1297.220272934659
 20
924.0915968291879
 30
0.0
  0
VERTEX
  5
901
  8
1_5_____
  6
CONTINUOUS
 62
     1
 10
1297.26151773132
 20
924.1007390283476
 30
0.0
  0
VERTEX
  5
902
  8
1_5_____
  6
CONTINUOUS
 62
     1
 10
1297.302546761297
 20
924.1103762295697
 30
0.0
  0
VERTEX
  5
903
  8
1_5_____
  6
CONTINUOUS
 62
     1
 10
1297.343360024589
 20
924.1205084328544
 30
0.0
  0
VERTEX
  5
904
  8
1_5_____
  6
CONTINUOUS
 62
     1
 10
1297.383957521197
 20
924.1311356382016
 30
0.0
  0
VERTEX
  5
905
  8
1_5_____
  6
CONTINUOUS
 62
     1
 10
1297.424339251121
 20
924.1422578456113
 30
0.0
  0
VERTEX
  5
906
  8
1_5_____
  6
CONTINUOUS
 62
     1
 10
1297.46450521436
 20
924.1538750550831
 30
0.0
  0
VERTEX
  5
907
  8
1_5_____
  6
CONTINUOUS
 62
     1
 10
1297.504455410915
 20
924.1659872666173
 30
0.0
  0
VERTEX
  5
908
  8
1_5_____
  6
CONTINUOUS
 62
     1
 10
1297.544189840786
 20
924.1785944802136
 30
0.0
  0
VERTEX
  5
909
  8
1_5_____
  6
CONTINUOUS
 62
     1
 10
1297.583708503972
 20
924.1916966958729
 30
0.0
  0
VERTEX
  5
90A
  8
1_5_____
  6
CONTINUOUS
 62
     1
 10
1297.623011400474
 20
924.2052939135942
 30
0.0
  0
VERTEX
  5
90B
  8
1_5_____
  6
CONTINUOUS
 62
     1
 10
1297.662098530292
 20
924.2193861333781
 30
0.0
  0
VERTEX
  5
90C
  8
1_5_____
  6
CONTINUOUS
 62
     1
 10
1297.700969893425
 20
924.2339733552244
 30
0.0
  0
VERTEX
  5
90D
  8
1_5_____
  6
CONTINUOUS
 62
     1
 10
1297.739625489874
 20
924.2490555791333
 30
0.0
  0
VERTEX
  5
90E
  8
1_5_____
  6
CONTINUOUS
 62
     1
 10
1297.778065319638
 20
924.2646328051037
 30
0.0
  0
VERTEX
  5
90F
  8
1_5_____
  6
CONTINUOUS
 62
     1
 10
1297.816289382719
 20
924.2807050331371
 30
0.0
  0
VERTEX
  5
910
  8
1_5_____
  6
CONTINUOUS
 62
     1
 10
1297.854297679115
 20
924.2972722632326
 30
0.0
  0
VERTEX
  5
911
  8
1_5_____
  6
CONTINUOUS
 62
     1
 10
1297.892090208826
 20
924.314334495391
 30
0.0
  0
VERTEX
  5
912
  8
1_5_____
  6
CONTINUOUS
 62
     1
 10
1297.929666971853
 20
924.3318917296115
 30
0.0
  0
VERTEX
  5
913
  8
1_5_____
  6
CONTINUOUS
 62
     1
 10
1297.967027968196
 20
924.3499439658949
 30
0.0
  0
VERTEX
  5
914
  8
1_5_____
  6
CONTINUOUS
 62
     1
 10
1298.004173197854
 20
924.36849120424
 30
0.0
  0
VERTEX
  5
915
  8
1_5_____
  6
CONTINUOUS
 62
     1
 10
1298.041102660829
 20
924.3875334446475
 30
0.0
  0
VERTEX
  5
916
  8
1_5_____
  6
CONTINUOUS
 62
     1
 10
1298.077816357119
 20
924.4070706871175
 30
0.0
  0
VERTEX
  5
917
  8
1_5_____
  6
CONTINUOUS
 62
     1
 10
1298.114314286724
 20
924.4271029316501
 30
0.0
  0
VERTEX
  5
918
  8
1_5_____
  6
CONTINUOUS
 62
     1
 10
1298.150596449645
 20
924.4476301782447
 30
0.0
  0
VERTEX
  5
919
  8
1_5_____
  6
CONTINUOUS
 62
     1
 10
1298.186662845882
 20
924.4686524269023
 30
0.0
  0
VERTEX
  5
91A
  8
1_5_____
  6
CONTINUOUS
 62
     1
 10
1298.222513475434
 20
924.4901696776215
 30
0.0
  0
VERTEX
  5
91B
  8
1_5_____
  6
CONTINUOUS
 62
     1
 10
1298.258148338302
 20
924.5121819304031
 30
0.0
  0
VERTEX
  5
91C
  8
1_5_____
  6
CONTINUOUS
 62
     1
 10
1298.293567434486
 20
924.5346891852478
 30
0.0
  0
VERTEX
  5
91D
  8
1_5_____
  6
CONTINUOUS
 62
     1
 10
1298.328770763985
 20
924.5576914421549
 30
0.0
  0
VERTEX
  5
91E
  8
1_5_____
  6
CONTINUOUS
 62
     1
 10
1298.363758326801
 20
924.5811887011237
 30
0.0
  0
VERTEX
  5
91F
  8
1_5_____
  6
CONTINUOUS
 62
     1
 10
1298.398530122931
 20
924.6051809621554
 30
0.0
  0
VERTEX
  5
920
  8
1_5_____
  6
CONTINUOUS
 62
     1
 10
1298.433086152377
 20
924.6296682252491
 30
0.0
  0
VERTEX
  5
921
  8
1_5_____
  6
CONTINUOUS
 62
     1
 10
1298.467426415139
 20
924.6546504904054
 30
0.0
  0
VERTEX
  5
922
  8
1_5_____
  6
CONTINUOUS
 62
     1
 10
1298.501550911217
 20
924.6801277576242
 30
0.0
  0
VERTEX
  5
923
  8
1_5_____
  6
CONTINUOUS
 62
     1
 10
1298.53545964061
 20
924.7061000269055
 30
0.0
  0
VERTEX
  5
924
  8
1_5_____
  6
CONTINUOUS
 62
     1
 10
1298.569152603319
 20
924.7325672982488
 30
0.0
  0
VERTEX
  5
925
  8
1_5_____
  6
CONTINUOUS
 62
     1
 10
1298.602629799344
 20
924.7595295716546
 30
0.0
  0
VERTEX
  5
926
  8
1_5_____
  6
CONTINUOUS
 62
     1
 10
1298.635891228684
 20
924.786986847123
 30
0.0
  0
VERTEX
  5
927
  8
1_5_____
  6
CONTINUOUS
 62
     1
 10
1298.66893689134
 20
924.8149391246538
 30
0.0
  0
VERTEX
  5
928
  8
1_5_____
  6
CONTINUOUS
 62
     1
 10
1298.701766787312
 20
924.8433864042468
 30
0.0
  0
VERTEX
  5
929
  8
1_5_____
  6
CONTINUOUS
 62
     1
 10
1298.734380916599
 20
924.8723286859017
 30
0.0
  0
VERTEX
  5
92A
  8
1_5_____
  6
CONTINUOUS
 62
     1
 10
1298.766779279202
 20
924.9017659696196
 30
0.0
  0
VERTEX
  5
92B
  8
1_5_____
  6
CONTINUOUS
 62
     1
 10
1298.798961875121
 20
924.9316982554001
 30
0.0
  0
VERTEX
  5
92C
  8
1_5_____
  6
CONTINUOUS
 62
     1
 10
1298.830928704355
 20
924.9621255432426
 30
0.0
  0
VERTEX
  5
92D
  8
1_5_____
  6
CONTINUOUS
 62
     1
 10
1298.862679766904
 20
924.9930478331476
 30
0.0
  0
VERTEX
  5
92E
  8
1_5_____
  6
CONTINUOUS
 62
     1
 10
1298.89421506277
 20
925.0244651251146
 30
0.0
  0
VERTEX
  5
92F
  8
1_5_____
  6
CONTINUOUS
 62
     1
 10
1298.89421506277
 20
925.0244651251146
 30
0.0
  0
SEQEND
  5
930
  8
1_5_____
  6
CONTINUOUS
 62
     1
  0
LINE
  5
931
  8
1_5_____
  6
CONTINUOUS
 62
     1
 10
1313.616648512686
 20
925.0244652343122
 30
0.0
 11
1313.616648512686
 21
930.0244652343122
 31
0.0
  0
LINE
  5
932
  8
1_5_____
  6
CONTINUOUS
 62
     1
 10
1308.709168512687
 20
925.0244652343122
 30
0.0
 11
1308.709168512687
 21
930.0244652343122
 31
0.0
  0
LINE
  5
933
  8
1_5_____
  6
CONTINUOUS
 62
     1
 10
1293.986738512687
 20
925.0244652343122
 30
0.0
 11
1293.986738512687
 21
930.0244652343122
 31
0.0
  0
LINE
  5
934
  8
1_5_____
  6
CONTINUOUS
 62
     1
 10
1298.894213512687
 20
925.0244652343122
 30
0.0
 11
1298.894213512687
 21
930.0244652343122
 31
0.0
  0
LINE
  5
935
  8
1_5_____
  6
CONTINUOUS
 62
     1
 10
1295.486738512687
 20
931.5244652343122
 30
0.0
 11
1293.986738512687
 21
930.0244652343122
 31
0.0
  0
LINE
  5
936
  8
1_5_____
  6
CONTINUOUS
 62
     1
 10
1313.616648512686
 20
930.0244652343122
 30
0.0
 11
1312.116648512687
 21
931.5244652343122
 31
0.0
  0
LINE
  5
937
  8
1_5_____
  6
CONTINUOUS
 62
     1
 10
1312.116648512687
 20
931.5244652343122
 30
0.0
 11
1295.486738512687
 21
931.5244652343122
 31
0.0
  0
LINE
  5
938
  8
1_5_____
  6
CONTINUOUS
 62
     1
 10
1312.116648512687
 20
923.5244652343122
 30
0.0
 11
1313.616648512686
 21
925.0244652343122
 31
0.0
  0
LINE
  5
939
  8
1_5_____
  6
CONTINUOUS
 62
     1
 10
1293.986738512687
 20
925.0244652343122
 30
0.0
 11
1295.486738512687
 21
923.5244652343122
 31
0.0
  0
LINE
  5
93A
  8
1_5_____
  6
CONTINUOUS
 62
     1
 10
1312.116648512687
 20
923.5244652343122
 30
0.0
 11
1295.486738512687
 21
923.5244652343122
 31
0.0
  0
POLYLINE
  5
93B
  8
1_5_____
  6
CONTINUOUS
 62
     5
 66
     1
 10
0.0
 20
0.0
 30
0.0
 70
   128
  0
VERTEX
  5
93C
  8
1_5_____
  6
CONTINUOUS
 62
     5
 10
1302.609478512686
 20
995.5838602343306
 30
0.0
  0
VERTEX
  5
93D
  8
1_5_____
  6
CONTINUOUS
 62
     5
 10
1291.600774312653
 20
1014.651495234286
 30
0.0
  0
VERTEX
  5
93E
  8
1_5_____
  6
CONTINUOUS
 62
     5
 10
1260.086828512687
 20
1014.651495234286
 30
0.0
  0
SEQEND
  5
93F
  8
1_5_____
  6
CONTINUOUS
 62
     5
  0
TEXT
  5
940
  8
1_5_____
 62
     1
 10
1260.086828512687
 20
1020.518766058613
 30
0.0
 40
9.292570891203704
  1
Ｍ10
  7
YUGOTHIC_MEDIUM
 11
1260.086828512687
 21
1025.165051504215
 31
0.0
 73
     2
  0
CIRCLE
  5
941
  8
1_5_____
  6
CONTINUOUS
 62
     1
 10
1081.025083512686
 20
990.5773952343466
 30
0.0
 40
14.99999999999999
  0
CIRCLE
  5
942
  8
1_5_____
  6
CONTINUOUS
 62
     1
 10
1081.025083512686
 20
990.5773952343466
 30
0.0
 40
5.500000000000902
  0
LINE
  5
943
  8
1_5_____
  6
CONTINUOUS
 62
     1
 10
1066.025083512686
 20
912.8737802343117
 30
0.0
 11
1066.025083512686
 21
911.8737802343117
 31
0.0
  0
LINE
  5
944
  8
1_5_____
  6
CONTINUOUS
 62
     1
 10
1096.025083512686
 20
912.8737802343117
 30
0.0
 11
1096.025083512686
 21
911.8737802343117
 31
0.0
  0
LINE
  5
945
  8
1_5_____
  6
CONTINUOUS
 62
     1
 10
1096.025083512686
 20
983.0773952343466
 30
0.0
 11
1096.025083512686
 21
949.6812002343381
 31
0.0
  0
LINE
  5
946
  8
1_5_____
  6
CONTINUOUS
 62
     1
 10
1066.025083512686
 20
983.0773952343466
 30
0.0
 11
1066.025083512686
 21
949.6812002343381
 31
0.0
  0
LINE
  5
947
  8
1_5_____
  6
CONTINUOUS
 62
     1
 10
1075.525083512686
 20
998.0773952343466
 30
0.0
 11
1075.525083512686
 21
1021.49310023431
 31
0.0
  0
LINE
  5
948
  8
1_5_____
  6
CONTINUOUS
 62
     1
 10
1086.525083512687
 20
998.0773952343466
 30
0.0
 11
1086.525083512687
 21
1021.49310023431
 31
0.0
  0
TEXT
  5
949
  8
1_5_____
 62
     1
 10
830.9851685126861
 20
1059.845860429797
 30
0.0
 40
10.62008101851852
  1
スペーサー（×2）
  7
YUGOTHIC_MEDIUM
 11
830.9851685126861
 21
1070.465941448315
 31
0.0
 73
     3
  0
LINE
  5
94A
  8
1_5_____
  6
CONTINUOUS
 62
     1
 10
1066.025083512686
 20
912.8737802343117
 30
0.0
 11
1096.025083512686
 21
912.8737802343117
 31
0.0
  0
TEXT
  5
94B
  8
1_5_____
 62
     1
 10
689.0321358891064
 20
1383.688333333334
 30
0.0
 40
15.93012152777778
  1
付属品
  7
YUGOTHIC_MEDIUM
 11
689.0321358891064
 21
1399.618454861112
 31
0.0
 73
     3
  0
DIMENSION
  5
94C
  8
1_5_____
  6
CONTINUOUS
 62
    17
  2
*D6
 10
1348.07583517954
 20
999.228080234318
 30
0.0
 11
1348.07583517954
 21
929.4970447799797
 31
0.0
 70
   160
  3
TOOLBOX
 13
1308.709168512687
 23
982.2280802343471
 33
0.0
 14
1308.709168512687
 24
999.228080234318
 34
0.0
 50
-90.0
  0
DIMENSION
  5
94D
  8
1_5_____
  6
CONTINUOUS
 62
    17
  2
*D7
 10
1245.486738512687
 20
931.5244652343122
 30
0.0
 11
1240.126698003614
 21
927.5244652343122
 31
0.0
 70
    32
  3
TOOLBOX
 13
1295.486738512687
 23
923.5244652343122
 33
0.0
 14
1295.486738512687
 24
931.5244652343122
 34
0.0
 50
-90.0
  0
DIMENSION
  5
94E
  8
1_5_____
  6
CONTINUOUS
 62
    17
  2
*D8
 10
1075.525083512685
 20
1015.577395234347
 30
0.0
 11
1081.025083512686
 21
1020.93743574342
 31
0.0
 70
    32
  3
TOOLBOX
 13
1086.525083512687
 23
990.5773952343466
 33
0.0
 14
1075.525083512685
 24
990.5773952343466
 34
0.0
  0
DIMENSION
  5
951
  8
1_5_____
  6
CONTINUOUS
 62
    17
  2
*D9
 10
1066.025083512686
 20
940.5773952343466
 30
0.0
 11
1081.025083512686
 21
945.9374357434195
 31
0.0
 70
    32
  3
TOOLBOX
 13
1096.025083512686
 23
990.5773952343466
 33
0.0
 14
1066.025083512686
 24
990.5773952343466
 34
0.0
  0
DIMENSION
  5
952
  8
1_5_____
  6
CONTINUOUS
 62
    17
  2
*D10
 10
1016.025083512686
 20
912.8737802343117
 30
0.0
 11
1010.665043003613
 21
912.3737802343117
 31
0.0
 70
    32
  3
TOOLBOX
 13
1066.025083512686
 23
911.8737802343117
 33
0.0
 14
1066.025083512686
 24
912.8737802343117
 34
0.0
 50
-90.0
  0
DIMENSION
  5
955
  8
1_5_____
  6
CONTINUOUS
 62
    17
  2
*D11
 10
861.6125385126871
 20
936.6357752343197
 30
0.0
 11
879.6125385126871
 21
941.9958157433927
 31
0.0
 70
    32
  3
TOOLBOX
 13
897.6125385126871
 23
986.6357752343197
 33
0.0
 14
861.6125385126871
 24
986.6357752343197
 34
0.0
  0
DIMENSION
  5
956
  8
1_5_____
  6
CONTINUOUS
 62
    17
  2
*D12
 10
822.6125385126871
 20
923.4321602343139
 30
0.0
 11
817.2524980036142
 21
915.6821602343284
 31
0.0
 70
    32
  3
TOOLBOX
 13
867.1125385126871
 23
907.932160234343
 33
0.0
 14
872.6125385126871
 24
923.4321602343139
 34
0.0
 50
-90.0
  0
DIMENSION
  5
959
  8
1_5_____
  6
CONTINUOUS
 62
    17
  2
*D13
 10
860.6194035126865
 20
1098.201350234364
 30
0.0
 11
865.119403512687
 21
1103.561390743437
 31
0.0
 70
    32
  3
TOOLBOX
 13
869.6194035126874
 23
1151.477085234309
 33
0.0
 14
860.6194035126865
 24
1148.201350234364
 34
0.0
  0
POINT
  5
95A
  8
1_5_____
  6
CONTINUOUS
 62
     2
 10
857.6194035126874
 20
1140.975200234303
 30
0.0
  0
DIMENSION
  5
95B
  8
1_5_____
  6
CONTINUOUS
 62
    17
  2
*D14
 10
810.9314035126864
 20
1280.975200234303
 30
0.0
 11
805.5713630036133
 21
1210.975200234303
 31
0.0
 70
    32
  3
TOOLBOX
 13
857.6194035126874
 23
1140.975200234303
 33
0.0
 14
860.9314035126864
 24
1280.975200234303
 34
0.0
 50
-90.0
  0
DIMENSION
  5
95C
  8
1_5_____
  6
CONTINUOUS
 62
    17
  2
*D15
 10
861.1194035126865
 20
1206.0
 30
0.0
 11
969.2222209605906
 21
1206.0
 31
0.0
 70
   160
  3
TOOLBOX
 13
869.1194035126865
 23
1206.0
 33
0.0
 14
861.1194035126865
 24
1206.0
 34
0.0
  0
POLYLINE
  5
95D
  8
1_5_____
  6
CONTINUOUS
 62
     5
 66
     1
 10
0.0
 20
0.0
 30
0.0
 70
   128
  0
VERTEX
  5
95E
  8
1_5_____
  6
CONTINUOUS
 62
     5
 10
870.1194035126874
 20
1267.116200234321
 30
0.0
  0
VERTEX
  5
95F
  8
1_5_____
  6
CONTINUOUS
 62
     5
 10
881.1281077127203
 20
1286.183835234277
 30
0.0
  0
VERTEX
  5
960
  8
1_5_____
  6
CONTINUOUS
 62
     5
 10
929.0
 20
1286.183835234277
 30
0.0
  0
SEQEND
  5
961
  8
1_5_____
  6
CONTINUOUS
 62
     5
  0
TEXT
  5
962
  8
1_5_____
 62
     1
 10
902.9473603036669
 20
1287.711160899786
 30
0.0
 40
9.292570891203704
  1
Ｍ10
  7
YUGOTHIC_MEDIUM
 11
902.9473603036669
 21
1292.357446345388
 31
0.0
 73
     2
  0
DIMENSION
  5
963
  8
1_5__
  6
CONTINUOUS
 62
    17
  2
*D16
 10
-292.2341030830582
 20
529.6163695960227
 30
0.0
 11
-297.5941435921312
 21
439.6163695960227
 31
0.0
 70
    32
  3
TOOLBOX
 13
-191.7888493330579
 23
349.6163695960227
 33
0.0
 14
-191.7888493330579
 24
529.6163695960227
 34
0.0
 50
-90.0
  0
DIMENSION
  5
964
  8
1_5__
  6
CONTINUOUS
 62
    17
  2
*D17
 10
-292.2341030830582
 20
1192.739564596074
 30
0.0
 11
-297.5941435921312
 21
962.7395645960737
 31
0.0
 70
    32
  3
TOOLBOX
 13
-155.8070980830578
 23
732.7395645960737
 33
0.0
 14
-155.8070980830578
 24
1192.739564596074
 34
0.0
 50
-90.0
  0
DIMENSION
  5
965
  8
1_5__
  6
CONTINUOUS
 62
    17
  2
*D18
 10
-235.5537630830574
 20
1057.739564596074
 30
0.0
 11
-240.9138035921304
 21
902.7395645960737
 31
0.0
 70
    32
  3
TOOLBOX
 13
-115.8070980830578
 23
747.7395645960737
 33
0.0
 14
-115.8070980830578
 24
1057.739564596074
 34
0.0
 50
-90.0
  0
DIMENSION
  5
966
  8
1_5__
  6
CONTINUOUS
 62
    17
  2
*D19
 10
116.1929019169422
 20
898.3728979292209
 30
0.0
 11
84.79388875431493
 21
898.3728979292209
 31
0.0
 70
   160
  3
TOOLBOX
 13
162.1929019169422
 23
962.7395645960737
 33
0.0
 14
116.1929019169422
 24
962.7395645960737
 34
0.0
  0
DIMENSION
  5
967
  8
1_5__
  6
CONTINUOUS
 62
    17
  2
*D20
 10
584.1929019169422
 20
1192.739564596074
 30
0.0
 11
578.8328614078691
 21
1077.739564596074
 31
0.0
 70
    32
  3
TOOLBOX
 13
206.6929019169422
 23
962.7395645960737
 33
0.0
 14
434.1929019169422
 24
1192.739564596074
 34
0.0
 50
-90.0
  0
DIMENSION
  5
968
  8
1_5__
  6
CONTINUOUS
 62
    17
  2
*D21
 10
121.6929019169422
 20
1077.975343088137
 30
0.0
 11
86.89767520439693
 21
1077.975343088137
 31
0.0
 70
   160
  3
TOOLBOX
 13
156.6929019169422
 23
1124.739564595986
 33
0.0
 14
121.6929019169422
 24
1124.739564595986
 34
0.0
  0
DIMENSION
  5
969
  8
1_5__
  6
CONTINUOUS
 62
    17
  2
*D22
 10
-145.8070980830578
 20
1264.0
 30
0.0
 11
139.1929019169422
 21
1269.360040509073
 31
0.0
 70
    32
  3
TOOLBOX
 13
424.1929019169422
 23
1027.739564596074
 33
0.0
 14
-145.8070980830578
 24
1027.739564596074
 34
0.0
  0
DIMENSION
  5
96A
  8
1_5__
  6
CONTINUOUS
 62
    17
  2
*D23
 10
-160.8070980830578
 20
1350.239564596074
 30
0.0
 11
139.1929019169422
 21
1355.599605105147
 31
0.0
 70
    32
  3
TOOLBOX
 13
439.1929019169422
 23
1187.739564596074
 33
0.0
 14
-160.8070980830578
 24
1187.739564596074
 34
0.0
  0
DIMENSION
  5
96B
  8
1_5__
  6
CONTINUOUS
 62
    17
  2
*D24
 10
534.1929019169422
 20
1192.739564596074
 30
0.0
 11
528.8328614078691
 21
1158.73956459603
 31
0.0
 70
    32
  3
TOOLBOX
 13
176.6929019169422
 23
1124.739564595986
 33
0.0
 14
434.1929019169422
 24
1192.739564596074
 34
0.0
 50
-90.0
  0
DIMENSION
  5
96C
  8
1_5__
  6
CONTINUOUS
 62
    17
  2
*D25
 10
705.0864719169422
 20
529.6163695960227
 30
0.0
 11
699.7264314078692
 21
464.6163695960227
 31
0.0
 70
    32
  3
TOOLBOX
 13
805.0864719169422
 23
399.6163695960227
 33
0.0
 14
805.0864719169422
 24
529.6163695960227
 34
0.0
 50
-90.0
  0
DIMENSION
  5
96D
  8
1_5__
  6
CONTINUOUS
 62
    17
  2
*D26
 10
536.6929019169422
 20
529.6163695960227
 30
0.0
 11
531.3328614078692
 21
497.1163695960227
 31
0.0
 70
    32
  3
TOOLBOX
 13
436.6929019169422
 23
464.6163695960227
 33
0.0
 14
436.6929019169422
 24
529.6163695960227
 34
0.0
 50
-90.0
  0
DIMENSION
  5
96E
  8
1_5__
  6
CONTINUOUS
 62
    17
  2
*D27
 10
-0.807098083057781
 20
594.6163695960227
 30
0.0
 11
139.1929019169422
 21
599.9764101050956
 31
0.0
 70
    32
  3
TOOLBOX
 13
279.1929019169422
 23
494.6163695960227
 33
0.0
 14
-0.807098083057781
 24
494.6163695960227
 34
0.0
  0
TEXT
  5
96F
  8
1_5__-1
 62
     1
 10
-501.7643438888883
 20
168.9226029100494
 30
0.0
 40
10.62008101851852
  1
※1　（　）内寸法は参考寸法である。 
  7
YUGOTHIC_MEDIUM
 11
-501.7643438888883
 21
165.8882940476155
 31
0.0
 73
     1
  0
TEXT
  5
970
  8
1_5__-1
 62
     1
 10
-501.7643438888883
 20
147.7559362433827
 30
0.0
 40
10.62008101851852
  1
※２　容量8L・質量17ｋｇ 
  7
YUGOTHIC_MEDIUM
 11
-501.7643438888883
 21
144.7216273809488
 31
0.0
 73
     1
  0
TEXT
  5
971
  8
1_5__-1
 62
     1
 10
-501.7643438888883
 20
126.5892695767161
 30
0.0
 40
10.62008101851852
  1
※３　壁掛専用 
  7
YUGOTHIC_MEDIUM
 11
-501.7643438888883
 21
123.5549607142823
 31
0.0
 73
     1
  0
TEXT
  5
972
  8
1_5__-1
 62
     1
 10
-501.7643438888883
 20
105.4226029100494
 30
0.0
 40
10.62008101851852
  1
※４　製品取付下地は、製品の使用に十分耐えられるような構造、材質を準備してください。
  7
YUGOTHIC_MEDIUM
 11
-501.7643438888883
 21
102.3882940476155
 31
0.0
 73
     1
  0
POLYLINE
  5
973
  8
1_5__-1
  6
CONTINUOUS
 62
    17
 66
     1
 10
0.0
 20
0.0
 30
0.0
 70
   129
  0
VERTEX
  5
974
  8
1_5__-1
  6
CONTINUOUS
 62
    17
 10
677.3000000000002
 20
1412.315000000001
 30
0.0
  0
VERTEX
  5
975
  8
1_5__-1
  6
CONTINUOUS
 62
    17
 10
1477.3
 20
1412.315000000001
 30
0.0
  0
VERTEX
  5
976
  8
1_5__-1
  6
CONTINUOUS
 62
    17
 10
1477.3
 20
812.3150000000005
 30
0.0
  0
VERTEX
  5
977
  8
1_5__-1
  6
CONTINUOUS
 62
    17
 10
677.3000000000002
 20
812.3150000000005
 30
0.0
  0
SEQEND
  5
978
  8
1_5__-1
  6
CONTINUOUS
 62
    17
  0
VIEWPORT
  5
979
 67
     1
  8
0
 10
128.5
 20
97.5
 30
0.0
 40
314.226
 41
222.18
 68
     1
 69
     1
1001
ACAD
1000
MVIEW
1002
{
1070
    16
1010
0.0
1020
0.0
1030
0.0
1010
0.0
1020
0.0
1030
1.0
1040
0.0
1040
222.18
1040
128.5
1040
97.5
1040
50.0
1040
0.0
1040
0.0
1070
     0
1070
   100
1070
     0
1070
     3
1070
     0
1070
     0
1070
     0
1070
     0
1040
0.0
1040
0.0
1040
0.0
1040
10.0
1040
10.0
1040
10.0
1040
10.0
1070
     0
1002
{
1002
}
1002
}
  0
ENDSEC
  0
EOF
