  0
SECTION
  2
HEADER
  9
$ACADVER
  1
AC1009
  9
$DWGCODEPAGE
  3
dos932
  9
$INSBASE
 10
0.0
 20
0.0
 30
0.0
  9
$EXTMIN
 10
-502.5242720359897
 20
68.06079193728237
 30
0.0
  9
$EXTMAX
 10
1555.722394630678
 20
5650.7875
 30
0.0
  9
$LIMMIN
 10
0.0
 20
0.0
  9
$LIMMAX
 10
12.0
 20
9.0
  9
$ORTHOMODE
 70
     0
  9
$REGENMODE
 70
     1
  9
$FILLMODE
 70
     1
  9
$QTEXTMODE
 70
     0
  9
$MIRRTEXT
 70
     1
  9
$DRAGMODE
 70
     2
  9
$LTSCALE
 40
5.0
  9
$OSMODE
 70
    37
  9
$ATTMODE
 70
     1
  9
$TEXTSIZE
 40
0.2
  9
$TRACEWID
 40
1.0
  9
$TEXTSTYLE
  7
STANDARD
  9
$CLAYER
  8
_
  9
$CELTYPE
  6
BYLAYER
  9
$CECOLOR
 62
   256
  9
$DIMSCALE
 40
1.0
  9
$DIMASZ
 40
2.2479248046875
  9
$DIMEXO
 40
7.499999972060323
  9
$DIMDLI
 40
30.00000000651926
  9
$DIMRND
 40
0.0
  9
$DIMDLE
 40
0.0
  9
$DIMEXE
 40
0.0
  9
$DIMTP
 40
0.0
  9
$DIMTM
 40
0.0
  9
$DIMTXT
 40
10.62008101851851
  9
$DIMCEN
 40
0.0
  9
$DIMTSZ
 40
0.0
  9
$DIMTOL
 70
     0
  9
$DIMLIM
 70
     0
  9
$DIMTIH
 70
     0
  9
$DIMTOH
 70
     0
  9
$DIMSE1
 70
     0
  9
$DIMSE2
 70
     0
  9
$DIMTAD
 70
     1
  9
$DIMZIN
 70
     8
  9
$DIMBLK
  1
DOT
  9
$DIMASO
 70
     1
  9
$DIMSHO
 70
     1
  9
$DIMPOST
  1
<>
  9
$DIMAPOST
  1
[]
  9
$DIMALT
 70
     0
  9
$DIMALTD
 70
     0
  9
$DIMALTF
 40
1.0
  9
$DIMLFAC
 40
1.0
  9
$DIMTOFL
 70
     1
  9
$DIMTVP
 40
0.0
  9
$DIMTIX
 70
     1
  9
$DIMSOXD
 70
     0
  9
$DIMSAH
 70
     0
  9
$DIMBLK1
  1
DOT
  9
$DIMBLK2
  1
DOT
  9
$DIMSTYLE
  2
TOOLBOX
  9
$DIMCLRD
 70
     0
  9
$DIMCLRE
 70
     0
  9
$DIMCLRT
 70
     0
  9
$DIMTFAC
 40
0.8
  9
$DIMGAP
 40
0.0499999998137355
  9
$LUNITS
 70
     2
  9
$LUPREC
 70
     2
  9
$SKETCHINC
 40
0.1
  9
$FILLETRAD
 40
0.5
  9
$AUNITS
 70
     0
  9
$AUPREC
 70
     2
  9
$MENU
  1
.
  9
$ELEVATION
 40
0.0
  9
$PELEVATION
 40
0.0
  9
$THICKNESS
 40
0.0
  9
$LIMCHECK
 70
     0
  9
$CHAMFERA
 40
0.0
  9
$CHAMFERB
 40
0.0
  9
$SKPOLY
 70
     0
  9
$TDCREATE
 40
2458916.941062928
  9
$TDUPDATE
 40
2458916.941077905
  9
$TDINDWG
 40
0.0000000116
  9
$TDUSRTIMER
 40
0.0000000116
  9
$USRTIMER
 70
     1
  9
$ANGBASE
 50
0.0
  9
$ANGDIR
 70
     0
  9
$PDMODE
 70
     1
  9
$PDSIZE
 40
-2.0
  9
$PLINEWID
 40
0.0
  9
$COORDS
 70
     1
  9
$SPLFRAME
 70
     0
  9
$SPLINETYPE
 70
     6
  9
$SPLINESEGS
 70
     8
  9
$ATTDIA
 70
     0
  9
$ATTREQ
 70
     1
  9
$HANDLING
 70
     1
  9
$HANDSEED
  5
8DA
  9
$SURFTAB1
 70
     6
  9
$SURFTAB2
 70
     6
  9
$SURFTYPE
 70
     6
  9
$SURFU
 70
     6
  9
$SURFV
 70
     6
  9
$UCSNAME
  2

  9
$UCSORG
 10
0.0
 20
0.0
 30
0.0
  9
$UCSXDIR
 10
1.0
 20
0.0
 30
0.0
  9
$UCSYDIR
 10
0.0
 20
1.0
 30
0.0
  9
$PUCSNAME
  2

  9
$PUCSORG
 10
0.0
 20
0.0
 30
0.0
  9
$PUCSXDIR
 10
1.0
 20
0.0
 30
0.0
  9
$PUCSYDIR
 10
0.0
 20
1.0
 30
0.0
  9
$USERI1
 70
     0
  9
$USERI2
 70
     0
  9
$USERI3
 70
     0
  9
$USERI4
 70
     0
  9
$USERI5
 70
     0
  9
$USERR1
 40
0.0
  9
$USERR2
 40
0.0
  9
$USERR3
 40
0.0
  9
$USERR4
 40
0.0
  9
$USERR5
 40
0.0
  9
$WORLDVIEW
 70
     1
  9
$SHADEDGE
 70
     3
  9
$SHADEDIF
 70
    70
  9
$TILEMODE
 70
     1
  9
$MAXACTVP
 70
    64
  9
$PLIMCHECK
 70
     0
  9
$PEXTMIN
 10
1.000000000000000E+20
 20
1.000000000000000E+20
 30
1.000000000000000E+20
  9
$PEXTMAX
 10
-1.000000000000000E+20
 20
-1.000000000000000E+20
 30
-1.000000000000000E+20
  9
$PLIMMIN
 10
-20.0
 20
-7.5
  9
$PLIMMAX
 10
277.0
 20
202.5
  9
$UNITMODE
 70
     0
  9
$VISRETAIN
 70
     1
  9
$PLINEGEN
 70
     0
  9
$PSLTSCALE
 70
     1
  0
ENDSEC
  0
SECTION
  2
TABLES
  0
TABLE
  2
VPORT
 70
     1
  0
VPORT
  2
*ACTIVE
 70
     0
 10
0.0
 20
0.0
 11
1.0
 21
1.0
 12
526.5990612973442
 22
2859.424145968641
 13
0.0
 23
0.0
 14
0.5
 24
0.5
 15
0.5
 25
0.5
 16
0.0
 26
0.0
 36
1.0
 17
0.0
 27
0.0
 37
0.0
 40
5582.726708062718
 41
0.3686812509905052
 42
2000.0
 43
0.0
 44
0.0
 50
0.0
 51
0.0
 71
     0
 72
   100
 73
     1
 74
     3
 75
     0
 76
     0
 77
     0
 78
     0
  0
ENDTAB
  0
TABLE
  2
LTYPE
 70
    18
  0
LTYPE
  2
CONTINUOUS
 70
     0
  3
Solid line
 72
    65
 73
     0
 40
0.0
  0
LTYPE
  2
000
 70
     0
  3

 72
    65
 73
     4
 40
10.16
 49
6.35
 49
-1.27
 49
1.27
 49
-1.27
  0
LTYPE
  2
CENTER-5
 70
     0
  3

 72
    65
 73
     4
 40
10.16
 49
6.35
 49
-1.27
 49
1.27
 49
-1.27
  0
LTYPE
  2
DASHED-5
 70
     0
  3

 72
    65
 73
     2
 40
3.81
 49
2.54
 49
-1.27
  0
LTYPE
  2
ISO-10______
 70
     0
  3

 72
    65
 73
     4
 40
4.699
 49
3.048
 49
-0.7619999999999999
 49
0.1270000000000001
 49
-0.7619999999999999
  0
LTYPE
  2
ISO-02___
 70
     0
  3

 72
    65
 73
     2
 40
3.81
 49
3.048
 49
-0.7619999999999999
  0
LTYPE
  2
ISO-07___
 70
     0
  3

 72
    65
 73
     2
 40
0.8889999999999999
 49
0.127
 49
-0.7619999999999998
  0
LTYPE
  2
ISO-04______
 70
     0
  3

 72
    65
 73
     4
 40
7.747000000000001
 49
6.095999999999999
 49
-0.7620000000000007
 49
0.1270000000000001
 49
-0.7620000000000007
  0
LTYPE
  2
DASHED
 70
     0
  3

 72
    65
 73
     2
 40
39.99999999999999
 49
24.0
 49
-16.0
  0
LTYPE
  2
1
 70
     0
  3

 72
    65
 73
     2
 40
101.60254
 49
101.6
 49
-0.0025399999999941
  0
LTYPE
  2
______-8
 70
     0
  3

 72
    65
 73
     2
 40
11.43
 49
7.619999999999999
 49
-3.809999999999999
  0
LTYPE
  2
______-7
 70
     0
  3

 72
    65
 73
     4
 40
34.28999999999999
 49
22.86
 49
-3.809999999999997
 49
3.809999999999997
 49
-3.809999999999997
  0
LTYPE
  2
______-6
 70
     0
  3

 72
    65
 73
     4
 40
7.747000000000001
 49
6.095999999999999
 49
-0.7620000000000007
 49
0.1270000000000001
 49
-0.7620000000000007
  0
LTYPE
  2
______-5
 70
     0
  3

 72
    65
 73
     2
 40
0.4
 49
0.24
 49
-0.16
  0
LTYPE
  2
______-4
 70
     0
  3

 72
    65
 73
     6
 40
2.7
 49
1.8
 49
-0.2
 49
0.2
 49
-0.1000000000000002
 49
0.2
 49
-0.2
  0
LTYPE
  2
______-3
 70
     0
  3

 72
    65
 73
     4
 40
2.4
 49
1.8
 49
-0.2
 49
0.2
 49
-0.2
  0
LTYPE
  2
______-2
 70
     0
  3

 72
    65
 73
     2
 40
38.09999999999999
 49
25.4
 49
-12.7
  0
LTYPE
  2
______-1
 70
     0
  3

 72
    65
 73
     2
 40
101.60254
 49
101.6
 49
-0.0025399999999941
  0
ENDTAB
  0
TABLE
  2
LAYER
 70
     7
  0
LAYER
  2
0
 70
     0
 62
     7
  6
CONTINUOUS
  0
LAYER
  2
_
 70
     0
 62
     7
  6
CONTINUOUS
  0
LAYER
  2
1_5_____
 70
     0
 62
     7
  6
CONTINUOUS
  0
LAYER
  2
1_5__
 70
     0
 62
     7
  6
CONTINUOUS
  0
LAYER
  2
1_5__-1
 70
     0
 62
     7
  6
CONTINUOUS
  0
LAYER
  2
___
 70
     0
 62
     7
  6
CONTINUOUS
  0
LAYER
  2
DEFPOINTS
 70
     0
 62
     7
  6
CONTINUOUS
  0
ENDTAB
  0
TABLE
  2
STYLE
 70
     2
  0
STYLE
  2
STANDARD
 70
     0
 40
0.0
 41
1.0
 50
0.0
 71
     0
 42
0.2
  3
txt
  4
BIGFONT.SHX
  0
STYLE
  2
YUGOTHIC_MEDIUM
 70
     0
 40
0.0
 41
1.0
 50
0.0
 71
     0
 42
0.2
  3

  4
YuGothic Medium
  0
ENDTAB
  0
TABLE
  2
VIEW
 70
     0
  0
ENDTAB
  0
TABLE
  2
UCS
 70
     0
  0
ENDTAB
  0
TABLE
  2
APPID
 70
     2
  0
APPID
  2
ACAD
 70
     0
  0
APPID
  2
ACAECLAYERSTANDARD
 70
     0
  0
ENDTAB
  0
TABLE
  2
DIMSTYLE
 70
     2
  0
DIMSTYLE
  2
STANDARD
 70
     0
  3

  4

  5

  6

  7

 40
1.0
 41
0.18
 42
0.0625
 43
0.38
 44
0.18
 45
0.0
 46
0.0
 47
0.0
 48
0.0
140
0.18
141
0.09
142
0.0
143
25.4
144
1.0
145
0.0
146
1.0
147
0.09
 71
     0
 72
     0
 73
     1
 74
     1
 75
     0
 76
     0
 77
     0
 78
     0
170
     0
171
     2
172
     0
173
     0
174
     0
175
     0
176
     0
177
     0
178
     0
  0
DIMSTYLE
  2
TOOLBOX
 70
     0
  3
<>
  4
[]
  5
DOT
  6
DOT
  7
DOT
 40
1.0
 41
2.2479248046875
 42
7.499999972060323
 43
30.00000000651926
 44
0.0
 45
0.0
 46
0.0
 47
0.0
 48
0.0
140
10.62008101851851
141
0.0
142
0.0
143
1.0
144
1.0
145
0.0
146
0.8
147
0.0499999998137355
 71
     0
 72
     0
 73
     0
 74
     0
 75
     0
 76
     0
 77
     1
 78
     8
170
     0
171
     0
172
     1
173
     0
174
     1
175
     0
176
     0
177
     0
178
     0
  0
ENDTAB
  0
ENDSEC
  0
SECTION
  2
BLOCKS
  0
BLOCK
  8
0
  2
$MODEL_SPACE
 70
     0
 10
0.0
 20
0.0
 30
0.0
  3
$MODEL_SPACE
  1

  0
ENDBLK
  5
21
  8
0
  0
BLOCK
 67
     1
  8
0
  2
$PAPER_SPACE
 70
     0
 10
0.0
 20
0.0
 30
0.0
  3
$PAPER_SPACE
  1

  0
ENDBLK
  5
1D
 67
     1
  8
0
  0
BLOCK
  8
0
  2
GROUP
 70
     0
 10
0.0
 20
0.0
 30
0.0
  3
GROUP
  1

  0
ENDBLK
  5
70
  8
0
  0
BLOCK
  8
0
  2
__A3
 70
     0
 10
0.0
 20
0.0
 30
0.0
  3
__A3
  1

  0
LINE
  5
CE
  8
0
  6
CONTINUOUS
 62
     3
 10
10312.62689392944
 20
-89.92044693998241
 30
0.0
 11
-10269.83977273724
 21
-89.92044693998241
 31
0.0
  0
INSERT
  5
CF
  8
0
 62
    17
  2
GROUP
 10
0.0
 20
0.0
 30
0.0
  0
TEXT
  5
D0
  8
0
 62
     4
 10
9139.977640406578
 20
-226.0341168654482
 30
0.0
 40
79.65060763888889
  1
SCALE:
  7
YUGOTHIC_MEDIUM
 11
9139.977640406578
 21
-146.3835092265593
 31
0.0
 73
     3
  0
TEXT
  5
D1
  8
0
 62
     4
 10
-443.9643777938977
 20
-227.9787802733332
 30
0.0
 40
79.65060763888889
  1
NAME:
  7
YUGOTHIC_MEDIUM
 11
-443.9643777938977
 21
-148.3281726344443
 31
0.0
 73
     3
  0
TEXT
  5
D2
  8
0
 62
     4
 10
7281.663381210107
 20
-228.0537802733157
 30
0.0
 40
79.65060763888889
  1
DATE:
  7
YUGOTHIC_MEDIUM
 11
7281.663381210107
 21
-148.4031726344268
 31
0.0
 73
     3
  0
TEXT
  5
D3
  8
0
 62
     4
 10
5425.843209124179
 20
-236.1263220412507
 30
0.0
 40
79.65060763888889
  1
ID:
  7
YUGOTHIC_MEDIUM
 11
5425.843209124179
 21
-156.4757144023619
 31
0.0
 73
     3
  0
ENDBLK
  5
74
  8
0
  0
BLOCK
  8
0
  2
GROUP-1
 70
     0
 10
0.0
 20
0.0
 30
0.0
  3
GROUP-1
  1

  0
POLYLINE
  5
D4
  8
0
  6
ISO-02___
 62
    17
 66
     1
 10
0.0
 20
0.0
 30
0.0
 70
   128
  0
VERTEX
  5
D5
  8
0
  6
ISO-02___
 62
    17
 10
-95.26135183800943
 20
1955.450531726025
 30
0.0
  0
VERTEX
  5
D6
  8
0
  6
ISO-02___
 62
    17
 10
-95.02630473602224
 20
1954.922108616088
 30
0.0
  0
VERTEX
  5
D7
  8
0
  6
ISO-02___
 62
    17
 10
-94.78868085069966
 20
1954.392480182778
 30
0.0
  0
VERTEX
  5
D8
  8
0
  6
ISO-02___
 62
    17
 10
-94.54848018204171
 20
1953.861646426096
 30
0.0
  0
VERTEX
  5
D9
  8
0
  6
ISO-02___
 62
    17
 10
-94.3057027300484
 20
1953.329607346042
 30
0.0
  0
VERTEX
  5
DA
  8
0
  6
ISO-02___
 62
    17
 10
-94.0603484947197
 20
1952.796362942616
 30
0.0
  0
VERTEX
  5
DB
  8
0
  6
ISO-02___
 62
    17
 10
-93.81241747605561
 20
1952.261913215818
 30
0.0
  0
VERTEX
  5
DC
  8
0
  6
ISO-02___
 62
    17
 10
-93.56190967405615
 20
1951.726258165647
 30
0.0
  0
VERTEX
  5
DD
  8
0
  6
ISO-02___
 62
    17
 10
-93.30882508872132
 20
1951.189397792105
 30
0.0
  0
VERTEX
  5
DE
  8
0
  6
ISO-02___
 62
    17
 10
-93.05316372005112
 20
1950.651332095189
 30
0.0
  0
VERTEX
  5
DF
  8
0
  6
ISO-02___
 62
    17
 10
-92.79492556804553
 20
1950.112061074902
 30
0.0
  0
VERTEX
  5
E0
  8
0
  6
ISO-02___
 62
    17
 10
-92.53411063270455
 20
1949.571584731243
 30
0.0
  0
VERTEX
  5
E1
  8
0
  6
ISO-02___
 62
    17
 10
-92.27071891402821
 20
1949.029903064212
 30
0.0
  0
VERTEX
  5
E2
  8
0
  6
ISO-02___
 62
    17
 10
-92.0047504120165
 20
1948.487016073808
 30
0.0
  0
VERTEX
  5
E3
  8
0
  6
ISO-02___
 62
    17
 10
-91.7362051266694
 20
1947.942923760032
 30
0.0
  0
VERTEX
  5
E4
  8
0
  6
ISO-02___
 62
    17
 10
-91.46508305798693
 20
1947.397626122885
 30
0.0
  0
VERTEX
  5
E5
  8
0
  6
ISO-02___
 62
    17
 10
-91.19138420596909
 20
1946.851123162365
 30
0.0
  0
VERTEX
  5
E6
  8
0
  6
ISO-02___
 62
    17
 10
-90.91510857061587
 20
1946.303414878472
 30
0.0
  0
VERTEX
  5
E7
  8
0
  6
ISO-02___
 62
    17
 10
-90.63625615192726
 20
1945.754501271208
 30
0.0
  0
VERTEX
  5
E8
  8
0
  6
ISO-02___
 62
    17
 10
-90.35482694990327
 20
1945.204382340572
 30
0.0
  0
VERTEX
  5
E9
  8
0
  6
ISO-02___
 62
    17
 10
-90.07082096454391
 20
1944.653058086563
 30
0.0
  0
VERTEX
  5
EA
  8
0
  6
ISO-02___
 62
    17
 10
-89.78423819584918
 20
1944.100528509181
 30
0.0
  0
VERTEX
  5
EB
  8
0
  6
ISO-02___
 62
    17
 10
-89.49507864381907
 20
1943.546793608428
 30
0.0
  0
VERTEX
  5
EC
  8
0
  6
ISO-02___
 62
    17
 10
-89.20334230845359
 20
1942.991853384303
 30
0.0
  0
VERTEX
  5
ED
  8
0
  6
ISO-02___
 62
    17
 10
-88.90902918975273
 20
1942.435707836806
 30
0.0
  0
VERTEX
  5
EE
  8
0
  6
ISO-02___
 62
    17
 10
-88.6121392877165
 20
1941.878356965936
 30
0.0
  0
VERTEX
  5
EF
  8
0
  6
ISO-02___
 62
    17
 10
-88.31267260234488
 20
1941.319800771694
 30
0.0
  0
VERTEX
  5
F0
  8
0
  6
ISO-02___
 62
    17
 10
-88.01062913363788
 20
1940.76003925408
 30
0.0
  0
VERTEX
  5
F1
  8
0
  6
ISO-02___
 62
    17
 10
-87.70600888159551
 20
1940.199072413094
 30
0.0
  0
VERTEX
  5
F2
  8
0
  6
ISO-02___
 62
    17
 10
-87.39881184621777
 20
1939.636900248736
 30
0.0
  0
VERTEX
  5
F3
  8
0
  6
ISO-02___
 62
    17
 10
-87.08903802750464
 20
1939.073522761006
 30
0.0
  0
VERTEX
  5
F4
  8
0
  6
ISO-02___
 62
    17
 10
-86.77668742545613
 20
1938.508939949903
 30
0.0
  0
VERTEX
  5
F5
  8
0
  6
ISO-02___
 62
    17
 10
-86.46176004007225
 20
1937.943151815428
 30
0.0
  0
VERTEX
  5
F6
  8
0
  6
ISO-02___
 62
    17
 10
-86.144255871353
 20
1937.376158357581
 30
0.0
  0
VERTEX
  5
F7
  8
0
  6
ISO-02___
 62
    17
 10
-85.82417491929837
 20
1936.807959576362
 30
0.0
  0
VERTEX
  5
F8
  8
0
  6
ISO-02___
 62
    17
 10
-85.50151718390836
 20
1936.238555471771
 30
0.0
  0
VERTEX
  5
F9
  8
0
  6
ISO-02___
 62
    17
 10
-85.17628266518297
 20
1935.667946043807
 30
0.0
  0
VERTEX
  5
FA
  8
0
  6
ISO-02___
 62
    17
 10
-84.8484713631222
 20
1935.096131292471
 30
0.0
  0
VERTEX
  5
FB
  8
0
  6
ISO-02___
 62
    17
 10
-84.51808327772606
 20
1934.523111217764
 30
0.0
  0
VERTEX
  5
FC
  8
0
  6
ISO-02___
 62
    17
 10
-84.18511840899454
 20
1933.948885819684
 30
0.0
  0
VERTEX
  5
FD
  8
0
  6
ISO-02___
 62
    17
 10
-83.84957675692765
 20
1933.373455098231
 30
0.0
  0
VERTEX
  5
FE
  8
0
  6
ISO-02___
 62
    17
 10
-83.51145832152537
 20
1932.796819053407
 30
0.0
  0
VERTEX
  5
FF
  8
0
  6
ISO-02___
 62
    17
 10
-83.17076310278772
 20
1932.218977685211
 30
0.0
  0
VERTEX
  5
100
  8
0
  6
ISO-02___
 62
    17
 10
-82.8274911007147
 20
1931.639930993642
 30
0.0
  0
VERTEX
  5
101
  8
0
  6
ISO-02___
 62
    17
 10
-82.48164231530629
 20
1931.059678978701
 30
0.0
  0
VERTEX
  5
102
  8
0
  6
ISO-02___
 62
    17
 10
-82.13321674656251
 20
1930.478221640388
 30
0.0
  0
VERTEX
  5
103
  8
0
  6
ISO-02___
 62
    17
 10
-81.78221439448336
 20
1929.895558978703
 30
0.0
  0
VERTEX
  5
104
  8
0
  6
ISO-02___
 62
    17
 10
-81.42863525906884
 20
1929.311690993646
 30
0.0
  0
VERTEX
  5
105
  8
0
  6
ISO-02___
 62
    17
 10
-81.07247934031892
 20
1928.726617685216
 30
0.0
  0
VERTEX
  5
106
  8
0
  6
ISO-02___
 62
    17
 10
-80.71374663823363
 20
1928.140339053414
 30
0.0
  0
VERTEX
  5
107
  8
0
  6
ISO-02___
 62
    17
 10
-80.35243715281297
 20
1927.55285509824
 30
0.0
  0
VERTEX
  5
108
  8
0
  6
ISO-02___
 62
    17
 10
-79.98855088405693
 20
1926.964165819694
 30
0.0
  0
VERTEX
  5
109
  8
0
  6
ISO-02___
 62
    17
 10
-79.6220878319655
 20
1926.374271217776
 30
0.0
  0
VERTEX
  5
10A
  8
0
  6
ISO-02___
 62
    17
 10
-79.25304799653871
 20
1925.783171292486
 30
0.0
  0
VERTEX
  5
10B
  8
0
  6
ISO-02___
 62
    17
 10
-78.88143137777655
 20
1925.190866043823
 30
0.0
  0
VERTEX
  5
10C
  8
0
  6
ISO-02___
 62
    17
 10
-78.507237975679
 20
1924.597355471789
 30
0.0
  0
VERTEX
  5
10D
  8
0
  6
ISO-02___
 62
    17
 10
-78.13046779024607
 20
1924.002639576382
 30
0.0
  0
VERTEX
  5
10E
  8
0
  6
ISO-02___
 62
    17
 10
-77.75112082147777
 20
1923.406718357603
 30
0.0
  0
VERTEX
  5
10F
  8
0
  6
ISO-02___
 62
    17
 10
-77.3691970693741
 20
1922.809591815451
 30
0.0
  0
VERTEX
  5
110
  8
0
  6
ISO-02___
 62
    17
 10
-76.98469653393504
 20
1922.211259949928
 30
0.0
  0
VERTEX
  5
111
  8
0
  6
ISO-02___
 62
    17
 10
-76.5976192151606
 20
1921.611722761033
 30
0.0
  0
VERTEX
  5
112
  8
0
  6
ISO-02___
 62
    17
 10
-76.20796511305079
 20
1921.010980248765
 30
0.0
  0
VERTEX
  5
113
  8
0
  6
ISO-02___
 62
    17
 10
-75.8157342276056
 20
1920.409032413125
 30
0.0
  0
VERTEX
  5
114
  8
0
  6
ISO-02___
 62
    17
 10
-75.42092655882504
 20
1919.805879254113
 30
0.0
  0
VERTEX
  5
115
  8
0
  6
ISO-02___
 62
    17
 10
-75.0235421067091
 20
1919.201520771729
 30
0.0
  0
VERTEX
  5
116
  8
0
  6
ISO-02___
 62
    17
 10
-74.62455952392216
 20
1918.597530061906
 30
0.0
  0
VERTEX
  5
117
  8
0
  6
ISO-02___
 62
    17
 10
-74.22495746312856
 20
1917.995480220579
 30
0.0
  0
VERTEX
  5
118
  8
0
  6
ISO-02___
 62
    17
 10
-73.82473592432831
 20
1917.395371247748
 30
0.0
  0
VERTEX
  5
119
  8
0
  6
ISO-02___
 62
    17
 10
-73.42389490752143
 20
1916.797203143413
 30
0.0
  0
VERTEX
  5
11A
  8
0
  6
ISO-02___
 62
    17
 10
-73.0224344127079
 20
1916.200975907573
 30
0.0
  0
VERTEX
  5
11B
  8
0
  6
ISO-02___
 62
    17
 10
-72.6203544398877
 20
1915.606689540229
 30
0.0
  0
VERTEX
  5
11C
  8
0
  6
ISO-02___
 62
    17
 10
-72.21765498906089
 20
1915.014344041381
 30
0.0
  0
VERTEX
  5
11D
  8
0
  6
ISO-02___
 62
    17
 10
-71.81433606022742
 20
1914.423939411028
 30
0.0
  0
VERTEX
  5
11E
  8
0
  6
ISO-02___
 62
    17
 10
-71.41039765338732
 20
1913.835475649171
 30
0.0
  0
VERTEX
  5
11F
  8
0
  6
ISO-02___
 62
    17
 10
-71.00583976854055
 20
1913.24895275581
 30
0.0
  0
VERTEX
  5
120
  8
0
  6
ISO-02___
 62
    17
 10
-70.60066240568715
 20
1912.664370730944
 30
0.0
  0
VERTEX
  5
121
  8
0
  6
ISO-02___
 62
    17
 10
-70.19486556482711
 20
1912.081729574575
 30
0.0
  0
VERTEX
  5
122
  8
0
  6
ISO-02___
 62
    17
 10
-69.78844924596044
 20
1911.501029286701
 30
0.0
  0
VERTEX
  5
123
  8
0
  6
ISO-02___
 62
    17
 10
-69.38141344908709
 20
1910.922269867322
 30
0.0
  0
VERTEX
  5
124
  8
0
  6
ISO-02___
 62
    17
 10
-68.97375817420709
 20
1910.34545131644
 30
0.0
  0
VERTEX
  5
125
  8
0
  6
ISO-02___
 62
    17
 10
-68.56548342132047
 20
1909.770573634053
 30
0.0
  0
VERTEX
  5
126
  8
0
  6
ISO-02___
 62
    17
 10
-68.1565891904272
 20
1909.197636820161
 30
0.0
  0
VERTEX
  5
127
  8
0
  6
ISO-02___
 62
    17
 10
-67.74707548152728
 20
1908.626640874766
 30
0.0
  0
VERTEX
  5
128
  8
0
  6
ISO-02___
 62
    17
 10
-67.33694229462071
 20
1908.057585797866
 30
0.0
  0
VERTEX
  5
129
  8
0
  6
ISO-02___
 62
    17
 10
-66.9261896297075
 20
1907.490471589461
 30
0.0
  0
VERTEX
  5
12A
  8
0
  6
ISO-02___
 62
    17
 10
-66.51481748678765
 20
1906.925298249553
 30
0.0
  0
VERTEX
  5
12B
  8
0
  6
ISO-02___
 62
    17
 10
-66.10282586586115
 20
1906.36206577814
 30
0.0
  0
VERTEX
  5
12C
  8
0
  6
ISO-02___
 62
    17
 10
-65.69021476692801
 20
1905.800774175223
 30
0.0
  0
VERTEX
  5
12D
  8
0
  6
ISO-02___
 62
    17
 10
-65.27698418998823
 20
1905.241423440801
 30
0.0
  0
VERTEX
  5
12E
  8
0
  6
ISO-02___
 62
    17
 10
-64.8631341350418
 20
1904.684013574876
 30
0.0
  0
VERTEX
  5
12F
  8
0
  6
ISO-02___
 62
    17
 10
-64.44866460208871
 20
1904.128544577446
 30
0.0
  0
VERTEX
  5
130
  8
0
  6
ISO-02___
 62
    17
 10
-64.033575591129
 20
1903.575016448511
 30
0.0
  0
VERTEX
  5
131
  8
0
  6
ISO-02___
 62
    17
 10
-63.61786710216263
 20
1903.023429188072
 30
0.0
  0
VERTEX
  5
132
  8
0
  6
ISO-02___
 62
    17
 10
-63.20153913518961
 20
1902.473782796129
 30
0.0
  0
VERTEX
  5
133
  8
0
  6
ISO-02___
 62
    17
 10
-62.78459169020995
 20
1901.926077272682
 30
0.0
  0
VERTEX
  5
134
  8
0
  6
ISO-02___
 62
    17
 10
-62.36702476722365
 20
1901.380312617731
 30
0.0
  0
VERTEX
  5
135
  8
0
  6
ISO-02___
 62
    17
 10
-61.9488383662307
 20
1900.836488831275
 30
0.0
  0
VERTEX
  5
136
  8
0
  6
ISO-02___
 62
    17
 10
-61.5300324872311
 20
1900.294605913315
 30
0.0
  0
VERTEX
  5
137
  8
0
  6
ISO-02___
 62
    17
 10
-61.11060713022486
 20
1899.75466386385
 30
0.0
  0
VERTEX
  5
138
  8
0
  6
ISO-02___
 62
    17
 10
-60.69056229521198
 20
1899.216662682882
 30
0.0
  0
VERTEX
  5
139
  8
0
  6
ISO-02___
 62
    17
 10
-60.26989798219245
 20
1898.680602370408
 30
0.0
  0
VERTEX
  5
13A
  8
0
  6
ISO-02___
 62
    17
 10
-59.84861419116628
 20
1898.146482926431
 30
0.0
  0
VERTEX
  5
13B
  8
0
  6
ISO-02___
 62
    17
 10
-59.42671092213346
 20
1897.614304350949
 30
0.0
  0
VERTEX
  5
13C
  8
0
  6
ISO-02___
 62
    17
 10
-59.00418817509399
 20
1897.084066643964
 30
0.0
  0
VERTEX
  5
13D
  8
0
  6
ISO-02___
 62
    17
 10
-58.58104595004789
 20
1896.555769805473
 30
0.0
  0
VERTEX
  5
13E
  8
0
  6
ISO-02___
 62
    17
 10
-58.15728424699514
 20
1896.029413835478
 30
0.0
  0
VERTEX
  5
13F
  8
0
  6
ISO-02___
 62
    17
 10
-57.73290306593574
 20
1895.50499873398
 30
0.0
  0
VERTEX
  5
140
  8
0
  6
ISO-02___
 62
    17
 10
-57.30790240686969
 20
1894.982524500977
 30
0.0
  0
VERTEX
  5
141
  8
0
  6
ISO-02___
 62
    17
 10
-56.882282269797
 20
1894.461991136469
 30
0.0
  0
VERTEX
  5
142
  8
0
  6
ISO-02___
 62
    17
 10
-56.45604265471766
 20
1893.943398640457
 30
0.0
  0
VERTEX
  5
143
  8
0
  6
ISO-02___
 62
    17
 10
-56.02918356163169
 20
1893.426747012941
 30
0.0
  0
VERTEX
  5
144
  8
0
  6
ISO-02___
 62
    17
 10
-55.60170499053907
 20
1892.912036253921
 30
0.0
  0
VERTEX
  5
145
  8
0
  6
ISO-02___
 62
    17
 10
-55.17360694143979
 20
1892.399266363396
 30
0.0
  0
VERTEX
  5
146
  8
0
  6
ISO-02___
 62
    17
 10
-54.74488941433388
 20
1891.888437341367
 30
0.0
  0
VERTEX
  5
147
  8
0
  6
ISO-02___
 62
    17
 10
-54.31555240922132
 20
1891.379549187834
 30
0.0
  0
VERTEX
  5
148
  8
0
  6
ISO-02___
 62
    17
 10
-53.88559592610211
 20
1890.872601902796
 30
0.0
  0
VERTEX
  5
149
  8
0
  6
ISO-02___
 62
    17
 10
-53.45501996497627
 20
1890.367595486254
 30
0.0
  0
VERTEX
  5
14A
  8
0
  6
ISO-02___
 62
    17
 10
-53.02382452584377
 20
1889.864529938208
 30
0.0
  0
VERTEX
  5
14B
  8
0
  6
ISO-02___
 62
    17
 10
-52.59200960870463
 20
1889.363405258657
 30
0.0
  0
VERTEX
  5
14C
  8
0
  6
ISO-02___
 62
    17
 10
-52.15957521355885
 20
1888.864221447603
 30
0.0
  0
VERTEX
  5
14D
  8
0
  6
ISO-02___
 62
    17
 10
-51.72652134040642
 20
1888.366978505043
 30
0.0
  0
VERTEX
  5
14E
  8
0
  6
ISO-02___
 62
    17
 10
-51.29284798924735
 20
1887.87167643098
 30
0.0
  0
VERTEX
  5
14F
  8
0
  6
ISO-02___
 62
    17
 10
-50.85855516008162
 20
1887.378315225412
 30
0.0
  0
VERTEX
  5
150
  8
0
  6
ISO-02___
 62
    17
 10
-50.42364285290925
 20
1886.88689488834
 30
0.0
  0
VERTEX
  5
151
  8
0
  6
ISO-02___
 62
    17
 10
-49.98811106773025
 20
1886.397415419764
 30
0.0
  0
VERTEX
  5
152
  8
0
  6
ISO-02___
 62
    17
 10
-49.5519598045446
 20
1885.909876819683
 30
0.0
  0
VERTEX
  5
153
  8
0
  6
ISO-02___
 62
    17
 10
-49.1151890633523
 20
1885.424279088098
 30
0.0
  0
VERTEX
  5
154
  8
0
  6
ISO-02___
 62
    17
 10
-48.67779884415334
 20
1884.940622225009
 30
0.0
  0
VERTEX
  5
155
  8
0
  6
ISO-02___
 62
    17
 10
-48.23978914694776
 20
1884.458906230415
 30
0.0
  0
VERTEX
  5
156
  8
0
  6
ISO-02___
 62
    17
 10
-47.80262606209273
 20
1883.980216296831
 30
0.0
  0
VERTEX
  5
157
  8
0
  6
ISO-02___
 62
    17
 10
-47.36777567994545
 20
1883.505637616768
 30
0.0
  0
VERTEX
  5
158
  8
0
  6
ISO-02___
 62
    17
 10
-46.93523800050595
 20
1883.035170190227
 30
0.0
  0
VERTEX
  5
159
  8
0
  6
ISO-02___
 62
    17
 10
-46.5050130237742
 20
1882.568814017207
 30
0.0
  0
VERTEX
  5
15A
  8
0
  6
ISO-02___
 62
    17
 10
-46.07710074975022
 20
1882.10656909771
 30
0.0
  0
VERTEX
  5
15B
  8
0
  6
ISO-02___
 62
    17
 10
-45.65150117843399
 20
1881.648435431734
 30
0.0
  0
VERTEX
  5
15C
  8
0
  6
ISO-02___
 62
    17
 10
-45.22821430982552
 20
1881.194413019281
 30
0.0
  0
VERTEX
  5
15D
  8
0
  6
ISO-02___
 62
    17
 10
-44.80724014392482
 20
1880.744501860349
 30
0.0
  0
VERTEX
  5
15E
  8
0
  6
ISO-02___
 62
    17
 10
-44.38857868073187
 20
1880.298701954939
 30
0.0
  0
VERTEX
  5
15F
  8
0
  6
ISO-02___
 62
    17
 10
-43.97222992024669
 20
1879.857013303051
 30
0.0
  0
VERTEX
  5
160
  8
0
  6
ISO-02___
 62
    17
 10
-43.55819386246927
 20
1879.419435904685
 30
0.0
  0
VERTEX
  5
161
  8
0
  6
ISO-02___
 62
    17
 10
-43.14647050739961
 20
1878.98596975984
 30
0.0
  0
VERTEX
  5
162
  8
0
  6
ISO-02___
 62
    17
 10
-42.73705985503771
 20
1878.556614868518
 30
0.0
  0
VERTEX
  5
163
  8
0
  6
ISO-02___
 62
    17
 10
-42.32996190538357
 20
1878.131371230717
 30
0.0
  0
VERTEX
  5
164
  8
0
  6
ISO-02___
 62
    17
 10
-41.92517665843719
 20
1877.710238846439
 30
0.0
  0
VERTEX
  5
165
  8
0
  6
ISO-02___
 62
    17
 10
-41.52270411419858
 20
1877.293217715682
 30
0.0
  0
VERTEX
  5
166
  8
0
  6
ISO-02___
 62
    17
 10
-41.12254427266774
 20
1876.880307838447
 30
0.0
  0
VERTEX
  5
167
  8
0
  6
ISO-02___
 62
    17
 10
-40.72469713384464
 20
1876.471509214734
 30
0.0
  0
VERTEX
  5
168
  8
0
  6
ISO-02___
 62
    17
 10
-40.32916269772932
 20
1876.066821844543
 30
0.0
  0
VERTEX
  5
169
  8
0
  6
ISO-02___
 62
    17
 10
-39.93594096432174
 20
1875.666245727873
 30
0.0
  0
VERTEX
  5
16A
  8
0
  6
ISO-02___
 62
    17
 10
-39.54503193362193
 20
1875.269780864726
 30
0.0
  0
VERTEX
  5
16B
  8
0
  6
ISO-02___
 62
    17
 10
-39.15643560562988
 20
1874.8774272551
 30
0.0
  0
VERTEX
  5
16C
  8
0
  6
ISO-02___
 62
    17
 10
-38.77015198034559
 20
1874.489184898996
 30
0.0
  0
VERTEX
  5
16D
  8
0
  6
ISO-02___
 62
    17
 10
-38.38618105776906
 20
1874.105053796414
 30
0.0
  0
VERTEX
  5
16E
  8
0
  6
ISO-02___
 62
    17
 10
-38.0045228379003
 20
1873.725033947354
 30
0.0
  0
VERTEX
  5
16F
  8
0
  6
ISO-02___
 62
    17
 10
-37.6251773207393
 20
1873.349125351815
 30
0.0
  0
VERTEX
  5
170
  8
0
  6
ISO-02___
 62
    17
 10
-37.24814450628605
 20
1872.977328009799
 30
0.0
  0
VERTEX
  5
171
  8
0
  6
ISO-02___
 62
    17
 10
-36.87342439454057
 20
1872.609641921305
 30
0.0
  0
VERTEX
  5
172
  8
0
  6
ISO-02___
 62
    17
 10
-36.50101698550285
 20
1872.246067086332
 30
0.0
  0
VERTEX
  5
173
  8
0
  6
ISO-02___
 62
    17
 10
-36.13092227917289
 20
1871.886603504881
 30
0.0
  0
VERTEX
  5
174
  8
0
  6
ISO-02___
 62
    17
 10
-35.7631402755507
 20
1871.531251176952
 30
0.0
  0
VERTEX
  5
175
  8
0
  6
ISO-02___
 62
    17
 10
-35.39767097463626
 20
1871.180010102545
 30
0.0
  0
VERTEX
  5
176
  8
0
  6
ISO-02___
 62
    17
 10
-35.03451437642958
 20
1870.83288028166
 30
0.0
  0
VERTEX
  5
177
  8
0
  6
ISO-02___
 62
    17
 10
-34.67367048093067
 20
1870.489861714296
 30
0.0
  0
VERTEX
  5
178
  8
0
  6
ISO-02___
 62
    17
 10
-34.31513928813951
 20
1870.150954400455
 30
0.0
  0
VERTEX
  5
179
  8
0
  6
ISO-02___
 62
    17
 10
-33.95892079805612
 20
1869.816158340135
 30
0.0
  0
VERTEX
  5
17A
  8
0
  6
ISO-02___
 62
    17
 10
-33.60501501068049
 20
1869.485473533337
 30
0.0
  0
VERTEX
  5
17B
  8
0
  6
ISO-02___
 62
    17
 10
-33.25342192601262
 20
1869.158899980062
 30
0.0
  0
VERTEX
  5
17C
  8
0
  6
ISO-02___
 62
    17
 10
-32.90414154405251
 20
1868.836437680307
 30
0.0
  0
VERTEX
  5
17D
  8
0
  6
ISO-02___
 62
    17
 10
-32.55717386480016
 20
1868.518086634075
 30
0.0
  0
VERTEX
  5
17E
  8
0
  6
ISO-02___
 62
    17
 10
-32.21251888825557
 20
1868.203846841365
 30
0.0
  0
VERTEX
  5
17F
  8
0
  6
ISO-02___
 62
    17
 10
-31.87017661441875
 20
1867.893718302176
 30
0.0
  0
VERTEX
  5
180
  8
0
  6
ISO-02___
 62
    17
 10
-31.53014704328968
 20
1867.58770101651
 30
0.0
  0
VERTEX
  5
181
  8
0
  6
ISO-02___
 62
    17
 10
-31.19243017486838
 20
1867.285794984365
 30
0.0
  0
VERTEX
  5
182
  8
0
  6
ISO-02___
 62
    17
 10
-30.85702600915484
 20
1866.988000205742
 30
0.0
  0
VERTEX
  5
183
  8
0
  6
ISO-02___
 62
    17
 10
-30.52393454614906
 20
1866.694316680641
 30
0.0
  0
VERTEX
  5
184
  8
0
  6
ISO-02___
 62
    17
 10
-30.19315578585104
 20
1866.404744409062
 30
0.0
  0
VERTEX
  5
185
  8
0
  6
ISO-02___
 62
    17
 10
-29.86468972826078
 20
1866.119283391004
 30
0.0
  0
VERTEX
  5
186
  8
0
  6
ISO-02___
 62
    17
 10
-29.53853637337828
 20
1865.837933626469
 30
0.0
  0
VERTEX
  5
187
  8
0
  6
ISO-02___
 62
    17
 10
-29.21469572120354
 20
1865.560695115455
 30
0.0
  0
VERTEX
  5
188
  8
0
  6
ISO-02___
 62
    17
 10
-28.89316777173657
 20
1865.287567857963
 30
0.0
  0
VERTEX
  5
189
  8
0
  6
ISO-02___
 62
    17
 10
-28.57395252497735
 20
1865.018551853993
 30
0.0
  0
VERTEX
  5
18A
  8
0
  6
ISO-02___
 62
    17
 10
-28.2570499809259
 20
1864.753647103545
 30
0.0
  0
VERTEX
  5
18B
  8
0
  6
ISO-02___
 62
    17
 10
-27.94246013958221
 20
1864.492853606619
 30
0.0
  0
VERTEX
  5
18C
  8
0
  6
ISO-02___
 62
    17
 10
-27.63018300094628
 20
1864.236171363215
 30
0.0
  0
VERTEX
  5
18D
  8
0
  6
ISO-02___
 62
    17
 10
-27.32021856501811
 20
1863.983600373332
 30
0.0
  0
VERTEX
  5
18E
  8
0
  6
ISO-02___
 62
    17
 10
-27.0125668317977
 20
1863.735140636972
 30
0.0
  0
VERTEX
  5
18F
  8
0
  6
ISO-02___
 62
    17
 10
-26.70722780128505
 20
1863.490792154133
 30
0.0
  0
VERTEX
  5
190
  8
0
  6
ISO-02___
 62
    17
 10
-26.40420147348017
 20
1863.250554924816
 30
0.0
  0
VERTEX
  5
191
  8
0
  6
ISO-02___
 62
    17
 10
-26.10348784838304
 20
1863.014428949021
 30
0.0
  0
VERTEX
  5
192
  8
0
  6
ISO-02___
 62
    17
 10
-25.80508692599368
 20
1862.782414226748
 30
0.0
  0
VERTEX
  5
193
  8
0
  6
ISO-02___
 62
    17
 10
-25.50899870631208
 20
1862.554510757996
 30
0.0
  0
VERTEX
  5
194
  8
0
  6
ISO-02___
 62
    17
 10
-25.21522318933824
 20
1862.330718542767
 30
0.0
  0
VERTEX
  5
195
  8
0
  6
ISO-02___
 62
    17
 10
-24.92376037507215
 20
1862.111037581059
 30
0.0
  0
VERTEX
  5
196
  8
0
  6
ISO-02___
 62
    17
 10
-24.63411520949238
 20
1861.894552283131
 30
0.0
  0
VERTEX
  5
197
  8
0
  6
ISO-02___
 62
    17
 10
-24.34579263857748
 20
1861.680347059239
 30
0.0
  0
VERTEX
  5
198
  8
0
  6
ISO-02___
 62
    17
 10
-24.05879266232744
 20
1861.468421909384
 30
0.0
  0
VERTEX
  5
199
  8
0
  6
ISO-02___
 62
    17
 10
-23.77311528074227
 20
1861.258776833566
 30
0.0
  0
VERTEX
  5
19A
  8
0
  6
ISO-02___
 62
    17
 10
-23.48876049382196
 20
1861.051411831785
 30
0.0
  0
VERTEX
  5
19B
  8
0
  6
ISO-02___
 62
    17
 10
-23.20572830156651
 20
1860.84632690404
 30
0.0
  0
VERTEX
  5
19C
  8
0
  6
ISO-02___
 62
    17
 10
-22.92401870397593
 20
1860.643522050331
 30
0.0
  0
VERTEX
  5
19D
  8
0
  6
ISO-02___
 62
    17
 10
-22.64363170105021
 20
1860.44299727066
 30
0.0
  0
VERTEX
  5
19E
  8
0
  6
ISO-02___
 62
    17
 10
-22.36456729278936
 20
1860.244752565025
 30
0.0
  0
VERTEX
  5
19F
  8
0
  6
ISO-02___
 62
    17
 10
-22.08682547919337
 20
1860.048787933426
 30
0.0
  0
VERTEX
  5
1A0
  8
0
  6
ISO-02___
 62
    17
 10
-21.81040626026224
 20
1859.855103375865
 30
0.0
  0
VERTEX
  5
1A1
  8
0
  6
ISO-02___
 62
    17
 10
-21.53530963599598
 20
1859.66369889234
 30
0.0
  0
VERTEX
  5
1A2
  8
0
  6
ISO-02___
 62
    17
 10
-21.26153560639458
 20
1859.474574482851
 30
0.0
  0
VERTEX
  5
1A3
  8
0
  6
ISO-02___
 62
    17
 10
-20.98908417145805
 20
1859.2877301474
 30
0.0
  0
VERTEX
  5
1A4
  8
0
  6
ISO-02___
 62
    17
 10
-20.71795533118638
 20
1859.103165885985
 30
0.0
  0
VERTEX
  5
1A5
  8
0
  6
ISO-02___
 62
    17
 10
-20.44814908557958
 20
1858.920881698607
 30
0.0
  0
VERTEX
  5
1A6
  8
0
  6
ISO-02___
 62
    17
 10
-20.17966543463764
 20
1858.740877585265
 30
0.0
  0
VERTEX
  5
1A7
  8
0
  6
ISO-02___
 62
    17
 10
-19.91250437836056
 20
1858.563153545961
 30
0.0
  0
VERTEX
  5
1A8
  8
0
  6
ISO-02___
 62
    17
 10
-19.64666591674835
 20
1858.387709580692
 30
0.0
  0
VERTEX
  5
1A9
  8
0
  6
ISO-02___
 62
    17
 10
-19.38215004980101
 20
1858.214545689461
 30
0.0
  0
VERTEX
  5
1AA
  8
0
  6
ISO-02___
 62
    17
 10
-19.11895677751853
 20
1858.043661872266
 30
0.0
  0
VERTEX
  5
1AB
  8
0
  6
ISO-02___
 62
    17
 10
-18.85708609990091
 20
1857.875058129108
 30
0.0
  0
VERTEX
  5
1AC
  8
0
  6
ISO-02___
 62
    17
 10
-18.59653801694816
 20
1857.708734459987
 30
0.0
  0
VERTEX
  5
1AD
  8
0
  6
ISO-02___
 62
    17
 10
-18.33731252866027
 20
1857.544690864902
 30
0.0
  0
VERTEX
  5
1AE
  8
0
  6
ISO-02___
 62
    17
 10
-18.07940963503724
 20
1857.382927343853
 30
0.0
  0
VERTEX
  5
1AF
  8
0
  6
ISO-02___
 62
    17
 10
-17.82282933607908
 20
1857.223443896842
 30
0.0
  0
VERTEX
  5
1B0
  8
0
  6
ISO-02___
 62
    17
 10
-17.56757163178579
 20
1857.066240523867
 30
0.0
  0
VERTEX
  5
1B1
  8
0
  6
ISO-02___
 62
    17
 10
-17.31363652215735
 20
1856.911317224929
 30
0.0
  0
VERTEX
  5
1B2
  8
0
  6
ISO-02___
 62
    17
 10
-17.06102400719378
 20
1856.758674000028
 30
0.0
  0
VERTEX
  5
1B3
  8
0
  6
ISO-02___
 62
    17
 10
-16.80973408689508
 20
1856.608310849163
 30
0.0
  0
VERTEX
  5
1B4
  8
0
  6
ISO-02___
 62
    17
 10
-16.55976676126124
 20
1856.460227772335
 30
0.0
  0
VERTEX
  5
1B5
  8
0
  6
ISO-02___
 62
    17
 10
-16.31112203029227
 20
1856.314424769543
 30
0.0
  0
VERTEX
  5
1B6
  8
0
  6
ISO-02___
 62
    17
 10
-16.06379989398816
 20
1856.170901840788
 30
0.0
  0
VERTEX
  5
1B7
  8
0
  6
ISO-02___
 62
    17
 10
-15.81780035234891
 20
1856.02965898607
 30
0.0
  0
VERTEX
  5
1B8
  8
0
  6
ISO-02___
 62
    17
 10
-15.57312340537453
 20
1855.890696205389
 30
0.0
  0
VERTEX
  5
1B9
  8
0
  6
ISO-02___
 62
    17
 10
-15.32976905306501
 20
1855.754013498744
 30
0.0
  0
VERTEX
  5
1BA
  8
0
  6
ISO-02___
 62
    17
 10
-15.08773729542036
 20
1855.619610866136
 30
0.0
  0
VERTEX
  5
1BB
  8
0
  6
ISO-02___
 62
    17
 10
-14.84702813244057
 20
1855.487488307564
 30
0.0
  0
VERTEX
  5
1BC
  8
0
  6
ISO-02___
 62
    17
 10
-14.60764156412564
 20
1855.35764582303
 30
0.0
  0
VERTEX
  5
1BD
  8
0
  6
ISO-02___
 62
    17
 10
-14.36957759047558
 20
1855.230083412532
 30
0.0
  0
VERTEX
  5
1BE
  8
0
  6
ISO-02___
 62
    17
 10
-14.13283621149039
 20
1855.10480107607
 30
0.0
  0
VERTEX
  5
1BF
  8
0
  6
ISO-02___
 62
    17
 10
-13.89741742717005
 20
1854.981798813646
 30
0.0
  0
VERTEX
  5
1C0
  8
0
  6
ISO-02___
 62
    17
 10
-13.66332123751459
 20
1854.861076625258
 30
0.0
  0
VERTEX
  5
1C1
  8
0
  6
ISO-02___
 62
    17
 10
-13.43054764252398
 20
1854.742634510906
 30
0.0
  0
VERTEX
  5
1C2
  8
0
  6
ISO-02___
 62
    17
 10
-13.19909664219824
 20
1854.626472470591
 30
0.0
  0
VERTEX
  5
1C3
  8
0
  6
ISO-02___
 62
    17
 10
-12.96896823653737
 20
1854.512590504313
 30
0.0
  0
VERTEX
  5
1C4
  8
0
  6
ISO-02___
 62
    17
 10
-12.74016242554136
 20
1854.400988612072
 30
0.0
  0
VERTEX
  5
1C5
  8
0
  6
ISO-02___
 62
    17
 10
-12.51267920921021
 20
1854.291666793867
 30
0.0
  0
VERTEX
  5
1C6
  8
0
  6
ISO-02___
 62
    17
 10
-12.28651858754393
 20
1854.184625049699
 30
0.0
  0
VERTEX
  5
1C7
  8
0
  6
ISO-02___
 62
    17
 10
-12.06168056054251
 20
1854.079863379568
 30
0.0
  0
VERTEX
  5
1C8
  8
0
  6
ISO-02___
 62
    17
 10
-11.83816512820596
 20
1853.977381783473
 30
0.0
  0
VERTEX
  5
1C9
  8
0
  6
ISO-02___
 62
    17
 10
-11.61597229053427
 20
1853.877180261415
 30
0.0
  0
VERTEX
  5
1CA
  8
0
  6
ISO-02___
 62
    17
 10
-11.39510204752744
 20
1853.779258813394
 30
0.0
  0
VERTEX
  5
1CB
  8
0
  6
ISO-02___
 62
    17
 10
-11.17555439918548
 20
1853.683617439409
 30
0.0
  0
VERTEX
  5
1CC
  8
0
  6
ISO-02___
 62
    17
 10
-10.95732934550838
 20
1853.590256139461
 30
0.0
  0
VERTEX
  5
1CD
  8
0
  6
ISO-02___
 62
    17
 10
-10.74042688649615
 20
1853.49917491355
 30
0.0
  0
VERTEX
  5
1CE
  8
0
  6
ISO-02___
 62
    17
 10
-10.52484702214878
 20
1853.410373761676
 30
0.0
  0
VERTEX
  5
1CF
  8
0
  6
ISO-02___
 62
    17
 10
-10.31058975246628
 20
1853.323852683838
 30
0.0
  0
VERTEX
  5
1D0
  8
0
  6
ISO-02___
 62
    17
 10
-10.09765507744864
 20
1853.239611680036
 30
0.0
  0
VERTEX
  5
1D1
  8
0
  6
ISO-02___
 62
    17
 10
-9.886042997095867
 20
1853.157650750272
 30
0.0
  0
VERTEX
  5
1D2
  8
0
  6
ISO-02___
 62
    17
 10
-9.675753511407956
 20
1853.077969894544
 30
0.0
  0
VERTEX
  5
1D3
  8
0
  6
ISO-02___
 62
    17
 10
-9.46678662038491
 20
1853.000569112853
 30
0.0
  0
VERTEX
  5
1D4
  8
0
  6
ISO-02___
 62
    17
 10
-9.259142324026728
 20
1852.925448405198
 30
0.0
  0
VERTEX
  5
1D5
  8
0
  6
ISO-02___
 62
    17
 10
-9.05282062233341
 20
1852.85260777158
 30
0.0
  0
VERTEX
  5
1D6
  8
0
  6
ISO-02___
 62
    17
 10
-8.847653240042193
 20
1852.781291628528
 30
0.0
  0
VERTEX
  5
1D7
  8
0
  6
ISO-02___
 62
    17
 10
-8.643471901890312
 20
1852.710744392571
 30
0.0
  0
VERTEX
  5
1D8
  8
0
  6
ISO-02___
 62
    17
 10
-8.44027660787777
 20
1852.640966063708
 30
0.0
  0
VERTEX
  5
1D9
  8
0
  6
ISO-02___
 62
    17
 10
-8.238067358004562
 20
1852.571956641941
 30
0.0
  0
VERTEX
  5
1DA
  8
0
  6
ISO-02___
 62
    17
 10
-8.036844152270692
 20
1852.503716127269
 30
0.0
  0
VERTEX
  5
1DB
  8
0
  6
ISO-02___
 62
    17
 10
-7.83660699067616
 20
1852.436244519691
 30
0.0
  0
VERTEX
  5
1DC
  8
0
  6
ISO-02___
 62
    17
 10
-7.637355873220963
 20
1852.369541819209
 30
0.0
  0
VERTEX
  5
1DD
  8
0
  6
ISO-02___
 62
    17
 10
-7.439090799905104
 20
1852.303608025821
 30
0.0
  0
VERTEX
  5
1DE
  8
0
  6
ISO-02___
 62
    17
 10
-7.241811770728582
 20
1852.238443139528
 30
0.0
  0
VERTEX
  5
1DF
  8
0
  6
ISO-02___
 62
    17
 10
-7.045518785691396
 20
1852.17404716033
 30
0.0
  0
VERTEX
  5
1E0
  8
0
  6
ISO-02___
 62
    17
 10
-6.850211844793547
 20
1852.110420088228
 30
0.0
  0
VERTEX
  5
1E1
  8
0
  6
ISO-02___
 62
    17
 10
-6.655890948035035
 20
1852.04756192322
 30
0.0
  0
VERTEX
  5
1E2
  8
0
  6
ISO-02___
 62
    17
 10
-6.46255609541586
 20
1851.985472665307
 30
0.0
  0
VERTEX
  5
1E3
  8
0
  6
ISO-02___
 62
    17
 10
-6.270207286936022
 20
1851.924152314488
 30
0.0
  0
VERTEX
  5
1E4
  8
0
  6
ISO-02___
 62
    17
 10
-6.07884452259552
 20
1851.863600870765
 30
0.0
  0
VERTEX
  5
1E5
  8
0
  6
ISO-02___
 62
    17
 10
-5.888467802394356
 20
1851.803818334137
 30
0.0
  0
VERTEX
  5
1E6
  8
0
  6
ISO-02___
 62
    17
 10
-5.699077126332528
 20
1851.744804704603
 30
0.0
  0
VERTEX
  5
1E7
  8
0
  6
ISO-02___
 62
    17
 10
-5.510672494410037
 20
1851.686559982164
 30
0.0
  0
VERTEX
  5
1E8
  8
0
  6
ISO-02___
 62
    17
 10
-5.323253906626882
 20
1851.629084166821
 30
0.0
  0
VERTEX
  5
1E9
  8
0
  6
ISO-02___
 62
    17
 10
-5.136821362983065
 20
1851.572377258572
 30
0.0
  0
VERTEX
  5
1EA
  8
0
  6
ISO-02___
 62
    17
 10
-4.951374863478585
 20
1851.516439257419
 30
0.0
  0
VERTEX
  5
1EB
  8
0
  6
ISO-02___
 62
    17
 10
-4.766914408113442
 20
1851.46127016336
 30
0.0
  0
VERTEX
  5
1EC
  8
0
  6
ISO-02___
 62
    17
 10
-4.583439996887635
 20
1851.406869976396
 30
0.0
  0
VERTEX
  5
1ED
  8
0
  6
ISO-02___
 62
    17
 10
-4.400951629801166
 20
1851.353238696527
 30
0.0
  0
VERTEX
  5
1EE
  8
0
  6
ISO-02___
 62
    17
 10
-4.219449306854033
 20
1851.300376323753
 30
0.0
  0
VERTEX
  5
1EF
  8
0
  6
ISO-02___
 62
    17
 10
-4.038933028046237
 20
1851.248282858074
 30
0.0
  0
VERTEX
  5
1F0
  8
0
  6
ISO-02___
 62
    17
 10
-3.859402793377777
 20
1851.19695829949
 30
0.0
  0
VERTEX
  5
1F1
  8
0
  6
ISO-02___
 62
    17
 10
-3.680858602848655
 20
1851.146402648
 30
0.0
  0
VERTEX
  5
1F2
  8
0
  6
ISO-02___
 62
    17
 10
-3.50330045645887
 20
1851.096615903606
 30
0.0
  0
VERTEX
  5
1F3
  8
0
  6
ISO-02___
 62
    17
 10
-3.326728354208421
 20
1851.047598066306
 30
0.0
  0
VERTEX
  5
1F4
  8
0
  6
ISO-02___
 62
    17
 10
-3.151142296097309
 20
1850.999349136102
 30
0.0
  0
VERTEX
  5
1F5
  8
0
  6
ISO-02___
 62
    17
 10
-2.976542282125535
 20
1850.951869112992
 30
0.0
  0
VERTEX
  5
1F6
  8
0
  6
ISO-02___
 62
    17
 10
-2.802928312293097
 20
1850.905157996977
 30
0.0
  0
VERTEX
  5
1F7
  8
0
  6
ISO-02___
 62
    17
 10
-2.630300386599996
 20
1850.859215788057
 30
0.0
  0
VERTEX
  5
1F8
  8
0
  6
ISO-02___
 62
    17
 10
-2.458658505046231
 20
1850.814042486232
 30
0.0
  0
VERTEX
  5
1F9
  8
0
  6
ISO-02___
 62
    17
 10
-2.288002667631804
 20
1850.769638091503
 30
0.0
  0
VERTEX
  5
1FA
  8
0
  6
ISO-02___
 62
    17
 10
-2.118332874356713
 20
1850.726002603868
 30
0.0
  0
VERTEX
  5
1FB
  8
0
  6
ISO-02___
 62
    17
 10
-1.949649125220959
 20
1850.683136023327
 30
0.0
  0
VERTEX
  5
1FC
  8
0
  6
ISO-02___
 62
    17
 10
-1.781951420224542
 20
1850.641038349882
 30
0.0
  0
VERTEX
  5
1FD
  8
0
  6
ISO-02___
 62
    17
 10
-1.615239759367462
 20
1850.599709583532
 30
0.0
  0
VERTEX
  5
1FE
  8
0
  6
ISO-02___
 62
    17
 10
-1.449514142649719
 20
1850.559149724276
 30
0.0
  0
VERTEX
  5
1FF
  8
0
  6
ISO-02___
 62
    17
 10
-1.284774570071312
 20
1850.519358772116
 30
0.0
  0
VERTEX
  5
200
  8
0
  6
ISO-02___
 62
    17
 10
-1.121021041632243
 20
1850.480336727051
 30
0.0
  0
VERTEX
  5
201
  8
0
  6
ISO-02___
 62
    17
 10
-0.9582535573325102
 20
1850.44208358908
 30
0.0
  0
VERTEX
  5
202
  8
0
  6
ISO-02___
 62
    17
 10
-0.7964721171721143
 20
1850.404599358204
 30
0.0
  0
VERTEX
  5
203
  8
0
  6
ISO-02___
 62
    17
 10
-0.6356767211510553
 20
1850.367884034423
 30
0.0
  0
VERTEX
  5
204
  8
0
  6
ISO-02___
 62
    17
 10
-0.4758673692693332
 20
1850.331937617738
 30
0.0
  0
VERTEX
  5
205
  8
0
  6
ISO-02___
 62
    17
 10
-0.3170440615269479
 20
1850.296760108147
 30
0.0
  0
VERTEX
  5
206
  8
0
  6
ISO-02___
 62
    17
 10
-0.1592067979238994
 20
1850.262351505651
 30
0.0
  0
VERTEX
  5
207
  8
0
  6
ISO-02___
 62
    17
 10
-0.0023555784601878
 20
1850.228711810249
 30
0.0
  0
VERTEX
  5
208
  8
0
  6
ISO-02___
 62
    17
 10
0.1535095968641869
 20
1850.195841021943
 30
0.0
  0
VERTEX
  5
209
  8
0
  6
ISO-02___
 62
    17
 10
0.3083887280492248
 20
1850.163739140732
 30
0.0
  0
VERTEX
  5
20A
  8
0
  6
ISO-02___
 62
    17
 10
0.4622818150949258
 20
1850.132406166616
 30
0.0
  0
VERTEX
  5
20B
  8
0
  6
ISO-02___
 62
    17
 10
0.61518885800129
 20
1850.101842099594
 30
0.0
  0
VERTEX
  5
20C
  8
0
  6
ISO-02___
 62
    17
 10
0.7671098567683172
 20
1850.072046939668
 30
0.0
  0
VERTEX
  5
20D
  8
0
  6
ISO-02___
 62
    17
 10
0.9180448113960078
 20
1850.043020686836
 30
0.0
  0
VERTEX
  5
20E
  8
0
  6
ISO-02___
 62
    17
 10
1.067993721884362
 20
1850.0147633411
 30
0.0
  0
VERTEX
  5
20F
  8
0
  6
ISO-02___
 62
    17
 10
1.216956588233378
 20
1849.987274902458
 30
0.0
  0
VERTEX
  5
210
  8
0
  6
ISO-02___
 62
    17
 10
1.364933410443058
 20
1849.960555370911
 30
0.0
  0
VERTEX
  5
211
  8
0
  6
ISO-02___
 62
    17
 10
1.511924188513401
 20
1849.934604746459
 30
0.0
  0
VERTEX
  5
212
  8
0
  6
ISO-02___
 62
    17
 10
1.657928922444408
 20
1849.909423029102
 30
0.0
  0
VERTEX
  5
213
  8
0
  6
ISO-02___
 62
    17
 10
1.802947612236077
 20
1849.88501021884
 30
0.0
  0
VERTEX
  5
214
  8
0
  6
ISO-02___
 62
    17
 10
1.946980257888409
 20
1849.861366315673
 30
0.0
  0
VERTEX
  5
215
  8
0
  6
ISO-02___
 62
    17
 10
2.090026859401405
 20
1849.838491319601
 30
0.0
  0
VERTEX
  5
216
  8
0
  6
ISO-02___
 62
    17
 10
2.090026859401405
 20
1849.838491319601
 30
0.0
  0
SEQEND
  5
217
  8
0
  6
ISO-02___
 62
    17
  0
CIRCLE
  5
218
  8
0
  6
DASHED
 62
     1
 10
-965.8070990830577
 20
1929.616369596022
 30
0.0
 40
12.50000099999988
  0
LINE
  5
219
  8
0
  6
CONTINUOUS
 62
     1
 10
76.69811898196537
 20
1808.60149959605
 30
0.0
 11
63.43681398196537
 21
1808.60149959605
 31
0.0
  0
LINE
  5
21A
  8
0
  6
CONTINUOUS
 62
     1
 10
3.111826981964384
 20
1828.901113596055
 30
0.0
 11
110.9801899819649
 21
1826.679667596057
 31
0.0
  0
LINE
  5
21B
  8
0
  6
CONTINUOUS
 62
     1
 10
-1130.807099083058
 20
2622.739564596073
 30
0.0
 11
-700.8070970830578
 21
2622.739564596073
 31
0.0
  0
LINE
  5
21C
  8
0
  6
CONTINUOUS
 62
     1
 10
-1140.807098083058
 20
2612.73956559604
 30
0.0
 11
-1140.807098083058
 21
2347.739563596054
 31
0.0
  0
LINE
  5
21D
  8
0
  6
CONTINUOUS
 62
     1
 10
-690.8070980830577
 20
2612.73956559604
 30
0.0
 11
-690.8070980830577
 21
2347.739563596054
 31
0.0
  0
LINE
  5
21E
  8
0
  6
CONTINUOUS
 62
     1
 10
-1080.807098083058
 20
2302.739563596054
 30
0.0
 11
-750.8070980830577
 21
2302.739563596054
 31
0.0
  0
LINE
  5
21F
  8
0
  6
CONTINUOUS
 62
     1
 10
-1098.307097083058
 20
2512.739563596054
 30
0.0
 11
-733.3070990830576
 21
2512.739563596054
 31
0.0
  0
LINE
  5
220
  8
0
  6
CONTINUOUS
 62
     1
 10
-1128.307097083058
 20
2482.739563596054
 30
0.0
 11
-1128.307097083058
 21
2347.739563596054
 31
0.0
  0
LINE
  5
221
  8
0
  6
CONTINUOUS
 62
     1
 10
-703.3070990830576
 20
2482.739563596054
 30
0.0
 11
-703.3070990830576
 21
2347.739563596054
 31
0.0
  0
CIRCLE
  5
222
  8
0
  6
CONTINUOUS
 62
     1
 10
-915.8070980830577
 20
2554.739563596054
 30
0.0
 40
17.49999900000012
  0
LINE
  5
223
  8
0
  6
CONTINUOUS
 62
     1
 10
-1098.307097083058
 20
2317.739563596054
 30
0.0
 11
-733.3070990830576
 21
2317.739563596054
 31
0.0
  0
ARC
  5
224
  8
0
  6
CONTINUOUS
 62
     1
 10
-1098.307097083058
 20
2347.739563596054
 30
0.0
 40
30.0
 50
180.0
 51
270.0
  0
LINE
  5
225
  8
0
  6
CONTINUOUS
 62
     1
 10
-1140.807098083058
 20
2612.73956559604
 30
0.0
 11
-1140.807098083058
 21
2347.739563596054
 31
0.0
  0
ARC
  5
226
  8
0
  6
CONTINUOUS
 62
     1
 10
-1098.307097083058
 20
2347.739563596054
 30
0.0
 40
42.50000099999988
 50
180.0
 51
253.7397949999949
  0
ARC
  5
227
  8
0
  6
CONTINUOUS
 62
     1
 10
-1080.807098083058
 20
2407.739563596054
 30
0.0
 40
105.0000000000035
 50
253.7397950000003
 51
270.0
  0
CIRCLE
  5
228
  8
0
  6
CONTINUOUS
 62
     1
 10
-915.8070980830577
 20
2452.739563596054
 30
0.0
 40
23.00000099999988
  0
CIRCLE
  5
229
  8
0
  6
CONTINUOUS
 62
     1
 10
-915.8070980830577
 20
2452.739563596054
 30
0.0
 40
37.5
  0
ARC
  5
22A
  8
0
  6
CONTINUOUS
 62
     1
 10
-750.8070980830577
 20
2407.739563596054
 30
0.0
 40
105.0
 50
270.0
 51
286.2602049999978
  0
ARC
  5
22B
  8
0
  6
CONTINUOUS
 62
     1
 10
-733.3070990830576
 20
2347.739563596054
 30
0.0
 40
42.50000099999519
 50
286.2602050000016
 51
0.0
  0
ARC
  5
22C
  8
0
  6
CONTINUOUS
 62
     1
 10
-733.3070990830576
 20
2347.739563596054
 30
0.0
 40
30.0
 50
270.0
 51
0.0
  0
LINE
  5
22D
  8
0
  6
CONTINUOUS
 62
     1
 10
-690.8070980830577
 20
2612.239564596073
 30
0.0
 11
-690.8070980830577
 21
2347.23956559604
 31
0.0
  0
ARC
  5
22E
  8
0
  6
CONTINUOUS
 62
     1
 10
-1098.307097083058
 20
2482.739563596054
 30
0.0
 40
30.0
 50
90.0
 51
180.0
  0
ARC
  5
22F
  8
0
  6
CONTINUOUS
 62
     1
 10
-733.3070990830576
 20
2482.739563596054
 30
0.0
 40
30.0
 50
0.0
 51
90.0
  0
ARC
  5
230
  8
0
  6
CONTINUOUS
 62
     1
 10
-1130.807099083058
 20
2612.73956559604
 30
0.0
 40
9.999999000033313
 50
90.0
 51
180.0
  0
ARC
  5
231
  8
0
  6
CONTINUOUS
 62
     1
 10
-700.8070970830578
 20
2612.73956559604
 30
0.0
 40
9.999999000000116
 50
0.0
 51
90.0
  0
LINE
  5
232
  8
0
  6
ISO-10______
 62
     2
 10
-858.3070970830578
 20
2452.739563596054
 30
0.0
 11
-973.3070990830577
 21
2452.739563596054
 31
0.0
  0
LINE
  5
233
  8
0
  6
ISO-10______
 62
     2
 10
-915.8070980830577
 20
2642.73956559604
 30
0.0
 11
-915.8070980830577
 21
2282.73956559604
 31
0.0
  0
LINE
  5
234
  8
0
  6
CONTINUOUS
 62
     1
 10
-1098.307097083058
 20
2512.739563596054
 30
0.0
 11
-733.3070990830576
 21
2512.739563596054
 31
0.0
  0
ARC
  5
235
  8
0
  6
CONTINUOUS
 62
     1
 10
-1130.807099083058
 20
1949.616367596036
 30
0.0
 40
9.999998999998297
 50
90.0
 51
180.0
  0
LINE
  5
236
  8
0
  6
CONTINUOUS
 62
     1
 10
-946.8070970830577
 20
1804.616368596056
 30
0.0
 11
-915.8070980830577
 21
1804.616368596056
 31
0.0
  0
LINE
  5
237
  8
0
  6
CONTINUOUS
 62
     1
 10
-965.8070990830577
 20
1829.616367596036
 30
0.0
 11
-865.8070970830578
 21
1829.616367596036
 31
0.0
  0
ARC
  5
238
  8
0
  6
CONTINUOUS
 62
     1
 10
-1080.807098083058
 20
1834.616368596056
 30
0.0
 40
9.999999000007374
 50
226.9971310000397
 51
274.979105999995
  0
ARC
  5
239
  8
0
  6
CONTINUOUS
 62
     1
 10
-973.5570980830578
 20
1949.616367596036
 30
0.0
 40
167.2499999999998
 50
180.0
 51
226.9971309999943
  0
ARC
  5
23A
  8
0
  6
CONTINUOUS
 62
     1
 10
-965.8070990830577
 20
514.6163685960555
 30
0.0
 40
1314.999998999981
 50
90.0
 51
94.97910600000004
  0
LINE
  5
23B
  8
0
  6
ISO-10______
 62
     2
 10
-915.8070980830577
 20
1979.616367596036
 30
0.0
 11
-915.8070980830577
 21
1784.616367596036
 31
0.0
  0
LINE
  5
23C
  8
0
  6
CONTINUOUS
 62
     1
 10
-949.3070990830577
 20
1829.616367596036
 30
0.0
 11
-949.3070990830577
 21
1807.116367596036
 31
0.0
  0
LINE
  5
23D
  8
0
  6
CONTINUOUS
 62
     1
 10
-1130.807099083058
 20
1959.616369596022
 30
0.0
 11
-700.8070970830578
 21
1959.616369596022
 31
0.0
  0
LINE
  5
23E
  8
0
  6
DASHED
 62
     1
 10
-1019.807099083058
 20
1914.616369596022
 30
0.0
 11
-1011.807098083058
 21
1914.616369596022
 31
0.0
  0
LINE
  5
23F
  8
0
  6
DASHED
 62
     1
 10
-1019.807099083058
 20
1894.616368596056
 30
0.0
 11
-1011.807098083058
 21
1894.616368596056
 31
0.0
  0
ARC
  5
240
  8
0
  6
DASHED
 62
     1
 10
-1019.807099083058
 20
1904.616367596036
 30
0.0
 40
9.999998999998297
 50
90.0
 51
270.0
  0
ARC
  5
241
  8
0
  6
DASHED
 62
     1
 10
-1011.807098083058
 20
1904.616367596036
 30
0.0
 40
9.999998999980562
 50
270.0
 51
90.0
  0
LINE
  5
242
  8
0
  6
ISO-10______
 62
     2
 10
-981.8070980830579
 20
1904.616367596036
 30
0.0
 11
-1049.807099083058
 21
1904.616367596036
 31
0.0
  0
LINE
  5
243
  8
0
  6
ISO-10______
 62
     2
 10
-1015.807097083058
 20
1934.616367596036
 30
0.0
 11
-1015.807097083058
 21
1874.616367596036
 31
0.0
  0
ARC
  5
244
  8
0
  6
CONTINUOUS
 62
     1
 10
-700.8070970830578
 20
1949.616367596036
 30
0.0
 40
9.999999000000116
 50
0.0
 51
90.0
  0
ARC
  5
245
  8
0
  6
CONTINUOUS
 62
     1
 10
-858.0570980830577
 20
1949.616367596036
 30
0.0
 40
167.249999999982
 50
313.0028690000059
 51
0.0
  0
ARC
  5
246
  8
0
  6
CONTINUOUS
 62
     1
 10
-865.8070970830578
 20
514.6163685960555
 30
0.0
 40
1314.999998999993
 50
85.02089399999998
 51
90.0
  0
ARC
  5
247
  8
0
  6
CONTINUOUS
 62
     1
 10
-750.8070980830577
 20
1834.616368596056
 30
0.0
 40
9.99999900001047
 50
265.0208940000054
 51
313.0028689999623
  0
LINE
  5
248
  8
0
  6
ISO-10______
 62
     2
 10
-849.8070980830577
 20
1904.616367596036
 30
0.0
 11
-781.8070970830578
 21
1904.616367596036
 31
0.0
  0
LINE
  5
249
  8
0
  6
ISO-10______
 62
     2
 10
-815.8070990830576
 20
1934.616367596036
 30
0.0
 11
-815.8070990830576
 21
1874.616367596036
 31
0.0
  0
ARC
  5
24A
  8
0
  6
DASHED
 62
     1
 10
-819.8070980830577
 20
1904.616367596036
 30
0.0
 40
9.999998999998297
 50
90.0
 51
270.0
  0
ARC
  5
24B
  8
0
  6
DASHED
 62
     1
 10
-811.8070970830578
 20
1904.616367596036
 30
0.0
 40
9.999998999980562
 50
270.0
 51
90.0
  0
LINE
  5
24C
  8
0
  6
DASHED
 62
     1
 10
-811.8070970830578
 20
1894.616368596056
 30
0.0
 11
-819.8070980830577
 21
1894.616368596056
 31
0.0
  0
LINE
  5
24D
  8
0
  6
DASHED
 62
     1
 10
-811.8070970830578
 20
1914.616369596022
 30
0.0
 11
-819.8070980830577
 21
1914.616369596022
 31
0.0
  0
LINE
  5
24E
  8
0
  6
CONTINUOUS
 62
     1
 10
-884.8070990830576
 20
1804.616368596056
 30
0.0
 11
-915.8070980830577
 21
1804.616368596056
 31
0.0
  0
LINE
  5
24F
  8
0
  6
ISO-10______
 62
     2
 10
-878.3070980830577
 20
2554.739563596054
 30
0.0
 11
-953.3070980830578
 21
2554.739563596054
 31
0.0
  0
ARC
  5
250
  8
0
  6
CONTINUOUS
 62
     1
 10
-946.8070970830577
 20
1807.116367596036
 30
0.0
 40
2.499999000000116
 50
180.0
 51
270.0
  0
ARC
  5
251
  8
0
  6
CONTINUOUS
 62
     1
 10
-884.8070990830576
 20
1807.116367596036
 30
0.0
 40
2.499998999980562
 50
270.0
 51
0.0
  0
LINE
  5
252
  8
0
  6
CONTINUOUS
 62
     1
 10
-882.3070970830578
 20
1829.616367596036
 30
0.0
 11
-882.3070970830578
 21
1807.116367596036
 31
0.0
  0
ARC
  5
253
  8
0
  6
CONTINUOUS
 62
     1
 10
-949.3070990830577
 20
1839.084529596047
 30
0.0
 40
29.46816300000272
 50
198.842939000017
 51
270.0
  0
POLYLINE
  5
254
  8
0
  6
CONTINUOUS
 62
     1
 66
     1
 10
0.0
 20
0.0
 30
0.0
 70
   128
  0
VERTEX
  5
255
  8
0
  6
CONTINUOUS
 62
     1
 10
92.1441493553121
 20
1812.640546193891
 30
0.0
  0
VERTEX
  5
256
  8
0
  6
CONTINUOUS
 62
     1
 10
92.31428406334453
 20
1812.713616119347
 30
0.0
  0
VERTEX
  5
257
  8
0
  6
CONTINUOUS
 62
     1
 10
92.48409924873391
 20
1812.787295062705
 30
0.0
  0
VERTEX
  5
258
  8
0
  6
CONTINUOUS
 62
     1
 10
92.65359491148023
 20
1812.861583023966
 30
0.0
  0
VERTEX
  5
259
  8
0
  6
CONTINUOUS
 62
     1
 10
92.82277105158349
 20
1812.936480003129
 30
0.0
  0
VERTEX
  5
25A
  8
0
  6
CONTINUOUS
 62
     1
 10
92.99162766904368
 20
1813.011986000196
 30
0.0
  0
VERTEX
  5
25B
  8
0
  6
CONTINUOUS
 62
     1
 10
93.16016476386082
 20
1813.088101015166
 30
0.0
  0
VERTEX
  5
25C
  8
0
  6
CONTINUOUS
 62
     1
 10
93.3283823360349
 20
1813.164825048038
 30
0.0
  0
VERTEX
  5
25D
  8
0
  6
CONTINUOUS
 62
     1
 10
93.49628038556594
 20
1813.242158098813
 30
0.0
  0
VERTEX
  5
25E
  8
0
  6
CONTINUOUS
 62
     1
 10
93.6638589124539
 20
1813.320100167491
 30
0.0
  0
VERTEX
  5
25F
  8
0
  6
CONTINUOUS
 62
     1
 10
93.83111791669882
 20
1813.398651254072
 30
0.0
  0
VERTEX
  5
260
  8
0
  6
CONTINUOUS
 62
     1
 10
93.99805739830066
 20
1813.477811358556
 30
0.0
  0
VERTEX
  5
261
  8
0
  6
CONTINUOUS
 62
     1
 10
94.16467735725945
 20
1813.557580480942
 30
0.0
  0
VERTEX
  5
262
  8
0
  6
CONTINUOUS
 62
     1
 10
94.33097779357519
 20
1813.637958621232
 30
0.0
  0
VERTEX
  5
263
  8
0
  6
CONTINUOUS
 62
     1
 10
94.49695870724787
 20
1813.718945779424
 30
0.0
  0
VERTEX
  5
264
  8
0
  6
CONTINUOUS
 62
     1
 10
94.66262009827749
 20
1813.800541955519
 30
0.0
  0
VERTEX
  5
265
  8
0
  6
CONTINUOUS
 62
     1
 10
94.82796196666405
 20
1813.882747149517
 30
0.0
  0
VERTEX
  5
266
  8
0
  6
CONTINUOUS
 62
     1
 10
94.99298431240756
 20
1813.965561361418
 30
0.0
  0
VERTEX
  5
267
  8
0
  6
CONTINUOUS
 62
     1
 10
95.15768713550801
 20
1814.048984591221
 30
0.0
  0
VERTEX
  5
268
  8
0
  6
CONTINUOUS
 62
     1
 10
95.3220704359654
 20
1814.133016838928
 30
0.0
  0
VERTEX
  5
269
  8
0
  6
CONTINUOUS
 62
     1
 10
95.48613421377972
 20
1814.217658104537
 30
0.0
  0
VERTEX
  5
26A
  8
0
  6
CONTINUOUS
 62
     1
 10
95.64987846895099
 20
1814.302908388049
 30
0.0
  0
VERTEX
  5
26B
  8
0
  6
CONTINUOUS
 62
     1
 10
95.8133032014792
 20
1814.388767689464
 30
0.0
  0
VERTEX
  5
26C
  8
0
  6
CONTINUOUS
 62
     1
 10
95.97640841136436
 20
1814.475236008782
 30
0.0
  0
VERTEX
  5
26D
  8
0
  6
CONTINUOUS
 62
     1
 10
96.13919409860645
 20
1814.562313346002
 30
0.0
  0
VERTEX
  5
26E
  8
0
  6
CONTINUOUS
 62
     1
 10
96.30166026320549
 20
1814.649999701126
 30
0.0
  0
VERTEX
  5
26F
  8
0
  6
CONTINUOUS
 62
     1
 10
96.46380690516148
 20
1814.738295074152
 30
0.0
  0
VERTEX
  5
270
  8
0
  6
CONTINUOUS
 62
     1
 10
96.6256340244744
 20
1814.827199465081
 30
0.0
  0
VERTEX
  5
271
  8
0
  6
CONTINUOUS
 62
     1
 10
96.78714162114426
 20
1814.916712873913
 30
0.0
  0
VERTEX
  5
272
  8
0
  6
CONTINUOUS
 62
     1
 10
96.94832969517105
 20
1815.006835300648
 30
0.0
  0
VERTEX
  5
273
  8
0
  6
CONTINUOUS
 62
     1
 10
97.1091982465548
 20
1815.097566745286
 30
0.0
  0
VERTEX
  5
274
  8
0
  6
CONTINUOUS
 62
     1
 10
97.26974727529549
 20
1815.188907207826
 30
0.0
  0
VERTEX
  5
275
  8
0
  6
CONTINUOUS
 62
     1
 10
97.42997678139312
 20
1815.28085668827
 30
0.0
  0
VERTEX
  5
276
  8
0
  6
CONTINUOUS
 62
     1
 10
97.5898867648477
 20
1815.373415186616
 30
0.0
  0
VERTEX
  5
277
  8
0
  6
CONTINUOUS
 62
     1
 10
97.74947722565922
 20
1815.466582702865
 30
0.0
  0
VERTEX
  5
278
  8
0
  6
CONTINUOUS
 62
     1
 10
97.90874816382768
 20
1815.560359237017
 30
0.0
  0
VERTEX
  5
279
  8
0
  6
CONTINUOUS
 62
     1
 10
98.06769957935308
 20
1815.654744789071
 30
0.0
  0
VERTEX
  5
27A
  8
0
  6
CONTINUOUS
 62
     1
 10
98.22633147223542
 20
1815.749739359029
 30
0.0
  0
VERTEX
  5
27B
  8
0
  6
CONTINUOUS
 62
     1
 10
98.3846438424747
 20
1815.845342946889
 30
0.0
  0
VERTEX
  5
27C
  8
0
  6
CONTINUOUS
 62
     1
 10
98.54263669007092
 20
1815.941555552653
 30
0.0
  0
VERTEX
  5
27D
  8
0
  6
CONTINUOUS
 62
     1
 10
98.70031001502409
 20
1816.038377176318
 30
0.0
  0
VERTEX
  5
27E
  8
0
  6
CONTINUOUS
 62
     1
 10
98.8576638173342
 20
1816.135807817887
 30
0.0
  0
VERTEX
  5
27F
  8
0
  6
CONTINUOUS
 62
     1
 10
99.01469809700126
 20
1816.233847477359
 30
0.0
  0
VERTEX
  5
280
  8
0
  6
CONTINUOUS
 62
     1
 10
99.17141285402525
 20
1816.332496154734
 30
0.0
  0
VERTEX
  5
281
  8
0
  6
CONTINUOUS
 62
     1
 10
99.32780808840617
 20
1816.431753850011
 30
0.0
  0
VERTEX
  5
282
  8
0
  6
CONTINUOUS
 62
     1
 10
99.48388380014404
 20
1816.531620563191
 30
0.0
  0
VERTEX
  5
283
  8
0
  6
CONTINUOUS
 62
     1
 10
99.63963998923886
 20
1816.632096294274
 30
0.0
  0
VERTEX
  5
284
  8
0
  6
CONTINUOUS
 62
     1
 10
99.79507665569062
 20
1816.73318104326
 30
0.0
  0
VERTEX
  5
285
  8
0
  6
CONTINUOUS
 62
     1
 10
99.95019379949932
 20
1816.834874810149
 30
0.0
  0
VERTEX
  5
286
  8
0
  6
CONTINUOUS
 62
     1
 10
100.104991420665
 20
1816.937177594941
 30
0.0
  0
VERTEX
  5
287
  8
0
  6
CONTINUOUS
 62
     1
 10
100.2594695191875
 20
1817.040089397635
 30
0.0
  0
VERTEX
  5
288
  8
0
  6
CONTINUOUS
 62
     1
 10
100.4136280950671
 20
1817.143610218232
 30
0.0
  0
VERTEX
  5
289
  8
0
  6
CONTINUOUS
 62
     1
 10
100.5674671483035
 20
1817.247740056732
 30
0.0
  0
VERTEX
  5
28A
  8
0
  6
CONTINUOUS
 62
     1
 10
100.7209866788969
 20
1817.352478913135
 30
0.0
  0
VERTEX
  5
28B
  8
0
  6
CONTINUOUS
 62
     1
 10
100.8741866868473
 20
1817.457826787441
 30
0.0
  0
VERTEX
  5
28C
  8
0
  6
CONTINUOUS
 62
     1
 10
101.0270671721546
 20
1817.56378367965
 30
0.0
  0
VERTEX
  5
28D
  8
0
  6
CONTINUOUS
 62
     1
 10
101.1796281348188
 20
1817.670349589761
 30
0.0
  0
VERTEX
  5
28E
  8
0
  6
CONTINUOUS
 62
     1
 10
101.33186957484
 20
1817.777524517775
 30
0.0
  0
VERTEX
  5
28F
  8
0
  6
CONTINUOUS
 62
     1
 10
101.4837914922181
 20
1817.885308463693
 30
0.0
  0
VERTEX
  5
290
  8
0
  6
CONTINUOUS
 62
     1
 10
101.6353938869532
 20
1817.993701427512
 30
0.0
  0
VERTEX
  5
291
  8
0
  6
CONTINUOUS
 62
     1
 10
101.7866767590452
 20
1818.102703409235
 30
0.0
  0
VERTEX
  5
292
  8
0
  6
CONTINUOUS
 62
     1
 10
101.9376401084942
 20
1818.212314408861
 30
0.0
  0
VERTEX
  5
293
  8
0
  6
CONTINUOUS
 62
     1
 10
102.0882839353
 20
1818.32253442639
 30
0.0
  0
VERTEX
  5
294
  8
0
  6
CONTINUOUS
 62
     1
 10
102.2386082394629
 20
1818.433363461821
 30
0.0
  0
VERTEX
  5
295
  8
0
  6
CONTINUOUS
 62
     1
 10
102.3886130209826
 20
1818.544801515155
 30
0.0
  0
VERTEX
  5
296
  8
0
  6
CONTINUOUS
 62
     1
 10
102.538211590259
 20
1818.656784206458
 30
0.0
  0
VERTEX
  5
297
  8
0
  6
CONTINUOUS
 62
     1
 10
102.6873172576915
 20
1818.769247155795
 30
0.0
  0
VERTEX
  5
298
  8
0
  6
CONTINUOUS
 62
     1
 10
102.8359300232802
 20
1818.882190363166
 30
0.0
  0
VERTEX
  5
299
  8
0
  6
CONTINUOUS
 62
     1
 10
102.9840498870251
 20
1818.99561382857
 30
0.0
  0
VERTEX
  5
29A
  8
0
  6
CONTINUOUS
 62
     1
 10
103.1316768489262
 20
1819.109517552009
 30
0.0
  0
VERTEX
  5
29B
  8
0
  6
CONTINUOUS
 62
     1
 10
103.2788109089835
 20
1819.223901533483
 30
0.0
  0
VERTEX
  5
29C
  8
0
  6
CONTINUOUS
 62
     1
 10
103.425452067197
 20
1819.33876577299
 30
0.0
  0
VERTEX
  5
29D
  8
0
  6
CONTINUOUS
 62
     1
 10
103.5716003235667
 20
1819.454110270532
 30
0.0
  0
VERTEX
  5
29E
  8
0
  6
CONTINUOUS
 62
     1
 10
103.7172556780925
 20
1819.569935026107
 30
0.0
  0
VERTEX
  5
29F
  8
0
  6
CONTINUOUS
 62
     1
 10
103.8624181307746
 20
1819.686240039717
 30
0.0
  0
VERTEX
  5
2A0
  8
0
  6
CONTINUOUS
 62
     1
 10
104.0070876816128
 20
1819.803025311361
 30
0.0
  0
VERTEX
  5
2A1
  8
0
  6
CONTINUOUS
 62
     1
 10
104.1512643306072
 20
1819.920290841039
 30
0.0
  0
VERTEX
  5
2A2
  8
0
  6
CONTINUOUS
 62
     1
 10
104.2949480777578
 20
1820.038036628751
 30
0.0
  0
VERTEX
  5
2A3
  8
0
  6
CONTINUOUS
 62
     1
 10
104.4381389230646
 20
1820.156262674497
 30
0.0
  0
VERTEX
  5
2A4
  8
0
  6
CONTINUOUS
 62
     1
 10
104.5808368665276
 20
1820.274968978277
 30
0.0
  0
VERTEX
  5
2A5
  8
0
  6
CONTINUOUS
 62
     1
 10
104.7230419081468
 20
1820.394155540092
 30
0.0
  0
VERTEX
  5
2A6
  8
0
  6
CONTINUOUS
 62
     1
 10
104.8647540479222
 20
1820.513822359941
 30
0.0
  0
VERTEX
  5
2A7
  8
0
  6
CONTINUOUS
 62
     1
 10
105.0059732858538
 20
1820.633969437823
 30
0.0
  0
VERTEX
  5
2A8
  8
0
  6
CONTINUOUS
 62
     1
 10
105.1466996219415
 20
1820.75459677374
 30
0.0
  0
VERTEX
  5
2A9
  8
0
  6
CONTINUOUS
 62
     1
 10
105.2869330561855
 20
1820.875704367691
 30
0.0
  0
VERTEX
  5
2AA
  8
0
  6
CONTINUOUS
 62
     1
 10
105.4266735885856
 20
1820.997292219676
 30
0.0
  0
VERTEX
  5
2AB
  8
0
  6
CONTINUOUS
 62
     1
 10
105.5659212191419
 20
1821.119360329695
 30
0.0
  0
VERTEX
  5
2AC
  8
0
  6
CONTINUOUS
 62
     1
 10
105.7046759478544
 20
1821.241908697748
 30
0.0
  0
VERTEX
  5
2AD
  8
0
  6
CONTINUOUS
 62
     1
 10
105.8429377747231
 20
1821.364937323835
 30
0.0
  0
VERTEX
  5
2AE
  8
0
  6
CONTINUOUS
 62
     1
 10
105.980706699748
 20
1821.488446207957
 30
0.0
  0
VERTEX
  5
2AF
  8
0
  6
CONTINUOUS
 62
     1
 10
106.1179827229291
 20
1821.612435350112
 30
0.0
  0
VERTEX
  5
2B0
  8
0
  6
CONTINUOUS
 62
     1
 10
106.2547658442664
 20
1821.736904750302
 30
0.0
  0
VERTEX
  5
2B1
  8
0
  6
CONTINUOUS
 62
     1
 10
106.3910560637599
 20
1821.861854408526
 30
0.0
  0
VERTEX
  5
2B2
  8
0
  6
CONTINUOUS
 62
     1
 10
106.5268533814095
 20
1821.987284324784
 30
0.0
  0
VERTEX
  5
2B3
  8
0
  6
CONTINUOUS
 62
     1
 10
106.6621577972154
 20
1822.113194499076
 30
0.0
  0
VERTEX
  5
2B4
  8
0
  6
CONTINUOUS
 62
     1
 10
106.7969693111774
 20
1822.239584931402
 30
0.0
  0
VERTEX
  5
2B5
  8
0
  6
CONTINUOUS
 62
     1
 10
106.9312879232956
 20
1822.366455621762
 30
0.0
  0
VERTEX
  5
2B6
  8
0
  6
CONTINUOUS
 62
     1
 10
107.06511363357
 20
1822.493806570157
 30
0.0
  0
VERTEX
  5
2B7
  8
0
  6
CONTINUOUS
 62
     1
 10
107.1984464420006
 20
1822.621637776586
 30
0.0
  0
VERTEX
  5
2B8
  8
0
  6
CONTINUOUS
 62
     1
 10
107.3312863485874
 20
1822.749949241048
 30
0.0
  0
VERTEX
  5
2B9
  8
0
  6
CONTINUOUS
 62
     1
 10
107.4636333533304
 20
1822.878740963545
 30
0.0
  0
VERTEX
  5
2BA
  8
0
  6
CONTINUOUS
 62
     1
 10
107.5954874562296
 20
1823.008012944076
 30
0.0
  0
VERTEX
  5
2BB
  8
0
  6
CONTINUOUS
 62
     1
 10
107.726848657285
 20
1823.137765182641
 30
0.0
  0
VERTEX
  5
2BC
  8
0
  6
CONTINUOUS
 62
     1
 10
107.8577169564965
 20
1823.26799767924
 30
0.0
  0
VERTEX
  5
2BD
  8
0
  6
CONTINUOUS
 62
     1
 10
107.9880923538643
 20
1823.398710433873
 30
0.0
  0
VERTEX
  5
2BE
  8
0
  6
CONTINUOUS
 62
     1
 10
108.1179748493882
 20
1823.52990344654
 30
0.0
  0
VERTEX
  5
2BF
  8
0
  6
CONTINUOUS
 62
     1
 10
108.2473644430683
 20
1823.661576717242
 30
0.0
  0
VERTEX
  5
2C0
  8
0
  6
CONTINUOUS
 62
     1
 10
108.3762611349047
 20
1823.793730245977
 30
0.0
  0
VERTEX
  5
2C1
  8
0
  6
CONTINUOUS
 62
     1
 10
108.5046649248972
 20
1823.926364032747
 30
0.0
  0
VERTEX
  5
2C2
  8
0
  6
CONTINUOUS
 62
     1
 10
108.6325758130458
 20
1824.059478077551
 30
0.0
  0
VERTEX
  5
2C3
  8
0
  6
CONTINUOUS
 62
     1
 10
108.7599937993507
 20
1824.193072380389
 30
0.0
  0
VERTEX
  5
2C4
  8
0
  6
CONTINUOUS
 62
     1
 10
108.8869188838118
 20
1824.327146941261
 30
0.0
  0
VERTEX
  5
2C5
  8
0
  6
CONTINUOUS
 62
     1
 10
109.0133510664291
 20
1824.461701760167
 30
0.0
  0
VERTEX
  5
2C6
  8
0
  6
CONTINUOUS
 62
     1
 10
109.1392903472025
 20
1824.596736837108
 30
0.0
  0
VERTEX
  5
2C7
  8
0
  6
CONTINUOUS
 62
     1
 10
109.2647367261322
 20
1824.732252172082
 30
0.0
  0
VERTEX
  5
2C8
  8
0
  6
CONTINUOUS
 62
     1
 10
109.389690203218
 20
1824.86824776509
 30
0.0
  0
VERTEX
  5
2C9
  8
0
  6
CONTINUOUS
 62
     1
 10
109.51415077846
 20
1825.004723616133
 30
0.0
  0
VERTEX
  5
2CA
  8
0
  6
CONTINUOUS
 62
     1
 10
109.6381184518582
 20
1825.14167972521
 30
0.0
  0
VERTEX
  5
2CB
  8
0
  6
CONTINUOUS
 62
     1
 10
109.7615932234126
 20
1825.279116092321
 30
0.0
  0
VERTEX
  5
2CC
  8
0
  6
CONTINUOUS
 62
     1
 10
109.8845750931232
 20
1825.417032717466
 30
0.0
  0
VERTEX
  5
2CD
  8
0
  6
CONTINUOUS
 62
     1
 10
110.00706406099
 20
1825.555429600645
 30
0.0
  0
VERTEX
  5
2CE
  8
0
  6
CONTINUOUS
 62
     1
 10
110.129060127013
 20
1825.694306741858
 30
0.0
  0
VERTEX
  5
2CF
  8
0
  6
CONTINUOUS
 62
     1
 10
110.2505632911922
 20
1825.833664141106
 30
0.0
  0
VERTEX
  5
2D0
  8
0
  6
CONTINUOUS
 62
     1
 10
110.3715735535275
 20
1825.973501798387
 30
0.0
  0
VERTEX
  5
2D1
  8
0
  6
CONTINUOUS
 62
     1
 10
110.492090914019
 20
1826.113819713703
 30
0.0
  0
VERTEX
  5
2D2
  8
0
  6
CONTINUOUS
 62
     1
 10
110.6121153726668
 20
1826.254617887053
 30
0.0
  0
VERTEX
  5
2D3
  8
0
  6
CONTINUOUS
 62
     1
 10
110.7316469294707
 20
1826.395896318436
 30
0.0
  0
VERTEX
  5
2D4
  8
0
  6
CONTINUOUS
 62
     1
 10
110.8506855844308
 20
1826.537655007854
 30
0.0
  0
VERTEX
  5
2D5
  8
0
  6
CONTINUOUS
 62
     1
 10
110.9692313375471
 20
1826.679893955306
 30
0.0
  0
VERTEX
  5
2D6
  8
0
  6
CONTINUOUS
 62
     1
 10
110.9692313375471
 20
1826.679893955306
 30
0.0
  0
SEQEND
  5
2D7
  8
0
  6
CONTINUOUS
 62
     1
  0
POLYLINE
  5
2D8
  8
0
  6
CONTINUOUS
 62
     1
 66
     1
 10
0.0
 20
0.0
 30
0.0
 70
   128
  0
VERTEX
  5
2D9
  8
0
  6
CONTINUOUS
 62
     1
 10
-109.4012632458918
 20
1950.369455022904
 30
0.0
 42
-0.0134149469312955
 70
     2
 50
12.53640463650267
  0
VERTEX
  5
2DA
  8
0
  6
CONTINUOUS
 62
     1
 10
-109.4717028349897
 20
1950.738545763583
 30
0.0
  0
SEQEND
  5
2DB
  8
0
  6
CONTINUOUS
 62
     1
  0
POLYLINE
  5
2DC
  8
0
  6
CONTINUOUS
 62
     1
 66
     1
 10
0.0
 20
0.0
 30
0.0
 70
   128
  0
VERTEX
  5
2DD
  8
0
  6
CONTINUOUS
 62
     1
 10
-109.4012518532771
 20
1950.369447942658
 30
0.0
  0
VERTEX
  5
2DE
  8
0
  6
CONTINUOUS
 62
     1
 10
-109.274087631474
 20
1949.792756788137
 30
0.0
  0
VERTEX
  5
2DF
  8
0
  6
CONTINUOUS
 62
     1
 10
-109.1455429669548
 20
1949.21643977219
 30
0.0
  0
VERTEX
  5
2E0
  8
0
  6
CONTINUOUS
 62
     1
 10
-109.0156178597196
 20
1948.640496894815
 30
0.0
  0
VERTEX
  5
2E1
  8
0
  6
CONTINUOUS
 62
     1
 10
-108.8843123097685
 20
1948.064928156014
 30
0.0
  0
VERTEX
  5
2E2
  8
0
  6
CONTINUOUS
 62
     1
 10
-108.7516263171012
 20
1947.489733555784
 30
0.0
  0
VERTEX
  5
2E3
  8
0
  6
CONTINUOUS
 62
     1
 10
-108.617559881718
 20
1946.914913094128
 30
0.0
  0
VERTEX
  5
2E4
  8
0
  6
CONTINUOUS
 62
     1
 10
-108.4821130036188
 20
1946.340466771044
 30
0.0
  0
VERTEX
  5
2E5
  8
0
  6
CONTINUOUS
 62
     1
 10
-108.3452856828035
 20
1945.766394586533
 30
0.0
  0
VERTEX
  5
2E6
  8
0
  6
CONTINUOUS
 62
     1
 10
-108.2070779192722
 20
1945.192696540595
 30
0.0
  0
VERTEX
  5
2E7
  8
0
  6
CONTINUOUS
 62
     1
 10
-108.0674897130249
 20
1944.61937263323
 30
0.0
  0
VERTEX
  5
2E8
  8
0
  6
CONTINUOUS
 62
     1
 10
-107.9265210640616
 20
1944.046422864437
 30
0.0
  0
VERTEX
  5
2E9
  8
0
  6
CONTINUOUS
 62
     1
 10
-107.7841719723823
 20
1943.473847234217
 30
0.0
  0
VERTEX
  5
2EA
  8
0
  6
CONTINUOUS
 62
     1
 10
-107.6404424379869
 20
1942.90164574257
 30
0.0
  0
VERTEX
  5
2EB
  8
0
  6
CONTINUOUS
 62
     1
 10
-107.4953324608756
 20
1942.329818389495
 30
0.0
  0
VERTEX
  5
2EC
  8
0
  6
CONTINUOUS
 62
     1
 10
-107.3488420410482
 20
1941.758365174993
 30
0.0
  0
VERTEX
  5
2ED
  8
0
  6
CONTINUOUS
 62
     1
 10
-107.2009711785048
 20
1941.187286099065
 30
0.0
  0
VERTEX
  5
2EE
  8
0
  6
CONTINUOUS
 62
     1
 10
-107.0517198732454
 20
1940.616581161708
 30
0.0
  0
VERTEX
  5
2EF
  8
0
  6
CONTINUOUS
 62
     1
 10
-106.9010881252699
 20
1940.046250362925
 30
0.0
  0
VERTEX
  5
2F0
  8
0
  6
CONTINUOUS
 62
     1
 10
-106.7490759345785
 20
1939.476293702714
 30
0.0
  0
VERTEX
  5
2F1
  8
0
  6
CONTINUOUS
 62
     1
 10
-106.595683301171
 20
1938.906711181076
 30
0.0
  0
VERTEX
  5
2F2
  8
0
  6
CONTINUOUS
 62
     1
 10
-106.4409102250475
 20
1938.337502798011
 30
0.0
  0
VERTEX
  5
2F3
  8
0
  6
CONTINUOUS
 62
     1
 10
-106.284756706208
 20
1937.768668553518
 30
0.0
  0
VERTEX
  5
2F4
  8
0
  6
CONTINUOUS
 62
     1
 10
-106.1272227446525
 20
1937.200208447598
 30
0.0
  0
VERTEX
  5
2F5
  8
0
  6
CONTINUOUS
 62
     1
 10
-105.968308340381
 20
1936.632122480251
 30
0.0
  0
VERTEX
  5
2F6
  8
0
  6
CONTINUOUS
 62
     1
 10
-105.8080134933934
 20
1936.064410651476
 30
0.0
  0
VERTEX
  5
2F7
  8
0
  6
CONTINUOUS
 62
     1
 10
-105.6463382036899
 20
1935.497072961275
 30
0.0
  0
VERTEX
  5
2F8
  8
0
  6
CONTINUOUS
 62
     1
 10
-105.4832824712703
 20
1934.930109409646
 30
0.0
  0
VERTEX
  5
2F9
  8
0
  6
CONTINUOUS
 62
     1
 10
-105.3188462961347
 20
1934.36351999659
 30
0.0
  0
VERTEX
  5
2FA
  8
0
  6
CONTINUOUS
 62
     1
 10
-105.153029678283
 20
1933.797304722106
 30
0.0
  0
VERTEX
  5
2FB
  8
0
  6
CONTINUOUS
 62
     1
 10
-104.9858326177154
 20
1933.231463586196
 30
0.0
  0
VERTEX
  5
2FC
  8
0
  6
CONTINUOUS
 62
     1
 10
-104.8172551144317
 20
1932.665996588858
 30
0.0
  0
VERTEX
  5
2FD
  8
0
  6
CONTINUOUS
 62
     1
 10
-104.6472971684321
 20
1932.100903730093
 30
0.0
  0
VERTEX
  5
2FE
  8
0
  6
CONTINUOUS
 62
     1
 10
-104.4759587797164
 20
1931.5361850099
 30
0.0
  0
VERTEX
  5
2FF
  8
0
  6
CONTINUOUS
 62
     1
 10
-104.3032399482847
 20
1930.971840428281
 30
0.0
  0
VERTEX
  5
300
  8
0
  6
CONTINUOUS
 62
     1
 10
-104.1291406741369
 20
1930.407869985233
 30
0.0
  0
VERTEX
  5
301
  8
0
  6
CONTINUOUS
 62
     1
 10
-103.9536609572732
 20
1929.844273680759
 30
0.0
  0
VERTEX
  5
302
  8
0
  6
CONTINUOUS
 62
     1
 10
-103.7768007976934
 20
1929.281051514858
 30
0.0
  0
VERTEX
  5
303
  8
0
  6
CONTINUOUS
 62
     1
 10
-103.5985601953977
 20
1928.718203487529
 30
0.0
  0
VERTEX
  5
304
  8
0
  6
CONTINUOUS
 62
     1
 10
-103.4189391503859
 20
1928.155729598773
 30
0.0
  0
VERTEX
  5
305
  8
0
  6
CONTINUOUS
 62
     1
 10
-103.2379376626581
 20
1927.59362984859
 30
0.0
  0
VERTEX
  5
306
  8
0
  6
CONTINUOUS
 62
     1
 10
-103.0555557322142
 20
1927.031904236979
 30
0.0
  0
VERTEX
  5
307
  8
0
  6
CONTINUOUS
 62
     1
 10
-102.8717933590544
 20
1926.470552763941
 30
0.0
  0
VERTEX
  5
308
  8
0
  6
CONTINUOUS
 62
     1
 10
-102.6866505431785
 20
1925.909575429476
 30
0.0
  0
VERTEX
  5
309
  8
0
  6
CONTINUOUS
 62
     1
 10
-102.5001272845867
 20
1925.348972233584
 30
0.0
  0
VERTEX
  5
30A
  8
0
  6
CONTINUOUS
 62
     1
 10
-102.3122235832788
 20
1924.788743176264
 30
0.0
  0
VERTEX
  5
30B
  8
0
  6
CONTINUOUS
 62
     1
 10
-102.1229394392548
 20
1924.228888257517
 30
0.0
  0
VERTEX
  5
30C
  8
0
  6
CONTINUOUS
 62
     1
 10
-101.9322748525149
 20
1923.669407477343
 30
0.0
  0
VERTEX
  5
30D
  8
0
  6
CONTINUOUS
 62
     1
 10
-101.740229823059
 20
1923.110300835742
 30
0.0
  0
VERTEX
  5
30E
  8
0
  6
CONTINUOUS
 62
     1
 10
-101.546804350887
 20
1922.551568332713
 30
0.0
  0
VERTEX
  5
30F
  8
0
  6
CONTINUOUS
 62
     1
 10
-101.351998435999
 20
1921.993209968258
 30
0.0
  0
VERTEX
  5
310
  8
0
  6
CONTINUOUS
 62
     1
 10
-101.155812078395
 20
1921.435225742374
 30
0.0
  0
VERTEX
  5
311
  8
0
  6
CONTINUOUS
 62
     1
 10
-100.958245278075
 20
1920.877615655064
 30
0.0
  0
VERTEX
  5
312
  8
0
  6
CONTINUOUS
 62
     1
 10
-100.759298035039
 20
1920.320379706326
 30
0.0
  0
VERTEX
  5
313
  8
0
  6
CONTINUOUS
 62
     1
 10
-100.558970349287
 20
1919.763517896161
 30
0.0
  0
VERTEX
  5
314
  8
0
  6
CONTINUOUS
 62
     1
 10
-100.3572622208189
 20
1919.207030224569
 30
0.0
  0
VERTEX
  5
315
  8
0
  6
CONTINUOUS
 62
     1
 10
-100.1541736496348
 20
1918.65091669155
 30
0.0
  0
VERTEX
  5
316
  8
0
  6
CONTINUOUS
 62
     1
 10
-99.94970463573469
 20
1918.095177297103
 30
0.0
  0
VERTEX
  5
317
  8
0
  6
CONTINUOUS
 62
     1
 10
-99.74385517911858
 20
1917.539812041229
 30
0.0
  0
VERTEX
  5
318
  8
0
  6
CONTINUOUS
 62
     1
 10
-99.53662527978643
 20
1916.984820923928
 30
0.0
  0
VERTEX
  5
319
  8
0
  6
CONTINUOUS
 62
     1
 10
-99.32801493773829
 20
1916.4302039452
 30
0.0
  0
VERTEX
  5
31A
  8
0
  6
CONTINUOUS
 62
     1
 10
-99.11802415297413
 20
1915.875961105044
 30
0.0
  0
VERTEX
  5
31B
  8
0
  6
CONTINUOUS
 62
     1
 10
-98.90665292549394
 20
1915.322092403461
 30
0.0
  0
VERTEX
  5
31C
  8
0
  6
CONTINUOUS
 62
     1
 10
-98.69390125529773
 20
1914.76859784045
 30
0.0
  0
VERTEX
  5
31D
  8
0
  6
CONTINUOUS
 62
     1
 10
-98.47976914238552
 20
1914.215477416013
 30
0.0
  0
VERTEX
  5
31E
  8
0
  6
CONTINUOUS
 62
     1
 10
-98.26436368425092
 20
1913.662842154053
 30
0.0
  0
VERTEX
  5
31F
  8
0
  6
CONTINUOUS
 62
     1
 10
-98.04779197838758
 20
1913.110803078474
 30
0.0
  0
VERTEX
  5
320
  8
0
  6
CONTINUOUS
 62
     1
 10
-97.8300540247955
 20
1912.559360189276
 30
0.0
  0
VERTEX
  5
321
  8
0
  6
CONTINUOUS
 62
     1
 10
-97.61114982347468
 20
1912.008513486459
 30
0.0
  0
VERTEX
  5
322
  8
0
  6
CONTINUOUS
 62
     1
 10
-97.3910793744251
 20
1911.458262970025
 30
0.0
  0
VERTEX
  5
323
  8
0
  6
CONTINUOUS
 62
     1
 10
-97.16984267764678
 20
1910.908608639971
 30
0.0
  0
VERTEX
  5
324
  8
0
  6
CONTINUOUS
 62
     1
 10
-96.94743973313973
 20
1910.359550496299
 30
0.0
  0
VERTEX
  5
325
  8
0
  6
CONTINUOUS
 62
     1
 10
-96.72387054090393
 20
1909.811088539009
 30
0.0
  0
VERTEX
  5
326
  8
0
  6
CONTINUOUS
 62
     1
 10
-96.49913510093938
 20
1909.263222768099
 30
0.0
  0
VERTEX
  5
327
  8
0
  6
CONTINUOUS
 62
     1
 10
-96.27323341324609
 20
1908.715953183572
 30
0.0
  0
VERTEX
  5
328
  8
0
  6
CONTINUOUS
 62
     1
 10
-96.04616547782406
 20
1908.169279785425
 30
0.0
  0
VERTEX
  5
329
  8
0
  6
CONTINUOUS
 62
     1
 10
-95.81793129467329
 20
1907.62320257366
 30
0.0
  0
VERTEX
  5
32A
  8
0
  6
CONTINUOUS
 62
     1
 10
-95.58853086379378
 20
1907.077721548277
 30
0.0
  0
VERTEX
  5
32B
  8
0
  6
CONTINUOUS
 62
     1
 10
-95.35796418518552
 20
1906.532836709275
 30
0.0
  0
VERTEX
  5
32C
  8
0
  6
CONTINUOUS
 62
     1
 10
-95.12623125884852
 20
1905.988548056654
 30
0.0
  0
VERTEX
  5
32D
  8
0
  6
CONTINUOUS
 62
     1
 10
-94.89333208478277
 20
1905.444855590415
 30
0.0
  0
VERTEX
  5
32E
  8
0
  6
CONTINUOUS
 62
     1
 10
-94.65926666298827
 20
1904.901759310557
 30
0.0
  0
VERTEX
  5
32F
  8
0
  6
CONTINUOUS
 62
     1
 10
-94.42403499346504
 20
1904.359259217081
 30
0.0
  0
VERTEX
  5
330
  8
0
  6
CONTINUOUS
 62
     1
 10
-94.18763707621306
 20
1903.817355309985
 30
0.0
  0
VERTEX
  5
331
  8
0
  6
CONTINUOUS
 62
     1
 10
-93.95007291123235
 20
1903.276047589272
 30
0.0
  0
VERTEX
  5
332
  8
0
  6
CONTINUOUS
 62
     1
 10
-93.7113424985229
 20
1902.73533605494
 30
0.0
  0
VERTEX
  5
333
  8
0
  6
CONTINUOUS
 62
     1
 10
-93.47144583808469
 20
1902.195220706989
 30
0.0
  0
VERTEX
  5
334
  8
0
  6
CONTINUOUS
 62
     1
 10
-93.23038292991774
 20
1901.65570154542
 30
0.0
  0
VERTEX
  5
335
  8
0
  6
CONTINUOUS
 62
     1
 10
-92.98815377402205
 20
1901.116778570231
 30
0.0
  0
VERTEX
  5
336
  8
0
  6
CONTINUOUS
 62
     1
 10
-92.74475837039762
 20
1900.578451781425
 30
0.0
  0
VERTEX
  5
337
  8
0
  6
CONTINUOUS
 62
     1
 10
-92.50019671904444
 20
1900.040721179
 30
0.0
  0
VERTEX
  5
338
  8
0
  6
CONTINUOUS
 62
     1
 10
-92.25446881996251
 20
1899.503586762956
 30
0.0
  0
VERTEX
  5
339
  8
0
  6
CONTINUOUS
 62
     1
 10
-92.00757467315185
 20
1898.967048533293
 30
0.0
  0
VERTEX
  5
33A
  8
0
  6
CONTINUOUS
 62
     1
 10
-91.75951427861244
 20
1898.431106490013
 30
0.0
  0
VERTEX
  5
33B
  8
0
  6
CONTINUOUS
 62
     1
 10
-91.51028763634429
 20
1897.895760633113
 30
0.0
  0
VERTEX
  5
33C
  8
0
  6
CONTINUOUS
 62
     1
 10
-91.2598947463474
 20
1897.361010962595
 30
0.0
  0
VERTEX
  5
33D
  8
0
  6
CONTINUOUS
 62
     1
 10
-91.00833560862176
 20
1896.826857478458
 30
0.0
  0
VERTEX
  5
33E
  8
0
  6
CONTINUOUS
 62
     1
 10
-90.75561022316738
 20
1896.293300180703
 30
0.0
  0
VERTEX
  5
33F
  8
0
  6
CONTINUOUS
 62
     1
 10
-90.50171858998425
 20
1895.760339069329
 30
0.0
  0
VERTEX
  5
340
  8
0
  6
CONTINUOUS
 62
     1
 10
-90.24666070907239
 20
1895.227974144336
 30
0.0
  0
VERTEX
  5
341
  8
0
  6
CONTINUOUS
 62
     1
 10
-89.99043658043178
 20
1894.696205405725
 30
0.0
  0
VERTEX
  5
342
  8
0
  6
CONTINUOUS
 62
     1
 10
-89.73304620406242
 20
1894.165032853495
 30
0.0
  0
VERTEX
  5
343
  8
0
  6
CONTINUOUS
 62
     1
 10
-89.47448957996433
 20
1893.634456487647
 30
0.0
  0
VERTEX
  5
344
  8
0
  6
CONTINUOUS
 62
     1
 10
-89.21476670813749
 20
1893.10447630818
 30
0.0
  0
VERTEX
  5
345
  8
0
  6
CONTINUOUS
 62
     1
 10
-88.95387758858192
 20
1892.575092315095
 30
0.0
  0
VERTEX
  5
346
  8
0
  6
CONTINUOUS
 62
     1
 10
-88.6918222212976
 20
1892.046304508391
 30
0.0
  0
VERTEX
  5
347
  8
0
  6
CONTINUOUS
 62
     1
 10
-88.42860060628453
 20
1891.518112888068
 30
0.0
  0
VERTEX
  5
348
  8
0
  6
CONTINUOUS
 62
     1
 10
-88.16421274354272
 20
1890.990517454127
 30
0.0
  0
VERTEX
  5
349
  8
0
  6
CONTINUOUS
 62
     1
 10
-87.89865863307216
 20
1890.463518206567
 30
0.0
  0
VERTEX
  5
34A
  8
0
  6
CONTINUOUS
 62
     1
 10
-87.63193827487287
 20
1889.937115145389
 30
0.0
  0
VERTEX
  5
34B
  8
0
  6
CONTINUOUS
 62
     1
 10
-87.36405166894482
 20
1889.411308270592
 30
0.0
  0
VERTEX
  5
34C
  8
0
  6
CONTINUOUS
 62
     1
 10
-87.09499881528805
 20
1888.886097582176
 30
0.0
  0
VERTEX
  5
34D
  8
0
  6
CONTINUOUS
 62
     1
 10
-86.82477971390253
 20
1888.361483080142
 30
0.0
  0
VERTEX
  5
34E
  8
0
  6
CONTINUOUS
 62
     1
 10
-86.55339436478826
 20
1887.837464764489
 30
0.0
  0
VERTEX
  5
34F
  8
0
  6
CONTINUOUS
 62
     1
 10
-86.28084276794524
 20
1887.314042635218
 30
0.0
  0
VERTEX
  5
350
  8
0
  6
CONTINUOUS
 62
     1
 10
-86.0071249233735
 20
1886.791216692328
 30
0.0
  0
VERTEX
  5
351
  8
0
  6
CONTINUOUS
 62
     1
 10
-85.732240831073
 20
1886.26898693582
 30
0.0
  0
VERTEX
  5
352
  8
0
  6
CONTINUOUS
 62
     1
 10
-85.45619049104376
 20
1885.747353365693
 30
0.0
  0
VERTEX
  5
353
  8
0
  6
CONTINUOUS
 62
     1
 10
-85.17897390328577
 20
1885.226315981947
 30
0.0
  0
VERTEX
  5
354
  8
0
  6
CONTINUOUS
 62
     1
 10
-84.90059106779904
 20
1884.705874784583
 30
0.0
  0
VERTEX
  5
355
  8
0
  6
CONTINUOUS
 62
     1
 10
-84.62104198458357
 20
1884.1860297736
 30
0.0
  0
VERTEX
  5
356
  8
0
  6
CONTINUOUS
 62
     1
 10
-84.34032665363935
 20
1883.666780948998
 30
0.0
  0
VERTEX
  5
357
  8
0
  6
CONTINUOUS
 62
     1
 10
-84.05844507496639
 20
1883.148128310778
 30
0.0
  0
VERTEX
  5
358
  8
0
  6
CONTINUOUS
 62
     1
 10
-83.77539724856469
 20
1882.63007185894
 30
0.0
  0
VERTEX
  5
359
  8
0
  6
CONTINUOUS
 62
     1
 10
-83.49118317443424
 20
1882.112611593482
 30
0.0
  0
VERTEX
  5
35A
  8
0
  6
CONTINUOUS
 62
     1
 10
-83.20580285257506
 20
1881.595747514407
 30
0.0
  0
VERTEX
  5
35B
  8
0
  6
CONTINUOUS
 62
     1
 10
-82.91925628298713
 20
1881.079479621712
 30
0.0
  0
VERTEX
  5
35C
  8
0
  6
CONTINUOUS
 62
     1
 10
-82.63154346567046
 20
1880.563807915399
 30
0.0
  0
VERTEX
  5
35D
  8
0
  6
CONTINUOUS
 62
     1
 10
-82.34266440062504
 20
1880.048732395468
 30
0.0
  0
VERTEX
  5
35E
  8
0
  6
CONTINUOUS
 62
     1
 10
-82.34266440062504
 20
1880.048732395468
 30
0.0
  0
SEQEND
  5
35F
  8
0
  6
CONTINUOUS
 62
     1
  0
POLYLINE
  5
360
  8
0
  6
CONTINUOUS
 62
     1
 66
     1
 10
0.0
 20
0.0
 30
0.0
 70
   128
  0
VERTEX
  5
361
  8
0
  6
CONTINUOUS
 62
     1
 10
-82.34266414541514
 20
1880.048732395503
 30
0.0
 42
0.0032459874284026
 70
     2
 50
32.2318842305999
  0
VERTEX
  5
362
  8
0
  6
CONTINUOUS
 62
     1
 10
-80.95280500099022
 20
1877.615208999961
 30
0.0
  0
SEQEND
  5
363
  8
0
  6
CONTINUOUS
 62
     1
  0
POLYLINE
  5
364
  8
0
  6
CONTINUOUS
 62
     1
 66
     1
 10
0.0
 20
0.0
 30
0.0
 70
   128
  0
VERTEX
  5
365
  8
0
  6
CONTINUOUS
 62
     1
 10
-55.30592872994021
 20
1843.109984127785
 30
0.0
  0
VERTEX
  5
366
  8
0
  6
CONTINUOUS
 62
     1
 10
-55.53757298327089
 20
1843.354260419605
 30
0.0
  0
VERTEX
  5
367
  8
0
  6
CONTINUOUS
 62
     1
 10
-55.76872558971712
 20
1843.598964726511
 30
0.0
  0
VERTEX
  5
368
  8
0
  6
CONTINUOUS
 62
     1
 10
-55.9993865492789
 20
1843.844097048502
 30
0.0
  0
VERTEX
  5
369
  8
0
  6
CONTINUOUS
 62
     1
 10
-56.22955586195621
 20
1844.089657385578
 30
0.0
  0
VERTEX
  5
36A
  8
0
  6
CONTINUOUS
 62
     1
 10
-56.45923352774908
 20
1844.335645737739
 30
0.0
  0
VERTEX
  5
36B
  8
0
  6
CONTINUOUS
 62
     1
 10
-56.68841954665749
 20
1844.582062104986
 30
0.0
  0
VERTEX
  5
36C
  8
0
  6
CONTINUOUS
 62
     1
 10
-56.91711391868143
 20
1844.828906487317
 30
0.0
  0
VERTEX
  5
36D
  8
0
  6
CONTINUOUS
 62
     1
 10
-57.14531664382092
 20
1845.076178884735
 30
0.0
  0
VERTEX
  5
36E
  8
0
  6
CONTINUOUS
 62
     1
 10
-57.37302772207595
 20
1845.323879297237
 30
0.0
  0
VERTEX
  5
36F
  8
0
  6
CONTINUOUS
 62
     1
 10
-57.60024715344653
 20
1845.572007724825
 30
0.0
  0
VERTEX
  5
370
  8
0
  6
CONTINUOUS
 62
     1
 10
-57.82697493793265
 20
1845.820564167497
 30
0.0
  0
VERTEX
  5
371
  8
0
  6
CONTINUOUS
 62
     1
 10
-58.05321107553431
 20
1846.069548625255
 30
0.0
  0
VERTEX
  5
372
  8
0
  6
CONTINUOUS
 62
     1
 10
-58.27895556625153
 20
1846.318961098098
 30
0.0
  0
VERTEX
  5
373
  8
0
  6
CONTINUOUS
 62
     1
 10
-58.50420841008427
 20
1846.568801586027
 30
0.0
  0
VERTEX
  5
374
  8
0
  6
CONTINUOUS
 62
     1
 10
-58.72896960703257
 20
1846.819070089041
 30
0.0
  0
VERTEX
  5
375
  8
0
  6
CONTINUOUS
 62
     1
 10
-58.95323915709641
 20
1847.06976660714
 30
0.0
  0
VERTEX
  5
376
  8
0
  6
CONTINUOUS
 62
     1
 10
-59.17701706027579
 20
1847.320891140324
 30
0.0
  0
VERTEX
  5
377
  8
0
  6
CONTINUOUS
 62
     1
 10
-59.40030331657071
 20
1847.572443688594
 30
0.0
  0
VERTEX
  5
378
  8
0
  6
CONTINUOUS
 62
     1
 10
-59.62309792598118
 20
1847.824424251949
 30
0.0
  0
VERTEX
  5
379
  8
0
  6
CONTINUOUS
 62
     1
 10
-59.84540088850719
 20
1848.076832830388
 30
0.0
  0
VERTEX
  5
37A
  8
0
  6
CONTINUOUS
 62
     1
 10
-60.06721220414875
 20
1848.329669423914
 30
0.0
  0
VERTEX
  5
37B
  8
0
  6
CONTINUOUS
 62
     1
 10
-60.28853187290584
 20
1848.582934032524
 30
0.0
  0
VERTEX
  5
37C
  8
0
  6
CONTINUOUS
 62
     1
 10
-60.50935989477848
 20
1848.83662665622
 30
0.0
  0
VERTEX
  5
37D
  8
0
  6
CONTINUOUS
 62
     1
 10
-60.72969626976666
 20
1849.090747295001
 30
0.0
  0
VERTEX
  5
37E
  8
0
  6
CONTINUOUS
 62
     1
 10
-60.94954099787039
 20
1849.345295948867
 30
0.0
  0
VERTEX
  5
37F
  8
0
  6
CONTINUOUS
 62
     1
 10
-61.16889407908965
 20
1849.600272617819
 30
0.0
  0
VERTEX
  5
380
  8
0
  6
CONTINUOUS
 62
     1
 10
-61.38775551342447
 20
1849.855677301855
 30
0.0
  0
VERTEX
  5
381
  8
0
  6
CONTINUOUS
 62
     1
 10
-61.60612530087482
 20
1850.111510000977
 30
0.0
  0
VERTEX
  5
382
  8
0
  6
CONTINUOUS
 62
     1
 10
-61.82400344144072
 20
1850.367770715184
 30
0.0
  0
VERTEX
  5
383
  8
0
  6
CONTINUOUS
 62
     1
 10
-62.04138993512217
 20
1850.624459444477
 30
0.0
  0
VERTEX
  5
384
  8
0
  6
CONTINUOUS
 62
     1
 10
-62.25828478191915
 20
1850.881576188854
 30
0.0
  0
VERTEX
  5
385
  8
0
  6
CONTINUOUS
 62
     1
 10
-62.47468798183168
 20
1851.139120948317
 30
0.0
  0
VERTEX
  5
386
  8
0
  6
CONTINUOUS
 62
     1
 10
-62.69059953485975
 20
1851.397093722865
 30
0.0
  0
VERTEX
  5
387
  8
0
  6
CONTINUOUS
 62
     1
 10
-62.90601944100337
 20
1851.655494512499
 30
0.0
  0
VERTEX
  5
388
  8
0
  6
CONTINUOUS
 62
     1
 10
-63.12094770026252
 20
1851.914323317217
 30
0.0
  0
VERTEX
  5
389
  8
0
  6
CONTINUOUS
 62
     1
 10
-63.33538431263722
 20
1852.173580137021
 30
0.0
  0
VERTEX
  5
38A
  8
0
  6
CONTINUOUS
 62
     1
 10
-63.54932927812747
 20
1852.43326497191
 30
0.0
  0
VERTEX
  5
38B
  8
0
  6
CONTINUOUS
 62
     1
 10
-63.76278259673326
 20
1852.693377821885
 30
0.0
  0
VERTEX
  5
38C
  8
0
  6
CONTINUOUS
 62
     1
 10
-63.97574426845459
 20
1852.953918686944
 30
0.0
  0
VERTEX
  5
38D
  8
0
  6
CONTINUOUS
 62
     1
 10
-64.18821429329147
 20
1853.214887567089
 30
0.0
  0
VERTEX
  5
38E
  8
0
  6
CONTINUOUS
 62
     1
 10
-64.40019267124389
 20
1853.476284462319
 30
0.0
  0
VERTEX
  5
38F
  8
0
  6
CONTINUOUS
 62
     1
 10
-64.61167940231185
 20
1853.738109372634
 30
0.0
  0
VERTEX
  5
390
  8
0
  6
CONTINUOUS
 62
     1
 10
-64.82267448649536
 20
1854.000362298035
 30
0.0
  0
VERTEX
  5
391
  8
0
  6
CONTINUOUS
 62
     1
 10
-65.0331779237944
 20
1854.26304323852
 30
0.0
  0
VERTEX
  5
392
  8
0
  6
CONTINUOUS
 62
     1
 10
-65.243189714209
 20
1854.526152194092
 30
0.0
  0
VERTEX
  5
393
  8
0
  6
CONTINUOUS
 62
     1
 10
-65.45270985773914
 20
1854.789689164748
 30
0.0
  0
VERTEX
  5
394
  8
0
  6
CONTINUOUS
 62
     1
 10
-65.66173835438481
 20
1855.053654150489
 30
0.0
  0
VERTEX
  5
395
  8
0
  6
CONTINUOUS
 62
     1
 10
-65.87027520414603
 20
1855.318047151316
 30
0.0
  0
VERTEX
  5
396
  8
0
  6
CONTINUOUS
 62
     1
 10
-66.07832040702279
 20
1855.582868167228
 30
0.0
  0
VERTEX
  5
397
  8
0
  6
CONTINUOUS
 62
     1
 10
-66.28587396301509
 20
1855.848117198225
 30
0.0
  0
VERTEX
  5
398
  8
0
  6
CONTINUOUS
 62
     1
 10
-66.49293587212294
 20
1856.113794244307
 30
0.0
  0
VERTEX
  5
399
  8
0
  6
CONTINUOUS
 62
     1
 10
-66.69950613434634
 20
1856.379899305475
 30
0.0
  0
VERTEX
  5
39A
  8
0
  6
CONTINUOUS
 62
     1
 10
-66.90558474968527
 20
1856.646432381728
 30
0.0
  0
VERTEX
  5
39B
  8
0
  6
CONTINUOUS
 62
     1
 10
-67.11117171813974
 20
1856.913393473066
 30
0.0
  0
VERTEX
  5
39C
  8
0
  6
CONTINUOUS
 62
     1
 10
-67.31626703970976
 20
1857.18078257949
 30
0.0
  0
VERTEX
  5
39D
  8
0
  6
CONTINUOUS
 62
     1
 10
-67.52087071439533
 20
1857.448599700999
 30
0.0
  0
VERTEX
  5
39E
  8
0
  6
CONTINUOUS
 62
     1
 10
-67.72498274219645
 20
1857.716844837592
 30
0.0
  0
VERTEX
  5
39F
  8
0
  6
CONTINUOUS
 62
     1
 10
-67.92860312311309
 20
1857.985517989272
 30
0.0
  0
VERTEX
  5
3A0
  8
0
  6
CONTINUOUS
 62
     1
 10
-68.13173185714528
 20
1858.254619156036
 30
0.0
  0
VERTEX
  5
3A1
  8
0
  6
CONTINUOUS
 62
     1
 10
-68.33436894429303
 20
1858.524148337886
 30
0.0
  0
VERTEX
  5
3A2
  8
0
  6
CONTINUOUS
 62
     1
 10
-68.53651438455631
 20
1858.794105534821
 30
0.0
  0
VERTEX
  5
3A3
  8
0
  6
CONTINUOUS
 62
     1
 10
-68.73816817793514
 20
1859.064490746841
 30
0.0
  0
VERTEX
  5
3A4
  8
0
  6
CONTINUOUS
 62
     1
 10
-68.9393303244295
 20
1859.335303973946
 30
0.0
  0
VERTEX
  5
3A5
  8
0
  6
CONTINUOUS
 62
     1
 10
-69.14000082403942
 20
1859.606545216137
 30
0.0
  0
VERTEX
  5
3A6
  8
0
  6
CONTINUOUS
 62
     1
 10
-69.34017788618027
 20
1859.878155689049
 30
0.0
  0
VERTEX
  5
3A7
  8
0
  6
CONTINUOUS
 62
     1
 10
-69.53985972026746
 20
1860.15007660832
 30
0.0
  0
VERTEX
  5
3A8
  8
0
  6
CONTINUOUS
 62
     1
 10
-69.73904632630097
 20
1860.42230797395
 30
0.0
  0
VERTEX
  5
3A9
  8
0
  6
CONTINUOUS
 62
     1
 10
-69.9377377042808
 20
1860.694849785938
 30
0.0
  0
VERTEX
  5
3AA
  8
0
  6
CONTINUOUS
 62
     1
 10
-70.13593385420697
 20
1860.967702044285
 30
0.0
  0
VERTEX
  5
3AB
  8
0
  6
CONTINUOUS
 62
     1
 10
-70.33363477607948
 20
1861.240864748991
 30
0.0
  0
VERTEX
  5
3AC
  8
0
  6
CONTINUOUS
 62
     1
 10
-70.53084046989831
 20
1861.514337900056
 30
0.0
  0
VERTEX
  5
3AD
  8
0
  6
CONTINUOUS
 62
     1
 10
-70.72755093566346
 20
1861.788121497479
 30
0.0
  0
VERTEX
  5
3AE
  8
0
  6
CONTINUOUS
 62
     1
 10
-70.92376617337494
 20
1862.06221554126
 30
0.0
  0
VERTEX
  5
3AF
  8
0
  6
CONTINUOUS
 62
     1
 10
-71.11948618303276
 20
1862.336620031401
 30
0.0
  0
VERTEX
  5
3B0
  8
0
  6
CONTINUOUS
 62
     1
 10
-71.31471096463692
 20
1862.611334967899
 30
0.0
  0
VERTEX
  5
3B1
  8
0
  6
CONTINUOUS
 62
     1
 10
-71.5094405181874
 20
1862.886360350757
 30
0.0
  0
VERTEX
  5
3B2
  8
0
  6
CONTINUOUS
 62
     1
 10
-71.70367484368421
 20
1863.161696179973
 30
0.0
  0
VERTEX
  5
3B3
  8
0
  6
CONTINUOUS
 62
     1
 10
-71.89741394112735
 20
1863.437342455548
 30
0.0
  0
VERTEX
  5
3B4
  8
0
  6
CONTINUOUS
 62
     1
 10
-72.09065781051682
 20
1863.713299177482
 30
0.0
  0
VERTEX
  5
3B5
  8
0
  6
CONTINUOUS
 62
     1
 10
-72.28340645185261
 20
1863.989566345773
 30
0.0
  0
VERTEX
  5
3B6
  8
0
  6
CONTINUOUS
 62
     1
 10
-72.47565986513474
 20
1864.266143960424
 30
0.0
  0
VERTEX
  5
3B7
  8
0
  6
CONTINUOUS
 62
     1
 10
-72.66741805036321
 20
1864.543032021433
 30
0.0
  0
VERTEX
  5
3B8
  8
0
  6
CONTINUOUS
 62
     1
 10
-72.858681007538
 20
1864.820230528801
 30
0.0
  0
VERTEX
  5
3B9
  8
0
  6
CONTINUOUS
 62
     1
 10
-73.04944873665912
 20
1865.097739482528
 30
0.0
  0
VERTEX
  5
3BA
  8
0
  6
CONTINUOUS
 62
     1
 10
-73.23972123772657
 20
1865.375558882613
 30
0.0
  0
VERTEX
  5
3BB
  8
0
  6
CONTINUOUS
 62
     1
 10
-73.42949851074036
 20
1865.653688729057
 30
0.0
  0
VERTEX
  5
3BC
  8
0
  6
CONTINUOUS
 62
     1
 10
-73.61878055570047
 20
1865.93212902186
 30
0.0
  0
VERTEX
  5
3BD
  8
0
  6
CONTINUOUS
 62
     1
 10
-73.80756737260691
 20
1866.210879761021
 30
0.0
  0
VERTEX
  5
3BE
  8
0
  6
CONTINUOUS
 62
     1
 10
-73.99585896145969
 20
1866.489940946541
 30
0.0
  0
VERTEX
  5
3BF
  8
0
  6
CONTINUOUS
 62
     1
 10
-74.1836553222588
 20
1866.76931257842
 30
0.0
  0
VERTEX
  5
3C0
  8
0
  6
CONTINUOUS
 62
     1
 10
-74.37095645500423
 20
1867.048994656657
 30
0.0
  0
VERTEX
  5
3C1
  8
0
  6
CONTINUOUS
 62
     1
 10
-74.557762359696
 20
1867.328987181253
 30
0.0
  0
VERTEX
  5
3C2
  8
0
  6
CONTINUOUS
 62
     1
 10
-74.7440730363341
 20
1867.609290152207
 30
0.0
  0
VERTEX
  5
3C3
  8
0
  6
CONTINUOUS
 62
     1
 10
-74.92988848491854
 20
1867.88990356952
 30
0.0
  0
VERTEX
  5
3C4
  8
0
  6
CONTINUOUS
 62
     1
 10
-75.11520870544928
 20
1868.170827433192
 30
0.0
  0
VERTEX
  5
3C5
  8
0
  6
CONTINUOUS
 62
     1
 10
-75.30003369792637
 20
1868.452061743222
 30
0.0
  0
VERTEX
  5
3C6
  8
0
  6
CONTINUOUS
 62
     1
 10
-75.48436346234978
 20
1868.733606499611
 30
0.0
  0
VERTEX
  5
3C7
  8
0
  6
CONTINUOUS
 62
     1
 10
-75.66819799871952
 20
1869.015461702358
 30
0.0
  0
VERTEX
  5
3C8
  8
0
  6
CONTINUOUS
 62
     1
 10
-75.8515373070356
 20
1869.297627351465
 30
0.0
  0
VERTEX
  5
3C9
  8
0
  6
CONTINUOUS
 62
     1
 10
-76.03438138729801
 20
1869.58010344693
 30
0.0
  0
VERTEX
  5
3CA
  8
0
  6
CONTINUOUS
 62
     1
 10
-76.21673023950676
 20
1869.862889988753
 30
0.0
  0
VERTEX
  5
3CB
  8
0
  6
CONTINUOUS
 62
     1
 10
-76.39858386366183
 20
1870.145986976935
 30
0.0
  0
VERTEX
  5
3CC
  8
0
  6
CONTINUOUS
 62
     1
 10
-76.57994225976323
 20
1870.429394411476
 30
0.0
  0
VERTEX
  5
3CD
  8
0
  6
CONTINUOUS
 62
     1
 10
-76.76080542781095
 20
1870.713112292376
 30
0.0
  0
VERTEX
  5
3CE
  8
0
  6
CONTINUOUS
 62
     1
 10
-76.941173367805
 20
1870.997140619634
 30
0.0
  0
VERTEX
  5
3CF
  8
0
  6
CONTINUOUS
 62
     1
 10
-77.1210460797454
 20
1871.28147939325
 30
0.0
  0
VERTEX
  5
3D0
  8
0
  6
CONTINUOUS
 62
     1
 10
-77.30042356363211
 20
1871.566128613226
 30
0.0
  0
VERTEX
  5
3D1
  8
0
  6
CONTINUOUS
 62
     1
 10
-77.47930581946517
 20
1871.85108827956
 30
0.0
  0
VERTEX
  5
3D2
  8
0
  6
CONTINUOUS
 62
     1
 10
-77.65769284724453
 20
1872.136358392252
 30
0.0
  0
VERTEX
  5
3D3
  8
0
  6
CONTINUOUS
 62
     1
 10
-77.83558464697025
 20
1872.421938951303
 30
0.0
  0
VERTEX
  5
3D4
  8
0
  6
CONTINUOUS
 62
     1
 10
-78.01298121864228
 20
1872.707829956713
 30
0.0
  0
VERTEX
  5
3D5
  8
0
  6
CONTINUOUS
 62
     1
 10
-78.18988256226065
 20
1872.994031408482
 30
0.0
  0
VERTEX
  5
3D6
  8
0
  6
CONTINUOUS
 62
     1
 10
-78.36628867782535
 20
1873.280543306609
 30
0.0
  0
VERTEX
  5
3D7
  8
0
  6
CONTINUOUS
 62
     1
 10
-78.54219956533638
 20
1873.567365651095
 30
0.0
  0
VERTEX
  5
3D8
  8
0
  6
CONTINUOUS
 62
     1
 10
-78.71761522479373
 20
1873.854498441939
 30
0.0
  0
VERTEX
  5
3D9
  8
0
  6
CONTINUOUS
 62
     1
 10
-78.89253565619742
 20
1874.141941679142
 30
0.0
  0
VERTEX
  5
3DA
  8
0
  6
CONTINUOUS
 62
     1
 10
-79.06696085954745
 20
1874.429695362704
 30
0.0
  0
VERTEX
  5
3DB
  8
0
  6
CONTINUOUS
 62
     1
 10
-79.2408908348438
 20
1874.717759492625
 30
0.0
  0
VERTEX
  5
3DC
  8
0
  6
CONTINUOUS
 62
     1
 10
-79.41432558208646
 20
1875.006134068904
 30
0.0
  0
VERTEX
  5
3DD
  8
0
  6
CONTINUOUS
 62
     1
 10
-79.58726510127548
 20
1875.294819091541
 30
0.0
  0
VERTEX
  5
3DE
  8
0
  6
CONTINUOUS
 62
     1
 10
-79.75970939241083
 20
1875.583814560537
 30
0.0
  0
VERTEX
  5
3DF
  8
0
  6
CONTINUOUS
 62
     1
 10
-79.93165845549251
 20
1875.873120475892
 30
0.0
  0
VERTEX
  5
3E0
  8
0
  6
CONTINUOUS
 62
     1
 10
-80.1031122905205
 20
1876.162736837606
 30
0.0
  0
VERTEX
  5
3E1
  8
0
  6
CONTINUOUS
 62
     1
 10
-80.27407089749484
 20
1876.452663645678
 30
0.0
  0
VERTEX
  5
3E2
  8
0
  6
CONTINUOUS
 62
     1
 10
-80.4445342764155
 20
1876.742900900109
 30
0.0
  0
VERTEX
  5
3E3
  8
0
  6
CONTINUOUS
 62
     1
 10
-80.61450242728249
 20
1877.033448600898
 30
0.0
  0
VERTEX
  5
3E4
  8
0
  6
CONTINUOUS
 62
     1
 10
-80.78397535009582
 20
1877.324306748046
 30
0.0
  0
VERTEX
  5
3E5
  8
0
  6
CONTINUOUS
 62
     1
 10
-80.95295304485546
 20
1877.615475341553
 30
0.0
  0
VERTEX
  5
3E6
  8
0
  6
CONTINUOUS
 62
     1
 10
-80.95295304485546
 20
1877.615475341553
 30
0.0
  0
SEQEND
  5
3E7
  8
0
  6
CONTINUOUS
 62
     1
  0
POLYLINE
  5
3E8
  8
0
  6
CONTINUOUS
 62
     1
 66
     1
 10
0.0
 20
0.0
 30
0.0
 70
   128
  0
VERTEX
  5
3E9
  8
0
  6
CONTINUOUS
 62
     1
 10
-44.22169900392407
 20
1832.326659828957
 30
0.0
  0
VERTEX
  5
3EA
  8
0
  6
CONTINUOUS
 62
     1
 10
-44.31130749142996
 20
1832.407734231138
 30
0.0
  0
VERTEX
  5
3EB
  8
0
  6
CONTINUOUS
 62
     1
 10
-44.40087120896392
 20
1832.488857140135
 30
0.0
  0
VERTEX
  5
3EC
  8
0
  6
CONTINUOUS
 62
     1
 10
-44.49039015652595
 20
1832.57002855595
 30
0.0
  0
VERTEX
  5
3ED
  8
0
  6
CONTINUOUS
 62
     1
 10
-44.57986433411604
 20
1832.651248478581
 30
0.0
  0
VERTEX
  5
3EE
  8
0
  6
CONTINUOUS
 62
     1
 10
-44.6692937417342
 20
1832.732516908031
 30
0.0
  0
VERTEX
  5
3EF
  8
0
  6
CONTINUOUS
 62
     1
 10
-44.75867837938043
 20
1832.813833844298
 30
0.0
  0
VERTEX
  5
3F0
  8
0
  6
CONTINUOUS
 62
     1
 10
-44.84801824705472
 20
1832.895199287382
 30
0.0
  0
VERTEX
  5
3F1
  8
0
  6
CONTINUOUS
 62
     1
 10
-44.93731334475709
 20
1832.976613237283
 30
0.0
  0
VERTEX
  5
3F2
  8
0
  6
CONTINUOUS
 62
     1
 10
-45.02656367248753
 20
1833.058075694002
 30
0.0
  0
VERTEX
  5
3F3
  8
0
  6
CONTINUOUS
 62
     1
 10
-45.11576923024603
 20
1833.139586657538
 30
0.0
  0
VERTEX
  5
3F4
  8
0
  6
CONTINUOUS
 62
     1
 10
-45.20493001803259
 20
1833.221146127892
 30
0.0
  0
VERTEX
  5
3F5
  8
0
  6
CONTINUOUS
 62
     1
 10
-45.29404603584723
 20
1833.302754105062
 30
0.0
  0
VERTEX
  5
3F6
  8
0
  6
CONTINUOUS
 62
     1
 10
-45.38311728368994
 20
1833.384410589051
 30
0.0
  0
VERTEX
  5
3F7
  8
0
  6
CONTINUOUS
 62
     1
 10
-45.47214376156071
 20
1833.466115579856
 30
0.0
  0
VERTEX
  5
3F8
  8
0
  6
CONTINUOUS
 62
     1
 10
-45.56112546945955
 20
1833.547869077479
 30
0.0
  0
VERTEX
  5
3F9
  8
0
  6
CONTINUOUS
 62
     1
 10
-45.65006240738646
 20
1833.62967108192
 30
0.0
  0
VERTEX
  5
3FA
  8
0
  6
CONTINUOUS
 62
     1
 10
-45.73895457534143
 20
1833.711521593178
 30
0.0
  0
VERTEX
  5
3FB
  8
0
  6
CONTINUOUS
 62
     1
 10
-45.82780197332448
 20
1833.793420611252
 30
0.0
  0
VERTEX
  5
3FC
  8
0
  6
CONTINUOUS
 62
     1
 10
-45.91660460133559
 20
1833.875368136145
 30
0.0
  0
VERTEX
  5
3FD
  8
0
  6
CONTINUOUS
 62
     1
 10
-46.00536245937477
 20
1833.957364167854
 30
0.0
  0
VERTEX
  5
3FE
  8
0
  6
CONTINUOUS
 62
     1
 10
-46.09407554744202
 20
1834.039408706381
 30
0.0
  0
VERTEX
  5
3FF
  8
0
  6
CONTINUOUS
 62
     1
 10
-46.18274386553733
 20
1834.121501751726
 30
0.0
  0
VERTEX
  5
400
  8
0
  6
CONTINUOUS
 62
     1
 10
-46.27136741366071
 20
1834.203643303888
 30
0.0
  0
VERTEX
  5
401
  8
0
  6
CONTINUOUS
 62
     1
 10
-46.35994619181216
 20
1834.285833362867
 30
0.0
  0
VERTEX
  5
402
  8
0
  6
CONTINUOUS
 62
     1
 10
-46.44848019999167
 20
1834.368071928664
 30
0.0
  0
VERTEX
  5
403
  8
0
  6
CONTINUOUS
 62
     1
 10
-46.53696943819926
 20
1834.450359001278
 30
0.0
  0
VERTEX
  5
404
  8
0
  6
CONTINUOUS
 62
     1
 10
-46.62541390643491
 20
1834.532694580709
 30
0.0
  0
VERTEX
  5
405
  8
0
  6
CONTINUOUS
 62
     1
 10
-46.71381360469863
 20
1834.615078666958
 30
0.0
  0
VERTEX
  5
406
  8
0
  6
CONTINUOUS
 62
     1
 10
-46.80216853299042
 20
1834.697511260023
 30
0.0
  0
VERTEX
  5
407
  8
0
  6
CONTINUOUS
 62
     1
 10
-46.89047869131028
 20
1834.779992359907
 30
0.0
  0
VERTEX
  5
408
  8
0
  6
CONTINUOUS
 62
     1
 10
-46.9787440796582
 20
1834.862521966607
 30
0.0
  0
VERTEX
  5
409
  8
0
  6
CONTINUOUS
 62
     1
 10
-47.0669646980342
 20
1834.945100080125
 30
0.0
  0
VERTEX
  5
40A
  8
0
  6
CONTINUOUS
 62
     1
 10
-47.15514054643826
 20
1835.027726700461
 30
0.0
  0
VERTEX
  5
40B
  8
0
  6
CONTINUOUS
 62
     1
 10
-47.24327162487039
 20
1835.110401827614
 30
0.0
  0
VERTEX
  5
40C
  8
0
  6
CONTINUOUS
 62
     1
 10
-47.33135793333058
 20
1835.193125461584
 30
0.0
  0
VERTEX
  5
40D
  8
0
  6
CONTINUOUS
 62
     1
 10
-47.41939947181885
 20
1835.275897602371
 30
0.0
  0
VERTEX
  5
40E
  8
0
  6
CONTINUOUS
 62
     1
 10
-47.50739624033518
 20
1835.358718249976
 30
0.0
  0
VERTEX
  5
40F
  8
0
  6
CONTINUOUS
 62
     1
 10
-47.59534823887958
 20
1835.441587404398
 30
0.0
  0
VERTEX
  5
410
  8
0
  6
CONTINUOUS
 62
     1
 10
-47.68325546745204
 20
1835.524505065638
 30
0.0
  0
VERTEX
  5
411
  8
0
  6
CONTINUOUS
 62
     1
 10
-47.77111792605258
 20
1835.607471233695
 30
0.0
  0
VERTEX
  5
412
  8
0
  6
CONTINUOUS
 62
     1
 10
-47.85893561468119
 20
1835.690485908569
 30
0.0
  0
VERTEX
  5
413
  8
0
  6
CONTINUOUS
 62
     1
 10
-47.94670853333785
 20
1835.773549090261
 30
0.0
  0
VERTEX
  5
414
  8
0
  6
CONTINUOUS
 62
     1
 10
-48.03443668202259
 20
1835.85666077877
 30
0.0
  0
VERTEX
  5
415
  8
0
  6
CONTINUOUS
 62
     1
 10
-48.1221200607354
 20
1835.939820974096
 30
0.0
  0
VERTEX
  5
416
  8
0
  6
CONTINUOUS
 62
     1
 10
-48.20975866947627
 20
1836.02302967624
 30
0.0
  0
VERTEX
  5
417
  8
0
  6
CONTINUOUS
 62
     1
 10
-48.29735250824522
 20
1836.106286885201
 30
0.0
  0
VERTEX
  5
418
  8
0
  6
CONTINUOUS
 62
     1
 10
-48.38490157704223
 20
1836.189592600979
 30
0.0
  0
VERTEX
  5
419
  8
0
  6
CONTINUOUS
 62
     1
 10
-48.47240587586731
 20
1836.272946823575
 30
0.0
  0
VERTEX
  5
41A
  8
0
  6
CONTINUOUS
 62
     1
 10
-48.55986540472045
 20
1836.356349552988
 30
0.0
  0
VERTEX
  5
41B
  8
0
  6
CONTINUOUS
 62
     1
 10
-48.64728016360167
 20
1836.439800789218
 30
0.0
  0
VERTEX
  5
41C
  8
0
  6
CONTINUOUS
 62
     1
 10
-48.73465015251095
 20
1836.523300532266
 30
0.0
  0
VERTEX
  5
41D
  8
0
  6
CONTINUOUS
 62
     1
 10
-48.8219753714483
 20
1836.606848782131
 30
0.0
  0
VERTEX
  5
41E
  8
0
  6
CONTINUOUS
 62
     1
 10
-48.90925582041372
 20
1836.690445538814
 30
0.0
  0
VERTEX
  5
41F
  8
0
  6
CONTINUOUS
 62
     1
 10
-48.9964914994072
 20
1836.774090802314
 30
0.0
  0
VERTEX
  5
420
  8
0
  6
CONTINUOUS
 62
     1
 10
-49.08368240842875
 20
1836.857784572631
 30
0.0
  0
VERTEX
  5
421
  8
0
  6
CONTINUOUS
 62
     1
 10
-49.17082854747837
 20
1836.941526849766
 30
0.0
  0
VERTEX
  5
422
  8
0
  6
CONTINUOUS
 62
     1
 10
-49.25792991655606
 20
1837.025317633718
 30
0.0
  0
VERTEX
  5
423
  8
0
  6
CONTINUOUS
 62
     1
 10
-49.34498651566182
 20
1837.109156924487
 30
0.0
  0
VERTEX
  5
424
  8
0
  6
CONTINUOUS
 62
     1
 10
-49.43199834479564
 20
1837.193044722074
 30
0.0
  0
VERTEX
  5
425
  8
0
  6
CONTINUOUS
 62
     1
 10
-49.51896540395754
 20
1837.276981026478
 30
0.0
  0
VERTEX
  5
426
  8
0
  6
CONTINUOUS
 62
     1
 10
-49.60588769314749
 20
1837.360965837699
 30
0.0
  0
VERTEX
  5
427
  8
0
  6
CONTINUOUS
 62
     1
 10
-49.69276521236552
 20
1837.444999155738
 30
0.0
  0
VERTEX
  5
428
  8
0
  6
CONTINUOUS
 62
     1
 10
-49.77959796161161
 20
1837.529080980594
 30
0.0
  0
VERTEX
  5
429
  8
0
  6
CONTINUOUS
 62
     1
 10
-49.86638594088578
 20
1837.613211312268
 30
0.0
  0
VERTEX
  5
42A
  8
0
  6
CONTINUOUS
 62
     1
 10
-49.9531238364826
 20
1837.697392969129
 30
0.0
  0
VERTEX
  5
42B
  8
0
  6
CONTINUOUS
 62
     1
 10
-50.03980633469671
 20
1837.781628769549
 30
0.0
  0
VERTEX
  5
42C
  8
0
  6
CONTINUOUS
 62
     1
 10
-50.12643343552807
 20
1837.865918713528
 30
0.0
  0
VERTEX
  5
42D
  8
0
  6
CONTINUOUS
 62
     1
 10
-50.21300513897671
 20
1837.950262801065
 30
0.0
  0
VERTEX
  5
42E
  8
0
  6
CONTINUOUS
 62
     1
 10
-50.29952144504261
 20
1838.03466103216
 30
0.0
  0
VERTEX
  5
42F
  8
0
  6
CONTINUOUS
 62
     1
 10
-50.38598235372579
 20
1838.119113406815
 30
0.0
  0
VERTEX
  5
430
  8
0
  6
CONTINUOUS
 62
     1
 10
-50.47238786502623
 20
1838.203619925027
 30
0.0
  0
VERTEX
  5
431
  8
0
  6
CONTINUOUS
 62
     1
 10
-50.55873797894395
 20
1838.288180586799
 30
0.0
  0
VERTEX
  5
432
  8
0
  6
CONTINUOUS
 62
     1
 10
-50.64503269547893
 20
1838.372795392128
 30
0.0
  0
VERTEX
  5
433
  8
0
  6
CONTINUOUS
 62
     1
 10
-50.73127201463119
 20
1838.457464341017
 30
0.0
  0
VERTEX
  5
434
  8
0
  6
CONTINUOUS
 62
     1
 10
-50.81745593640071
 20
1838.542187433464
 30
0.0
  0
VERTEX
  5
435
  8
0
  6
CONTINUOUS
 62
     1
 10
-50.9035844607875
 20
1838.62696466947
 30
0.0
  0
VERTEX
  5
436
  8
0
  6
CONTINUOUS
 62
     1
 10
-50.98965758779156
 20
1838.711796049034
 30
0.0
  0
VERTEX
  5
437
  8
0
  6
CONTINUOUS
 62
     1
 10
-51.07567531741288
 20
1838.796681572156
 30
0.0
  0
VERTEX
  5
438
  8
0
  6
CONTINUOUS
 62
     1
 10
-51.16163764965147
 20
1838.881621238838
 30
0.0
  0
VERTEX
  5
439
  8
0
  6
CONTINUOUS
 62
     1
 10
-51.24754458450734
 20
1838.966615049077
 30
0.0
  0
VERTEX
  5
43A
  8
0
  6
CONTINUOUS
 62
     1
 10
-51.33339612198047
 20
1839.051663002876
 30
0.0
  0
VERTEX
  5
43B
  8
0
  6
CONTINUOUS
 62
     1
 10
-51.41919226207087
 20
1839.136765100232
 30
0.0
  0
VERTEX
  5
43C
  8
0
  6
CONTINUOUS
 62
     1
 10
-51.50493300477854
 20
1839.221921341148
 30
0.0
  0
VERTEX
  5
43D
  8
0
  6
CONTINUOUS
 62
     1
 10
-51.59061835010348
 20
1839.307131725622
 30
0.0
  0
VERTEX
  5
43E
  8
0
  6
CONTINUOUS
 62
     1
 10
-51.67624829804569
 20
1839.392396253654
 30
0.0
  0
VERTEX
  5
43F
  8
0
  6
CONTINUOUS
 62
     1
 10
-51.76182284860516
 20
1839.477714925245
 30
0.0
  0
VERTEX
  5
440
  8
0
  6
CONTINUOUS
 62
     1
 10
-51.84734200178191
 20
1839.563087740395
 30
0.0
  0
VERTEX
  5
441
  8
0
  6
CONTINUOUS
 62
     1
 10
-51.93280575757593
 20
1839.648514699104
 30
0.0
  0
VERTEX
  5
442
  8
0
  6
CONTINUOUS
 62
     1
 10
-52.01821411598721
 20
1839.73399580137
 30
0.0
  0
VERTEX
  5
443
  8
0
  6
CONTINUOUS
 62
     1
 10
-52.10356707701577
 20
1839.819531047196
 30
0.0
  0
VERTEX
  5
444
  8
0
  6
CONTINUOUS
 62
     1
 10
-52.18886464066159
 20
1839.90512043658
 30
0.0
  0
VERTEX
  5
445
  8
0
  6
CONTINUOUS
 62
     1
 10
-52.27410680692468
 20
1839.990763969522
 30
0.0
  0
VERTEX
  5
446
  8
0
  6
CONTINUOUS
 62
     1
 10
-52.35929357580503
 20
1840.076461646023
 30
0.0
  0
VERTEX
  5
447
  8
0
  6
CONTINUOUS
 62
     1
 10
-52.44442494730266
 20
1840.162213466083
 30
0.0
  0
VERTEX
  5
448
  8
0
  6
CONTINUOUS
 62
     1
 10
-52.52950092141756
 20
1840.248019429701
 30
0.0
  0
VERTEX
  5
449
  8
0
  6
CONTINUOUS
 62
     1
 10
-52.61452149814973
 20
1840.333879536877
 30
0.0
  0
VERTEX
  5
44A
  8
0
  6
CONTINUOUS
 62
     1
 10
-52.69948667749916
 20
1840.419793787612
 30
0.0
  0
VERTEX
  5
44B
  8
0
  6
CONTINUOUS
 62
     1
 10
-52.78439645946587
 20
1840.505762181906
 30
0.0
  0
VERTEX
  5
44C
  8
0
  6
CONTINUOUS
 62
     1
 10
-52.86925084404984
 20
1840.591784719759
 30
0.0
  0
VERTEX
  5
44D
  8
0
  6
CONTINUOUS
 62
     1
 10
-52.95404983125108
 20
1840.67786140117
 30
0.0
  0
VERTEX
  5
44E
  8
0
  6
CONTINUOUS
 62
     1
 10
-53.03879342106959
 20
1840.763992226139
 30
0.0
  0
VERTEX
  5
44F
  8
0
  6
CONTINUOUS
 62
     1
 10
-53.12348161350537
 20
1840.850177194667
 30
0.0
  0
VERTEX
  5
450
  8
0
  6
CONTINUOUS
 62
     1
 10
-53.20811440855842
 20
1840.936416306754
 30
0.0
  0
VERTEX
  5
451
  8
0
  6
CONTINUOUS
 62
     1
 10
-53.29269180622873
 20
1841.022709562399
 30
0.0
  0
VERTEX
  5
452
  8
0
  6
CONTINUOUS
 62
     1
 10
-53.37721380651632
 20
1841.109056961603
 30
0.0
  0
VERTEX
  5
453
  8
0
  6
CONTINUOUS
 62
     1
 10
-53.46168040942117
 20
1841.195458504365
 30
0.0
  0
VERTEX
  5
454
  8
0
  6
CONTINUOUS
 62
     1
 10
-53.54609161494329
 20
1841.281914190686
 30
0.0
  0
VERTEX
  5
455
  8
0
  6
CONTINUOUS
 62
     1
 10
-53.63044742308269
 20
1841.368424020565
 30
0.0
  0
VERTEX
  5
456
  8
0
  6
CONTINUOUS
 62
     1
 10
-53.71474783383934
 20
1841.454987994003
 30
0.0
  0
VERTEX
  5
457
  8
0
  6
CONTINUOUS
 62
     1
 10
-53.79899284721327
 20
1841.541606111
 30
0.0
  0
VERTEX
  5
458
  8
0
  6
CONTINUOUS
 62
     1
 10
-53.88318246320446
 20
1841.628278371555
 30
0.0
  0
VERTEX
  5
459
  8
0
  6
CONTINUOUS
 62
     1
 10
-53.96731668181293
 20
1841.715004775668
 30
0.0
  0
VERTEX
  5
45A
  8
0
  6
CONTINUOUS
 62
     1
 10
-54.05139550303866
 20
1841.80178532334
 30
0.0
  0
VERTEX
  5
45B
  8
0
  6
CONTINUOUS
 62
     1
 10
-54.13541892688167
 20
1841.888620014571
 30
0.0
  0
VERTEX
  5
45C
  8
0
  6
CONTINUOUS
 62
     1
 10
-54.21938695334194
 20
1841.97550884936
 30
0.0
  0
VERTEX
  5
45D
  8
0
  6
CONTINUOUS
 62
     1
 10
-54.30329958241948
 20
1842.062451827708
 30
0.0
  0
VERTEX
  5
45E
  8
0
  6
CONTINUOUS
 62
     1
 10
-54.38715681411429
 20
1842.149448949614
 30
0.0
  0
VERTEX
  5
45F
  8
0
  6
CONTINUOUS
 62
     1
 10
-54.47095864842638
 20
1842.236500215079
 30
0.0
  0
VERTEX
  5
460
  8
0
  6
CONTINUOUS
 62
     1
 10
-54.55470508535572
 20
1842.323605624103
 30
0.0
  0
VERTEX
  5
461
  8
0
  6
CONTINUOUS
 62
     1
 10
-54.63839612490234
 20
1842.410765176685
 30
0.0
  0
VERTEX
  5
462
  8
0
  6
CONTINUOUS
 62
     1
 10
-54.72203176706623
 20
1842.497978872825
 30
0.0
  0
VERTEX
  5
463
  8
0
  6
CONTINUOUS
 62
     1
 10
-54.80561201184739
 20
1842.585246712524
 30
0.0
  0
VERTEX
  5
464
  8
0
  6
CONTINUOUS
 62
     1
 10
-54.88913685924581
 20
1842.672568695782
 30
0.0
  0
VERTEX
  5
465
  8
0
  6
CONTINUOUS
 62
     1
 10
-54.97260630926151
 20
1842.759944822598
 30
0.0
  0
VERTEX
  5
466
  8
0
  6
CONTINUOUS
 62
     1
 10
-55.05602036189447
 20
1842.847375092973
 30
0.0
  0
VERTEX
  5
467
  8
0
  6
CONTINUOUS
 62
     1
 10
-55.1393790171447
 20
1842.934859506906
 30
0.0
  0
VERTEX
  5
468
  8
0
  6
CONTINUOUS
 62
     1
 10
-55.2226822750122
 20
1843.022398064398
 30
0.0
  0
VERTEX
  5
469
  8
0
  6
CONTINUOUS
 62
     1
 10
-55.30593013549696
 20
1843.109990765449
 30
0.0
  0
VERTEX
  5
46A
  8
0
  6
CONTINUOUS
 62
     1
 10
-55.30593013549696
 20
1843.109990765449
 30
0.0
  0
SEQEND
  5
46B
  8
0
  6
CONTINUOUS
 62
     1
  0
POLYLINE
  5
46C
  8
0
  6
ISO-02___
 62
    17
 66
     1
 10
0.0
 20
0.0
 30
0.0
 70
   128
  0
VERTEX
  5
46D
  8
0
  6
ISO-02___
 62
    17
 10
77.94635054077213
 20
1849.936739848266
 30
0.0
  0
VERTEX
  5
46E
  8
0
  6
ISO-02___
 62
    17
 10
78.04343104118195
 20
1849.984528987518
 30
0.0
  0
VERTEX
  5
46F
  8
0
  6
ISO-02___
 62
    17
 10
78.14114712829425
 20
1850.033005852076
 30
0.0
  0
VERTEX
  5
470
  8
0
  6
ISO-02___
 62
    17
 10
78.23949880210904
 20
1850.082170441941
 30
0.0
  0
VERTEX
  5
471
  8
0
  6
ISO-02___
 62
    17
 10
78.33848606262629
 20
1850.132022757111
 30
0.0
  0
VERTEX
  5
472
  8
0
  6
ISO-02___
 62
    17
 10
78.43810890984601
 20
1850.182562797588
 30
0.0
  0
VERTEX
  5
473
  8
0
  6
ISO-02___
 62
    17
 10
78.53836734376821
 20
1850.233790563371
 30
0.0
  0
VERTEX
  5
474
  8
0
  6
ISO-02___
 62
    17
 10
78.6392613643929
 20
1850.285706054461
 30
0.0
  0
VERTEX
  5
475
  8
0
  6
ISO-02___
 62
    17
 10
78.74079097172005
 20
1850.338309270856
 30
0.0
  0
VERTEX
  5
476
  8
0
  6
ISO-02___
 62
    17
 10
78.84295616574967
 20
1850.391600212558
 30
0.0
  0
VERTEX
  5
477
  8
0
  6
ISO-02___
 62
    17
 10
78.94575694648177
 20
1850.445578879566
 30
0.0
  0
VERTEX
  5
478
  8
0
  6
ISO-02___
 62
    17
 10
79.04919331391635
 20
1850.50024527188
 30
0.0
  0
VERTEX
  5
479
  8
0
  6
ISO-02___
 62
    17
 10
79.15326526805342
 20
1850.555599389501
 30
0.0
  0
VERTEX
  5
47A
  8
0
  6
ISO-02___
 62
    17
 10
79.25797280889293
 20
1850.611641232428
 30
0.0
  0
VERTEX
  5
47B
  8
0
  6
ISO-02___
 62
    17
 10
79.36331593643494
 20
1850.668370800661
 30
0.0
  0
VERTEX
  5
47C
  8
0
  6
ISO-02___
 62
    17
 10
79.46929465067943
 20
1850.7257880942
 30
0.0
  0
VERTEX
  5
47D
  8
0
  6
ISO-02___
 62
    17
 10
79.57590895162639
 20
1850.783893113045
 30
0.0
  0
VERTEX
  5
47E
  8
0
  6
ISO-02___
 62
    17
 10
79.68315883927582
 20
1850.842685857197
 30
0.0
  0
VERTEX
  5
47F
  8
0
  6
ISO-02___
 62
    17
 10
79.79104431362774
 20
1850.902166326655
 30
0.0
  0
VERTEX
  5
480
  8
0
  6
ISO-02___
 62
    17
 10
79.89956537468211
 20
1850.962334521419
 30
0.0
  0
VERTEX
  5
481
  8
0
  6
ISO-02___
 62
    17
 10
80.00872202243897
 20
1851.023190441489
 30
0.0
  0
VERTEX
  5
482
  8
0
  6
ISO-02___
 62
    17
 10
80.11851425689831
 20
1851.084734086866
 30
0.0
  0
VERTEX
  5
483
  8
0
  6
ISO-02___
 62
    17
 10
80.22894207806011
 20
1851.146965457549
 30
0.0
  0
VERTEX
  5
484
  8
0
  6
ISO-02___
 62
    17
 10
80.3400054859244
 20
1851.209884553538
 30
0.0
  0
VERTEX
  5
485
  8
0
  6
ISO-02___
 62
    17
 10
80.45170448049116
 20
1851.273491374833
 30
0.0
  0
VERTEX
  5
486
  8
0
  6
ISO-02___
 62
    17
 10
80.5640390617604
 20
1851.337785921435
 30
0.0
  0
VERTEX
  5
487
  8
0
  6
ISO-02___
 62
    17
 10
80.6770092297321
 20
1851.402768193343
 30
0.0
  0
VERTEX
  5
488
  8
0
  6
ISO-02___
 62
    17
 10
80.79061498440629
 20
1851.468438190557
 30
0.0
  0
VERTEX
  5
489
  8
0
  6
ISO-02___
 62
    17
 10
80.90485632578296
 20
1851.534795913077
 30
0.0
  0
VERTEX
  5
48A
  8
0
  6
ISO-02___
 62
    17
 10
81.01973325386209
 20
1851.601841360904
 30
0.0
  0
VERTEX
  5
48B
  8
0
  6
ISO-02___
 62
    17
 10
81.1352457686437
 20
1851.669574534037
 30
0.0
  0
VERTEX
  5
48C
  8
0
  6
ISO-02___
 62
    17
 10
81.25139387012779
 20
1851.737995432476
 30
0.0
  0
VERTEX
  5
48D
  8
0
  6
ISO-02___
 62
    17
 10
81.36817755831436
 20
1851.807104056221
 30
0.0
  0
VERTEX
  5
48E
  8
0
  6
ISO-02___
 62
    17
 10
81.4855968332034
 20
1851.876900405272
 30
0.0
  0
VERTEX
  5
48F
  8
0
  6
ISO-02___
 62
    17
 10
81.6036516947949
 20
1851.94738447963
 30
0.0
  0
VERTEX
  5
490
  8
0
  6
ISO-02___
 62
    17
 10
81.7223421430889
 20
1852.018556279294
 30
0.0
  0
VERTEX
  5
491
  8
0
  6
ISO-02___
 62
    17
 10
81.84166817808537
 20
1852.090415804264
 30
0.0
  0
VERTEX
  5
492
  8
0
  6
ISO-02___
 62
    17
 10
81.9616297997843
 20
1852.16296305454
 30
0.0
  0
VERTEX
  5
493
  8
0
  6
ISO-02___
 62
    17
 10
82.08222700818573
 20
1852.236198030123
 30
0.0
  0
VERTEX
  5
494
  8
0
  6
ISO-02___
 62
    17
 10
82.2034598032896
 20
1852.310120731012
 30
0.0
  0
VERTEX
  5
495
  8
0
  6
ISO-02___
 62
    17
 10
82.32532818509598
 20
1852.384731157207
 30
0.0
  0
VERTEX
  5
496
  8
0
  6
ISO-02___
 62
    17
 10
82.44783215360484
 20
1852.460029308709
 30
0.0
  0
VERTEX
  5
497
  8
0
  6
ISO-02___
 62
    17
 10
82.57097170881615
 20
1852.536015185516
 30
0.0
  0
VERTEX
  5
498
  8
0
  6
ISO-02___
 62
    17
 10
82.69474685072993
 20
1852.61268878763
 30
0.0
  0
VERTEX
  5
499
  8
0
  6
ISO-02___
 62
    17
 10
82.81915757934621
 20
1852.69005011505
 30
0.0
  0
VERTEX
  5
49A
  8
0
  6
ISO-02___
 62
    17
 10
82.94420389466495
 20
1852.768099167777
 30
0.0
  0
VERTEX
  5
49B
  8
0
  6
ISO-02___
 62
    17
 10
83.06988579668618
 20
1852.846835945809
 30
0.0
  0
VERTEX
  5
49C
  8
0
  6
ISO-02___
 62
    17
 10
83.19620328540987
 20
1852.926260449148
 30
0.0
  0
VERTEX
  5
49D
  8
0
  6
ISO-02___
 62
    17
 10
83.32315636083604
 20
1853.006372677793
 30
0.0
  0
VERTEX
  5
49E
  8
0
  6
ISO-02___
 62
    17
 10
83.45074502296467
 20
1853.087172631744
 30
0.0
  0
VERTEX
  5
49F
  8
0
  6
ISO-02___
 62
    17
 10
83.5789692717958
 20
1853.168660311002
 30
0.0
  0
VERTEX
  5
4A0
  8
0
  6
ISO-02___
 62
    17
 10
83.7078291073294
 20
1853.250835715565
 30
0.0
  0
VERTEX
  5
4A1
  8
0
  6
ISO-02___
 62
    17
 10
83.83732452956548
 20
1853.333698845435
 30
0.0
  0
VERTEX
  5
4A2
  8
0
  6
ISO-02___
 62
    17
 10
83.96745553850403
 20
1853.417249700612
 30
0.0
  0
VERTEX
  5
4A3
  8
0
  6
ISO-02___
 62
    17
 10
84.09822213414503
 20
1853.501488281094
 30
0.0
  0
VERTEX
  5
4A4
  8
0
  6
ISO-02___
 62
    17
 10
84.22962431648853
 20
1853.586414586883
 30
0.0
  0
VERTEX
  5
4A5
  8
0
  6
ISO-02___
 62
    17
 10
84.36166208553452
 20
1853.672028617978
 30
0.0
  0
VERTEX
  5
4A6
  8
0
  6
ISO-02___
 62
    17
 10
84.49433544128297
 20
1853.758330374379
 30
0.0
  0
VERTEX
  5
4A7
  8
0
  6
ISO-02___
 62
    17
 10
84.6276443837339
 20
1853.845319856086
 30
0.0
  0
VERTEX
  5
4A8
  8
0
  6
ISO-02___
 62
    17
 10
84.7615889128873
 20
1853.9329970631
 30
0.0
  0
VERTEX
  5
4A9
  8
0
  6
ISO-02___
 62
    17
 10
84.89616902874317
 20
1854.02136199542
 30
0.0
  0
VERTEX
  5
4AA
  8
0
  6
ISO-02___
 62
    17
 10
85.03138473130151
 20
1854.110414653046
 30
0.0
  0
VERTEX
  5
4AB
  8
0
  6
ISO-02___
 62
    17
 10
85.16723602056234
 20
1854.200155035978
 30
0.0
  0
VERTEX
  5
4AC
  8
0
  6
ISO-02___
 62
    17
 10
85.30372289652564
 20
1854.290583144217
 30
0.0
  0
VERTEX
  5
4AD
  8
0
  6
ISO-02___
 62
    17
 10
85.44084535919143
 20
1854.381698977762
 30
0.0
  0
VERTEX
  5
4AE
  8
0
  6
ISO-02___
 62
    17
 10
85.57786074087431
 20
1854.474032824489
 30
0.0
  0
VERTEX
  5
4AF
  8
0
  6
ISO-02___
 62
    17
 10
85.71402637388894
 20
1854.568114972277
 30
0.0
  0
VERTEX
  5
4B0
  8
0
  6
ISO-02___
 62
    17
 10
85.84934225823531
 20
1854.663945421124
 30
0.0
  0
VERTEX
  5
4B1
  8
0
  6
ISO-02___
 62
    17
 10
85.98380839391342
 20
1854.761524171032
 30
0.0
  0
VERTEX
  5
4B2
  8
0
  6
ISO-02___
 62
    17
 10
86.11742478092327
 20
1854.860851221999
 30
0.0
  0
VERTEX
  5
4B3
  8
0
  6
ISO-02___
 62
    17
 10
86.25019141926487
 20
1854.961926574026
 30
0.0
  0
VERTEX
  5
4B4
  8
0
  6
ISO-02___
 62
    17
 10
86.3821083089382
 20
1855.064750227113
 30
0.0
  0
VERTEX
  5
4B5
  8
0
  6
ISO-02___
 62
    17
 10
86.51317544994329
 20
1855.16932218126
 30
0.0
  0
VERTEX
  5
4B6
  8
0
  6
ISO-02___
 62
    17
 10
86.64339284228012
 20
1855.275642436466
 30
0.0
  0
VERTEX
  5
4B7
  8
0
  6
ISO-02___
 62
    17
 10
86.77276048594868
 20
1855.383710992732
 30
0.0
  0
VERTEX
  5
4B8
  8
0
  6
ISO-02___
 62
    17
 10
86.90127838094898
 20
1855.493527850058
 30
0.0
  0
VERTEX
  5
4B9
  8
0
  6
ISO-02___
 62
    17
 10
87.02894652728102
 20
1855.605093008444
 30
0.0
  0
VERTEX
  5
4BA
  8
0
  6
ISO-02___
 62
    17
 10
87.1557649249448
 20
1855.71840646789
 30
0.0
  0
VERTEX
  5
4BB
  8
0
  6
ISO-02___
 62
    17
 10
87.28173357394034
 20
1855.833468228396
 30
0.0
  0
VERTEX
  5
4BC
  8
0
  6
ISO-02___
 62
    17
 10
87.40685247426762
 20
1855.950278289961
 30
0.0
  0
VERTEX
  5
4BD
  8
0
  6
ISO-02___
 62
    17
 10
87.53112162592663
 20
1856.068836652586
 30
0.0
  0
VERTEX
  5
4BE
  8
0
  6
ISO-02___
 62
    17
 10
87.65454102891738
 20
1856.189143316271
 30
0.0
  0
VERTEX
  5
4BF
  8
0
  6
ISO-02___
 62
    17
 10
87.77711068323988
 20
1856.311198281016
 30
0.0
  0
VERTEX
  5
4C0
  8
0
  6
ISO-02___
 62
    17
 10
87.89883058889413
 20
1856.435001546821
 30
0.0
  0
VERTEX
  5
4C1
  8
0
  6
ISO-02___
 62
    17
 10
88.0197007458801
 20
1856.560553113686
 30
0.0
  0
VERTEX
  5
4C2
  8
0
  6
ISO-02___
 62
    17
 10
88.13972115419783
 20
1856.68785298161
 30
0.0
  0
VERTEX
  5
4C3
  8
0
  6
ISO-02___
 62
    17
 10
88.2588918138473
 20
1856.816901150594
 30
0.0
  0
VERTEX
  5
4C4
  8
0
  6
ISO-02___
 62
    17
 10
88.3772127248285
 20
1856.947697620638
 30
0.0
  0
VERTEX
  5
4C5
  8
0
  6
ISO-02___
 62
    17
 10
88.49468388714145
 20
1857.080242391742
 30
0.0
  0
VERTEX
  5
4C6
  8
0
  6
ISO-02___
 62
    17
 10
88.61130530078614
 20
1857.214535463906
 30
0.0
  0
VERTEX
  5
4C7
  8
0
  6
ISO-02___
 62
    17
 10
88.72707696576256
 20
1857.35057683713
 30
0.0
  0
VERTEX
  5
4C8
  8
0
  6
ISO-02___
 62
    17
 10
88.84199888207074
 20
1857.488366511413
 30
0.0
  0
VERTEX
  5
4C9
  8
0
  6
ISO-02___
 62
    17
 10
88.95607104971066
 20
1857.627904486756
 30
0.0
  0
VERTEX
  5
4CA
  8
0
  6
ISO-02___
 62
    17
 10
89.06929346868232
 20
1857.769190763159
 30
0.0
  0
VERTEX
  5
4CB
  8
0
  6
ISO-02___
 62
    17
 10
89.18166613898572
 20
1857.912225340622
 30
0.0
  0
VERTEX
  5
4CC
  8
0
  6
ISO-02___
 62
    17
 10
89.29318906062086
 20
1858.057008219145
 30
0.0
  0
VERTEX
  5
4CD
  8
0
  6
ISO-02___
 62
    17
 10
89.40386223358774
 20
1858.203539398727
 30
0.0
  0
VERTEX
  5
4CE
  8
0
  6
ISO-02___
 62
    17
 10
89.51368565788637
 20
1858.35181887937
 30
0.0
  0
VERTEX
  5
4CF
  8
0
  6
ISO-02___
 62
    17
 10
89.62265933351674
 20
1858.501846661072
 30
0.0
  0
VERTEX
  5
4D0
  8
0
  6
ISO-02___
 62
    17
 10
89.73078326047884
 20
1858.653622743834
 30
0.0
  0
VERTEX
  5
4D1
  8
0
  6
ISO-02___
 62
    17
 10
89.8380574387727
 20
1858.807147127655
 30
0.0
  0
VERTEX
  5
4D2
  8
0
  6
ISO-02___
 62
    17
 10
89.94448186839828
 20
1858.962419812537
 30
0.0
  0
VERTEX
  5
4D3
  8
0
  6
ISO-02___
 62
    17
 10
90.05005654935562
 20
1859.119440798479
 30
0.0
  0
VERTEX
  5
4D4
  8
0
  6
ISO-02___
 62
    17
 10
90.1547814816447
 20
1859.27821008548
 30
0.0
  0
VERTEX
  5
4D5
  8
0
  6
ISO-02___
 62
    17
 10
90.25865666526552
 20
1859.438727673541
 30
0.0
  0
VERTEX
  5
4D6
  8
0
  6
ISO-02___
 62
    17
 10
90.36168210021808
 20
1859.600993562662
 30
0.0
  0
VERTEX
  5
4D7
  8
0
  6
ISO-02___
 62
    17
 10
90.46385778650239
 20
1859.765007752842
 30
0.0
  0
VERTEX
  5
4D8
  8
0
  6
ISO-02___
 62
    17
 10
90.56518372411843
 20
1859.930770244083
 30
0.0
  0
VERTEX
  5
4D9
  8
0
  6
ISO-02___
 62
    17
 10
90.66565991306621
 20
1860.098281036383
 30
0.0
  0
VERTEX
  5
4DA
  8
0
  6
ISO-02___
 62
    17
 10
90.76528635334574
 20
1860.267540129744
 30
0.0
  0
VERTEX
  5
4DB
  8
0
  6
ISO-02___
 62
    17
 10
90.864063044957
 20
1860.438547524164
 30
0.0
  0
VERTEX
  5
4DC
  8
0
  6
ISO-02___
 62
    17
 10
90.96198998790001
 20
1860.611303219644
 30
0.0
  0
VERTEX
  5
4DD
  8
0
  6
ISO-02___
 62
    17
 10
91.05906718217477
 20
1860.785807216183
 30
0.0
  0
VERTEX
  5
4DE
  8
0
  6
ISO-02___
 62
    17
 10
91.15529462778127
 20
1860.962059513783
 30
0.0
  0
VERTEX
  5
4DF
  8
0
  6
ISO-02___
 62
    17
 10
91.2506723247195
 20
1861.140060112442
 30
0.0
  0
VERTEX
  5
4E0
  8
0
  6
ISO-02___
 62
    17
 10
91.34520027298947
 20
1861.319809012161
 30
0.0
  0
VERTEX
  5
4E1
  8
0
  6
ISO-02___
 62
    17
 10
91.4388784725912
 20
1861.501306212941
 30
0.0
  0
VERTEX
  5
4E2
  8
0
  6
ISO-02___
 62
    17
 10
91.53170692352467
 20
1861.684551714779
 30
0.0
  0
VERTEX
  5
4E3
  8
0
  6
ISO-02___
 62
    17
 10
91.62368562578988
 20
1861.869545517678
 30
0.0
  0
VERTEX
  5
4E4
  8
0
  6
ISO-02___
 62
    17
 10
91.71481457938683
 20
1862.056287621637
 30
0.0
  0
VERTEX
  5
4E5
  8
0
  6
ISO-02___
 62
    17
 10
91.8050937843155
 20
1862.244778026655
 30
0.0
  0
VERTEX
  5
4E6
  8
0
  6
ISO-02___
 62
    17
 10
91.89452324057592
 20
1862.435016732733
 30
0.0
  0
VERTEX
  5
4E7
  8
0
  6
ISO-02___
 62
    17
 10
91.9831029481681
 20
1862.627003739871
 30
0.0
  0
VERTEX
  5
4E8
  8
0
  6
ISO-02___
 62
    17
 10
92.07083290709201
 20
1862.820739048069
 30
0.0
  0
VERTEX
  5
4E9
  8
0
  6
ISO-02___
 62
    17
 10
92.15771311734767
 20
1863.016222657327
 30
0.0
  0
VERTEX
  5
4EA
  8
0
  6
ISO-02___
 62
    17
 10
92.24374357893507
 20
1863.213454567644
 30
0.0
  0
VERTEX
  5
4EB
  8
0
  6
ISO-02___
 62
    17
 10
92.32892429185421
 20
1863.412434779021
 30
0.0
  0
VERTEX
  5
4EC
  8
0
  6
ISO-02___
 62
    17
 10
92.41325525610509
 20
1863.613163291458
 30
0.0
  0
VERTEX
  5
4ED
  8
0
  6
ISO-02___
 62
    17
 10
92.49673647168771
 20
1863.815640104955
 30
0.0
  0
VERTEX
  5
4EE
  8
0
  6
ISO-02___
 62
    17
 10
92.57923317655748
 20
1864.019091144358
 30
0.0
  0
VERTEX
  5
4EF
  8
0
  6
ISO-02___
 62
    17
 10
92.66061060866978
 20
1864.222742334513
 30
0.0
  0
VERTEX
  5
4F0
  8
0
  6
ISO-02___
 62
    17
 10
92.74086876802463
 20
1864.426593675419
 30
0.0
  0
VERTEX
  5
4F1
  8
0
  6
ISO-02___
 62
    17
 10
92.82000765462203
 20
1864.630645167076
 30
0.0
  0
VERTEX
  5
4F2
  8
0
  6
ISO-02___
 62
    17
 10
92.89802726846196
 20
1864.834896809486
 30
0.0
  0
VERTEX
  5
4F3
  8
0
  6
ISO-02___
 62
    17
 10
92.97492760954444
 20
1865.039348602646
 30
0.0
  0
VERTEX
  5
4F4
  8
0
  6
ISO-02___
 62
    17
 10
93.05070867786945
 20
1865.244000546559
 30
0.0
  0
VERTEX
  5
4F5
  8
0
  6
ISO-02___
 62
    17
 10
93.12537047343702
 20
1865.448852641223
 30
0.0
  0
VERTEX
  5
4F6
  8
0
  6
ISO-02___
 62
    17
 10
93.19891299624712
 20
1865.653904886639
 30
0.0
  0
VERTEX
  5
4F7
  8
0
  6
ISO-02___
 62
    17
 10
93.27133624629975
 20
1865.859157282807
 30
0.0
  0
VERTEX
  5
4F8
  8
0
  6
ISO-02___
 62
    17
 10
93.34264022359494
 20
1866.064609829726
 30
0.0
  0
VERTEX
  5
4F9
  8
0
  6
ISO-02___
 62
    17
 10
93.41282492813266
 20
1866.270262527397
 30
0.0
  0
VERTEX
  5
4FA
  8
0
  6
ISO-02___
 62
    17
 10
93.48189035991294
 20
1866.47611537582
 30
0.0
  0
VERTEX
  5
4FB
  8
0
  6
ISO-02___
 62
    17
 10
93.54983651893575
 20
1866.682168374994
 30
0.0
  0
VERTEX
  5
4FC
  8
0
  6
ISO-02___
 62
    17
 10
93.61666340520111
 20
1866.88842152492
 30
0.0
  0
VERTEX
  5
4FD
  8
0
  6
ISO-02___
 62
    17
 10
93.682371018709
 20
1867.094874825597
 30
0.0
  0
VERTEX
  5
4FE
  8
0
  6
ISO-02___
 62
    17
 10
93.74695935945945
 20
1867.301528277027
 30
0.0
  0
VERTEX
  5
4FF
  8
0
  6
ISO-02___
 62
    17
 10
93.81042842745242
 20
1867.508381879207
 30
0.0
  0
VERTEX
  5
500
  8
0
  6
ISO-02___
 62
    17
 10
93.87277822268794
 20
1867.71543563214
 30
0.0
  0
VERTEX
  5
501
  8
0
  6
ISO-02___
 62
    17
 10
93.93400874516603
 20
1867.922689535824
 30
0.0
  0
VERTEX
  5
502
  8
0
  6
ISO-02___
 62
    17
 10
93.99411999488665
 20
1868.13014359026
 30
0.0
  0
VERTEX
  5
503
  8
0
  6
ISO-02___
 62
    17
 10
94.05311197184979
 20
1868.337797795448
 30
0.0
  0
VERTEX
  5
504
  8
0
  6
ISO-02___
 62
    17
 10
94.11098467605547
 20
1868.545652151387
 30
0.0
  0
VERTEX
  5
505
  8
0
  6
ISO-02___
 62
    17
 10
94.16773810750371
 20
1868.753706658078
 30
0.0
  0
VERTEX
  5
506
  8
0
  6
ISO-02___
 62
    17
 10
94.22337226619447
 20
1868.96196131552
 30
0.0
  0
VERTEX
  5
507
  8
0
  6
ISO-02___
 62
    17
 10
94.2778871521278
 20
1869.170416123714
 30
0.0
  0
VERTEX
  5
508
  8
0
  6
ISO-02___
 62
    17
 10
94.33128276530367
 20
1869.37907108266
 30
0.0
  0
VERTEX
  5
509
  8
0
  6
ISO-02___
 62
    17
 10
94.38355910572207
 20
1869.587926192357
 30
0.0
  0
VERTEX
  5
50A
  8
0
  6
ISO-02___
 62
    17
 10
94.43471617338301
 20
1869.796981452806
 30
0.0
  0
VERTEX
  5
50B
  8
0
  6
ISO-02___
 62
    17
 10
94.4847539682865
 20
1870.006236864007
 30
0.0
  0
VERTEX
  5
50C
  8
0
  6
ISO-02___
 62
    17
 10
94.53367249043252
 20
1870.21569242596
 30
0.0
  0
VERTEX
  5
50D
  8
0
  6
ISO-02___
 62
    17
 10
94.5814717398211
 20
1870.425348138664
 30
0.0
  0
VERTEX
  5
50E
  8
0
  6
ISO-02___
 62
    17
 10
94.62815171645221
 20
1870.635204002119
 30
0.0
  0
VERTEX
  5
50F
  8
0
  6
ISO-02___
 62
    17
 10
94.67371242032587
 20
1870.845260016327
 30
0.0
  0
VERTEX
  5
510
  8
0
  6
ISO-02___
 62
    17
 10
94.71815385144207
 20
1871.055516181286
 30
0.0
  0
VERTEX
  5
511
  8
0
  6
ISO-02___
 62
    17
 10
94.76147600980082
 20
1871.265972496996
 30
0.0
  0
VERTEX
  5
512
  8
0
  6
ISO-02___
 62
    17
 10
94.8036788954021
 20
1871.476628963459
 30
0.0
  0
VERTEX
  5
513
  8
0
  6
ISO-02___
 62
    17
 10
94.84476250824592
 20
1871.687485580673
 30
0.0
  0
VERTEX
  5
514
  8
0
  6
ISO-02___
 62
    17
 10
94.88472684833229
 20
1871.898542348638
 30
0.0
  0
VERTEX
  5
515
  8
0
  6
ISO-02___
 62
    17
 10
94.9235719156612
 20
1872.109799267356
 30
0.0
  0
VERTEX
  5
516
  8
0
  6
ISO-02___
 62
    17
 10
94.96129771023264
 20
1872.321256336825
 30
0.0
  0
VERTEX
  5
517
  8
0
  6
ISO-02___
 62
    17
 10
94.99790423204664
 20
1872.532913557045
 30
0.0
  0
VERTEX
  5
518
  8
0
  6
ISO-02___
 62
    17
 10
95.03339148110318
 20
1872.744770928017
 30
0.0
  0
VERTEX
  5
519
  8
0
  6
ISO-02___
 62
    17
 10
95.06775945740226
 20
1872.956828449741
 30
0.0
  0
VERTEX
  5
51A
  8
0
  6
ISO-02___
 62
    17
 10
95.10100816094388
 20
1873.169086122217
 30
0.0
  0
VERTEX
  5
51B
  8
0
  6
ISO-02___
 62
    17
 10
95.13313759172804
 20
1873.381543945444
 30
0.0
  0
VERTEX
  5
51C
  8
0
  6
ISO-02___
 62
    17
 10
95.16414774975475
 20
1873.594201919423
 30
0.0
  0
VERTEX
  5
51D
  8
0
  6
ISO-02___
 62
    17
 10
95.19403863502399
 20
1873.807060044154
 30
0.0
  0
VERTEX
  5
51E
  8
0
  6
ISO-02___
 62
    17
 10
95.22281024753578
 20
1874.020118319636
 30
0.0
  0
VERTEX
  5
51F
  8
0
  6
ISO-02___
 62
    17
 10
95.2504625872901
 20
1874.233376745869
 30
0.0
  0
VERTEX
  5
520
  8
0
  6
ISO-02___
 62
    17
 10
95.27699565428696
 20
1874.446835322855
 30
0.0
  0
VERTEX
  5
521
  8
0
  6
ISO-02___
 62
    17
 10
95.30240944852639
 20
1874.660494050592
 30
0.0
  0
VERTEX
  5
522
  8
0
  6
ISO-02___
 62
    17
 10
95.32670397000834
 20
1874.874352929081
 30
0.0
  0
VERTEX
  5
523
  8
0
  6
ISO-02___
 62
    17
 10
95.34987921873285
 20
1875.088411958322
 30
0.0
  0
VERTEX
  5
524
  8
0
  6
ISO-02___
 62
    17
 10
95.3719351946999
 20
1875.302671138314
 30
0.0
  0
VERTEX
  5
525
  8
0
  6
ISO-02___
 62
    17
 10
95.39287189790949
 20
1875.517130469058
 30
0.0
  0
VERTEX
  5
526
  8
0
  6
ISO-02___
 62
    17
 10
95.41268932836161
 20
1875.731789950553
 30
0.0
  0
VERTEX
  5
527
  8
0
  6
ISO-02___
 62
    17
 10
95.43138748605628
 20
1875.9466495828
 30
0.0
  0
VERTEX
  5
528
  8
0
  6
ISO-02___
 62
    17
 10
95.44896637099349
 20
1876.161709365799
 30
0.0
  0
VERTEX
  5
529
  8
0
  6
ISO-02___
 62
    17
 10
95.46542598317325
 20
1876.37696929955
 30
0.0
  0
VERTEX
  5
52A
  8
0
  6
ISO-02___
 62
    17
 10
95.48076632259554
 20
1876.592429384052
 30
0.0
  0
VERTEX
  5
52B
  8
0
  6
ISO-02___
 62
    17
 10
95.49498738926037
 20
1876.808089619306
 30
0.0
  0
VERTEX
  5
52C
  8
0
  6
ISO-02___
 62
    17
 10
95.50808918316775
 20
1877.023950005311
 30
0.0
  0
VERTEX
  5
52D
  8
0
  6
ISO-02___
 62
    17
 10
95.52007170431767
 20
1877.240010542068
 30
0.0
  0
VERTEX
  5
52E
  8
0
  6
ISO-02___
 62
    17
 10
95.53154932707592
 20
1877.456580894481
 30
0.0
  0
VERTEX
  5
52F
  8
0
  6
ISO-02___
 62
    17
 10
95.54313642580826
 20
1877.673970727454
 30
0.0
  0
VERTEX
  5
530
  8
0
  6
ISO-02___
 62
    17
 10
95.55483300051472
 20
1877.892180040988
 30
0.0
  0
VERTEX
  5
531
  8
0
  6
ISO-02___
 62
    17
 10
95.56663905119525
 20
1878.111208835081
 30
0.0
  0
VERTEX
  5
532
  8
0
  6
ISO-02___
 62
    17
 10
95.5785545778499
 20
1878.331057109734
 30
0.0
  0
VERTEX
  5
533
  8
0
  6
ISO-02___
 62
    17
 10
95.59057958047865
 20
1878.551724864948
 30
0.0
  0
VERTEX
  5
534
  8
0
  6
ISO-02___
 62
    17
 10
95.6027140590815
 20
1878.773212100722
 30
0.0
  0
VERTEX
  5
535
  8
0
  6
ISO-02___
 62
    17
 10
95.61495801365845
 20
1878.995518817056
 30
0.0
  0
VERTEX
  5
536
  8
0
  6
ISO-02___
 62
    17
 10
95.62731144420951
 20
1879.21864501395
 30
0.0
  0
VERTEX
  5
537
  8
0
  6
ISO-02___
 62
    17
 10
95.63977435073465
 20
1879.442590691405
 30
0.0
  0
VERTEX
  5
538
  8
0
  6
ISO-02___
 62
    17
 10
95.65234673323391
 20
1879.667355849419
 30
0.0
  0
VERTEX
  5
539
  8
0
  6
ISO-02___
 62
    17
 10
95.66502859170726
 20
1879.892940487994
 30
0.0
  0
VERTEX
  5
53A
  8
0
  6
ISO-02___
 62
    17
 10
95.67781992615471
 20
1880.119344607129
 30
0.0
  0
VERTEX
  5
53B
  8
0
  6
ISO-02___
 62
    17
 10
95.69072073657625
 20
1880.346568206824
 30
0.0
  0
VERTEX
  5
53C
  8
0
  6
ISO-02___
 62
    17
 10
95.70373102297192
 20
1880.574611287079
 30
0.0
  0
VERTEX
  5
53D
  8
0
  6
ISO-02___
 62
    17
 10
95.71685078534168
 20
1880.803473847895
 30
0.0
  0
VERTEX
  5
53E
  8
0
  6
ISO-02___
 62
    17
 10
95.73008002368553
 20
1881.03315588927
 30
0.0
  0
VERTEX
  5
53F
  8
0
  6
ISO-02___
 62
    17
 10
95.7434187380035
 20
1881.263657411206
 30
0.0
  0
VERTEX
  5
540
  8
0
  6
ISO-02___
 62
    17
 10
95.75686692829557
 20
1881.494978413702
 30
0.0
  0
VERTEX
  5
541
  8
0
  6
ISO-02___
 62
    17
 10
95.77042459456172
 20
1881.727118896757
 30
0.0
  0
VERTEX
  5
542
  8
0
  6
ISO-02___
 62
    17
 10
95.78409173680197
 20
1881.960078860374
 30
0.0
  0
VERTEX
  5
543
  8
0
  6
ISO-02___
 62
    17
 10
95.79786835501633
 20
1882.19385830455
 30
0.0
  0
VERTEX
  5
544
  8
0
  6
ISO-02___
 62
    17
 10
95.81175444920481
 20
1882.428457229287
 30
0.0
  0
VERTEX
  5
545
  8
0
  6
ISO-02___
 62
    17
 10
95.82575001936738
 20
1882.663875634583
 30
0.0
  0
VERTEX
  5
546
  8
0
  6
ISO-02___
 62
    17
 10
95.83985506550405
 20
1882.90011352044
 30
0.0
  0
VERTEX
  5
547
  8
0
  6
ISO-02___
 62
    17
 10
95.8540695876148
 20
1883.137170886857
 30
0.0
  0
VERTEX
  5
548
  8
0
  6
ISO-02___
 62
    17
 10
95.86839358569966
 20
1883.375047733834
 30
0.0
  0
VERTEX
  5
549
  8
0
  6
ISO-02___
 62
    17
 10
95.88282705975863
 20
1883.613744061372
 30
0.0
  0
VERTEX
  5
54A
  8
0
  6
ISO-02___
 62
    17
 10
95.8973700097917
 20
1883.853259869469
 30
0.0
  0
VERTEX
  5
54B
  8
0
  6
ISO-02___
 62
    17
 10
95.91202243579886
 20
1884.093595158126
 30
0.0
  0
VERTEX
  5
54C
  8
0
  6
ISO-02___
 62
    17
 10
95.92678433778013
 20
1884.334749927344
 30
0.0
  0
VERTEX
  5
54D
  8
0
  6
ISO-02___
 62
    17
 10
95.94165571573551
 20
1884.576724177122
 30
0.0
  0
VERTEX
  5
54E
  8
0
  6
ISO-02___
 62
    17
 10
95.95663656966498
 20
1884.81951790746
 30
0.0
  0
VERTEX
  5
54F
  8
0
  6
ISO-02___
 62
    17
 10
95.97172689956855
 20
1885.063131118358
 30
0.0
  0
VERTEX
  5
550
  8
0
  6
ISO-02___
 62
    17
 10
95.98692670544622
 20
1885.307563809817
 30
0.0
  0
VERTEX
  5
551
  8
0
  6
ISO-02___
 62
    17
 10
96.00223598729801
 20
1885.552815981835
 30
0.0
  0
VERTEX
  5
552
  8
0
  6
ISO-02___
 62
    17
 10
96.01765474512388
 20
1885.798887634414
 30
0.0
  0
VERTEX
  5
553
  8
0
  6
ISO-02___
 62
    17
 10
96.03318297892385
 20
1886.045778767553
 30
0.0
  0
VERTEX
  5
554
  8
0
  6
ISO-02___
 62
    17
 10
96.04882068869793
 20
1886.293489381252
 30
0.0
  0
VERTEX
  5
555
  8
0
  6
ISO-02___
 62
    17
 10
96.06456787444611
 20
1886.542019475511
 30
0.0
  0
VERTEX
  5
556
  8
0
  6
ISO-02___
 62
    17
 10
96.0804245361684
 20
1886.791369050331
 30
0.0
  0
VERTEX
  5
557
  8
0
  6
ISO-02___
 62
    17
 10
96.09639067386476
 20
1887.04153810571
 30
0.0
  0
VERTEX
  5
558
  8
0
  6
ISO-02___
 62
    17
 10
96.11246628753526
 20
1887.292526641649
 30
0.0
  0
VERTEX
  5
559
  8
0
  6
ISO-02___
 62
    17
 10
96.12865137717984
 20
1887.544334658149
 30
0.0
  0
VERTEX
  5
55A
  8
0
  6
ISO-02___
 62
    17
 10
96.14494594279853
 20
1887.796962155209
 30
0.0
  0
VERTEX
  5
55B
  8
0
  6
ISO-02___
 62
    17
 10
96.16134998439131
 20
1888.050409132829
 30
0.0
  0
VERTEX
  5
55C
  8
0
  6
ISO-02___
 62
    17
 10
96.1778635019582
 20
1888.30467559101
 30
0.0
  0
VERTEX
  5
55D
  8
0
  6
ISO-02___
 62
    17
 10
96.19448649549918
 20
1888.55976152975
 30
0.0
  0
VERTEX
  5
55E
  8
0
  6
ISO-02___
 62
    17
 10
96.21121896501427
 20
1888.815666949051
 30
0.0
  0
VERTEX
  5
55F
  8
0
  6
ISO-02___
 62
    17
 10
96.22806091050344
 20
1889.072391848912
 30
0.0
  0
VERTEX
  5
560
  8
0
  6
ISO-02___
 62
    17
 10
96.24501233196673
 20
1889.329936229333
 30
0.0
  0
VERTEX
  5
561
  8
0
  6
ISO-02___
 62
    17
 10
96.26207322940412
 20
1889.588300090314
 30
0.0
  0
VERTEX
  5
562
  8
0
  6
ISO-02___
 62
    17
 10
96.27924360281563
 20
1889.847483431855
 30
0.0
  0
VERTEX
  5
563
  8
0
  6
ISO-02___
 62
    17
 10
96.2965234522012
 20
1890.107486253956
 30
0.0
  0
VERTEX
  5
564
  8
0
  6
ISO-02___
 62
    17
 10
96.3139127775609
 20
1890.368308556618
 30
0.0
  0
VERTEX
  5
565
  8
0
  6
ISO-02___
 62
    17
 10
96.33141157889469
 20
1890.62995033984
 30
0.0
  0
VERTEX
  5
566
  8
0
  6
ISO-02___
 62
    17
 10
96.34901985620257
 20
1890.892411603621
 30
0.0
  0
VERTEX
  5
567
  8
0
  6
ISO-02___
 62
    17
 10
96.36673760948457
 20
1891.155692347963
 30
0.0
  0
VERTEX
  5
568
  8
0
  6
ISO-02___
 62
    17
 10
96.38456483874067
 20
1891.419792572866
 30
0.0
  0
VERTEX
  5
569
  8
0
  6
ISO-02___
 62
    17
 10
96.40250154397087
 20
1891.684712278328
 30
0.0
  0
VERTEX
  5
56A
  8
0
  6
ISO-02___
 62
    17
 10
96.42054772517517
 20
1891.950451464351
 30
0.0
  0
VERTEX
  5
56B
  8
0
  6
ISO-02___
 62
    17
 10
96.43870338235357
 20
1892.217010130933
 30
0.0
  0
VERTEX
  5
56C
  8
0
  6
ISO-02___
 62
    17
 10
96.45696851550608
 20
1892.484388278076
 30
0.0
  0
VERTEX
  5
56D
  8
0
  6
ISO-02___
 62
    17
 10
96.47534312463267
 20
1892.752585905779
 30
0.0
  0
VERTEX
  5
56E
  8
0
  6
ISO-02___
 62
    17
 10
96.49380922814402
 20
1893.022036536136
 30
0.0
  0
VERTEX
  5
56F
  8
0
  6
ISO-02___
 62
    17
 10
96.51234884445077
 20
1893.293173691241
 30
0.0
  0
VERTEX
  5
570
  8
0
  6
ISO-02___
 62
    17
 10
96.5309619735529
 20
1893.565997371095
 30
0.0
  0
VERTEX
  5
571
  8
0
  6
ISO-02___
 62
    17
 10
96.54964861545044
 20
1893.840507575696
 30
0.0
  0
VERTEX
  5
572
  8
0
  6
ISO-02___
 62
    17
 10
96.56840877014336
 20
1894.116704305045
 30
0.0
  0
VERTEX
  5
573
  8
0
  6
ISO-02___
 62
    17
 10
96.58724243763169
 20
1894.394587559143
 30
0.0
  0
VERTEX
  5
574
  8
0
  6
ISO-02___
 62
    17
 10
96.6061496179154
 20
1894.674157337989
 30
0.0
  0
VERTEX
  5
575
  8
0
  6
ISO-02___
 62
    17
 10
96.62513031099452
 20
1894.955413641583
 30
0.0
  0
VERTEX
  5
576
  8
0
  6
ISO-02___
 62
    17
 10
96.64418451686903
 20
1895.238356469925
 30
0.0
  0
VERTEX
  5
577
  8
0
  6
ISO-02___
 62
    17
 10
96.66331223553894
 20
1895.522985823015
 30
0.0
  0
VERTEX
  5
578
  8
0
  6
ISO-02___
 62
    17
 10
96.68251346700424
 20
1895.809301700853
 30
0.0
  0
VERTEX
  5
579
  8
0
  6
ISO-02___
 62
    17
 10
96.70178821126493
 20
1896.097304103439
 30
0.0
  0
VERTEX
  5
57A
  8
0
  6
ISO-02___
 62
    17
 10
96.721136468321
 20
1896.386993030773
 30
0.0
  0
VERTEX
  5
57B
  8
0
  6
ISO-02___
 62
    17
 10
96.7405582381725
 20
1896.678368482856
 30
0.0
  0
VERTEX
  5
57C
  8
0
  6
ISO-02___
 62
    17
 10
96.76005352081938
 20
1896.971430459686
 30
0.0
  0
VERTEX
  5
57D
  8
0
  6
ISO-02___
 62
    17
 10
96.77962231626165
 20
1897.266178961265
 30
0.0
  0
VERTEX
  5
57E
  8
0
  6
ISO-02___
 62
    17
 10
96.79926462449932
 20
1897.562613987591
 30
0.0
  0
VERTEX
  5
57F
  8
0
  6
ISO-02___
 62
    17
 10
96.81898044553239
 20
1897.860735538666
 30
0.0
  0
VERTEX
  5
580
  8
0
  6
ISO-02___
 62
    17
 10
96.83876977936086
 20
1898.160543614489
 30
0.0
  0
VERTEX
  5
581
  8
0
  6
ISO-02___
 62
    17
 10
96.85863262598471
 20
1898.46203821506
 30
0.0
  0
VERTEX
  5
582
  8
0
  6
ISO-02___
 62
    17
 10
96.87856898540396
 20
1898.765219340379
 30
0.0
  0
VERTEX
  5
583
  8
0
  6
ISO-02___
 62
    17
 10
96.8985788576186
 20
1899.070086990446
 30
0.0
  0
VERTEX
  5
584
  8
0
  6
ISO-02___
 62
    17
 10
96.91866224262864
 20
1899.376641165262
 30
0.0
  0
VERTEX
  5
585
  8
0
  6
ISO-02___
 62
    17
 10
96.93881914043408
 20
1899.684881864825
 30
0.0
  0
VERTEX
  5
586
  8
0
  6
ISO-02___
 62
    17
 10
96.95904955103491
 20
1899.994809089136
 30
0.0
  0
VERTEX
  5
587
  8
0
  6
ISO-02___
 62
    17
 10
96.97935347443114
 20
1900.306422838196
 30
0.0
  0
VERTEX
  5
588
  8
0
  6
ISO-02___
 62
    17
 10
96.99973091062276
 20
1900.619723112004
 30
0.0
  0
VERTEX
  5
589
  8
0
  6
ISO-02___
 62
    17
 10
97.02018185960978
 20
1900.93470991056
 30
0.0
  0
VERTEX
  5
58A
  8
0
  6
ISO-02___
 62
    17
 10
97.04070632139218
 20
1901.251383233864
 30
0.0
  0
VERTEX
  5
58B
  8
0
  6
ISO-02___
 62
    17
 10
97.06130429596999
 20
1901.569743081915
 30
0.0
  0
VERTEX
  5
58C
  8
0
  6
ISO-02___
 62
    17
 10
97.08197578334318
 20
1901.889789454716
 30
0.0
  0
VERTEX
  5
58D
  8
0
  6
ISO-02___
 62
    17
 10
97.10272078351178
 20
1902.211522352264
 30
0.0
  0
VERTEX
  5
58E
  8
0
  6
ISO-02___
 62
    17
 10
97.12353929647577
 20
1902.53494177456
 30
0.0
  0
VERTEX
  5
58F
  8
0
  6
ISO-02___
 62
    17
 10
97.14443132223516
 20
1902.860047721604
 30
0.0
  0
VERTEX
  5
590
  8
0
  6
ISO-02___
 62
    17
 10
97.16539686078994
 20
1903.186840193397
 30
0.0
  0
VERTEX
  5
591
  8
0
  6
ISO-02___
 62
    17
 10
97.18643591214013
 20
1903.515319189937
 30
0.0
  0
VERTEX
  5
592
  8
0
  6
ISO-02___
 62
    17
 10
97.2075484762857
 20
1903.845484711226
 30
0.0
  0
VERTEX
  5
593
  8
0
  6
ISO-02___
 62
    17
 10
97.22873455322666
 20
1904.177336757263
 30
0.0
  0
VERTEX
  5
594
  8
0
  6
ISO-02___
 62
    17
 10
97.24999414296302
 20
1904.510875328048
 30
0.0
  0
VERTEX
  5
595
  8
0
  6
ISO-02___
 62
    17
 10
97.27132724549477
 20
1904.846100423581
 30
0.0
  0
VERTEX
  5
596
  8
0
  6
ISO-02___
 62
    17
 10
97.29273386082193
 20
1905.183012043862
 30
0.0
  0
VERTEX
  5
597
  8
0
  6
ISO-02___
 62
    17
 10
97.31421398894447
 20
1905.521610188891
 30
0.0
  0
VERTEX
  5
598
  8
0
  6
ISO-02___
 62
    17
 10
97.33576762986242
 20
1905.861894858668
 30
0.0
  0
VERTEX
  5
599
  8
0
  6
ISO-02___
 62
    17
 10
97.35739478357576
 20
1906.203866053193
 30
0.0
  0
VERTEX
  5
59A
  8
0
  6
ISO-02___
 62
    17
 10
97.37909545008449
 20
1906.547523772467
 30
0.0
  0
VERTEX
  5
59B
  8
0
  6
ISO-02___
 62
    17
 10
97.40086962938861
 20
1906.892868016488
 30
0.0
  0
VERTEX
  5
59C
  8
0
  6
ISO-02___
 62
    17
 10
97.42271732148814
 20
1907.239898785258
 30
0.0
  0
VERTEX
  5
59D
  8
0
  6
ISO-02___
 62
    17
 10
97.44463852638306
 20
1907.588616078776
 30
0.0
  0
VERTEX
  5
59E
  8
0
  6
ISO-02___
 62
    17
 10
97.46663324407336
 20
1907.939019897041
 30
0.0
  0
VERTEX
  5
59F
  8
0
  6
ISO-02___
 62
    17
 10
97.4887014745591
 20
1908.291110240055
 30
0.0
  0
VERTEX
  5
5A0
  8
0
  6
ISO-02___
 62
    17
 10
97.51084321784019
 20
1908.644887107817
 30
0.0
  0
VERTEX
  5
5A1
  8
0
  6
ISO-02___
 62
    17
 10
97.5330584739167
 20
1909.000350500327
 30
0.0
  0
VERTEX
  5
5A2
  8
0
  6
ISO-02___
 62
    17
 10
97.55534724278857
 20
1909.357500417585
 30
0.0
  0
VERTEX
  5
5A3
  8
0
  6
ISO-02___
 62
    17
 10
97.57770952445587
 20
1909.716336859592
 30
0.0
  0
VERTEX
  5
5A4
  8
0
  6
ISO-02___
 62
    17
 10
97.60014531891855
 20
1910.076859826346
 30
0.0
  0
VERTEX
  5
5A5
  8
0
  6
ISO-02___
 62
    17
 10
97.62265462617663
 20
1910.439069317849
 30
0.0
  0
VERTEX
  5
5A6
  8
0
  6
ISO-02___
 62
    17
 10
97.64523744623011
 20
1910.8029653341
 30
0.0
  0
VERTEX
  5
5A7
  8
0
  6
ISO-02___
 62
    17
 10
97.66789377907898
 20
1911.168547875098
 30
0.0
  0
VERTEX
  5
5A8
  8
0
  6
ISO-02___
 62
    17
 10
97.69062362472324
 20
1911.535816940845
 30
0.0
  0
VERTEX
  5
5A9
  8
0
  6
ISO-02___
 62
    17
 10
97.7134269831629
 20
1911.90477253134
 30
0.0
  0
VERTEX
  5
5AA
  8
0
  6
ISO-02___
 62
    17
 10
97.73630385439796
 20
1912.275414646583
 30
0.0
  0
VERTEX
  5
5AB
  8
0
  6
ISO-02___
 62
    17
 10
97.75925423842841
 20
1912.647743286574
 30
0.0
  0
VERTEX
  5
5AC
  8
0
  6
ISO-02___
 62
    17
 10
97.78227813525424
 20
1913.021758451313
 30
0.0
  0
VERTEX
  5
5AD
  8
0
  6
ISO-02___
 62
    17
 10
97.80537554487549
 20
1913.397460140801
 30
0.0
  0
VERTEX
  5
5AE
  8
0
  6
ISO-02___
 62
    17
 10
97.82847175524577
 20
1913.773585043354
 30
0.0
  0
VERTEX
  5
5AF
  8
0
  6
ISO-02___
 62
    17
 10
97.85149205431873
 20
1914.148869847294
 30
0.0
  0
VERTEX
  5
5B0
  8
0
  6
ISO-02___
 62
    17
 10
97.87443644209436
 20
1914.523314552618
 30
0.0
  0
VERTEX
  5
5B1
  8
0
  6
ISO-02___
 62
    17
 10
97.89730491857267
 20
1914.896919159327
 30
0.0
  0
VERTEX
  5
5B2
  8
0
  6
ISO-02___
 62
    17
 10
97.92009748375366
 20
1915.269683667422
 30
0.0
  0
VERTEX
  5
5B3
  8
0
  6
ISO-02___
 62
    17
 10
97.94281413763736
 20
1915.641608076901
 30
0.0
  0
VERTEX
  5
5B4
  8
0
  6
ISO-02___
 62
    17
 10
97.96545488022372
 20
1916.012692387766
 30
0.0
  0
VERTEX
  5
5B5
  8
0
  6
ISO-02___
 62
    17
 10
97.98801971151275
 20
1916.382936600016
 30
0.0
  0
VERTEX
  5
5B6
  8
0
  6
ISO-02___
 62
    17
 10
98.01050863150446
 20
1916.75234071365
 30
0.0
  0
VERTEX
  5
5B7
  8
0
  6
ISO-02___
 62
    17
 10
98.03292164019886
 20
1917.120904728671
 30
0.0
  0
VERTEX
  5
5B8
  8
0
  6
ISO-02___
 62
    17
 10
98.05525873759595
 20
1917.488628645076
 30
0.0
  0
VERTEX
  5
5B9
  8
0
  6
ISO-02___
 62
    17
 10
98.0775199236957
 20
1917.855512462866
 30
0.0
  0
VERTEX
  5
5BA
  8
0
  6
ISO-02___
 62
    17
 10
98.09970519849814
 20
1918.221556182042
 30
0.0
  0
VERTEX
  5
5BB
  8
0
  6
ISO-02___
 62
    17
 10
98.12181456200327
 20
1918.586759802603
 30
0.0
  0
VERTEX
  5
5BC
  8
0
  6
ISO-02___
 62
    17
 10
98.14384801421106
 20
1918.951123324548
 30
0.0
  0
VERTEX
  5
5BD
  8
0
  6
ISO-02___
 62
    17
 10
98.16580555512152
 20
1919.314646747879
 30
0.0
  0
VERTEX
  5
5BE
  8
0
  6
ISO-02___
 62
    17
 10
98.1876871847347
 20
1919.677330072595
 30
0.0
  0
VERTEX
  5
5BF
  8
0
  6
ISO-02___
 62
    17
 10
98.20949290305053
 20
1920.039173298696
 30
0.0
  0
VERTEX
  5
5C0
  8
0
  6
ISO-02___
 62
    17
 10
98.23122271006905
 20
1920.400176426183
 30
0.0
  0
VERTEX
  5
5C1
  8
0
  6
ISO-02___
 62
    17
 10
98.25287660579025
 20
1920.760339455054
 30
0.0
  0
VERTEX
  5
5C2
  8
0
  6
ISO-02___
 62
    17
 10
98.27445459021413
 20
1921.119662385311
 30
0.0
  0
VERTEX
  5
5C3
  8
0
  6
ISO-02___
 62
    17
 10
98.29595666334069
 20
1921.478145216952
 30
0.0
  0
VERTEX
  5
5C4
  8
0
  6
ISO-02___
 62
    17
 10
98.31738282516991
 20
1921.835787949979
 30
0.0
  0
VERTEX
  5
5C5
  8
0
  6
ISO-02___
 62
    17
 10
98.33873307570184
 20
1922.192590584391
 30
0.0
  0
VERTEX
  5
5C6
  8
0
  6
ISO-02___
 62
    17
 10
98.36000741493645
 20
1922.548553120188
 30
0.0
  0
VERTEX
  5
5C7
  8
0
  6
ISO-02___
 62
    17
 10
98.38120584287373
 20
1922.903675557371
 30
0.0
  0
VERTEX
  5
5C8
  8
0
  6
ISO-02___
 62
    17
 10
98.40232835951367
 20
1923.257957895938
 30
0.0
  0
VERTEX
  5
5C9
  8
0
  6
ISO-02___
 62
    17
 10
98.42337496485631
 20
1923.611400135891
 30
0.0
  0
VERTEX
  5
5CA
  8
0
  6
ISO-02___
 62
    17
 10
98.44434565890163
 20
1923.964002277228
 30
0.0
  0
VERTEX
  5
5CB
  8
0
  6
ISO-02___
 62
    17
 10
98.46524044164961
 20
1924.315764319951
 30
0.0
  0
VERTEX
  5
5CC
  8
0
  6
ISO-02___
 62
    17
 10
98.48605931310028
 20
1924.666686264059
 30
0.0
  0
VERTEX
  5
5CD
  8
0
  6
ISO-02___
 62
    17
 10
98.50680227325365
 20
1925.016768109552
 30
0.0
  0
VERTEX
  5
5CE
  8
0
  6
ISO-02___
 62
    17
 10
98.52746932210971
 20
1925.36600985643
 30
0.0
  0
VERTEX
  5
5CF
  8
0
  6
ISO-02___
 62
    17
 10
98.54806045966842
 20
1925.714411504694
 30
0.0
  0
VERTEX
  5
5D0
  8
0
  6
ISO-02___
 62
    17
 10
98.56857568592983
 20
1926.061973054342
 30
0.0
  0
VERTEX
  5
5D1
  8
0
  6
ISO-02___
 62
    17
 10
98.5890150008939
 20
1926.408694505376
 30
0.0
  0
VERTEX
  5
5D2
  8
0
  6
ISO-02___
 62
    17
 10
98.60937840456064
 20
1926.754575857795
 30
0.0
  0
VERTEX
  5
5D3
  8
0
  6
ISO-02___
 62
    17
 10
98.62966589693009
 20
1927.099617111598
 30
0.0
  0
VERTEX
  5
5D4
  8
0
  6
ISO-02___
 62
    17
 10
98.64987747800222
 20
1927.443818266788
 30
0.0
  0
VERTEX
  5
5D5
  8
0
  6
ISO-02___
 62
    17
 10
98.67001314777701
 20
1927.787179323362
 30
0.0
  0
VERTEX
  5
5D6
  8
0
  6
ISO-02___
 62
    17
 10
98.6900729062545
 20
1928.129700281321
 30
0.0
  0
VERTEX
  5
5D7
  8
0
  6
ISO-02___
 62
    17
 10
98.71005675343466
 20
1928.471381140665
 30
0.0
  0
VERTEX
  5
5D8
  8
0
  6
ISO-02___
 62
    17
 10
98.7299646893175
 20
1928.812221901395
 30
0.0
  0
VERTEX
  5
5D9
  8
0
  6
ISO-02___
 62
    17
 10
98.74979671390301
 20
1929.15222256351
 30
0.0
  0
VERTEX
  5
5DA
  8
0
  6
ISO-02___
 62
    17
 10
98.7695528271912
 20
1929.491383127009
 30
0.0
  0
VERTEX
  5
5DB
  8
0
  6
ISO-02___
 62
    17
 10
98.78923302918207
 20
1929.829703591894
 30
0.0
  0
VERTEX
  5
5DC
  8
0
  6
ISO-02___
 62
    17
 10
98.80883731987564
 20
1930.167183958165
 30
0.0
  0
VERTEX
  5
5DD
  8
0
  6
ISO-02___
 62
    17
 10
98.82836569927187
 20
1930.50382422582
 30
0.0
  0
VERTEX
  5
5DE
  8
0
  6
ISO-02___
 62
    17
 10
98.84781816737079
 20
1930.83962439486
 30
0.0
  0
VERTEX
  5
5DF
  8
0
  6
ISO-02___
 62
    17
 10
98.86719472417239
 20
1931.174584465286
 30
0.0
  0
VERTEX
  5
5E0
  8
0
  6
ISO-02___
 62
    17
 10
98.88649536967668
 20
1931.508704437096
 30
0.0
  0
VERTEX
  5
5E1
  8
0
  6
ISO-02___
 62
    17
 10
98.90572010388364
 20
1931.841984310292
 30
0.0
  0
VERTEX
  5
5E2
  8
0
  6
ISO-02___
 62
    17
 10
98.92486892679328
 20
1932.174424084872
 30
0.0
  0
VERTEX
  5
5E3
  8
0
  6
ISO-02___
 62
    17
 10
98.9439418384056
 20
1932.506023760839
 30
0.0
  0
VERTEX
  5
5E4
  8
0
  6
ISO-02___
 62
    17
 10
98.9629388387206
 20
1932.83678333819
 30
0.0
  0
VERTEX
  5
5E5
  8
0
  6
ISO-02___
 62
    17
 10
98.98185992773827
 20
1933.166702816926
 30
0.0
  0
VERTEX
  5
5E6
  8
0
  6
ISO-02___
 62
    17
 10
99.00070510545862
 20
1933.495782197047
 30
0.0
  0
VERTEX
  5
5E7
  8
0
  6
ISO-02___
 62
    17
 10
99.01947437188167
 20
1933.824021478554
 30
0.0
  0
VERTEX
  5
5E8
  8
0
  6
ISO-02___
 62
    17
 10
99.03816772700739
 20
1934.151420661446
 30
0.0
  0
VERTEX
  5
5E9
  8
0
  6
ISO-02___
 62
    17
 10
99.05678517083578
 20
1934.477979745723
 30
0.0
  0
VERTEX
  5
5EA
  8
0
  6
ISO-02___
 62
    17
 10
99.07532670336687
 20
1934.803698731385
 30
0.0
  0
VERTEX
  5
5EB
  8
0
  6
ISO-02___
 62
    17
 10
99.09379232460063
 20
1935.128577618432
 30
0.0
  0
VERTEX
  5
5EC
  8
0
  6
ISO-02___
 62
    17
 10
99.11218203453706
 20
1935.452616406864
 30
0.0
  0
VERTEX
  5
5ED
  8
0
  6
ISO-02___
 62
    17
 10
99.13049583317618
 20
1935.775815096681
 30
0.0
  0
VERTEX
  5
5EE
  8
0
  6
ISO-02___
 62
    17
 10
99.14871925224477
 20
1936.0977534878
 30
0.0
  0
VERTEX
  5
5EF
  8
0
  6
ISO-02___
 62
    17
 10
99.16683782346962
 20
1936.418011380136
 30
0.0
  0
VERTEX
  5
5F0
  8
0
  6
ISO-02___
 62
    17
 10
99.18485154685072
 20
1936.736588773691
 30
0.0
  0
VERTEX
  5
5F1
  8
0
  6
ISO-02___
 62
    17
 10
99.20276042238807
 20
1937.053485668463
 30
0.0
  0
VERTEX
  5
5F2
  8
0
  6
ISO-02___
 62
    17
 10
99.22056445008167
 20
1937.368702064452
 30
0.0
  0
VERTEX
  5
5F3
  8
0
  6
ISO-02___
 62
    17
 10
99.23826362993154
 20
1937.682237961659
 30
0.0
  0
VERTEX
  5
5F4
  8
0
  6
ISO-02___
 62
    17
 10
99.25585796193766
 20
1937.994093360084
 30
0.0
  0
VERTEX
  5
5F5
  8
0
  6
ISO-02___
 62
    17
 10
99.27334744610003
 20
1938.304268259727
 30
0.0
  0
VERTEX
  5
5F6
  8
0
  6
ISO-02___
 62
    17
 10
99.29073208241866
 20
1938.612762660588
 30
0.0
  0
VERTEX
  5
5F7
  8
0
  6
ISO-02___
 62
    17
 10
99.30801187089355
 20
1938.919576562666
 30
0.0
  0
VERTEX
  5
5F8
  8
0
  6
ISO-02___
 62
    17
 10
99.3251868115247
 20
1939.224709965961
 30
0.0
  0
VERTEX
  5
5F9
  8
0
  6
ISO-02___
 62
    17
 10
99.3422569043121
 20
1939.528162870475
 30
0.0
  0
VERTEX
  5
5FA
  8
0
  6
ISO-02___
 62
    17
 10
99.35922214925574
 20
1939.829935276206
 30
0.0
  0
VERTEX
  5
5FB
  8
0
  6
ISO-02___
 62
    17
 10
99.37608254635566
 20
1940.130027183155
 30
0.0
  0
VERTEX
  5
5FC
  8
0
  6
ISO-02___
 62
    17
 10
99.39283809561182
 20
1940.428438591322
 30
0.0
  0
VERTEX
  5
5FD
  8
0
  6
ISO-02___
 62
    17
 10
99.40948879702424
 20
1940.725169500706
 30
0.0
  0
VERTEX
  5
5FE
  8
0
  6
ISO-02___
 62
    17
 10
99.42603465059291
 20
1941.020219911308
 30
0.0
  0
VERTEX
  5
5FF
  8
0
  6
ISO-02___
 62
    17
 10
99.44247565631784
 20
1941.313589823128
 30
0.0
  0
VERTEX
  5
600
  8
0
  6
ISO-02___
 62
    17
 10
99.45881181419902
 20
1941.605279236165
 30
0.0
  0
VERTEX
  5
601
  8
0
  6
ISO-02___
 62
    17
 10
99.47504312423646
 20
1941.89528815042
 30
0.0
  0
VERTEX
  5
602
  8
0
  6
ISO-02___
 62
    17
 10
99.49116958643016
 20
1942.183616565893
 30
0.0
  0
VERTEX
  5
603
  8
0
  6
ISO-02___
 62
    17
 10
99.50719120078011
 20
1942.470264482584
 30
0.0
  0
VERTEX
  5
604
  8
0
  6
ISO-02___
 62
    17
 10
99.52310796728632
 20
1942.755231900492
 30
0.0
  0
VERTEX
  5
605
  8
0
  6
ISO-02___
 62
    17
 10
99.53891988594879
 20
1943.038518819618
 30
0.0
  0
VERTEX
  5
606
  8
0
  6
ISO-02___
 62
    17
 10
99.5546269567675
 20
1943.320125239961
 30
0.0
  0
VERTEX
  5
607
  8
0
  6
ISO-02___
 62
    17
 10
99.57022917974248
 20
1943.600051161523
 30
0.0
  0
VERTEX
  5
608
  8
0
  6
ISO-02___
 62
    17
 10
99.58572655487372
 20
1943.878296584302
 30
0.0
  0
VERTEX
  5
609
  8
0
  6
ISO-02___
 62
    17
 10
99.6011190821612
 20
1944.154861508299
 30
0.0
  0
VERTEX
  5
60A
  8
0
  6
ISO-02___
 62
    17
 10
99.61640676160494
 20
1944.429745933513
 30
0.0
  0
VERTEX
  5
60B
  8
0
  6
ISO-02___
 62
    17
 10
99.63158959320494
 20
1944.702949859945
 30
0.0
  0
VERTEX
  5
60C
  8
0
  6
ISO-02___
 62
    17
 10
99.64666757696119
 20
1944.974473287595
 30
0.0
  0
VERTEX
  5
60D
  8
0
  6
ISO-02___
 62
    17
 10
99.66164071287369
 20
1945.244316216462
 30
0.0
  0
VERTEX
  5
60E
  8
0
  6
ISO-02___
 62
    17
 10
99.67650900094245
 20
1945.512478646548
 30
0.0
  0
VERTEX
  5
60F
  8
0
  6
ISO-02___
 62
    17
 10
99.69127244116747
 20
1945.778960577851
 30
0.0
  0
VERTEX
  5
610
  8
0
  6
ISO-02___
 62
    17
 10
99.70593103354875
 20
1946.043762010371
 30
0.0
  0
VERTEX
  5
611
  8
0
  6
ISO-02___
 62
    17
 10
99.72048477808627
 20
1946.30688294411
 30
0.0
  0
VERTEX
  5
612
  8
0
  6
ISO-02___
 62
    17
 10
99.73493367478005
 20
1946.568323379066
 30
0.0
  0
VERTEX
  5
613
  8
0
  6
ISO-02___
 62
    17
 10
99.74927772363009
 20
1946.82808331524
 30
0.0
  0
VERTEX
  5
614
  8
0
  6
ISO-02___
 62
    17
 10
99.76351692463638
 20
1947.086162752631
 30
0.0
  0
VERTEX
  5
615
  8
0
  6
ISO-02___
 62
    17
 10
99.77765127779894
 20
1947.34256169124
 30
0.0
  0
VERTEX
  5
616
  8
0
  6
ISO-02___
 62
    17
 10
99.79168078311776
 20
1947.597280131067
 30
0.0
  0
VERTEX
  5
617
  8
0
  6
ISO-02___
 62
    17
 10
99.80560544059281
 20
1947.850318072112
 30
0.0
  0
VERTEX
  5
618
  8
0
  6
ISO-02___
 62
    17
 10
99.81942525022413
 20
1948.101675514374
 30
0.0
  0
VERTEX
  5
619
  8
0
  6
ISO-02___
 62
    17
 10
99.8331402120117
 20
1948.351352457854
 30
0.0
  0
VERTEX
  5
61A
  8
0
  6
ISO-02___
 62
    17
 10
99.84675032595553
 20
1948.599348902552
 30
0.0
  0
VERTEX
  5
61B
  8
0
  6
ISO-02___
 62
    17
 10
99.86025559205561
 20
1948.845664848467
 30
0.0
  0
VERTEX
  5
61C
  8
0
  6
ISO-02___
 62
    17
 10
99.87365601031193
 20
1949.0903002956
 30
0.0
  0
VERTEX
  5
61D
  8
0
  6
ISO-02___
 62
    17
 10
99.88695158072453
 20
1949.333255243951
 30
0.0
  0
VERTEX
  5
61E
  8
0
  6
ISO-02___
 62
    17
 10
99.90014230329338
 20
1949.574529693519
 30
0.0
  0
VERTEX
  5
61F
  8
0
  6
ISO-02___
 62
    17
 10
99.91322817801847
 20
1949.814123644305
 30
0.0
  0
VERTEX
  5
620
  8
0
  6
ISO-02___
 62
    17
 10
99.92620920489983
 20
1950.052037096309
 30
0.0
  0
VERTEX
  5
621
  8
0
  6
ISO-02___
 62
    17
 10
99.93908538393745
 20
1950.288270049531
 30
0.0
  0
VERTEX
  5
622
  8
0
  6
ISO-02___
 62
    17
 10
99.95185671513131
 20
1950.52282250397
 30
0.0
  0
VERTEX
  5
623
  8
0
  6
ISO-02___
 62
    17
 10
99.96452319848144
 20
1950.755694459627
 30
0.0
  0
VERTEX
  5
624
  8
0
  6
ISO-02___
 62
    17
 10
99.97708483398783
 20
1950.986885916502
 30
0.0
  0
VERTEX
  5
625
  8
0
  6
ISO-02___
 62
    17
 10
99.98954162165046
 20
1951.216396874594
 30
0.0
  0
VERTEX
  5
626
  8
0
  6
ISO-02___
 62
    17
 10
100.0018935614694
 20
1951.444227333904
 30
0.0
  0
VERTEX
  5
627
  8
0
  6
ISO-02___
 62
    17
 10
100.0141406534445
 20
1951.670377294432
 30
0.0
  0
VERTEX
  5
628
  8
0
  6
ISO-02___
 62
    17
 10
100.0262828975759
 20
1951.894846756178
 30
0.0
  0
VERTEX
  5
629
  8
0
  6
ISO-02___
 62
    17
 10
100.0383202938636
 20
1952.117635719141
 30
0.0
  0
VERTEX
  5
62A
  8
0
  6
ISO-02___
 62
    17
 10
100.0502528423075
 20
1952.338744183322
 30
0.0
  0
VERTEX
  5
62B
  8
0
  6
ISO-02___
 62
    17
 10
100.0620805429077
 20
1952.55817214872
 30
0.0
  0
VERTEX
  5
62C
  8
0
  6
ISO-02___
 62
    17
 10
100.0738033956641
 20
1952.775919615337
 30
0.0
  0
VERTEX
  5
62D
  8
0
  6
ISO-02___
 62
    17
 10
100.0854214005768
 20
1952.991986583171
 30
0.0
  0
VERTEX
  5
62E
  8
0
  6
ISO-02___
 62
    17
 10
100.0854214005768
 20
1952.991986583171
 30
0.0
  0
SEQEND
  5
62F
  8
0
  6
ISO-02___
 62
    17
  0
POLYLINE
  5
630
  8
0
  6
ISO-02___
 62
    17
 66
     1
 10
0.0
 20
0.0
 30
0.0
 70
   128
  0
VERTEX
  5
631
  8
0
  6
ISO-02___
 62
    17
 10
100.085421519403
 20
1952.991988789008
 30
0.0
  0
VERTEX
  5
632
  8
0
  6
ISO-02___
 62
    17
 10
100.0904222076506
 20
1953.074641737223
 30
0.0
  0
VERTEX
  5
633
  8
0
  6
ISO-02___
 62
    17
 10
100.0963754195278
 20
1953.156970803617
 30
0.0
  0
VERTEX
  5
634
  8
0
  6
ISO-02___
 62
    17
 10
100.1032811550345
 20
1953.238975988189
 30
0.0
  0
VERTEX
  5
635
  8
0
  6
ISO-02___
 62
    17
 10
100.1111394141708
 20
1953.320657290939
 30
0.0
  0
VERTEX
  5
636
  8
0
  6
ISO-02___
 62
    17
 10
100.1199501969366
 20
1953.402014711869
 30
0.0
  0
VERTEX
  5
637
  8
0
  6
ISO-02___
 62
    17
 10
100.1297135033321
 20
1953.483048250977
 30
0.0
  0
VERTEX
  5
638
  8
0
  6
ISO-02___
 62
    17
 10
100.1404293333571
 20
1953.563757908264
 30
0.0
  0
VERTEX
  5
639
  8
0
  6
ISO-02___
 62
    17
 10
100.1520976870116
 20
1953.644143683729
 30
0.0
  0
VERTEX
  5
63A
  8
0
  6
ISO-02___
 62
    17
 10
100.1647185642958
 20
1953.724205577373
 30
0.0
  0
VERTEX
  5
63B
  8
0
  6
ISO-02___
 62
    17
 10
100.1782919652095
 20
1953.803943589196
 30
0.0
  0
VERTEX
  5
63C
  8
0
  6
ISO-02___
 62
    17
 10
100.1928178897527
 20
1953.883357719197
 30
0.0
  0
VERTEX
  5
63D
  8
0
  6
ISO-02___
 62
    17
 10
100.2082963379256
 20
1953.962447967377
 30
0.0
  0
VERTEX
  5
63E
  8
0
  6
ISO-02___
 62
    17
 10
100.224727309728
 20
1954.041214333736
 30
0.0
  0
VERTEX
  5
63F
  8
0
  6
ISO-02___
 62
    17
 10
100.24211080516
 20
1954.119656818273
 30
0.0
  0
VERTEX
  5
640
  8
0
  6
ISO-02___
 62
    17
 10
100.2604468242215
 20
1954.197775420989
 30
0.0
  0
VERTEX
  5
641
  8
0
  6
ISO-02___
 62
    17
 10
100.2797353669126
 20
1954.275570141884
 30
0.0
  0
VERTEX
  5
642
  8
0
  6
ISO-02___
 62
    17
 10
100.2999764332333
 20
1954.353040980957
 30
0.0
  0
VERTEX
  5
643
  8
0
  6
ISO-02___
 62
    17
 10
100.3211700231836
 20
1954.430187938209
 30
0.0
  0
VERTEX
  5
644
  8
0
  6
ISO-02___
 62
    17
 10
100.3433161367634
 20
1954.50701101364
 30
0.0
  0
VERTEX
  5
645
  8
0
  6
ISO-02___
 62
    17
 10
100.3664147739728
 20
1954.583510207249
 30
0.0
  0
VERTEX
  5
646
  8
0
  6
ISO-02___
 62
    17
 10
100.3904659348117
 20
1954.659685519037
 30
0.0
  0
VERTEX
  5
647
  8
0
  6
ISO-02___
 62
    17
 10
100.4154696192802
 20
1954.735536949004
 30
0.0
  0
VERTEX
  5
648
  8
0
  6
ISO-02___
 62
    17
 10
100.4414258273783
 20
1954.811064497149
 30
0.0
  0
VERTEX
  5
649
  8
0
  6
ISO-02___
 62
    17
 10
100.468334559106
 20
1954.886268163473
 30
0.0
  0
VERTEX
  5
64A
  8
0
  6
ISO-02___
 62
    17
 10
100.4961958144632
 20
1954.961147947976
 30
0.0
  0
VERTEX
  5
64B
  8
0
  6
ISO-02___
 62
    17
 10
100.5250095934501
 20
1955.035703850657
 30
0.0
  0
VERTEX
  5
64C
  8
0
  6
ISO-02___
 62
    17
 10
100.5547758960664
 20
1955.109935871517
 30
0.0
  0
VERTEX
  5
64D
  8
0
  6
ISO-02___
 62
    17
 10
100.5854947223123
 20
1955.183844010556
 30
0.0
  0
VERTEX
  5
64E
  8
0
  6
ISO-02___
 62
    17
 10
100.6171660721879
 20
1955.257428267773
 30
0.0
  0
VERTEX
  5
64F
  8
0
  6
ISO-02___
 62
    17
 10
100.6497899456929
 20
1955.330688643169
 30
0.0
  0
VERTEX
  5
650
  8
0
  6
ISO-02___
 62
    17
 10
100.6833663428276
 20
1955.403625136743
 30
0.0
  0
VERTEX
  5
651
  8
0
  6
ISO-02___
 62
    17
 10
100.7178952635918
 20
1955.476237748497
 30
0.0
  0
VERTEX
  5
652
  8
0
  6
ISO-02___
 62
    17
 10
100.7533767079856
 20
1955.548526478429
 30
0.0
  0
VERTEX
  5
653
  8
0
  6
ISO-02___
 62
    17
 10
100.789810676009
 20
1955.620491326539
 30
0.0
  0
VERTEX
  5
654
  8
0
  6
ISO-02___
 62
    17
 10
100.8271971676619
 20
1955.692132292828
 30
0.0
  0
VERTEX
  5
655
  8
0
  6
ISO-02___
 62
    17
 10
100.8655361829444
 20
1955.763449377296
 30
0.0
  0
VERTEX
  5
656
  8
0
  6
ISO-02___
 62
    17
 10
100.9048277218564
 20
1955.834442579943
 30
0.0
  0
VERTEX
  5
657
  8
0
  6
ISO-02___
 62
    17
 10
100.9450717843981
 20
1955.905111900768
 30
0.0
  0
VERTEX
  5
658
  8
0
  6
ISO-02___
 62
    17
 10
100.9862683705693
 20
1955.975457339772
 30
0.0
  0
VERTEX
  5
659
  8
0
  6
ISO-02___
 62
    17
 10
101.02841748037
 20
1956.045478896955
 30
0.0
  0
VERTEX
  5
65A
  8
0
  6
ISO-02___
 62
    17
 10
101.0715191138003
 20
1956.115176572316
 30
0.0
  0
VERTEX
  5
65B
  8
0
  6
ISO-02___
 62
    17
 10
101.1155732708603
 20
1956.184550365856
 30
0.0
  0
VERTEX
  5
65C
  8
0
  6
ISO-02___
 62
    17
 10
101.1605799515497
 20
1956.253600277574
 30
0.0
  0
VERTEX
  5
65D
  8
0
  6
ISO-02___
 62
    17
 10
101.2065391558688
 20
1956.322326307471
 30
0.0
  0
VERTEX
  5
65E
  8
0
  6
ISO-02___
 62
    17
 10
101.2534508838174
 20
1956.390728455547
 30
0.0
  0
VERTEX
  5
65F
  8
0
  6
ISO-02___
 62
    17
 10
101.3013151353956
 20
1956.458806721802
 30
0.0
  0
VERTEX
  5
660
  8
0
  6
ISO-02___
 62
    17
 10
101.3501319106033
 20
1956.526561106235
 30
0.0
  0
VERTEX
  5
661
  8
0
  6
ISO-02___
 62
    17
 10
101.3999012094406
 20
1956.593991608847
 30
0.0
  0
VERTEX
  5
662
  8
0
  6
ISO-02___
 62
    17
 10
101.4506230319075
 20
1956.661098229637
 30
0.0
  0
VERTEX
  5
663
  8
0
  6
ISO-02___
 62
    17
 10
101.502297378004
 20
1956.727880968607
 30
0.0
  0
VERTEX
  5
664
  8
0
  6
ISO-02___
 62
    17
 10
101.55492424773
 20
1956.794339825754
 30
0.0
  0
VERTEX
  5
665
  8
0
  6
ISO-02___
 62
    17
 10
101.6085036410856
 20
1956.860474801081
 30
0.0
  0
VERTEX
  5
666
  8
0
  6
ISO-02___
 62
    17
 10
101.6630355580707
 20
1956.926285894586
 30
0.0
  0
VERTEX
  5
667
  8
0
  6
ISO-02___
 62
    17
 10
101.7185199986855
 20
1956.99177310627
 30
0.0
  0
VERTEX
  5
668
  8
0
  6
ISO-02___
 62
    17
 10
101.7749569629298
 20
1957.056936436132
 30
0.0
  0
VERTEX
  5
669
  8
0
  6
ISO-02___
 62
    17
 10
101.8323464508036
 20
1957.121775884173
 30
0.0
  0
VERTEX
  5
66A
  8
0
  6
ISO-02___
 62
    17
 10
101.8906884623071
 20
1957.186291450393
 30
0.0
  0
VERTEX
  5
66B
  8
0
  6
ISO-02___
 62
    17
 10
101.9499829974401
 20
1957.250483134791
 30
0.0
  0
VERTEX
  5
66C
  8
0
  6
ISO-02___
 62
    17
 10
102.0102300562026
 20
1957.314350937369
 30
0.0
  0
VERTEX
  5
66D
  8
0
  6
ISO-02___
 62
    17
 10
102.0714296385948
 20
1957.377894858124
 30
0.0
  0
VERTEX
  5
66E
  8
0
  6
ISO-02___
 62
    17
 10
102.1335817446165
 20
1957.441114897059
 30
0.0
  0
VERTEX
  5
66F
  8
0
  6
ISO-02___
 62
    17
 10
102.1966863742678
 20
1957.504011054172
 30
0.0
  0
VERTEX
  5
670
  8
0
  6
ISO-02___
 62
    17
 10
102.2607435275486
 20
1957.566583329464
 30
0.0
  0
VERTEX
  5
671
  8
0
  6
ISO-02___
 62
    17
 10
102.325753204459
 20
1957.628831722934
 30
0.0
  0
VERTEX
  5
672
  8
0
  6
ISO-02___
 62
    17
 10
102.3913754904212
 20
1957.6904333132
 30
0.0
  0
VERTEX
  5
673
  8
0
  6
ISO-02___
 62
    17
 10
102.4572704708573
 20
1957.751065178877
 30
0.0
  0
VERTEX
  5
674
  8
0
  6
ISO-02___
 62
    17
 10
102.5234381457673
 20
1957.810727319965
 30
0.0
  0
VERTEX
  5
675
  8
0
  6
ISO-02___
 62
    17
 10
102.5898785151512
 20
1957.869419736465
 30
0.0
  0
VERTEX
  5
676
  8
0
  6
ISO-02___
 62
    17
 10
102.656591579009
 20
1957.927142428376
 30
0.0
  0
VERTEX
  5
677
  8
0
  6
ISO-02___
 62
    17
 10
102.7235773373407
 20
1957.983895395698
 30
0.0
  0
VERTEX
  5
678
  8
0
  6
ISO-02___
 62
    17
 10
102.7908357901464
 20
1958.039678638432
 30
0.0
  0
VERTEX
  5
679
  8
0
  6
ISO-02___
 62
    17
 10
102.858366937426
 20
1958.094492156578
 30
0.0
  0
VERTEX
  5
67A
  8
0
  6
ISO-02___
 62
    17
 10
102.9261707791795
 20
1958.148335950135
 30
0.0
  0
VERTEX
  5
67B
  8
0
  6
ISO-02___
 62
    17
 10
102.9942473154069
 20
1958.201210019103
 30
0.0
  0
VERTEX
  5
67C
  8
0
  6
ISO-02___
 62
    17
 10
103.0625965461082
 20
1958.253114363483
 30
0.0
  0
VERTEX
  5
67D
  8
0
  6
ISO-02___
 62
    17
 10
103.1312184712835
 20
1958.304048983274
 30
0.0
  0
VERTEX
  5
67E
  8
0
  6
ISO-02___
 62
    17
 10
103.2001130909326
 20
1958.354013878477
 30
0.0
  0
VERTEX
  5
67F
  8
0
  6
ISO-02___
 62
    17
 10
103.2692804050557
 20
1958.403009049091
 30
0.0
  0
VERTEX
  5
680
  8
0
  6
ISO-02___
 62
    17
 10
103.3387204136527
 20
1958.451034495116
 30
0.0
  0
VERTEX
  5
681
  8
0
  6
ISO-02___
 62
    17
 10
103.4084331167236
 20
1958.498090216553
 30
0.0
  0
VERTEX
  5
682
  8
0
  6
ISO-02___
 62
    17
 10
103.4784185142685
 20
1958.544176213401
 30
0.0
  0
VERTEX
  5
683
  8
0
  6
ISO-02___
 62
    17
 10
103.5486766062872
 20
1958.589292485661
 30
0.0
  0
VERTEX
  5
684
  8
0
  6
ISO-02___
 62
    17
 10
103.6192073927799
 20
1958.633439033332
 30
0.0
  0
VERTEX
  5
685
  8
0
  6
ISO-02___
 62
    17
 10
103.6900108737464
 20
1958.676615856415
 30
0.0
  0
VERTEX
  5
686
  8
0
  6
ISO-02___
 62
    17
 10
103.7610870491869
 20
1958.718822954909
 30
0.0
  0
VERTEX
  5
687
  8
0
  6
ISO-02___
 62
    17
 10
103.8324359191014
 20
1958.760060328815
 30
0.0
  0
VERTEX
  5
688
  8
0
  6
ISO-02___
 62
    17
 10
103.9040574834897
 20
1958.800327978131
 30
0.0
  0
VERTEX
  5
689
  8
0
  6
ISO-02___
 62
    17
 10
103.9759517423519
 20
1958.83962590286
 30
0.0
  0
VERTEX
  5
68A
  8
0
  6
ISO-02___
 62
    17
 10
104.0481186956881
 20
1958.877954103
 30
0.0
  0
VERTEX
  5
68B
  8
0
  6
ISO-02___
 62
    17
 10
104.1205583434982
 20
1958.915312578551
 30
0.0
  0
VERTEX
  5
68C
  8
0
  6
ISO-02___
 62
    17
 10
104.1932706857822
 20
1958.951701329514
 30
0.0
  0
VERTEX
  5
68D
  8
0
  6
ISO-02___
 62
    17
 10
104.2662557225401
 20
1958.987120355888
 30
0.0
  0
VERTEX
  5
68E
  8
0
  6
ISO-02___
 62
    17
 10
104.3395134537719
 20
1959.021569657673
 30
0.0
  0
VERTEX
  5
68F
  8
0
  6
ISO-02___
 62
    17
 10
104.4130438794777
 20
1959.05504923487
 30
0.0
  0
VERTEX
  5
690
  8
0
  6
ISO-02___
 62
    17
 10
104.4868469996573
 20
1959.087559087478
 30
0.0
  0
VERTEX
  5
691
  8
0
  6
ISO-02___
 62
    17
 10
104.5609228143109
 20
1959.119099215498
 30
0.0
  0
VERTEX
  5
692
  8
0
  6
ISO-02___
 62
    17
 10
104.6352713234384
 20
1959.14966961893
 30
0.0
  0
VERTEX
  5
693
  8
0
  6
ISO-02___
 62
    17
 10
104.7098925270398
 20
1959.179270297772
 30
0.0
  0
VERTEX
  5
694
  8
0
  6
ISO-02___
 62
    17
 10
104.7847864251152
 20
1959.207901252026
 30
0.0
  0
VERTEX
  5
695
  8
0
  6
ISO-02___
 62
    17
 10
104.8599530176644
 20
1959.235562481692
 30
0.0
  0
VERTEX
  5
696
  8
0
  6
ISO-02___
 62
    17
 10
104.9353923046876
 20
1959.262253986769
 30
0.0
  0
VERTEX
  5
697
  8
0
  6
ISO-02___
 62
    17
 10
105.0111042861847
 20
1959.287975767257
 30
0.0
  0
VERTEX
  5
698
  8
0
  6
ISO-02___
 62
    17
 10
105.0870889621557
 20
1959.312727823157
 30
0.0
  0
VERTEX
  5
699
  8
0
  6
ISO-02___
 62
    17
 10
105.1633463326006
 20
1959.336510154468
 30
0.0
  0
VERTEX
  5
69A
  8
0
  6
ISO-02___
 62
    17
 10
105.2398763975194
 20
1959.359322761191
 30
0.0
  0
VERTEX
  5
69B
  8
0
  6
ISO-02___
 62
    17
 10
105.3166791569122
 20
1959.381165643325
 30
0.0
  0
VERTEX
  5
69C
  8
0
  6
ISO-02___
 62
    17
 10
105.3937546107789
 20
1959.402038800871
 30
0.0
  0
VERTEX
  5
69D
  8
0
  6
ISO-02___
 62
    17
 10
105.4711027591194
 20
1959.421942233828
 30
0.0
  0
VERTEX
  5
69E
  8
0
  6
ISO-02___
 62
    17
 10
105.548723601934
 20
1959.440875942196
 30
0.0
  0
VERTEX
  5
69F
  8
0
  6
ISO-02___
 62
    17
 10
105.6266171392224
 20
1959.458839925976
 30
0.0
  0
VERTEX
  5
6A0
  8
0
  6
ISO-02___
 62
    17
 10
105.7047833709847
 20
1959.475834185168
 30
0.0
  0
VERTEX
  5
6A1
  8
0
  6
ISO-02___
 62
    17
 10
105.783222297221
 20
1959.49185871977
 30
0.0
  0
VERTEX
  5
6A2
  8
0
  6
ISO-02___
 62
    17
 10
105.8619339179311
 20
1959.506913529784
 30
0.0
  0
VERTEX
  5
6A3
  8
0
  6
ISO-02___
 62
    17
 10
105.9409182331152
 20
1959.52099861521
 30
0.0
  0
VERTEX
  5
6A4
  8
0
  6
ISO-02___
 62
    17
 10
106.0201752427732
 20
1959.534113976047
 30
0.0
  0
VERTEX
  5
6A5
  8
0
  6
ISO-02___
 62
    17
 10
106.0997049469051
 20
1959.546259612295
 30
0.0
  0
VERTEX
  5
6A6
  8
0
  6
ISO-02___
 62
    17
 10
106.179507345511
 20
1959.557435523955
 30
0.0
  0
VERTEX
  5
6A7
  8
0
  6
ISO-02___
 62
    17
 10
106.2595824385907
 20
1959.567641711026
 30
0.0
  0
VERTEX
  5
6A8
  8
0
  6
ISO-02___
 62
    17
 10
106.3399302261444
 20
1959.576878173509
 30
0.0
  0
VERTEX
  5
6A9
  8
0
  6
ISO-02___
 62
    17
 10
106.420550708172
 20
1959.585144911403
 30
0.0
  0
VERTEX
  5
6AA
  8
0
  6
ISO-02___
 62
    17
 10
106.5014438846735
 20
1959.592441924709
 30
0.0
  0
VERTEX
  5
6AB
  8
0
  6
ISO-02___
 62
    17
 10
106.5826097556489
 20
1959.598769213426
 30
0.0
  0
VERTEX
  5
6AC
  8
0
  6
ISO-02___
 62
    17
 10
106.6640483210983
 20
1959.604126777554
 30
0.0
  0
VERTEX
  5
6AD
  8
0
  6
ISO-02___
 62
    17
 10
106.7457595810215
 20
1959.608514617094
 30
0.0
  0
VERTEX
  5
6AE
  8
0
  6
ISO-02___
 62
    17
 10
106.8277435354187
 20
1959.611932732046
 30
0.0
  0
VERTEX
  5
6AF
  8
0
  6
ISO-02___
 62
    17
 10
106.9100001842898
 20
1959.614381122409
 30
0.0
  0
VERTEX
  5
6B0
  8
0
  6
ISO-02___
 62
    17
 10
106.9925295276348
 20
1959.615859788183
 30
0.0
  0
VERTEX
  5
6B1
  8
0
  6
ISO-02___
 62
    17
 10
107.0753315654537
 20
1959.616368729368
 30
0.0
  0
VERTEX
  5
6B2
  8
0
  6
ISO-02___
 62
    17
 10
107.0753315654537
 20
1959.616368729368
 30
0.0
  0
SEQEND
  5
6B3
  8
0
  6
ISO-02___
 62
    17
  0
POLYLINE
  5
6B4
  8
0
  6
CONTINUOUS
 62
     1
 66
     1
 10
0.0
 20
0.0
 30
0.0
 70
   128
  0
VERTEX
  5
6B5
  8
0
  6
CONTINUOUS
 62
     1
 10
107.0770630534834
 20
1959.611046033117
 30
0.0
 42
-0.009853784185741
 70
     2
 50
-1451.062087765341
  0
VERTEX
  5
6B6
  8
0
  6
CONTINUOUS
 62
     1
 10
107.3464228021839
 20
1959.616368729403
 30
0.0
  0
SEQEND
  5
6B7
  8
0
  6
CONTINUOUS
 62
     1
  0
POLYLINE
  5
6B8
  8
0
  6
CONTINUOUS
 62
     1
 66
     1
 10
0.0
 20
0.0
 30
0.0
 70
   128
  0
VERTEX
  5
6B9
  8
0
  6
CONTINUOUS
 62
     1
 10
-37.2208176067071
 20
1829.733270782824
 30
0.0
  0
VERTEX
  5
6BA
  8
0
  6
CONTINUOUS
 62
     1
 10
-37.21984068361392
 20
1829.733252743297
 30
0.0
  0
VERTEX
  5
6BB
  8
0
  6
CONTINUOUS
 62
     1
 10
-37.21886376099684
 20
1829.733234678823
 30
0.0
  0
VERTEX
  5
6BC
  8
0
  6
CONTINUOUS
 62
     1
 10
-37.21788683885585
 20
1829.733216589401
 30
0.0
  0
VERTEX
  5
6BD
  8
0
  6
CONTINUOUS
 62
     1
 10
-37.21690991719096
 20
1829.733198475031
 30
0.0
  0
VERTEX
  5
6BE
  8
0
  6
CONTINUOUS
 62
     1
 10
-37.21593299600215
 20
1829.733180335714
 30
0.0
  0
VERTEX
  5
6BF
  8
0
  6
CONTINUOUS
 62
     1
 10
-37.21495607528944
 20
1829.73316217145
 30
0.0
  0
VERTEX
  5
6C0
  8
0
  6
CONTINUOUS
 62
     1
 10
-37.21397915505283
 20
1829.733143982238
 30
0.0
  0
VERTEX
  5
6C1
  8
0
  6
CONTINUOUS
 62
     1
 10
-37.21300223529231
 20
1829.733125768078
 30
0.0
  0
VERTEX
  5
6C2
  8
0
  6
CONTINUOUS
 62
     1
 10
-37.21202531600788
 20
1829.733107528971
 30
0.0
  0
VERTEX
  5
6C3
  8
0
  6
CONTINUOUS
 62
     1
 10
-37.21104839719955
 20
1829.733089264916
 30
0.0
  0
VERTEX
  5
6C4
  8
0
  6
CONTINUOUS
 62
     1
 10
-37.21007147886731
 20
1829.733070975914
 30
0.0
  0
VERTEX
  5
6C5
  8
0
  6
CONTINUOUS
 62
     1
 10
-37.20909456101116
 20
1829.733052661964
 30
0.0
  0
VERTEX
  5
6C6
  8
0
  6
CONTINUOUS
 62
     1
 10
-37.2081176436311
 20
1829.733034323067
 30
0.0
  0
VERTEX
  5
6C7
  8
0
  6
CONTINUOUS
 62
     1
 10
-37.20714072672713
 20
1829.733015959222
 30
0.0
  0
VERTEX
  5
6C8
  8
0
  6
CONTINUOUS
 62
     1
 10
-37.20616381029927
 20
1829.73299757043
 30
0.0
  0
VERTEX
  5
6C9
  8
0
  6
CONTINUOUS
 62
     1
 10
-37.20518689434749
 20
1829.73297915669
 30
0.0
  0
VERTEX
  5
6CA
  8
0
  6
CONTINUOUS
 62
     1
 10
-37.20420997887181
 20
1829.732960718002
 30
0.0
  0
VERTEX
  5
6CB
  8
0
  6
CONTINUOUS
 62
     1
 10
-37.20323306387222
 20
1829.732942254367
 30
0.0
  0
VERTEX
  5
6CC
  8
0
  6
CONTINUOUS
 62
     1
 10
-37.20225614934873
 20
1829.732923765785
 30
0.0
  0
VERTEX
  5
6CD
  8
0
  6
CONTINUOUS
 62
     1
 10
-37.20127923530132
 20
1829.732905252255
 30
0.0
  0
VERTEX
  5
6CE
  8
0
  6
CONTINUOUS
 62
     1
 10
-37.20030232173001
 20
1829.732886713777
 30
0.0
  0
VERTEX
  5
6CF
  8
0
  6
CONTINUOUS
 62
     1
 10
-37.19932540863479
 20
1829.732868150352
 30
0.0
  0
VERTEX
  5
6D0
  8
0
  6
CONTINUOUS
 62
     1
 10
-37.19834849601567
 20
1829.732849561979
 30
0.0
  0
VERTEX
  5
6D1
  8
0
  6
CONTINUOUS
 62
     1
 10
-37.19737158387264
 20
1829.732830948658
 30
0.0
  0
VERTEX
  5
6D2
  8
0
  6
CONTINUOUS
 62
     1
 10
-37.19639467220571
 20
1829.732812310391
 30
0.0
  0
VERTEX
  5
6D3
  8
0
  6
CONTINUOUS
 62
     1
 10
-37.19541776101487
 20
1829.732793647175
 30
0.0
  0
VERTEX
  5
6D4
  8
0
  6
CONTINUOUS
 62
     1
 10
-37.19444085030012
 20
1829.732774959012
 30
0.0
  0
VERTEX
  5
6D5
  8
0
  6
CONTINUOUS
 62
     1
 10
-37.19346394006146
 20
1829.732756245902
 30
0.0
  0
VERTEX
  5
6D6
  8
0
  6
CONTINUOUS
 62
     1
 10
-37.1924870302989
 20
1829.732737507844
 30
0.0
  0
VERTEX
  5
6D7
  8
0
  6
CONTINUOUS
 62
     1
 10
-37.19151012101243
 20
1829.732718744838
 30
0.0
  0
VERTEX
  5
6D8
  8
0
  6
CONTINUOUS
 62
     1
 10
-37.19053321220206
 20
1829.732699956885
 30
0.0
  0
VERTEX
  5
6D9
  8
0
  6
CONTINUOUS
 62
     1
 10
-37.18955630386778
 20
1829.732681143984
 30
0.0
  0
VERTEX
  5
6DA
  8
0
  6
CONTINUOUS
 62
     1
 10
-37.18857939600959
 20
1829.732662306136
 30
0.0
  0
VERTEX
  5
6DB
  8
0
  6
CONTINUOUS
 62
     1
 10
-37.18760248862749
 20
1829.73264344334
 30
0.0
  0
VERTEX
  5
6DC
  8
0
  6
CONTINUOUS
 62
     1
 10
-37.18662558172149
 20
1829.732624555597
 30
0.0
  0
VERTEX
  5
6DD
  8
0
  6
CONTINUOUS
 62
     1
 10
-37.18564867529158
 20
1829.732605642906
 30
0.0
  0
VERTEX
  5
6DE
  8
0
  6
CONTINUOUS
 62
     1
 10
-37.18467176933777
 20
1829.732586705268
 30
0.0
  0
VERTEX
  5
6DF
  8
0
  6
CONTINUOUS
 62
     1
 10
-37.18369486386005
 20
1829.732567742682
 30
0.0
  0
VERTEX
  5
6E0
  8
0
  6
CONTINUOUS
 62
     1
 10
-37.18271795885842
 20
1829.732548755148
 30
0.0
  0
VERTEX
  5
6E1
  8
0
  6
CONTINUOUS
 62
     1
 10
-37.18174105433288
 20
1829.732529742667
 30
0.0
  0
VERTEX
  5
6E2
  8
0
  6
CONTINUOUS
 62
     1
 10
-37.18076415028344
 20
1829.732510705239
 30
0.0
  0
VERTEX
  5
6E3
  8
0
  6
CONTINUOUS
 62
     1
 10
-37.17978724671009
 20
1829.732491642863
 30
0.0
  0
VERTEX
  5
6E4
  8
0
  6
CONTINUOUS
 62
     1
 10
-37.17881034361284
 20
1829.732472555539
 30
0.0
  0
VERTEX
  5
6E5
  8
0
  6
CONTINUOUS
 62
     1
 10
-37.17783344099168
 20
1829.732453443268
 30
0.0
  0
VERTEX
  5
6E6
  8
0
  6
CONTINUOUS
 62
     1
 10
-37.17685653884661
 20
1829.732434306049
 30
0.0
  0
VERTEX
  5
6E7
  8
0
  6
CONTINUOUS
 62
     1
 10
-37.17587963717763
 20
1829.732415143883
 30
0.0
  0
VERTEX
  5
6E8
  8
0
  6
CONTINUOUS
 62
     1
 10
-37.17490273598475
 20
1829.732395956769
 30
0.0
  0
VERTEX
  5
6E9
  8
0
  6
CONTINUOUS
 62
     1
 10
-37.17392583526797
 20
1829.732376744707
 30
0.0
  0
VERTEX
  5
6EA
  8
0
  6
CONTINUOUS
 62
     1
 10
-37.17294893502727
 20
1829.732357507698
 30
0.0
  0
VERTEX
  5
6EB
  8
0
  6
CONTINUOUS
 62
     1
 10
-37.17197203526267
 20
1829.732338245742
 30
0.0
  0
VERTEX
  5
6EC
  8
0
  6
CONTINUOUS
 62
     1
 10
-37.17099513597417
 20
1829.732318958838
 30
0.0
  0
VERTEX
  5
6ED
  8
0
  6
CONTINUOUS
 62
     1
 10
-37.17001823716175
 20
1829.732299646986
 30
0.0
  0
VERTEX
  5
6EE
  8
0
  6
CONTINUOUS
 62
     1
 10
-37.16904133882542
 20
1829.732280310187
 30
0.0
  0
VERTEX
  5
6EF
  8
0
  6
CONTINUOUS
 62
     1
 10
-37.1680644409652
 20
1829.732260948441
 30
0.0
  0
VERTEX
  5
6F0
  8
0
  6
CONTINUOUS
 62
     1
 10
-37.16708754358106
 20
1829.732241561746
 30
0.0
  0
VERTEX
  5
6F1
  8
0
  6
CONTINUOUS
 62
     1
 10
-37.16611064667302
 20
1829.732222150105
 30
0.0
  0
VERTEX
  5
6F2
  8
0
  6
CONTINUOUS
 62
     1
 10
-37.16513375024107
 20
1829.732202713516
 30
0.0
  0
VERTEX
  5
6F3
  8
0
  6
CONTINUOUS
 62
     1
 10
-37.16415685428521
 20
1829.732183251979
 30
0.0
  0
VERTEX
  5
6F4
  8
0
  6
CONTINUOUS
 62
     1
 10
-37.16317995880545
 20
1829.732163765494
 30
0.0
  0
VERTEX
  5
6F5
  8
0
  6
CONTINUOUS
 62
     1
 10
-37.16220306380178
 20
1829.732144254062
 30
0.0
  0
VERTEX
  5
6F6
  8
0
  6
CONTINUOUS
 62
     1
 10
-37.16122616927421
 20
1829.732124717683
 30
0.0
  0
VERTEX
  5
6F7
  8
0
  6
CONTINUOUS
 62
     1
 10
-37.16024927522272
 20
1829.732105156356
 30
0.0
  0
VERTEX
  5
6F8
  8
0
  6
CONTINUOUS
 62
     1
 10
-37.15927238164734
 20
1829.732085570081
 30
0.0
  0
VERTEX
  5
6F9
  8
0
  6
CONTINUOUS
 62
     1
 10
-37.15829548854805
 20
1829.732065958859
 30
0.0
  0
VERTEX
  5
6FA
  8
0
  6
CONTINUOUS
 62
     1
 10
-37.15731859570114
 20
1829.732046334566
 30
0.0
  0
VERTEX
  5
6FB
  8
0
  6
CONTINUOUS
 62
     1
 10
-37.15634170288293
 20
1829.732026709079
 30
0.0
  0
VERTEX
  5
6FC
  8
0
  6
CONTINUOUS
 62
     1
 10
-37.1553648100934
 20
1829.732007082398
 30
0.0
  0
VERTEX
  5
6FD
  8
0
  6
CONTINUOUS
 62
     1
 10
-37.15438791733256
 20
1829.731987454523
 30
0.0
  0
VERTEX
  5
6FE
  8
0
  6
CONTINUOUS
 62
     1
 10
-37.1534110246004
 20
1829.731967825454
 30
0.0
  0
VERTEX
  5
6FF
  8
0
  6
CONTINUOUS
 62
     1
 10
-37.15243413189693
 20
1829.731948195191
 30
0.0
  0
VERTEX
  5
700
  8
0
  6
CONTINUOUS
 62
     1
 10
-37.15145723922215
 20
1829.731928563734
 30
0.0
  0
VERTEX
  5
701
  8
0
  6
CONTINUOUS
 62
     1
 10
-37.15048034657606
 20
1829.731908931083
 30
0.0
  0
VERTEX
  5
702
  8
0
  6
CONTINUOUS
 62
     1
 10
-37.14950345395866
 20
1829.731889297238
 30
0.0
  0
VERTEX
  5
703
  8
0
  6
CONTINUOUS
 62
     1
 10
-37.14852656136993
 20
1829.731869662199
 30
0.0
  0
VERTEX
  5
704
  8
0
  6
CONTINUOUS
 62
     1
 10
-37.1475496688099
 20
1829.731850025966
 30
0.0
  0
VERTEX
  5
705
  8
0
  6
CONTINUOUS
 62
     1
 10
-37.14657277627856
 20
1829.731830388539
 30
0.0
  0
VERTEX
  5
706
  8
0
  6
CONTINUOUS
 62
     1
 10
-37.1455958837759
 20
1829.731810749917
 30
0.0
  0
VERTEX
  5
707
  8
0
  6
CONTINUOUS
 62
     1
 10
-37.14461899130193
 20
1829.731791110102
 30
0.0
  0
VERTEX
  5
708
  8
0
  6
CONTINUOUS
 62
     1
 10
-37.14364209885665
 20
1829.731771469093
 30
0.0
  0
VERTEX
  5
709
  8
0
  6
CONTINUOUS
 62
     1
 10
-37.14266520644006
 20
1829.731751826889
 30
0.0
  0
VERTEX
  5
70A
  8
0
  6
CONTINUOUS
 62
     1
 10
-37.14168831405215
 20
1829.731732183492
 30
0.0
  0
VERTEX
  5
70B
  8
0
  6
CONTINUOUS
 62
     1
 10
-37.14071142169293
 20
1829.731712538901
 30
0.0
  0
VERTEX
  5
70C
  8
0
  6
CONTINUOUS
 62
     1
 10
-37.13973452936239
 20
1829.731692893115
 30
0.0
  0
VERTEX
  5
70D
  8
0
  6
CONTINUOUS
 62
     1
 10
-37.13875763706055
 20
1829.731673246136
 30
0.0
  0
VERTEX
  5
70E
  8
0
  6
CONTINUOUS
 62
     1
 10
-37.13778074478739
 20
1829.731653597963
 30
0.0
  0
VERTEX
  5
70F
  8
0
  6
CONTINUOUS
 62
     1
 10
-37.13680385254291
 20
1829.731633948595
 30
0.0
  0
VERTEX
  5
710
  8
0
  6
CONTINUOUS
 62
     1
 10
-37.13582696032712
 20
1829.731614298033
 30
0.0
  0
VERTEX
  5
711
  8
0
  6
CONTINUOUS
 62
     1
 10
-37.13485006814003
 20
1829.731594646278
 30
0.0
  0
VERTEX
  5
712
  8
0
  6
CONTINUOUS
 62
     1
 10
-37.13387317598163
 20
1829.731574993329
 30
0.0
  0
VERTEX
  5
713
  8
0
  6
CONTINUOUS
 62
     1
 10
-37.1328962838519
 20
1829.731555339185
 30
0.0
  0
VERTEX
  5
714
  8
0
  6
CONTINUOUS
 62
     1
 10
-37.13191939175086
 20
1829.731535683847
 30
0.0
  0
VERTEX
  5
715
  8
0
  6
CONTINUOUS
 62
     1
 10
-37.13094249967851
 20
1829.731516027316
 30
0.0
  0
VERTEX
  5
716
  8
0
  6
CONTINUOUS
 62
     1
 10
-37.12996560763484
 20
1829.73149636959
 30
0.0
  0
VERTEX
  5
717
  8
0
  6
CONTINUOUS
 62
     1
 10
-37.12898871561988
 20
1829.73147671067
 30
0.0
  0
VERTEX
  5
718
  8
0
  6
CONTINUOUS
 62
     1
 10
-37.12801182363359
 20
1829.731457050557
 30
0.0
  0
VERTEX
  5
719
  8
0
  6
CONTINUOUS
 62
     1
 10
-37.12703493167599
 20
1829.731437389249
 30
0.0
  0
VERTEX
  5
71A
  8
0
  6
CONTINUOUS
 62
     1
 10
-37.12605803974708
 20
1829.731417726747
 30
0.0
  0
VERTEX
  5
71B
  8
0
  6
CONTINUOUS
 62
     1
 10
-37.12508114784686
 20
1829.731398063052
 30
0.0
  0
VERTEX
  5
71C
  8
0
  6
CONTINUOUS
 62
     1
 10
-37.12410425597532
 20
1829.731378398162
 30
0.0
  0
VERTEX
  5
71D
  8
0
  6
CONTINUOUS
 62
     1
 10
-37.12312736413247
 20
1829.731358732078
 30
0.0
  0
VERTEX
  5
71E
  8
0
  6
CONTINUOUS
 62
     1
 10
-37.1221504723183
 20
1829.7313390648
 30
0.0
  0
VERTEX
  5
71F
  8
0
  6
CONTINUOUS
 62
     1
 10
-37.12117358053283
 20
1829.731319396328
 30
0.0
  0
VERTEX
  5
720
  8
0
  6
CONTINUOUS
 62
     1
 10
-37.12019668877604
 20
1829.731299726662
 30
0.0
  0
VERTEX
  5
721
  8
0
  6
CONTINUOUS
 62
     1
 10
-37.11921979704794
 20
1829.731280055802
 30
0.0
  0
VERTEX
  5
722
  8
0
  6
CONTINUOUS
 62
     1
 10
-37.11824290534852
 20
1829.731260383748
 30
0.0
  0
VERTEX
  5
723
  8
0
  6
CONTINUOUS
 62
     1
 10
-37.1172660136778
 20
1829.7312407105
 30
0.0
  0
VERTEX
  5
724
  8
0
  6
CONTINUOUS
 62
     1
 10
-37.11628912203576
 20
1829.731221036058
 30
0.0
  0
VERTEX
  5
725
  8
0
  6
CONTINUOUS
 62
     1
 10
-37.1153122304224
 20
1829.731201360422
 30
0.0
  0
VERTEX
  5
726
  8
0
  6
CONTINUOUS
 62
     1
 10
-37.11433533883774
 20
1829.731181683592
 30
0.0
  0
VERTEX
  5
727
  8
0
  6
CONTINUOUS
 62
     1
 10
-37.11335844728176
 20
1829.731162005568
 30
0.0
  0
VERTEX
  5
728
  8
0
  6
CONTINUOUS
 62
     1
 10
-37.11238155575447
 20
1829.73114232635
 30
0.0
  0
VERTEX
  5
729
  8
0
  6
CONTINUOUS
 62
     1
 10
-37.11140466425587
 20
1829.731122645937
 30
0.0
  0
VERTEX
  5
72A
  8
0
  6
CONTINUOUS
 62
     1
 10
-37.11042777278595
 20
1829.731102964331
 30
0.0
  0
VERTEX
  5
72B
  8
0
  6
CONTINUOUS
 62
     1
 10
-37.10945088134473
 20
1829.731083281531
 30
0.0
  0
VERTEX
  5
72C
  8
0
  6
CONTINUOUS
 62
     1
 10
-37.10847398993219
 20
1829.731063597537
 30
0.0
  0
VERTEX
  5
72D
  8
0
  6
CONTINUOUS
 62
     1
 10
-37.10749709854833
 20
1829.731043912348
 30
0.0
  0
VERTEX
  5
72E
  8
0
  6
CONTINUOUS
 62
     1
 10
-37.10652020719316
 20
1829.731024225966
 30
0.0
  0
VERTEX
  5
72F
  8
0
  6
CONTINUOUS
 62
     1
 10
-37.10554331586668
 20
1829.73100453839
 30
0.0
  0
VERTEX
  5
730
  8
0
  6
CONTINUOUS
 62
     1
 10
-37.10456642456889
 20
1829.73098484962
 30
0.0
  0
VERTEX
  5
731
  8
0
  6
CONTINUOUS
 62
     1
 10
-37.10358953329978
 20
1829.730965159655
 30
0.0
  0
VERTEX
  5
732
  8
0
  6
CONTINUOUS
 62
     1
 10
-37.10261264205936
 20
1829.730945468497
 30
0.0
  0
VERTEX
  5
733
  8
0
  6
CONTINUOUS
 62
     1
 10
-37.10163575084763
 20
1829.730925776144
 30
0.0
  0
VERTEX
  5
734
  8
0
  6
CONTINUOUS
 62
     1
 10
-37.10065885966459
 20
1829.730906082598
 30
0.0
  0
VERTEX
  5
735
  8
0
  6
CONTINUOUS
 62
     1
 10
-37.09968196851023
 20
1829.730886387857
 30
0.0
  0
VERTEX
  5
736
  8
0
  6
CONTINUOUS
 62
     1
 10
-37.09870507738457
 20
1829.730866691923
 30
0.0
  0
VERTEX
  5
737
  8
0
  6
CONTINUOUS
 62
     1
 10
-37.09772818628758
 20
1829.730846994794
 30
0.0
  0
VERTEX
  5
738
  8
0
  6
CONTINUOUS
 62
     1
 10
-37.09675129521928
 20
1829.730827296471
 30
0.0
  0
VERTEX
  5
739
  8
0
  6
CONTINUOUS
 62
     1
 10
-37.09577440417968
 20
1829.730807596955
 30
0.0
  0
VERTEX
  5
73A
  8
0
  6
CONTINUOUS
 62
     1
 10
-37.09577440417968
 20
1829.730807596955
 30
0.0
  0
SEQEND
  5
73B
  8
0
  6
CONTINUOUS
 62
     1
  0
ARC
  5
73C
  8
0
  6
ISO-02___
 62
    17
 10
-101.6629000180346
 20
1952.614897596019
 30
0.0
 40
7.001472000002585
 50
23.89147000005304
 51
89.99215900000351
  0
ARC
  5
73D
  8
0
  6
CONTINUOUS
 62
     1
 10
-102.563047018035
 20
1952.616367596036
 30
0.0
 40
7.000001999986739
 50
90.0000240000045
 51
179.9999859999267
  0
ARC
  5
73E
  8
0
  6
CONTINUOUS
 62
     1
 10
-102.5630440180348
 20
1951.865767596043
 30
0.0
 40
7.000005000000013
 50
180.410956000079
 51
189.2667739999444
  0
ARC
  5
73F
  8
0
  6
CONTINUOUS
 62
     1
 10
-37.51152401803495
 20
1839.742330596035
 30
0.0
 40
10.00093199999993
 50
227.8591849999996
 51
268.8143869999999
  0
ARC
  5
740
  8
0
  6
CONTINUOUS
 62
    17
 10
1.3063669819648
 20
1844.900182596044
 30
0.0
 40
5.0000999999909
 50
46.99828299989714
 51
80.9853029999947
  0
ARC
  5
741
  8
0
  6
CONTINUOUS
 62
    17
 10
80.16145098196472
 20
1845.45413259604
 30
0.0
 40
5.000042999983778
 50
116.2970540000848
 51
132.9985089997871
  0
ARC
  5
742
  8
0
  6
CONTINUOUS
 62
    17
 10
-361.795222018035
 20
1847.942683596057
 30
0.0
 40
402.2593380000002
 50
0.0616249999948833
 51
0.2519649999962264
  0
ARC
  5
743
  8
0
  6
CONTINUOUS
 62
     1
 10
-7022.673175018033
 20
-337667.055097404
 30
0.0
 40
339568.646874
 50
88.814447
 51
88.82122799999999
  0
ARC
  5
744
  8
0
  6
CONTINUOUS
 62
     1
 10
-45.58600601803482
 20
1426.350181596025
 30
0.0
 40
403.4700749999926
 50
88.81189700000003
 51
88.88267800000007
  0
LINE
  5
745
  8
0
  6
CONTINUOUS
 62
    17
 10
122.3294149819649
 20
1854.258583596044
 30
0.0
 11
122.3086849819647
 21
1854.258583596044
 31
0.0
  0
LINE
  5
746
  8
0
  6
ISO-02___
 62
    17
 10
63.43681398196537
 20
1836.793036596044
 30
0.0
 11
63.43681398196537
 21
1804.616368596056
 31
0.0
  0
LINE
  5
747
  8
0
  6
ISO-02___
 62
    17
 10
17.43704898196478
 20
1804.616368596056
 30
0.0
 11
17.43704898196478
 21
1836.793036596044
 31
0.0
  0
LINE
  5
748
  8
0
  6
CONTINUOUS
 62
    17
 10
17.33180298196487
 20
1836.793036596044
 30
0.0
 11
17.43704898196478
 21
1836.793036596044
 31
0.0
  0
LINE
  5
749
  8
0
  6
CONTINUOUS
 62
    17
 10
63.43681398196537
 20
1836.793036596044
 30
0.0
 11
63.54205998196443
 21
1836.793036596044
 31
0.0
  0
LINE
  5
74A
  8
0
  6
CONTINUOUS
 62
    17
 10
51.47587098196533
 20
1836.793036596044
 30
0.0
 11
63.43681398196537
 21
1836.793036596044
 31
0.0
  0
LINE
  5
74B
  8
0
  6
CONTINUOUS
 62
    17
 10
20.25917598196526
 20
1836.793036596044
 30
0.0
 11
51.47587098196533
 21
1836.793036596044
 31
0.0
  0
LINE
  5
74C
  8
0
  6
CONTINUOUS
 62
    17
 10
17.43704898196478
 20
1836.793036596044
 30
0.0
 11
20.25917598196526
 21
1836.793036596044
 31
0.0
  0
LINE
  5
74D
  8
0
  6
CONTINUOUS
 62
     1
 10
-109.4716930180349
 20
1950.738547596042
 30
0.0
 11
-109.4012530180354
 21
1950.369448596045
 31
0.0
  0
LINE
  5
74E
  8
0
  6
CONTINUOUS
 62
     1
 10
-109.5630490180348
 20
1951.865767596043
 30
0.0
 11
-109.5628690180347
 21
1951.815559596036
 31
0.0
  0
LINE
  5
74F
  8
0
  6
CONTINUOUS
 62
     1
 10
-37.09136201803449
 20
1829.732011596053
 30
0.0
 11
-37.09146401803548
 21
1829.73200859603
 31
0.0
  0
LINE
  5
750
  8
0
  6
CONTINUOUS
 62
     1
 10
-37.0913590180354
 20
1829.732011596053
 30
0.0
 11
-37.21758401803515
 21
1829.73319359606
 31
0.0
  0
LINE
  5
751
  8
0
  6
CONTINUOUS
 62
     1
 10
76.61342898196483
 20
1806.985528596058
 30
0.0
 11
76.69811898196537
 21
1808.60149959605
 31
0.0
  0
LINE
  5
752
  8
0
  6
CONTINUOUS
 62
    17
 10
17.33180298196487
 20
1836.793036596044
 30
0.0
 11
4.71640698196552
 21
1848.557044596025
 31
0.0
  0
LINE
  5
753
  8
0
  6
CONTINUOUS
 62
    17
 10
63.54205998196443
 20
1836.793036596044
 30
0.0
 11
76.7514379819649
 21
1849.110940596046
 31
0.0
  0
LINE
  5
754
  8
0
  6
CONTINUOUS
 62
     1
 10
-109.5630580180351
 20
1951.865767596043
 30
0.0
 11
-109.5630580180351
 21
1952.616367596036
 31
0.0
  0
LINE
  5
755
  8
0
  6
CONTINUOUS
 62
    17
 10
77.92003398196533
 20
1849.938043596028
 30
0.0
 11
77.9441929819651
 21
1849.93683459606
 31
0.0
  0
LINE
  5
756
  8
0
  6
CONTINUOUS
 62
    17
 10
77.93897298196492
 20
1849.934248596031
 30
0.0
 11
78.07684398196494
 21
1850.002465596036
 31
0.0
  0
LINE
  5
757
  8
0
  6
CONTINUOUS
 62
    17
 10
77.9441929819651
 20
1849.93683459606
 30
0.0
 11
77.94630498196523
 21
1849.936717596042
 31
0.0
  0
LINE
  5
758
  8
0
  6
CONTINUOUS
 62
     1
 10
40.57100598196479
 20
1959.598966596029
 30
0.0
 11
40.57161498196552
 21
1959.616369596022
 31
0.0
  0
LINE
  5
759
  8
0
  6
CONTINUOUS
 62
     1
 10
76.55970798196535
 20
1806.459358596019
 30
0.0
 11
76.58585298196516
 21
1806.459358596019
 31
0.0
  0
LINE
  5
75A
  8
0
  6
CONTINUOUS
 62
     1
 10
-102.5630500180349
 20
1959.616369596022
 30
0.0
 11
210.4369309819648
 21
1959.616369596022
 31
0.0
  0
LINE
  5
75B
  8
0
  6
CONTINUOUS
 62
     1
 10
-37.22227301803457
 20
1829.733289596023
 30
0.0
 11
-37.71845801803568
 21
1829.743540596022
 31
0.0
  0
LINE
  5
75C
  8
0
  6
CONTINUOUS
 62
     1
 10
-37.09169501803535
 20
1829.730724596032
 30
0.0
 11
-37.06932401803545
 21
1829.730274596028
 31
0.0
  0
LINE
  5
75D
  8
0
  6
CONTINUOUS
 62
     1
 10
-37.09577501803517
 20
1829.73080859606
 30
0.0
 11
-37.09169501803535
 21
1829.730724596032
 31
0.0
  0
LINE
  5
75E
  8
0
  6
CONTINUOUS
 62
     1
 10
-37.22227301803457
 20
1829.733289596023
 30
0.0
 11
-37.22081801803506
 21
1829.733271596043
 31
0.0
  0
LINE
  5
75F
  8
0
  6
ISO-10______
 62
     2
 10
40.43693298196462
 20
1979.616367596036
 30
0.0
 11
40.43693298196462
 21
1784.616367596036
 31
0.0
  0
LINE
  5
760
  8
0
  6
CONTINUOUS
 62
     1
 10
3.11784798196453
 20
1828.900990596062
 30
0.0
 11
4.310014981964855
 21
1806.980602596022
 31
0.0
  0
LINE
  5
761
  8
0
  6
CONTINUOUS
 62
     1
 10
74.11685298196528
 20
1804.616368596056
 30
0.0
 11
6.806326981965071
 21
1804.616368596056
 31
0.0
  0
LINE
  5
762
  8
0
  6
CONTINUOUS
 62
     1
 10
210.4369309819648
 20
1959.616369596022
 30
0.0
 11
210.4369309819648
 21
1824.618310596046
 31
0.0
  0
LINE
  5
763
  8
0
  6
CONTINUOUS
 62
     1
 10
110.9801899819649
 20
1826.679667596057
 30
0.0
 11
210.4369309819648
 21
1824.618310596046
 31
0.0
  0
ARC
  5
764
  8
0
  6
CONTINUOUS
 62
     1
 10
78.03580398196488
 20
1805.829466596063
 30
0.0
 40
3.077918999966714
 50
97.51150500008004
 51
115.7602899999188
  0
ARC
  5
765
  8
0
  6
CONTINUOUS
 62
     1
 10
72.56250798196464
 20
1858.336120596019
 30
0.0
 40
49.71444899999257
 50
275.8544200000014
 51
293.1962850000096
  0
ARC
  5
766
  8
0
  6
CONTINUOUS
 62
     1
 10
6.806326981965071
 20
1807.116367596036
 30
0.0
 40
2.499999000000537
 50
183.1130360000691
 51
270.0
  0
ARC
  5
767
  8
0
  6
CONTINUOUS
 62
     1
 10
74.11685298196528
 20
1807.116367596036
 30
0.0
 40
2.499998999980562
 50
270.0
 51
356.9999940002087
  0
LINE
  5
768
  8
0
  6
CONTINUOUS
 62
    17
 10
2.967271981964586
 20
1849.616368596056
 30
0.0
 11
77.39084898196518
 21
1849.616368596056
 31
0.0
  0
ENDBLK
  5
77
  8
0
  0
BLOCK
  8
0
  2
*D4
 70
     1
 10
0.0
 20
0.0
 30
0.0
  3
*D4
  1

  0
LINE
  5
769
  8
1_5__
  6
CONTINUOUS
 62
     0
 10
100.692902944882
 20
374.6163685960364
 30
0.0
 11
-275.8070990830577
 21
374.6163685960364
 31
0.0
  0
LINE
  5
76A
  8
1_5__
  6
CONTINUOUS
 62
     0
 10
-83.30709905511799
 20
529.6163695960227
 30
0.0
 11
-275.8070990830577
 21
529.6163695960227
 31
0.0
  0
LINE
  5
76B
  8
1_5__
  6
CONTINUOUS
 62
     0
 10
-275.8070990830577
 20
376.8642934007239
 30
0.0
 11
-275.8070990830577
 21
527.3684447913352
 31
0.0
  0
INSERT
  5
76C
  8
1_5__
 62
     0
  2
_DOT
 10
-275.8070990830577
 20
374.6163685960364
 30
0.0
 41
2.2479248046875
 42
2.2479248046875
 43
2.2479248046875
 50
270.0
  0
INSERT
  5
76D
  8
1_5__
 62
     0
  2
_DOT
 10
-275.8070990830577
 20
529.6163695960227
 30
0.0
 41
2.2479248046875
 42
2.2479248046875
 43
2.2479248046875
 50
90.0
  0
TEXT
  5
76E
  8
1_5__
  6
CONTINUOUS
 62
     0
 10
-275.8570990828713
 20
436.1862475682518
 30
0.0
 40
10.62008101851851
  1
155
 50
90.0
  7
YUGOTHIC_MEDIUM
  0
POINT
  5
76F
  8
DEFPOINTS
 62
     0
 10
108.1929029169423
 20
374.6163685960364
 30
0.0
  0
POINT
  5
770
  8
DEFPOINTS
 62
     0
 10
-75.80709908305766
 20
529.6163695960227
 30
0.0
  0
POINT
  5
771
  8
DEFPOINTS
 62
     0
 10
-275.8070990830577
 20
529.6163695960227
 30
0.0
  0
ENDBLK
  5
7A
  8
0
  0
BLOCK
  8
0
  2
*D5
 70
     1
 10
0.0
 20
0.0
 30
0.0
  3
*D5
  1

  0
LINE
  5
773
  8
1_5__
  6
CONTINUOUS
 62
     0
 10
-40.75044529793968
 20
873.0037216801966
 30
0.0
 11
-275.8070990830577
 21
873.0037216801966
 31
0.0
  0
LINE
  5
774
  8
1_5__
  6
CONTINUOUS
 62
     0
 10
-83.30709905511799
 20
1192.739564596074
 30
0.0
 11
-275.8070990830577
 21
1192.739564596074
 31
0.0
  0
LINE
  5
775
  8
1_5__
  6
CONTINUOUS
 62
     0
 10
-275.8070990830577
 20
875.2516464848841
 30
0.0
 11
-275.8070990830577
 21
1190.491639791386
 31
0.0
  0
INSERT
  5
776
  8
1_5__
 62
     0
  2
_DOT
 10
-275.8070990830577
 20
873.0037216801966
 30
0.0
 41
2.2479248046875
 42
2.2479248046875
 43
2.2479248046875
 50
270.0
  0
INSERT
  5
777
  8
1_5__
 62
     0
  2
_DOT
 10
-275.8070990830577
 20
1192.739564596074
 30
0.0
 41
2.2479248046875
 42
2.2479248046875
 43
2.2479248046875
 50
90.0
  0
TEXT
  5
778
  8
1_5__
  6
CONTINUOUS
 62
     0
 10
-275.8570990828716
 20
994.9427823577118
 30
0.0
 40
10.62008101851851
  1
319.7358
 50
90.0
  7
YUGOTHIC_MEDIUM
  0
POINT
  5
779
  8
DEFPOINTS
 62
     0
 10
-33.25044532587935
 20
873.0037216801966
 30
0.0
  0
POINT
  5
77A
  8
DEFPOINTS
 62
     0
 10
-75.80709908305766
 20
1192.739564596074
 30
0.0
  0
POINT
  5
77B
  8
DEFPOINTS
 62
     0
 10
-275.8070990830577
 20
1192.739564596074
 30
0.0
  0
ENDBLK
  5
7D
  8
0
  0
BLOCK
  8
0
  2
*D6
 70
     1
 10
0.0
 20
0.0
 30
0.0
  3
*D6
  1

  0
LINE
  5
77D
  8
1_5__
  6
CONTINUOUS
 62
     0
 10
162.1929029169422
 20
1015.239563623994
 30
0.0
 11
162.1929029169422
 21
983.3728969292015
 31
0.0
  0
LINE
  5
77E
  8
1_5__
  6
CONTINUOUS
 62
     0
 10
116.1929009169424
 20
1015.239563623994
 30
0.0
 11
116.1929009169424
 21
983.3728969292015
 31
0.0
  0
LINE
  5
77F
  8
1_5__
  6
CONTINUOUS
 62
     0
 10
116.1929009169424
 20
983.3728969292015
 30
0.0
 11
76.14667931093882
 21
983.3728969292015
 31
0.0
  0
LINE
  5
780
  8
1_5__
  6
CONTINUOUS
 62
     0
 10
159.9449781122547
 20
983.3728969292015
 30
0.0
 11
118.4408257216299
 21
983.3728969292015
 31
0.0
  0
INSERT
  5
781
  8
1_5__
 62
     0
  2
_DOT
 10
162.1929029169422
 20
983.3728969292015
 30
0.0
 41
2.2479248046875
 42
2.2479248046875
 43
2.2479248046875
  0
INSERT
  5
782
  8
1_5__
 62
     0
  2
_DOT
 10
116.1929009169424
 20
983.3728969292015
 30
0.0
 41
2.2479248046875
 42
2.2479248046875
 43
2.2479248046875
 50
180.0
  0
TEXT
  5
783
  8
1_5__
  6
CONTINUOUS
 62
     0
 10
74.67952487953563
 20
983.4228969290152
 30
0.0
 40
10.62008101851851
  1
46
  7
YUGOTHIC_MEDIUM
  0
POINT
  5
784
  8
DEFPOINTS
 62
     0
 10
162.1929029169422
 20
1022.739563596054
 30
0.0
  0
POINT
  5
785
  8
DEFPOINTS
 62
     0
 10
116.1929009169424
 20
1022.739563596054
 30
0.0
  0
POINT
  5
786
  8
DEFPOINTS
 62
     0
 10
116.1929009169424
 20
972.7395635960543
 30
0.0
  0
ENDBLK
  5
80
  8
0
  0
BLOCK
  8
0
  2
*D7
 70
     1
 10
0.0
 20
0.0
 30
0.0
  3
*D7
  1

  0
LINE
  5
788
  8
1_5__
  6
CONTINUOUS
 62
     0
 10
156.6929019169422
 20
1117.239564623926
 30
0.0
 11
156.6929019169422
 21
1102.975343088137
 31
0.0
  0
LINE
  5
789
  8
1_5__
  6
CONTINUOUS
 62
     0
 10
121.6929019169422
 20
1117.239564623926
 30
0.0
 11
121.6929019169422
 21
1102.975343088137
 31
0.0
  0
LINE
  5
78A
  8
1_5__
  6
CONTINUOUS
 62
     0
 10
121.6929019169422
 20
1102.975343088137
 30
0.0
 11
78.25046676102059
 21
1102.975343088137
 31
0.0
  0
LINE
  5
78B
  8
1_5__
  6
CONTINUOUS
 62
     0
 10
154.4449771122547
 20
1102.975343088137
 30
0.0
 11
123.9408267216297
 21
1102.975343088137
 31
0.0
  0
INSERT
  5
78C
  8
1_5__
 62
     0
  2
_DOT
 10
156.6929019169422
 20
1102.975343088137
 30
0.0
 41
2.2479248046875
 42
2.2479248046875
 43
2.2479248046875
  0
INSERT
  5
78D
  8
1_5__
 62
     0
  2
_DOT
 10
121.6929019169422
 20
1102.975343088137
 30
0.0
 41
2.2479248046875
 42
2.2479248046875
 43
2.2479248046875
 50
180.0
  0
TEXT
  5
78E
  8
1_5__
  6
CONTINUOUS
 62
     0
 10
76.7833123296174
 20
1103.025343087951
 30
0.0
 40
10.62008101851851
  1
35
  7
YUGOTHIC_MEDIUM
  0
POINT
  5
78F
  8
DEFPOINTS
 62
     0
 10
156.6929019169422
 20
1124.739564595986
 30
0.0
  0
POINT
  5
790
  8
DEFPOINTS
 62
     0
 10
121.6929019169422
 20
1124.739564595986
 30
0.0
  0
POINT
  5
791
  8
DEFPOINTS
 62
     0
 10
121.6929019169422
 20
1099.739564595986
 30
0.0
  0
ENDBLK
  5
83
  8
0
  0
BLOCK
  8
0
  2
*D8
 70
     1
 10
0.0
 20
0.0
 30
0.0
  3
*D8
  1

  0
LINE
  5
793
  8
1_5__
  6
CONTINUOUS
 62
     0
 10
1049.589821742957
 20
419.8385222655256
 30
0.0
 11
852.4369500498104
 21
419.8385222655256
 31
0.0
  0
LINE
  5
794
  8
1_5__
  6
CONTINUOUS
 62
     0
 10
944.9369500777501
 20
529.6163695960227
 30
0.0
 11
852.4369500498104
 21
529.6163695960227
 31
0.0
  0
LINE
  5
795
  8
1_5__
  6
CONTINUOUS
 62
     0
 10
852.4369500498104
 20
422.0864470702131
 30
0.0
 11
852.4369500498104
 21
527.3684447913352
 31
0.0
  0
INSERT
  5
796
  8
1_5__
 62
     0
  2
_DOT
 10
852.4369500498104
 20
419.8385222655256
 30
0.0
 41
2.2479248046875
 42
2.2479248046875
 43
2.2479248046875
 50
270.0
  0
INSERT
  5
797
  8
1_5__
 62
     0
  2
_DOT
 10
852.4369500498104
 20
529.6163695960227
 30
0.0
 41
2.2479248046875
 42
2.2479248046875
 43
2.2479248046875
 50
90.0
  0
TEXT
  5
798
  8
1_5__
  6
CONTINUOUS
 62
     0
 10
852.3869500499968
 20
436.0400079347424
 30
0.0
 40
10.62008101851851
  1
109.7778
 50
90.0
  7
YUGOTHIC_MEDIUM
  0
POINT
  5
799
  8
DEFPOINTS
 62
     0
 10
1057.089821715018
 20
419.8385222655256
 30
0.0
  0
POINT
  5
79A
  8
DEFPOINTS
 62
     0
 10
952.4369500498104
 20
529.6163695960227
 30
0.0
  0
POINT
  5
79B
  8
DEFPOINTS
 62
     0
 10
852.4369500498104
 20
529.6163695960227
 30
0.0
  0
ENDBLK
  5
86
  8
0
  0
BLOCK
  8
0
  2
*D9
 70
     1
 10
0.0
 20
0.0
 30
0.0
  3
*D9
  1

  0
LINE
  5
79C
  8
1_5__
  6
CONTINUOUS
 62
     0
 10
246.6929023890026
 20
474.6163675960365
 30
0.0
 11
454.1929029169422
 21
474.6163675960365
 31
0.0
  0
LINE
  5
79D
  8
1_5__
  6
CONTINUOUS
 62
     0
 10
361.6929028890025
 20
529.6163695960227
 30
0.0
 11
454.1929029169422
 21
529.6163695960227
 31
0.0
  0
LINE
  5
79E
  8
1_5__
  6
CONTINUOUS
 62
     0
 10
454.1929029169422
 20
476.864292400724
 30
0.0
 11
454.1929029169422
 21
527.3684447913352
 31
0.0
  0
INSERT
  5
79F
  8
1_5__
 62
     0
  2
_DOT
 10
454.1929029169422
 20
474.6163675960365
 30
0.0
 41
2.2479248046875
 42
2.2479248046875
 43
2.2479248046875
 50
270.0
  0
INSERT
  5
7A0
  8
1_5__
 62
     0
  2
_DOT
 10
454.1929029169422
 20
529.6163695960227
 30
0.0
 41
2.2479248046875
 42
2.2479248046875
 43
2.2479248046875
 50
90.0
  0
TEXT
  5
7A1
  8
1_5__
  6
CONTINUOUS
 62
     0
 10
454.1429029171285
 20
492.0020057212501
 30
0.0
 40
10.62008101851851
  1
55
 50
90.0
  7
YUGOTHIC_MEDIUM
  0
POINT
  5
7A2
  8
DEFPOINTS
 62
     0
 10
239.1929024169423
 20
474.6163675960365
 30
0.0
  0
POINT
  5
7A3
  8
DEFPOINTS
 62
     0
 10
354.1929029169422
 20
529.6163695960227
 30
0.0
  0
POINT
  5
7A4
  8
DEFPOINTS
 62
     0
 10
454.1929029169422
 20
529.6163695960227
 30
0.0
  0
ENDBLK
  5
89
  8
0
  0
BLOCK
  8
0
  2
*D10
 70
     1
 10
0.0
 20
0.0
 30
0.0
  3
*D10
  1

  0
LINE
  5
7A6
  8
1_5__
  6
CONTINUOUS
 62
     0
 10
-50.80709705511799
 20
887.7395635960543
 30
0.0
 11
-193.3070970830577
 21
887.7395635960543
 31
0.0
  0
LINE
  5
7A7
  8
1_5__
  6
CONTINUOUS
 62
     0
 10
-50.80709705511799
 20
1082.739563596054
 30
0.0
 11
-193.3070970830577
 21
1082.739563596054
 31
0.0
  0
LINE
  5
7A8
  8
1_5__
  6
CONTINUOUS
 62
     0
 10
-193.3070970830577
 20
889.9874884007418
 30
0.0
 11
-193.3070970830577
 21
1080.491638791367
 31
0.0
  0
INSERT
  5
7A9
  8
1_5__
 62
     0
  2
_DOT
 10
-193.3070970830577
 20
887.7395635960543
 30
0.0
 41
2.2479248046875
 42
2.2479248046875
 43
2.2479248046875
 50
270.0
  0
INSERT
  5
7AA
  8
1_5__
 62
     0
  2
_DOT
 10
-193.3070970830577
 20
1082.739563596054
 30
0.0
 41
2.2479248046875
 42
2.2479248046875
 43
2.2479248046875
 50
90.0
  0
TEXT
  5
7AB
  8
1_5__
  6
CONTINUOUS
 62
     0
 10
-193.3570970828714
 20
969.3094420682764
 30
0.0
 40
10.62008101851851
  1
195
 50
90.0
  7
YUGOTHIC_MEDIUM
  0
POINT
  5
7AC
  8
DEFPOINTS
 62
     0
 10
-43.30709708305767
 20
887.7395635960543
 30
0.0
  0
POINT
  5
7AD
  8
DEFPOINTS
 62
     0
 10
-43.30709708305767
 20
1082.739563596054
 30
0.0
  0
POINT
  5
7AE
  8
DEFPOINTS
 62
     0
 10
-193.3070970830577
 20
1082.739563596054
 30
0.0
  0
ENDBLK
  5
8C
  8
0
  0
BLOCK
  8
0
  2
*D11
 70
     1
 10
0.0
 20
0.0
 30
0.0
  3
*D11
  1

  0
LINE
  5
7B0
  8
1_5__
  6
CONTINUOUS
 62
     0
 10
-85.80709808309075
 20
1190.239565568101
 30
0.0
 11
-85.80709808309075
 21
1332.73956559604
 31
0.0
  0
LINE
  5
7B1
  8
1_5__
  6
CONTINUOUS
 62
     0
 10
364.1929019169423
 20
1190.239565568101
 30
0.0
 11
364.1929019169423
 21
1332.73956559604
 31
0.0
  0
LINE
  5
7B2
  8
1_5__
  6
CONTINUOUS
 62
     0
 10
-83.55917327840325
 20
1332.73956559604
 30
0.0
 11
361.9449771122548
 21
1332.73956559604
 31
0.0
  0
INSERT
  5
7B3
  8
1_5__
 62
     0
  2
_DOT
 10
-85.80709808309075
 20
1332.73956559604
 30
0.0
 41
2.2479248046875
 42
2.2479248046875
 43
2.2479248046875
 50
180.0
  0
INSERT
  5
7B4
  8
1_5__
 62
     0
  2
_DOT
 10
364.1929019169423
 20
1332.73956559604
 30
0.0
 41
2.2479248046875
 42
2.2479248046875
 43
2.2479248046875
  0
TEXT
  5
7B5
  8
1_5__
  6
CONTINUOUS
 62
     0
 10
124.0213576047565
 20
1332.789565595854
 30
0.0
 40
10.62008101851851
  1
450
  7
YUGOTHIC_MEDIUM
  0
POINT
  5
7B6
  8
DEFPOINTS
 62
     0
 10
-85.80709808309075
 20
1182.73956559604
 30
0.0
  0
POINT
  5
7B7
  8
DEFPOINTS
 62
     0
 10
364.1929019169423
 20
1182.73956559604
 30
0.0
  0
POINT
  5
7B8
  8
DEFPOINTS
 62
     0
 10
364.1929019169423
 20
1332.73956559604
 30
0.0
  0
ENDBLK
  5
8F
  8
0
  0
BLOCK
  8
0
  2
*D12
 70
     1
 10
0.0
 20
0.0
 30
0.0
  3
*D12
  1

  0
LINE
  5
7BA
  8
1_5__
  6
CONTINUOUS
 62
     0
 10
361.6929028890025
 20
1192.739564596041
 30
0.0
 11
439.1929019169422
 21
1192.739564596041
 31
0.0
  0
LINE
  5
7BB
  8
1_5__
  6
CONTINUOUS
 62
     0
 10
146.6929018890025
 20
1124.739563596054
 30
0.0
 11
439.1929019169422
 21
1124.739563596054
 31
0.0
  0
LINE
  5
7BC
  8
1_5__
  6
CONTINUOUS
 62
     0
 10
439.1929019169422
 20
1190.491639791353
 30
0.0
 11
439.1929019169422
 21
1126.987488400742
 31
0.0
  0
INSERT
  5
7BD
  8
1_5__
 62
     0
  2
_DOT
 10
439.1929019169422
 20
1192.739564596041
 30
0.0
 41
2.2479248046875
 42
2.2479248046875
 43
2.2479248046875
 50
90.0
  0
INSERT
  5
7BE
  8
1_5__
 62
     0
  2
_DOT
 10
439.1929019169422
 20
1124.739563596054
 30
0.0
 41
2.2479248046875
 42
2.2479248046875
 43
2.2479248046875
 50
270.0
  0
TEXT
  5
7BF
  8
1_5__
  6
CONTINUOUS
 62
     0
 10
439.1429019171283
 20
1148.372342149398
 30
0.0
 40
10.62008101851851
  1
68
 50
90.0
  7
YUGOTHIC_MEDIUM
  0
POINT
  5
7C0
  8
DEFPOINTS
 62
     0
 10
354.1929029169422
 20
1192.739564596041
 30
0.0
  0
POINT
  5
7C1
  8
DEFPOINTS
 62
     0
 10
139.1929019169422
 20
1124.739563596054
 30
0.0
  0
POINT
  5
7C2
  8
DEFPOINTS
 62
     0
 10
439.1929019169422
 20
1124.739563596054
 30
0.0
  0
ENDBLK
  5
92
  8
0
  0
BLOCK
  8
0
  2
*D13
 70
     1
 10
0.0
 20
0.0
 30
0.0
  3
*D13
  1

  0
LINE
  5
7C4
  8
1_5__
  6
CONTINUOUS
 62
     0
 10
361.6929028890025
 20
1192.739564596041
 30
0.0
 11
489.1929019169423
 21
1192.739564596041
 31
0.0
  0
LINE
  5
7C5
  8
1_5__
  6
CONTINUOUS
 62
     0
 10
146.6929018890027
 20
1022.739563596054
 30
0.0
 11
489.1929019169423
 21
1022.739563596054
 31
0.0
  0
LINE
  5
7C6
  8
1_5__
  6
CONTINUOUS
 62
     0
 10
489.1929019169423
 20
1190.491639791353
 30
0.0
 11
489.1929019169423
 21
1024.987488400742
 31
0.0
  0
INSERT
  5
7C7
  8
1_5__
 62
     0
  2
_DOT
 10
489.1929019169423
 20
1192.739564596041
 30
0.0
 41
2.2479248046875
 42
2.2479248046875
 43
2.2479248046875
 50
90.0
  0
INSERT
  5
7C8
  8
1_5__
 62
     0
  2
_DOT
 10
489.1929019169423
 20
1022.739563596054
 30
0.0
 41
2.2479248046875
 42
2.2479248046875
 43
2.2479248046875
 50
270.0
  0
TEXT
  5
7C9
  8
1_5__
  6
CONTINUOUS
 62
     0
 10
489.1429019171285
 20
1091.80944256827
 30
0.0
 40
10.62008101851851
  1
170
 50
90.0
  7
YUGOTHIC_MEDIUM
  0
POINT
  5
7CA
  8
DEFPOINTS
 62
     0
 10
354.1929029169422
 20
1192.739564596041
 30
0.0
  0
POINT
  5
7CB
  8
DEFPOINTS
 62
     0
 10
139.1929019169423
 20
1022.739563596054
 30
0.0
  0
POINT
  5
7CC
  8
DEFPOINTS
 62
     0
 10
489.1929019169423
 20
1022.739563596054
 30
0.0
  0
ENDBLK
  5
95
  8
0
  0
BLOCK
  8
0
  2
DIMENSION
 70
     0
 10
0.0
 20
0.0
 30
0.0
  3
DIMENSION
  1

  0
LINE
  5
7CE
  8
0
  6
CONTINUOUS
 62
     0
 10
812.5826851690023
 20
1156.522110286446
 30
0.0
 11
812.5826851690023
 21
1224.022110314385
 31
0.0
  0
LINE
  5
7CF
  8
0
  6
CONTINUOUS
 62
     0
 10
855.0826851690024
 20
1156.522110286446
 30
0.0
 11
855.0826851690024
 21
1224.022110314385
 31
0.0
  0
LINE
  5
7D0
  8
0
  6
CONTINUOUS
 62
     0
 10
812.5826851690023
 20
1224.022110314385
 30
0.0
 11
855.0826851690024
 21
1224.022110314385
 31
0.0
  0
CIRCLE
  5
7D1
  8
0
  6
CONTINUOUS
 62
     0
 10
812.5826851690023
 20
1224.022110314385
 30
0.0
 40
1.12396240234375
  0
CIRCLE
  5
7D2
  8
0
  6
CONTINUOUS
 62
     0
 10
855.0826851690024
 20
1224.022110314385
 30
0.0
 40
1.12396240234375
  0
TEXT
  5
7D3
  8
0
 62
     0
 10
797.7787987024462
 20
1232.820999203088
 30
0.0
 40
10.62008101851851
  1
六角対辺17
  7
YUGOTHIC_MEDIUM
 11
797.7787987024462
 21
1243.441080221606
 31
0.0
 73
     3
  0
POINT
  5
7D4
  8
DEFPOINTS
 62
     0
 10
855.0826851690024
 20
1149.022110314385
 30
0.0
  0
POINT
  5
7D5
  8
DEFPOINTS
 62
     0
 10
812.5826851690023
 20
1149.022110314385
 30
0.0
  0
POINT
  5
7D6
  8
DEFPOINTS
 62
     0
 10
812.5826851690023
 20
1224.022110314385
 30
0.0
  0
ENDBLK
  5
98
  8
0
  0
BLOCK
  8
0
  2
DIMENSION-1
 70
     0
 10
0.0
 20
0.0
 30
0.0
  3
DIMENSION-1
  1

  0
LINE
  5
7D7
  8
0
  6
CONTINUOUS
 62
     0
 10
1040.775465196942
 20
1204.3925753144
 30
0.0
 11
985.7754651690024
 21
1204.3925753144
 31
0.0
  0
LINE
  5
7D8
  8
0
  6
CONTINUOUS
 62
     0
 10
1040.775465196942
 20
954.392575314399
 30
0.0
 11
985.7754651690024
 21
954.392575314399
 31
0.0
  0
LINE
  5
7D9
  8
0
  6
CONTINUOUS
 62
     0
 10
985.7754651690024
 20
1204.3925753144
 30
0.0
 11
985.7754651690024
 21
954.392575314399
 31
0.0
  0
CIRCLE
  5
7DA
  8
0
  6
CONTINUOUS
 62
     0
 10
985.7754651690024
 20
1204.3925753144
 30
0.0
 40
1.12396240234375
  0
CIRCLE
  5
7DB
  8
0
  6
CONTINUOUS
 62
     0
 10
985.7754651690024
 20
954.392575314399
 30
0.0
 40
1.12396240234375
  0
TEXT
  5
7DC
  8
0
 62
     0
 10
978.0368540582017
 20
1069.113513049904
 30
0.0
 40
9.292570891203704
  1
100
 50
90.0
  7
YUGOTHIC_MEDIUM
 11
968.744283166998
 21
1069.113513049904
 31
0.0
 73
     3
  0
POINT
  5
7DD
  8
DEFPOINTS
 62
     0
 10
1048.275465169002
 20
954.392575314399
 30
0.0
  0
POINT
  5
7DE
  8
DEFPOINTS
 62
     0
 10
1048.275465169002
 20
1204.3925753144
 30
0.0
  0
POINT
  5
7DF
  8
DEFPOINTS
 62
     0
 10
985.7754651690024
 20
1204.3925753144
 30
0.0
  0
ENDBLK
  5
9B
  8
0
  0
BLOCK
  8
0
  2
DIMENSION-2
 70
     0
 10
0.0
 20
0.0
 30
0.0
  3
DIMENSION-2
  1

  0
LINE
  5
7E0
  8
0
  6
CONTINUOUS
 62
     0
 10
1325.546984930286
 20
1179.920110314401
 30
0.0
 11
1393.046984958225
 21
1179.920110314401
 31
0.0
  0
LINE
  5
7E1
  8
0
  6
CONTINUOUS
 62
     0
 10
1325.546984930286
 20
989.9201103144001
 30
0.0
 11
1393.046984958225
 21
989.9201103144001
 31
0.0
  0
LINE
  5
7E2
  8
0
  6
CONTINUOUS
 62
     0
 10
1393.046984958225
 20
1179.920110314401
 30
0.0
 11
1393.046984958225
 21
989.9201103144001
 31
0.0
  0
CIRCLE
  5
7E3
  8
0
  6
CONTINUOUS
 62
     0
 10
1393.046984958225
 20
1179.920110314401
 30
0.0
 40
1.12396240234375
  0
CIRCLE
  5
7E4
  8
0
  6
CONTINUOUS
 62
     0
 10
1393.046984958225
 20
989.9201103144001
 30
0.0
 40
1.12396240234375
  0
TEXT
  5
7E5
  8
0
 62
     0
 10
1384.248096069523
 20
1077.088443546804
 30
0.0
 40
10.62008101851851
  1
76
 50
90.0
  7
YUGOTHIC_MEDIUM
 11
1373.628015051004
 21
1077.088443546804
 31
0.0
 73
     3
  0
POINT
  5
7E6
  8
DEFPOINTS
 62
     0
 10
1318.046984958225
 20
989.9201103144001
 30
0.0
  0
POINT
  5
7E7
  8
DEFPOINTS
 62
     0
 10
1318.046984958225
 20
1179.920110314401
 30
0.0
  0
POINT
  5
7E8
  8
DEFPOINTS
 62
     0
 10
1393.046984958225
 20
1179.920110314401
 30
0.0
  0
ENDBLK
  5
9E
  8
0
  0
BLOCK
  8
0
  2
DIMENSION-3
 70
     0
 10
0.0
 20
0.0
 30
0.0
  3
DIMENSION-3
  1

  0
LINE
  5
7E9
  8
0
  6
CONTINUOUS
 62
     0
 10
1276.796984958225
 20
1187.420110286462
 30
0.0
 11
1276.796984958225
 21
1219.342675314388
 31
0.0
  0
LINE
  5
7EA
  8
0
  6
CONTINUOUS
 62
     0
 10
1310.546984958225
 20
1187.420110286462
 30
0.0
 11
1310.546984958225
 21
1219.342675314388
 31
0.0
  0
LINE
  5
7EB
  8
0
  6
CONTINUOUS
 62
     0
 10
1276.796984958225
 20
1219.342675314388
 30
0.0
 11
1310.546984958225
 21
1219.342675314388
 31
0.0
  0
CIRCLE
  5
7EC
  8
0
  6
CONTINUOUS
 62
     0
 10
1276.796984958225
 20
1219.342675314388
 30
0.0
 40
1.12396240234375
  0
CIRCLE
  5
7ED
  8
0
  6
CONTINUOUS
 62
     0
 10
1310.546984958225
 20
1219.342675314388
 30
0.0
 40
1.12396240234375
  0
TEXT
  5
7EE
  8
0
 62
     0
 10
1273.04154202101
 20
1228.14156420309
 30
0.0
 40
10.62008101851851
  1
φ13.5
  7
YUGOTHIC_MEDIUM
 11
1273.04154202101
 21
1238.761645221608
 31
0.0
 73
     3
  0
POINT
  5
7EF
  8
DEFPOINTS
 62
     0
 10
1310.546984958225
 20
1179.920110314401
 30
0.0
  0
POINT
  5
7F0
  8
DEFPOINTS
 62
     0
 10
1276.796984958225
 20
1179.920110314401
 30
0.0
  0
POINT
  5
7F1
  8
DEFPOINTS
 62
     0
 10
1276.796984958225
 20
1219.342675314388
 30
0.0
  0
ENDBLK
  5
A1
  8
0
  0
BLOCK
  8
0
  2
DIMENSION-4
 70
     0
 10
0.0
 20
0.0
 30
0.0
  3
DIMENSION-4
  1

  0
LINE
  5
7F2
  8
0
  6
CONTINUOUS
 62
     0
 10
1059.035325169003
 20
1119.392575342338
 30
0.0
 11
1059.035325169003
 21
1114.392575314398
 31
0.0
  0
LINE
  5
7F3
  8
0
  6
CONTINUOUS
 62
     0
 10
1079.035325169003
 20
1119.392575342338
 30
0.0
 11
1079.035325169003
 21
1114.392575314398
 31
0.0
  0
LINE
  5
7F4
  8
0
  6
CONTINUOUS
 62
     0
 10
1079.035325169003
 20
1114.392575314398
 30
0.0
 11
1175.337328021793
 21
1114.392575314398
 31
0.0
  0
LINE
  5
7F5
  8
0
  6
CONTINUOUS
 62
     0
 10
1059.035325169003
 20
1114.392575314398
 30
0.0
 11
1079.035325169003
 21
1114.392575314398
 31
0.0
  0
CIRCLE
  5
7F6
  8
0
  6
CONTINUOUS
 62
     0
 10
1059.035325169003
 20
1114.392575314398
 30
0.0
 40
1.12396240234375
  0
CIRCLE
  5
7F7
  8
0
  6
CONTINUOUS
 62
     0
 10
1079.035325169003
 20
1114.392575314398
 30
0.0
 40
1.12396240234375
  0
TEXT
  5
7F8
  8
0
 62
     0
 10
1111.061219333015
 20
1123.191464203101
 30
0.0
 40
10.62008101851851
  1
六角対辺8
  7
YUGOTHIC_MEDIUM
 11
1111.061219333015
 21
1133.811545221619
 31
0.0
 73
     3
  0
POINT
  5
7F9
  8
DEFPOINTS
 62
     0
 10
1079.035325169003
 20
1126.892575314398
 30
0.0
  0
POINT
  5
7FA
  8
DEFPOINTS
 62
     0
 10
1059.035325169003
 20
1126.892575314398
 30
0.0
  0
POINT
  5
7FB
  8
DEFPOINTS
 62
     0
 10
1059.035325169003
 20
1114.392575314398
 30
0.0
  0
ENDBLK
  5
A4
  8
0
  0
BLOCK
  8
0
  2
DIMENSION-5
 70
     0
 10
0.0
 20
0.0
 30
0.0
  3
DIMENSION-5
  1

  0
LINE
  5
7FC
  8
0
  6
CONTINUOUS
 62
     0
 10
1057.785325169003
 20
961.7686303423679
 30
0.0
 11
1057.785325169003
 21
904.9685353143864
 31
0.0
  0
LINE
  5
7FD
  8
0
  6
CONTINUOUS
 62
     0
 10
1080.285325169003
 20
969.9579603423322
 30
0.0
 11
1080.285325169003
 21
904.9685353143864
 31
0.0
  0
LINE
  5
7FE
  8
0
  6
CONTINUOUS
 62
     0
 10
1057.785325169003
 20
904.9685353143864
 30
0.0
 11
1080.285325169003
 21
904.9685353143864
 31
0.0
  0
CIRCLE
  5
7FF
  8
0
  6
CONTINUOUS
 62
     0
 10
1057.785325169003
 20
904.9685353143864
 30
0.0
 40
1.12396240234375
  0
CIRCLE
  5
800
  8
0
  6
CONTINUOUS
 62
     0
 10
1080.285325169003
 20
904.9685353143864
 30
0.0
 40
1.12396240234375
  0
TEXT
  5
801
  8
0
 62
     0
 10
1065.119491785204
 20
913.7674242030887
 30
0.0
 40
10.62008101851851
  1
9
  7
YUGOTHIC_MEDIUM
 11
1065.119491785204
 21
924.3875052216072
 31
0.0
 73
     3
  0
POINT
  5
802
  8
DEFPOINTS
 62
     0
 10
1080.285325169003
 20
977.4579603143925
 30
0.0
  0
POINT
  5
803
  8
DEFPOINTS
 62
     0
 10
1057.785325169003
 20
969.2686303144283
 30
0.0
  0
POINT
  5
804
  8
DEFPOINTS
 62
     0
 10
1057.785325169003
 20
904.9685353143864
 30
0.0
  0
ENDBLK
  5
A7
  8
0
  0
BLOCK
  8
0
  2
DIMENSION-6
 70
     0
 10
0.0
 20
0.0
 30
0.0
  3
DIMENSION-6
  1

  0
LINE
  5
805
  8
0
  6
CONTINUOUS
 62
     0
 10
805.082685196942
 20
982.8035003143727
 30
0.0
 11
737.5826851690023
 21
982.8035003143727
 31
0.0
  0
LINE
  5
806
  8
0
  6
CONTINUOUS
 62
     0
 10
808.832685196942
 20
905.3035003143727
 30
0.0
 11
737.5826851690023
 21
905.3035003143727
 31
0.0
  0
LINE
  5
807
  8
0
  6
CONTINUOUS
 62
     0
 10
737.5826851690023
 20
982.8035003143727
 30
0.0
 11
737.5826851690023
 21
905.3035003143727
 31
0.0
  0
CIRCLE
  5
808
  8
0
  6
CONTINUOUS
 62
     0
 10
737.5826851690023
 20
982.8035003143727
 30
0.0
 40
1.12396240234375
  0
CIRCLE
  5
809
  8
0
  6
CONTINUOUS
 62
     0
 10
737.5826851690023
 20
905.3035003143727
 30
0.0
 40
1.12396240234375
  0
TEXT
  5
80A
  8
0
 62
     0
 10
728.7837962802996
 20
936.2218335467755
 30
0.0
 40
10.62008101851851
  1
31
 50
90.0
  7
YUGOTHIC_MEDIUM
 11
718.1637152617811
 21
936.2218335467755
 31
0.0
 73
     3
  0
POINT
  5
80B
  8
DEFPOINTS
 62
     0
 10
816.3326851690023
 20
905.3035003143727
 30
0.0
  0
POINT
  5
80C
  8
DEFPOINTS
 62
     0
 10
812.5826851690023
 20
982.8035003143727
 30
0.0
  0
POINT
  5
80D
  8
DEFPOINTS
 62
     0
 10
737.5826851690023
 20
982.8035003143727
 30
0.0
  0
ENDBLK
  5
AA
  8
0
  0
BLOCK
  8
0
  2
DIMENSION-7
 70
     0
 10
0.0
 20
0.0
 30
0.0
  3
DIMENSION-7
  1

  0
LINE
  5
80E
  8
0
  6
CONTINUOUS
 62
     0
 10
785.0826851690024
 20
955.3035002864331
 30
0.0
 11
785.0826851690024
 21
1022.803500314373
 31
0.0
  0
LINE
  5
80F
  8
0
  6
CONTINUOUS
 62
     0
 10
882.5826851690025
 20
955.3035002864331
 30
0.0
 11
882.5826851690025
 21
1022.803500314373
 31
0.0
  0
LINE
  5
810
  8
0
  6
CONTINUOUS
 62
     0
 10
785.0826851690024
 20
1022.803500314373
 30
0.0
 11
882.5826851690025
 21
1022.803500314373
 31
0.0
  0
CIRCLE
  5
811
  8
0
  6
CONTINUOUS
 62
     0
 10
785.0826851690024
 20
1022.803500314373
 30
0.0
 40
1.12396240234375
  0
CIRCLE
  5
812
  8
0
  6
CONTINUOUS
 62
     0
 10
882.5826851690025
 20
1022.803500314373
 30
0.0
 40
1.12396240234375
  0
TEXT
  5
813
  8
0
 62
     0
 10
818.9454636869375
 20
1031.602389203076
 30
0.0
 40
10.62008101851852
  1
φ39
  7
YUGOTHIC_MEDIUM
 11
818.9454636869375
 21
1042.222470221594
 31
0.0
 73
     3
  0
POINT
  5
814
  8
DEFPOINTS
 62
     0
 10
882.5826851690025
 20
947.8035003143727
 30
0.0
  0
POINT
  5
815
  8
DEFPOINTS
 62
     0
 10
785.0826851690024
 20
947.8035003143727
 30
0.0
  0
POINT
  5
816
  8
DEFPOINTS
 62
     0
 10
785.0826851690024
 20
1022.803500314373
 30
0.0
  0
ENDBLK
  5
AD
  8
0
  0
BLOCK
  8
0
  2
_DOT
 70
     0
 10
0.0
 20
0.0
 30
0.0
  3
_DOT
  1

  0
POLYLINE
  5
CC
  8
0
  6
BYBLOCK
 62
     0
 66
     1
 10
0.0
 20
0.0
 30
0.0
 70
     1
 40
0.5
 41
0.5
  0
VERTEX
  5
8D7
  8
0
  6
BYBLOCK
 62
     0
 10
-0.25
 20
0.0
 30
0.0
 42
1.0
  0
VERTEX
  5
8D8
  8
0
  6
BYBLOCK
 62
     0
 10
0.25
 20
0.0
 30
0.0
 42
1.0
  0
SEQEND
  5
8D9
  8
0
  6
BYBLOCK
 62
     0
  0
LINE
  5
CD
  8
0
  6
BYBLOCK
 62
     0
 10
-0.5
 20
0.0
 30
0.0
 11
-1.0
 21
0.0
 31
0.0
  0
ENDBLK
  5
CB
  8
0
  0
ENDSEC
  0
SECTION
  2
ENTITIES
  0
INSERT
  5
817
  8
_
 62
     7
  2
__A3
 10
524.4597052377339
 20
106.3691961421841
 30
0.0
 41
0.1
 42
0.1
 43
0.1
  0
TEXT
  5
818
  8
_
 62
     4
 10
1299.226184757971
 20
74.86823158540696
 30
0.0
 40
10.62008101851852
  1
2019.04.02
  7
YUGOTHIC_MEDIUM
 11
1299.226184757971
 21
80.17827209466623
 31
0.0
 73
     2
  0
TEXT
  5
819
  8
_
 62
     4
 10
1490.355367113541
 20
74.92484655722532
 30
0.0
 40
10.62008101851852
  1
1:5(A3)
  7
YUGOTHIC_MEDIUM
 11
1490.355367113541
 21
80.23488706648459
 31
0.0
 73
     2
  0
TEXT
  5
81A
  8
_
 62
     4
 10
1094.98432095056
 20
75.068231585407
 30
0.0
 40
10.62008101851852
  1
KB-PR008-03
  7
YUGOTHIC_MEDIUM
 11
1094.98432095056
 21
80.37827209466627
 31
0.0
 73
     2
  0
TEXT
  5
81B
  8
_
 62
     4
 10
529.0076903595975
 20
74.74449441147803
 30
0.0
 40
10.62008101851852
  1
ウェルラウンドシンク フレームレス450 壁付け
  7
YUGOTHIC_MEDIUM
 11
529.0076903595975
 21
80.0545349207373
 31
0.0
 73
     2
  0
INSERT
  5
81C
  8
1_5_____
 62
    17
  2
GROUP-1
 10
1055.0
 20
-1430.0
 30
0.0
  0
POLYLINE
  5
81D
  8
1_5_____
  6
CONTINUOUS
 62
     5
 66
     1
 10
0.0
 20
0.0
 30
0.0
 70
   128
  0
VERTEX
  5
81E
  8
1_5_____
  6
CONTINUOUS
 62
     5
 10
87.53208298402899
 20
491.4119285938607
 30
0.0
  0
VERTEX
  5
81F
  8
1_5_____
  6
CONTINUOUS
 62
     5
 10
-7.391188247612945
 20
327.0
 30
0.0
  0
VERTEX
  5
820
  8
1_5_____
  6
CONTINUOUS
 62
     5
 10
-158.0217349965344
 20
327.0
 30
0.0
  0
SEQEND
  5
821
  8
1_5_____
  6
CONTINUOUS
 62
     5
  0
TEXT
  5
822
  8
1_5_____
 62
     1
 10
-155.5961762983275
 20
332.15074651978
 30
0.0
 40
10.62008101851852
  1
オーバーフロー穴
  7
YUGOTHIC_MEDIUM
 11
-155.5961762983275
 21
337.4607870290392
 31
0.0
 73
     2
  0
DIMENSION
  5
823
  8
1_5__
  6
CONTINUOUS
 62
    17
  2
*D4
 10
-275.8070990830577
 20
529.6163695960227
 30
0.0
 11
-281.1671395921306
 21
452.1163690960295
 31
0.0
 70
    32
  3
TOOLBOX
 13
108.1929029169423
 23
374.6163685960364
 33
0.0
 14
-75.80709908305766
 24
529.6163695960227
 34
0.0
 50
-90.0
  0
DIMENSION
  5
824
  8
1_5__
  6
CONTINUOUS
 62
    17
  2
*D5
 10
-275.8070990830577
 20
1192.739564596074
 30
0.0
 11
-281.1671395921308
 21
1032.871643138135
 31
0.0
 70
    32
  3
TOOLBOX
 13
-33.25044532587935
 23
873.0037216801966
 33
0.0
 14
-75.80709908305766
 24
1192.739564596074
 34
0.0
 50
-90.0
  0
DIMENSION
  5
825
  8
1_5__
  6
CONTINUOUS
 62
    17
  2
*D6
 10
116.1929009169424
 20
983.3728969292015
 30
0.0
 11
84.79388775431516
 21
983.3728969292015
 31
0.0
 70
   160
  3
TOOLBOX
 13
162.1929029169422
 23
1022.739563596054
 33
0.0
 14
116.1929009169424
 24
1022.739563596054
 34
0.0
  0
DIMENSION
  5
826
  8
1_5__
  6
CONTINUOUS
 62
    17
  2
*D7
 10
121.6929019169422
 20
1102.975343088137
 30
0.0
 11
86.89767520439693
 21
1102.975343088137
 31
0.0
 70
   160
  3
TOOLBOX
 13
156.6929019169422
 23
1124.739564595986
 33
0.0
 14
121.6929019169422
 24
1124.739564595986
 34
0.0
  0
DIMENSION
  5
827
  8
1_5__
  6
CONTINUOUS
 62
    17
  2
*D8
 10
852.4369500498104
 20
529.6163695960227
 30
0.0
 11
847.0769095407375
 21
474.7274459307741
 31
0.0
 70
    32
  3
TOOLBOX
 13
1057.089821715018
 23
419.8385222655256
 33
0.0
 14
952.4369500498104
 24
529.6163695960227
 34
0.0
 50
-90.0
  0
DIMENSION
  5
828
  8
1_5__
  6
CONTINUOUS
 62
    17
  2
*D9
 10
454.1929029169422
 20
529.6163695960227
 30
0.0
 11
448.8328624078692
 21
502.1163685960296
 31
0.0
 70
    32
  3
TOOLBOX
 13
239.1929024169423
 23
474.6163675960365
 33
0.0
 14
354.1929029169422
 24
529.6163695960227
 34
0.0
 50
-90.0
  0
DIMENSION
  5
829
  8
1_5__
  6
CONTINUOUS
 62
    17
  2
*D10
 10
-193.3070970830577
 20
1082.739563596054
 30
0.0
 11
-198.6671375921306
 21
985.2395635960543
 31
0.0
 70
    32
  3
TOOLBOX
 13
-43.30709708305767
 23
887.7395635960543
 33
0.0
 14
-43.30709708305767
 24
1082.739563596054
 34
0.0
 50
-90.0
  0
DIMENSION
  5
82A
  8
1_5__
  6
CONTINUOUS
 62
    17
  2
*D11
 10
364.1929019169423
 20
1332.73956559604
 30
0.0
 11
139.1929019169258
 21
1338.099606105113
 31
0.0
 70
    32
  3
TOOLBOX
 13
-85.80709808309075
 23
1182.73956559604
 33
0.0
 14
364.1929019169423
 24
1182.73956559604
 34
0.0
  0
DIMENSION
  5
82B
  8
1_5__
  6
CONTINUOUS
 62
    17
  2
*D12
 10
439.1929019169422
 20
1124.739563596054
 30
0.0
 11
433.8328614078691
 21
1158.739564096047
 31
0.0
 70
    32
  3
TOOLBOX
 13
354.1929029169422
 23
1192.739564596041
 33
0.0
 14
139.1929019169422
 24
1124.739563596054
 34
0.0
 50
-90.0
  0
DIMENSION
  5
82C
  8
1_5__
  6
CONTINUOUS
 62
    17
  2
*D13
 10
489.1929019169423
 20
1022.739563596054
 30
0.0
 11
483.8328614078692
 21
1107.739564096047
 31
0.0
 70
    32
  3
TOOLBOX
 13
354.1929029169422
 23
1192.739564596041
 33
0.0
 14
139.1929019169423
 24
1022.739563596054
 34
0.0
 50
-90.0
  0
TEXT
  5
82D
  8
1_5__-1
 62
     1
 10
-501.7643438888883
 20
168.9226029100494
 30
0.0
 40
10.62008101851852
  1
※1　（　）内寸法は参考寸法である。 
  7
YUGOTHIC_MEDIUM
 11
-501.7643438888883
 21
165.8882940476155
 31
0.0
 73
     1
  0
TEXT
  5
82E
  8
1_5__-1
 62
     1
 10
-501.7643438888883
 20
147.7559362433827
 30
0.0
 40
10.62008101851852
  1
※２　容量2.5L・質量10ｋｇ 
  7
YUGOTHIC_MEDIUM
 11
-501.7643438888883
 21
144.7216273809488
 31
0.0
 73
     1
  0
TEXT
  5
82F
  8
1_5__-1
 62
     1
 10
-501.7643438888883
 20
126.5892695767161
 30
0.0
 40
10.62008101851852
  1
※３　壁掛専用 
  7
YUGOTHIC_MEDIUM
 11
-501.7643438888883
 21
123.5549607142823
 31
0.0
 73
     1
  0
TEXT
  5
830
  8
1_5__-1
 62
     1
 10
-501.7643438888883
 20
105.4226029100494
 30
0.0
 40
10.62008101851852
  1
※４　製品取付下地は、製品の使用に十分耐えられるような構造、材質を準備してください。
  7
YUGOTHIC_MEDIUM
 11
-501.7643438888883
 21
102.3882940476155
 31
0.0
 73
     1
  0
POLYLINE
  5
831
  8
1_5__-1
  6
CONTINUOUS
 62
    17
 66
     1
 10
0.0
 20
0.0
 30
0.0
 70
   129
  0
VERTEX
  5
832
  8
1_5__-1
  6
CONTINUOUS
 62
    17
 10
677.3000000000002
 20
1412.315000000001
 30
0.0
  0
VERTEX
  5
833
  8
1_5__-1
  6
CONTINUOUS
 62
    17
 10
1477.3
 20
1412.315000000001
 30
0.0
  0
VERTEX
  5
834
  8
1_5__-1
  6
CONTINUOUS
 62
    17
 10
1477.3
 20
812.3150000000005
 30
0.0
  0
VERTEX
  5
835
  8
1_5__-1
  6
CONTINUOUS
 62
    17
 10
677.3000000000002
 20
812.3150000000005
 30
0.0
  0
SEQEND
  5
836
  8
1_5__-1
  6
CONTINUOUS
 62
    17
  0
TEXT
  5
837
  8
1_5__-1
 62
     1
 10
699.0
 20
1372.058333333333
 30
0.0
 40
15.93012152777778
  1
付属品(S=1/2)
  7
YUGOTHIC_MEDIUM
 11
699.0
 21
1387.988454861111
 31
0.0
 73
     3
  0
TEXT
  5
838
  8
___
 62
     1
 10
140.080339722766
 20
5604.220833333334
 30
0.0
 40
39.82530381944444
  1
付属品
  7
YUGOTHIC_MEDIUM
 11
140.080339722766
 21
5644.046137152778
 31
0.0
 73
     3
  0
INSERT
  5
839
  8
___
 62
    17
  2
DIMENSION
 10
0.0
 20
0.0
 30
0.0
  0
LINE
  5
83A
  8
___
  6
CONTINUOUS
 62
     1
 10
812.5826851690023
 20
1124.4847203144
 30
0.0
 11
812.5826851690023
 21
1149.022110314385
 31
0.0
  0
LINE
  5
83B
  8
___
  6
CONTINUOUS
 62
     1
 10
855.0826851690024
 20
1124.4847203144
 30
0.0
 11
855.0826851690024
 21
1149.022110314385
 31
0.0
  0
LINE
  5
83C
  8
___
  6
CONTINUOUS
 62
     1
 10
855.0826851690024
 20
1124.4847203144
 30
0.0
 11
833.8326851690023
 21
1112.216030314403
 31
0.0
  0
LINE
  5
83D
  8
___
  6
CONTINUOUS
 62
     1
 10
833.8326851690023
 20
1161.290800314412
 30
0.0
 11
812.5826851690023
 21
1149.022110314385
 31
0.0
  0
LINE
  5
83E
  8
___
  6
CONTINUOUS
 62
     1
 10
833.8326851690023
 20
1161.290800314412
 30
0.0
 11
855.0826851690024
 21
1149.022110314385
 31
0.0
  0
LINE
  5
83F
  8
___
  6
CONTINUOUS
 62
     1
 10
812.5826851690023
 20
1124.4847203144
 30
0.0
 11
833.8326851690023
 21
1112.216030314403
 31
0.0
  0
CIRCLE
  5
840
  8
___
  6
CONTINUOUS
 62
     1
 10
833.8326851690023
 20
1136.753415314407
 30
0.0
 40
48.75000000000021
  0
CIRCLE
  5
841
  8
___
  6
CONTINUOUS
 62
     1
 10
833.8326851690023
 20
1136.753415314407
 30
0.0
 40
12.5
  0
TEXT
  5
842
  8
___
 62
     1
 10
909.3993062525824
 20
1075.111292485979
 30
0.0
 40
9.292570891203704
  1
M10
  7
YUGOTHIC_MEDIUM
 11
909.3993062525824
 21
1079.757577931581
 31
0.0
 73
     2
  0
LINE
  5
843
  8
___
  6
ISO-10______
 62
     2
 10
895.0826851690024
 20
1136.753415314407
 30
0.0
 11
772.5826851690024
 21
1136.753415314407
 31
0.0
  0
LINE
  5
844
  8
___
  6
ISO-10______
 62
     2
 10
833.8326851690023
 20
1198.003415314408
 30
0.0
 11
833.8326851690023
 21
1075.503415314407
 31
0.0
  0
LINE
  5
845
  8
___
  6
CONTINUOUS
 62
     1
 10
812.5826851690023
 20
982.8035003143727
 30
0.0
 11
855.0826851690024
 21
982.8035003143727
 31
0.0
  0
LINE
  5
846
  8
___
  6
CONTINUOUS
 62
     1
 10
816.3326851690023
 20
905.3035003143727
 30
0.0
 11
851.3326851690024
 21
905.3035003143727
 31
0.0
  0
LINE
  5
847
  8
___
  6
CONTINUOUS
 62
     1
 10
785.0826851690024
 20
940.3035003143727
 30
0.0
 11
882.5826851690025
 21
940.3035003143727
 31
0.0
  0
LINE
  5
848
  8
___
  6
CONTINUOUS
 62
     1
 10
812.5826851690023
 20
960.3035003143727
 30
0.0
 11
855.0826851690024
 21
960.3035003143727
 31
0.0
  0
LINE
  5
849
  8
___
  6
CONTINUOUS
 62
     1
 10
785.0826851690024
 20
947.8035003143727
 30
0.0
 11
785.0826851690024
 21
940.3035003143727
 31
0.0
  0
LINE
  5
84A
  8
___
  6
CONTINUOUS
 62
     1
 10
882.5826851690025
 20
947.8035003143727
 30
0.0
 11
882.5826851690025
 21
940.3035003143727
 31
0.0
  0
LINE
  5
84B
  8
___
  6
CONTINUOUS
 62
     1
 10
785.0826851690024
 20
947.8035003143727
 30
0.0
 11
882.5826851690025
 21
947.8035003143727
 31
0.0
  0
LINE
  5
84C
  8
___
  6
CONTINUOUS
 62
     1
 10
812.5826851690023
 20
982.8035003143727
 30
0.0
 11
812.5826851690023
 21
960.3035003143727
 31
0.0
  0
LINE
  5
84D
  8
___
  6
CONTINUOUS
 62
     1
 10
855.0826851690024
 20
982.8035003143727
 30
0.0
 11
855.0826851690024
 21
960.3035003143727
 31
0.0
  0
LINE
  5
84E
  8
___
  6
CONTINUOUS
 62
     1
 10
812.5826851690023
 20
960.3035003143727
 30
0.0
 11
785.0826851690024
 21
947.8035003143727
 31
0.0
  0
LINE
  5
84F
  8
___
  6
CONTINUOUS
 62
     1
 10
855.0826851690024
 20
960.3035003143727
 30
0.0
 11
882.5826851690025
 21
947.8035003143727
 31
0.0
  0
LINE
  5
850
  8
___
  6
CONTINUOUS
 62
     1
 10
851.3326851690024
 20
940.3035003143727
 30
0.0
 11
851.3326851690024
 21
905.3035003143727
 31
0.0
  0
LINE
  5
851
  8
___
  6
CONTINUOUS
 62
     1
 10
816.3326851690023
 20
940.3035003143727
 30
0.0
 11
816.3326851690023
 21
905.3035003143727
 31
0.0
  0
LINE
  5
852
  8
___
  6
ISO-10______
 62
     2
 10
833.8326851690023
 20
995.3035003143727
 30
0.0
 11
833.8326851690023
 21
892.8035003143727
 31
0.0
  0
LINE
  5
853
  8
___
  6
CONTINUOUS
 62
     1
 10
833.8326851690023
 20
982.8035003143727
 30
0.0
 11
833.8326851690023
 21
960.3035003143727
 31
0.0
  0
LINE
  5
854
  8
___
  6
CONTINUOUS
 62
     1
 10
1058.565325169002
 20
1204.3925753144
 30
0.0
 11
1079.505325169003
 21
1204.3925753144
 31
0.0
  0
LINE
  5
855
  8
___
  6
ISO-10______
 62
     2
 10
1069.035325169003
 20
941.892575314399
 30
0.0
 11
1069.035325169003
 21
1216.8925753144
 31
0.0
  0
LINE
  5
856
  8
___
  6
CONTINUOUS
 62
     1
 10
1059.035325169003
 20
1104.392575314398
 30
0.0
 11
1079.035325169003
 21
1104.392575314398
 31
0.0
  0
LINE
  5
857
  8
___
  6
CONTINUOUS
 62
     1
 10
1059.660325169003
 20
980.7525853144316
 30
0.0
 11
1059.660325169003
 21
1104.392575314398
 31
0.0
  0
LINE
  5
858
  8
___
  6
CONTINUOUS
 62
     1
 10
1078.410325169003
 20
980.7525853144316
 30
0.0
 11
1078.410325169003
 21
1104.392575314398
 31
0.0
  0
LINE
  5
859
  8
___
  6
CONTINUOUS
 62
     1
 10
1060.137860169003
 20
978.1191603144239
 30
0.0
 11
1069.035325169003
 21
954.392575314399
 31
0.0
  0
LINE
  5
85A
  8
___
  6
CONTINUOUS
 62
     1
 10
1069.035325169003
 20
954.392575314399
 30
0.0
 11
1077.932795169003
 21
978.1191603144239
 31
0.0
  0
ARC
  5
85B
  8
___
  6
CONTINUOUS
 62
     1
 10
1067.160325169003
 20
980.7525853144316
 30
0.0
 40
7.499999999999998
 50
180.0
 51
200.5560450002059
  0
ARC
  5
85C
  8
___
  6
CONTINUOUS
 62
     1
 10
1070.910325169003
 20
980.7525853144316
 30
0.0
 40
7.500000000008797
 50
339.4439549998193
 51
0.0
  0
LINE
  5
85D
  8
___
  6
CONTINUOUS
 62
     1
 10
1069.035325169003
 20
1104.392575314398
 30
0.0
 11
1057.785325169003
 21
1100.297910314387
 31
0.0
  0
LINE
  5
85E
  8
___
  6
CONTINUOUS
 62
     1
 10
1057.785325169003
 20
1100.297910314387
 30
0.0
 11
1080.285325169003
 21
1092.108580314422
 31
0.0
  0
LINE
  5
85F
  8
___
  6
CONTINUOUS
 62
     1
 10
1080.285325169003
 20
1092.108580314422
 30
0.0
 11
1057.785325169003
 21
1083.919250314399
 31
0.0
  0
LINE
  5
860
  8
___
  6
CONTINUOUS
 62
     1
 10
1057.785325169003
 20
1083.919250314399
 30
0.0
 11
1080.285325169003
 21
1075.729920314435
 31
0.0
  0
LINE
  5
861
  8
___
  6
CONTINUOUS
 62
     1
 10
1080.285325169003
 20
1075.729920314435
 30
0.0
 11
1057.785325169003
 21
1067.540590314412
 31
0.0
  0
LINE
  5
862
  8
___
  6
CONTINUOUS
 62
     1
 10
1057.785325169003
 20
1067.540590314412
 30
0.0
 11
1080.285325169003
 21
1059.351260314389
 31
0.0
  0
LINE
  5
863
  8
___
  6
CONTINUOUS
 62
     1
 10
1080.285325169003
 20
1059.351260314389
 30
0.0
 11
1057.785325169003
 21
1051.161930314396
 31
0.0
  0
LINE
  5
864
  8
___
  6
CONTINUOUS
 62
     1
 10
1057.785325169003
 20
1051.161930314396
 30
0.0
 11
1080.285325169003
 21
1042.972600314373
 31
0.0
  0
LINE
  5
865
  8
___
  6
CONTINUOUS
 62
     1
 10
1080.285325169003
 20
1042.972600314373
 30
0.0
 11
1057.785325169003
 21
1034.783270314407
 31
0.0
  0
LINE
  5
866
  8
___
  6
CONTINUOUS
 62
     1
 10
1057.785325169003
 20
1034.783270314407
 30
0.0
 11
1080.285325169003
 21
1026.593940314384
 31
0.0
  0
LINE
  5
867
  8
___
  6
CONTINUOUS
 62
     1
 10
1080.285325169003
 20
1026.593940314384
 30
0.0
 11
1057.785325169003
 21
1018.404610314361
 31
0.0
  0
LINE
  5
868
  8
___
  6
CONTINUOUS
 62
     1
 10
1057.785325169003
 20
1018.404610314361
 30
0.0
 11
1080.285325169003
 21
1010.215280314397
 31
0.0
  0
LINE
  5
869
  8
___
  6
CONTINUOUS
 62
     1
 10
1080.285325169003
 20
1010.215280314397
 30
0.0
 11
1057.785325169003
 21
1002.025950314374
 31
0.0
  0
LINE
  5
86A
  8
___
  6
CONTINUOUS
 62
     1
 10
1057.785325169003
 20
1002.025950314374
 30
0.0
 11
1080.285325169003
 21
993.836620314381
 31
0.0
  0
LINE
  5
86B
  8
___
  6
CONTINUOUS
 62
     1
 10
1080.285325169003
 20
993.836620314381
 30
0.0
 11
1057.785325169003
 21
985.6472903144154
 31
0.0
  0
LINE
  5
86C
  8
___
  6
CONTINUOUS
 62
     1
 10
1057.785325169003
 20
985.6472903144154
 30
0.0
 11
1080.285325169003
 21
977.4579603143925
 31
0.0
  0
LINE
  5
86D
  8
___
  6
CONTINUOUS
 62
     1
 10
1080.285325169003
 20
977.4579603143925
 30
0.0
 11
1057.785325169003
 21
969.2686303144283
 31
0.0
  0
LINE
  5
86E
  8
___
  6
CONTINUOUS
 62
     1
 10
1057.785325169003
 20
969.2686303144283
 30
0.0
 11
1074.520805169002
 21
963.1774103143684
 31
0.0
  0
LINE
  5
86F
  8
___
  6
CONTINUOUS
 62
     1
 10
1074.520805169002
 20
963.1774103143684
 30
0.0
 11
1064.169075169003
 21
959.4096903143932
 31
0.0
  0
LINE
  5
870
  8
___
  6
CONTINUOUS
 62
     1
 10
1064.169075169003
 20
959.4096903143932
 30
0.0
 11
1069.035325169003
 21
954.392575314399
 31
0.0
  0
LINE
  5
871
  8
___
  6
CONTINUOUS
 62
     1
 10
1056.535325169003
 20
1134.392575314399
 30
0.0
 11
1081.535325169003
 21
1134.392575314399
 31
0.0
  0
LINE
  5
872
  8
___
  6
CONTINUOUS
 62
     1
 10
1056.535325169003
 20
1134.392575314399
 30
0.0
 11
1056.535325169003
 21
1202.362575314372
 31
0.0
  0
LINE
  5
873
  8
___
  6
CONTINUOUS
 62
     1
 10
1059.035325169003
 20
1104.392575314398
 30
0.0
 11
1059.035325169003
 21
1134.392575314399
 31
0.0
  0
LINE
  5
874
  8
___
  6
CONTINUOUS
 62
     1
 10
1079.035325169003
 20
1104.392575314398
 30
0.0
 11
1079.035325169003
 21
1134.392575314399
 31
0.0
  0
LINE
  5
875
  8
___
  6
CONTINUOUS
 62
     1
 10
1058.565325169002
 20
1137.908640314402
 30
0.0
 11
1058.565325169002
 21
1204.3925753144
 31
0.0
  0
LINE
  5
876
  8
___
  6
CONTINUOUS
 62
     1
 10
1056.535325169003
 20
1134.392575314399
 30
0.0
 11
1058.565325169002
 21
1137.908640314402
 31
0.0
  0
LINE
  5
877
  8
___
  6
CONTINUOUS
 62
     1
 10
1058.565325169002
 20
1204.3925753144
 30
0.0
 11
1056.535325169003
 21
1202.362575314372
 31
0.0
  0
LINE
  5
878
  8
___
  6
CONTINUOUS
 62
     1
 10
1056.535325169003
 20
1137.908640314402
 30
0.0
 11
1081.535325169003
 21
1137.908640314402
 31
0.0
  0
LINE
  5
879
  8
___
  6
CONTINUOUS
 62
     1
 10
1056.535325169003
 20
1202.362575314372
 30
0.0
 11
1081.535325169003
 21
1202.362575314372
 31
0.0
  0
LINE
  5
87A
  8
___
  6
CONTINUOUS
 62
     1
 10
1079.505325169003
 20
1204.3925753144
 30
0.0
 11
1081.535325169003
 21
1202.362575314372
 31
0.0
  0
LINE
  5
87B
  8
___
  6
CONTINUOUS
 62
     1
 10
1081.535325169003
 20
1134.392575314399
 30
0.0
 11
1081.535325169003
 21
1202.362575314372
 31
0.0
  0
LINE
  5
87C
  8
___
  6
CONTINUOUS
 62
     1
 10
1079.505325169003
 20
1137.908640314402
 30
0.0
 11
1079.505325169003
 21
1204.3925753144
 31
0.0
  0
LINE
  5
87D
  8
___
  6
CONTINUOUS
 62
     1
 10
1081.535325169003
 20
1134.392575314399
 30
0.0
 11
1079.505325169003
 21
1137.908640314402
 31
0.0
  0
TEXT
  5
87E
  8
___
 62
     1
 10
1012.935405169003
 20
1267.25381613586
 30
0.0
 40
11.06258439429013
  1
ハンガーボルト（×2）
  7
YUGOTHIC_MEDIUM
 11
1012.935405169003
 21
1278.316400530151
 31
0.0
 73
     3
  0
TEXT
  5
87F
  8
___
 62
     1
 10
786.861140169003
 20
1268.752096135832
 30
0.0
 40
11.06258439429013
  1
ナット（×2）
  7
YUGOTHIC_MEDIUM
 11
786.861140169003
 21
1279.814680530122
 31
0.0
 73
     3
  0
LINE
  5
880
  8
___
  6
CONTINUOUS
 62
     1
 10
1283.671984958225
 20
989.9201103144001
 30
0.0
 11
1292.421984958225
 21
989.9201103144001
 31
0.0
  0
LINE
  5
881
  8
___
  6
CONTINUOUS
 62
     1
 10
1310.546984958225
 20
1179.920110314401
 30
0.0
 11
1310.546984958225
 21
1111.170110314399
 31
0.0
  0
LINE
  5
882
  8
___
  6
CONTINUOUS
 62
     1
 10
1303.671984958225
 20
989.9201103144001
 30
0.0
 11
1310.546984958225
 21
999.9201103144001
 31
0.0
  0
LINE
  5
883
  8
___
  6
CONTINUOUS
 62
     1
 10
1304.921984958225
 20
1012.4201103144
 30
0.0
 11
1310.546984958225
 21
1012.4201103144
 31
0.0
  0
LINE
  5
884
  8
___
  6
CONTINUOUS
 62
     1
 10
1304.921984958225
 20
1019.9201103144
 30
0.0
 11
1304.921984958225
 21
1012.4201103144
 31
0.0
  0
LINE
  5
885
  8
___
  6
CONTINUOUS
 62
     1
 10
1304.921984958225
 20
1019.9201103144
 30
0.0
 11
1310.546984958225
 21
1032.4201103144
 31
0.0
  0
LINE
  5
886
  8
___
  6
CONTINUOUS
 62
     1
 10
1310.546984958225
 20
1012.4201103144
 30
0.0
 11
1310.546984958225
 21
999.9201103144001
 31
0.0
  0
LINE
  5
887
  8
___
  6
CONTINUOUS
 62
     1
 10
1304.921984958225
 20
1038.6701103144
 30
0.0
 11
1310.546984958225
 21
1038.6701103144
 31
0.0
  0
LINE
  5
888
  8
___
  6
CONTINUOUS
 62
     1
 10
1304.921984958225
 20
1046.1701103144
 30
0.0
 11
1310.546984958225
 21
1058.6701103144
 31
0.0
  0
LINE
  5
889
  8
___
  6
CONTINUOUS
 62
     1
 10
1304.921984958225
 20
1046.1701103144
 30
0.0
 11
1304.921984958225
 21
1038.6701103144
 31
0.0
  0
LINE
  5
88A
  8
___
  6
CONTINUOUS
 62
     1
 10
1304.921984958225
 20
1064.9201103144
 30
0.0
 11
1310.546984958225
 21
1064.9201103144
 31
0.0
  0
LINE
  5
88B
  8
___
  6
CONTINUOUS
 62
     1
 10
1304.921984958225
 20
1072.4201103144
 30
0.0
 11
1310.546984958225
 21
1084.9201103144
 31
0.0
  0
LINE
  5
88C
  8
___
  6
CONTINUOUS
 62
     1
 10
1304.921984958225
 20
1072.4201103144
 30
0.0
 11
1304.921984958225
 21
1064.9201103144
 31
0.0
  0
LINE
  5
88D
  8
___
  6
CONTINUOUS
 62
     1
 10
1304.921984958225
 20
1091.170110314399
 30
0.0
 11
1310.546984958225
 21
1091.170110314399
 31
0.0
  0
LINE
  5
88E
  8
___
  6
CONTINUOUS
 62
     1
 10
1304.921984958225
 20
1098.670110314399
 30
0.0
 11
1310.546984958225
 21
1111.170110314399
 31
0.0
  0
LINE
  5
88F
  8
___
  6
CONTINUOUS
 62
     1
 10
1304.921984958225
 20
1098.670110314399
 30
0.0
 11
1304.921984958225
 21
1091.170110314399
 31
0.0
  0
LINE
  5
890
  8
___
  6
CONTINUOUS
 62
     1
 10
1310.546984958225
 20
1038.6701103144
 30
0.0
 11
1310.546984958225
 21
1032.4201103144
 31
0.0
  0
LINE
  5
891
  8
___
  6
CONTINUOUS
 62
     1
 10
1310.546984958225
 20
1064.9201103144
 30
0.0
 11
1310.546984958225
 21
1058.6701103144
 31
0.0
  0
LINE
  5
892
  8
___
  6
CONTINUOUS
 62
     1
 10
1310.546984958225
 20
1091.170110314399
 30
0.0
 11
1310.546984958225
 21
1084.9201103144
 31
0.0
  0
ARC
  5
893
  8
___
  6
CONTINUOUS
 62
     1
 10
1381.656514958224
 20
1072.346950314371
 30
0.0
 40
78.78091500001088
 50
142.0827559999892
 51
166.1765769999643
  0
ARC
  5
894
  8
___
  6
CONTINUOUS
 62
     1
 10
1381.656514958224
 20
1072.346950314371
 30
0.0
 40
73.78091500001013
 50
142.0827559999887
 51
165.219165999987
  0
ARC
  5
895
  8
___
  6
CONTINUOUS
 62
     1
 10
1321.478564958225
 20
1119.223305314414
 30
0.0
 40
2.500000000009452
 50
322.082755999729
 51
142.0827560012876
  0
LINE
  5
896
  8
___
  6
CONTINUOUS
 62
     1
 10
1306.796984958225
 20
1122.836780314376
 30
0.0
 11
1306.796984958225
 21
1102.836780314376
 31
0.0
  0
LINE
  5
897
  8
___
  6
CONTINUOUS
 62
     1
 10
1310.546984958225
 20
1122.836780314376
 30
0.0
 11
1306.796984958225
 21
1122.836780314376
 31
0.0
  0
LINE
  5
898
  8
___
  6
CONTINUOUS
 62
     1
 10
1276.796984958225
 20
1179.920110314401
 30
0.0
 11
1276.796984958225
 21
1111.170110314399
 31
0.0
  0
LINE
  5
899
  8
___
  6
CONTINUOUS
 62
     1
 10
1283.671984958225
 20
989.9201103144001
 30
0.0
 11
1276.796984958225
 21
999.9201103144001
 31
0.0
  0
LINE
  5
89A
  8
___
  6
CONTINUOUS
 62
     1
 10
1276.796984958225
 20
1122.836780314376
 30
0.0
 11
1280.546984958225
 21
1122.836780314376
 31
0.0
  0
LINE
  5
89B
  8
___
  6
CONTINUOUS
 62
     1
 10
1280.546984958225
 20
1122.836780314376
 30
0.0
 11
1280.546984958225
 21
1102.836780314376
 31
0.0
  0
ARC
  5
89C
  8
___
  6
CONTINUOUS
 62
     1
 10
1265.865399958225
 20
1119.223305314414
 30
0.0
 40
2.499999999973822
 50
37.91724399922267
 51
217.9172440007752
  0
ARC
  5
89D
  8
___
  6
CONTINUOUS
 62
     1
 10
1205.687449958223
 20
1072.346950314371
 30
0.0
 40
73.78091500000687
 50
14.7808340000137
 51
37.91724400001333
  0
ARC
  5
89E
  8
___
  6
CONTINUOUS
 62
     1
 10
1205.687449958223
 20
1072.346950314371
 30
0.0
 40
78.78091500001273
 50
13.82342300003539
 51
37.91724400000958
  0
LINE
  5
89F
  8
___
  6
CONTINUOUS
 62
     1
 10
1276.796984958225
 20
1091.170110314399
 30
0.0
 11
1276.796984958225
 21
1084.9201103144
 31
0.0
  0
LINE
  5
8A0
  8
___
  6
CONTINUOUS
 62
     1
 10
1276.796984958225
 20
1064.9201103144
 30
0.0
 11
1276.796984958225
 21
1058.6701103144
 31
0.0
  0
LINE
  5
8A1
  8
___
  6
CONTINUOUS
 62
     1
 10
1276.796984958225
 20
1038.6701103144
 30
0.0
 11
1276.796984958225
 21
1032.4201103144
 31
0.0
  0
LINE
  5
8A2
  8
___
  6
CONTINUOUS
 62
     1
 10
1282.421984958225
 20
1098.670110314399
 30
0.0
 11
1282.421984958225
 21
1091.170110314399
 31
0.0
  0
LINE
  5
8A3
  8
___
  6
CONTINUOUS
 62
     1
 10
1282.421984958225
 20
1098.670110314399
 30
0.0
 11
1276.796984958225
 21
1111.170110314399
 31
0.0
  0
LINE
  5
8A4
  8
___
  6
CONTINUOUS
 62
     1
 10
1282.421984958225
 20
1091.170110314399
 30
0.0
 11
1276.796984958225
 21
1091.170110314399
 31
0.0
  0
LINE
  5
8A5
  8
___
  6
CONTINUOUS
 62
     1
 10
1282.421984958225
 20
1072.4201103144
 30
0.0
 11
1282.421984958225
 21
1064.9201103144
 31
0.0
  0
LINE
  5
8A6
  8
___
  6
CONTINUOUS
 62
     1
 10
1282.421984958225
 20
1072.4201103144
 30
0.0
 11
1276.796984958225
 21
1084.9201103144
 31
0.0
  0
LINE
  5
8A7
  8
___
  6
CONTINUOUS
 62
     1
 10
1282.421984958225
 20
1064.9201103144
 30
0.0
 11
1276.796984958225
 21
1064.9201103144
 31
0.0
  0
LINE
  5
8A8
  8
___
  6
CONTINUOUS
 62
     1
 10
1282.421984958225
 20
1046.1701103144
 30
0.0
 11
1282.421984958225
 21
1038.6701103144
 31
0.0
  0
LINE
  5
8A9
  8
___
  6
CONTINUOUS
 62
     1
 10
1282.421984958225
 20
1046.1701103144
 30
0.0
 11
1276.796984958225
 21
1058.6701103144
 31
0.0
  0
LINE
  5
8AA
  8
___
  6
CONTINUOUS
 62
     1
 10
1282.421984958225
 20
1038.6701103144
 30
0.0
 11
1276.796984958225
 21
1038.6701103144
 31
0.0
  0
LINE
  5
8AB
  8
___
  6
CONTINUOUS
 62
     1
 10
1276.796984958225
 20
1012.4201103144
 30
0.0
 11
1276.796984958225
 21
999.9201103144001
 31
0.0
  0
LINE
  5
8AC
  8
___
  6
CONTINUOUS
 62
     1
 10
1282.421984958225
 20
1019.9201103144
 30
0.0
 11
1276.796984958225
 21
1032.4201103144
 31
0.0
  0
LINE
  5
8AD
  8
___
  6
CONTINUOUS
 62
     1
 10
1282.421984958225
 20
1019.9201103144
 30
0.0
 11
1282.421984958225
 21
1012.4201103144
 31
0.0
  0
LINE
  5
8AE
  8
___
  6
CONTINUOUS
 62
     1
 10
1282.421984958225
 20
1012.4201103144
 30
0.0
 11
1276.796984958225
 21
1012.4201103144
 31
0.0
  0
LINE
  5
8AF
  8
___
  6
CONTINUOUS
 62
     1
 10
1292.421984958225
 20
1157.420110314401
 30
0.0
 11
1293.671984958225
 21
1157.420110314401
 31
0.0
  0
LINE
  5
8B0
  8
___
  6
CONTINUOUS
 62
     1
 10
1294.921984958225
 20
1157.420110314401
 30
0.0
 11
1294.921984958225
 21
989.9201103144001
 31
0.0
  0
LINE
  5
8B1
  8
___
  6
CONTINUOUS
 62
     1
 10
1292.421984958225
 20
1157.420110314401
 30
0.0
 11
1292.421984958225
 21
989.9201103144001
 31
0.0
  0
LINE
  5
8B2
  8
___
  6
CONTINUOUS
 62
     1
 10
1294.921984958225
 20
989.9201103144001
 30
0.0
 11
1303.671984958225
 21
989.9201103144001
 31
0.0
  0
LINE
  5
8B3
  8
___
  6
ISO-10______
 62
     2
 10
1293.671984958225
 20
1192.420110314401
 30
0.0
 11
1293.671984958225
 21
977.4201103144001
 31
0.0
  0
TEXT
  5
8B4
  8
___
 62
     1
 10
1244.373264958226
 20
1267.25381613586
 30
0.0
 40
11.06258439429013
  1
アンカープラグS14（×2）
  7
YUGOTHIC_MEDIUM
 11
1244.373264958226
 21
1278.316400530151
 31
0.0
 73
     3
  0
LINE
  5
8B5
  8
___
  6
CONTINUOUS
 62
     1
 10
1276.796984958225
 20
1179.920110314401
 30
0.0
 11
1310.546984958225
 21
1179.920110314401
 31
0.0
  0
INSERT
  5
8B6
  8
___
 62
    17
  2
DIMENSION-1
 10
0.0
 20
0.0
 30
0.0
  0
INSERT
  5
8B7
  8
___
 62
    17
  2
DIMENSION-2
 10
0.0
 20
0.0
 30
0.0
  0
INSERT
  5
8B8
  8
___
 62
    17
  2
DIMENSION-3
 10
0.0
 20
0.0
 30
0.0
  0
INSERT
  5
8B9
  8
___
 62
    17
  2
DIMENSION-4
 10
0.0
 20
0.0
 30
0.0
  0
INSERT
  5
8BA
  8
___
 62
    17
  2
DIMENSION-5
 10
0.0
 20
0.0
 30
0.0
  0
INSERT
  5
8BB
  8
___
 62
    17
  2
DIMENSION-6
 10
0.0
 20
0.0
 30
0.0
  0
INSERT
  5
8BC
  8
___
 62
    17
  2
DIMENSION-7
 10
0.0
 20
0.0
 30
0.0
  0
LINE
  5
8BD
  8
___
  6
CONTINUOUS
 62
     5
 10
833.8326851690024
 20
1136.753415314407
 30
0.0
 11
872.5127499165567
 21
1069.757577931581
 31
0.0
  0
POLYLINE
  5
8BE
  8
___
  6
CONTINUOUS
 62
    17
 66
     1
 10
0.0
 20
0.0
 30
0.0
 70
   129
  0
VERTEX
  5
8BF
  8
___
  6
CONTINUOUS
 62
    17
 10
836.5120135501054
 20
1126.754025665969
 30
0.0
  0
VERTEX
  5
8C0
  8
___
  6
CONTINUOUS
 62
    17
 10
833.8326851690024
 20
1136.753415314407
 30
0.0
  0
VERTEX
  5
8C1
  8
___
  6
CONTINUOUS
 62
    17
 10
841.152746436337
 20
1129.433354047072
 30
0.0
  0
SEQEND
  5
8C2
  8
___
  6
CONTINUOUS
 62
    17
  0
LINE
  5
8C3
  8
___
  6
CONTINUOUS
 62
     5
 10
872.5127499165567
 20
1069.757577931581
 30
0.0
 11
938.5682107751547
 21
1069.757577931581
 31
0.0
  0
TEXT
  5
8C4
  8
___
 62
     1
 10
1148.515696765149
 20
1239.733760429021
 30
0.0
 40
9.292570891203704
  1
M10
  7
YUGOTHIC_MEDIUM
 11
1148.515696765149
 21
1244.380045874623
 31
0.0
 73
     2
  0
LINE
  5
8C5
  8
___
  6
CONTINUOUS
 62
     5
 10
1081.535325169003
 20
1168.377575314386
 30
0.0
 11
1120.215389916557
 21
1235.373412697211
 31
0.0
  0
POLYLINE
  5
8C6
  8
___
  6
CONTINUOUS
 62
    17
 66
     1
 10
0.0
 20
0.0
 30
0.0
 70
   129
  0
VERTEX
  5
8C7
  8
___
  6
CONTINUOUS
 62
    17
 10
1088.855386436337
 20
1175.69763658172
 30
0.0
  0
VERTEX
  5
8C8
  8
___
  6
CONTINUOUS
 62
    17
 10
1081.535325169003
 20
1168.377575314386
 30
0.0
  0
VERTEX
  5
8C9
  8
___
  6
CONTINUOUS
 62
    17
 10
1084.214653550105
 20
1178.376964962823
 30
0.0
  0
SEQEND
  5
8CA
  8
___
  6
CONTINUOUS
 62
    17
  0
LINE
  5
8CB
  8
___
  6
CONTINUOUS
 62
     5
 10
1120.215389916557
 20
1235.373412697211
 30
0.0
 11
1175.337328021793
 21
1235.373412697211
 31
0.0
  0
VIEWPORT
  5
8CC
 67
     1
  8
0
 10
128.5
 20
97.5
 30
0.0
 40
314.226
 41
222.18
 68
     1
 69
     1
1001
ACAD
1000
MVIEW
1002
{
1070
    16
1010
0.0
1020
0.0
1030
0.0
1010
0.0
1020
0.0
1030
1.0
1040
0.0
1040
222.18
1040
128.5
1040
97.5
1040
50.0
1040
0.0
1040
0.0
1070
     0
1070
   100
1070
     0
1070
     3
1070
     0
1070
     0
1070
     0
1070
     0
1040
0.0
1040
0.0
1040
0.0
1040
10.0
1040
10.0
1040
10.0
1040
10.0
1070
     0
1002
{
1002
}
1002
}
  0
ENDSEC
  0
EOF
