  0
SECTION
  2
HEADER
  9
$ACADVER
  1
AC1009
  9
$DWGCODEPAGE
  3
dos932
  9
$INSBASE
 10
0.0
 20
0.0
 30
0.0
  9
$EXTMIN
 10
-502.5242720359897
 20
68.06079193728237
 30
0.0
  9
$EXTMAX
 10
1555.722394630678
 20
1412.315000000001
 30
0.0
  9
$LIMMIN
 10
0.0
 20
0.0
  9
$LIMMAX
 10
12.0
 20
9.0
  9
$ORTHOMODE
 70
     0
  9
$REGENMODE
 70
     1
  9
$FILLMODE
 70
     1
  9
$QTEXTMODE
 70
     0
  9
$MIRRTEXT
 70
     1
  9
$DRAGMODE
 70
     2
  9
$LTSCALE
 40
5.0
  9
$OSMODE
 70
    37
  9
$ATTMODE
 70
     1
  9
$TEXTSIZE
 40
0.2
  9
$TRACEWID
 40
1.0
  9
$TEXTSTYLE
  7
STANDARD
  9
$CLAYER
  8
_
  9
$CELTYPE
  6
BYLAYER
  9
$CECOLOR
 62
   256
  9
$DIMSCALE
 40
1.0
  9
$DIMASZ
 40
2.2479248046875
  9
$DIMEXO
 40
7.499999972060323
  9
$DIMDLI
 40
30.00000000651926
  9
$DIMRND
 40
0.0
  9
$DIMDLE
 40
0.0
  9
$DIMEXE
 40
0.0
  9
$DIMTP
 40
0.0
  9
$DIMTM
 40
0.0
  9
$DIMTXT
 40
10.62008101851851
  9
$DIMCEN
 40
0.0
  9
$DIMTSZ
 40
0.0
  9
$DIMTOL
 70
     0
  9
$DIMLIM
 70
     0
  9
$DIMTIH
 70
     0
  9
$DIMTOH
 70
     0
  9
$DIMSE1
 70
     0
  9
$DIMSE2
 70
     0
  9
$DIMTAD
 70
     1
  9
$DIMZIN
 70
     8
  9
$DIMBLK
  1
DOT
  9
$DIMASO
 70
     1
  9
$DIMSHO
 70
     1
  9
$DIMPOST
  1
<>
  9
$DIMAPOST
  1
[]
  9
$DIMALT
 70
     0
  9
$DIMALTD
 70
     0
  9
$DIMALTF
 40
1.0
  9
$DIMLFAC
 40
1.0
  9
$DIMTOFL
 70
     1
  9
$DIMTVP
 40
0.0
  9
$DIMTIX
 70
     1
  9
$DIMSOXD
 70
     0
  9
$DIMSAH
 70
     0
  9
$DIMBLK1
  1
DOT
  9
$DIMBLK2
  1
DOT
  9
$DIMSTYLE
  2
TOOLBOX
  9
$DIMCLRD
 70
     0
  9
$DIMCLRE
 70
     0
  9
$DIMCLRT
 70
     0
  9
$DIMTFAC
 40
0.8
  9
$DIMGAP
 40
0.0499999998137355
  9
$LUNITS
 70
     2
  9
$LUPREC
 70
     2
  9
$SKETCHINC
 40
0.1
  9
$FILLETRAD
 40
0.5
  9
$AUNITS
 70
     0
  9
$AUPREC
 70
     2
  9
$MENU
  1
.
  9
$ELEVATION
 40
0.0
  9
$PELEVATION
 40
0.0
  9
$THICKNESS
 40
0.0
  9
$LIMCHECK
 70
     0
  9
$CHAMFERA
 40
0.0
  9
$CHAMFERB
 40
0.0
  9
$SKPOLY
 70
     0
  9
$TDCREATE
 40
2458916.94227309
  9
$TDUPDATE
 40
2458916.942291088
  9
$TDINDWG
 40
0.0000000116
  9
$TDUSRTIMER
 40
0.0000000116
  9
$USRTIMER
 70
     1
  9
$ANGBASE
 50
0.0
  9
$ANGDIR
 70
     0
  9
$PDMODE
 70
     1
  9
$PDSIZE
 40
-2.0
  9
$PLINEWID
 40
0.0
  9
$COORDS
 70
     1
  9
$SPLFRAME
 70
     0
  9
$SPLINETYPE
 70
     6
  9
$SPLINESEGS
 70
     8
  9
$ATTDIA
 70
     0
  9
$ATTREQ
 70
     1
  9
$HANDLING
 70
     1
  9
$HANDSEED
  5
34E
  9
$SURFTAB1
 70
     6
  9
$SURFTAB2
 70
     6
  9
$SURFTYPE
 70
     6
  9
$SURFU
 70
     6
  9
$SURFV
 70
     6
  9
$UCSNAME
  2

  9
$UCSORG
 10
0.0
 20
0.0
 30
0.0
  9
$UCSXDIR
 10
1.0
 20
0.0
 30
0.0
  9
$UCSYDIR
 10
0.0
 20
1.0
 30
0.0
  9
$PUCSNAME
  2

  9
$PUCSORG
 10
0.0
 20
0.0
 30
0.0
  9
$PUCSXDIR
 10
1.0
 20
0.0
 30
0.0
  9
$PUCSYDIR
 10
0.0
 20
1.0
 30
0.0
  9
$USERI1
 70
     0
  9
$USERI2
 70
     0
  9
$USERI3
 70
     0
  9
$USERI4
 70
     0
  9
$USERI5
 70
     0
  9
$USERR1
 40
0.0
  9
$USERR2
 40
0.0
  9
$USERR3
 40
0.0
  9
$USERR4
 40
0.0
  9
$USERR5
 40
0.0
  9
$WORLDVIEW
 70
     1
  9
$SHADEDGE
 70
     3
  9
$SHADEDIF
 70
    70
  9
$TILEMODE
 70
     1
  9
$MAXACTVP
 70
    64
  9
$PLIMCHECK
 70
     0
  9
$PEXTMIN
 10
1.000000000000000E+20
 20
1.000000000000000E+20
 30
1.000000000000000E+20
  9
$PEXTMAX
 10
-1.000000000000000E+20
 20
-1.000000000000000E+20
 30
-1.000000000000000E+20
  9
$PLIMMIN
 10
-20.0
 20
-7.5
  9
$PLIMMAX
 10
277.0
 20
202.5
  9
$UNITMODE
 70
     0
  9
$VISRETAIN
 70
     1
  9
$PLINEGEN
 70
     0
  9
$PSLTSCALE
 70
     1
  0
ENDSEC
  0
SECTION
  2
TABLES
  0
TABLE
  2
VPORT
 70
     1
  0
VPORT
  2
*ACTIVE
 70
     0
 10
0.0
 20
0.0
 11
1.0
 21
1.0
 12
526.5990612973442
 22
740.1878959686414
 13
0.0
 23
0.0
 14
0.5
 24
0.5
 15
0.5
 25
0.5
 16
0.0
 26
0.0
 36
1.0
 17
0.0
 27
0.0
 37
0.0
 40
1344.254208062718
 41
1.531143926737581
 42
2000.0
 43
0.0
 44
0.0
 50
0.0
 51
0.0
 71
     0
 72
   100
 73
     1
 74
     3
 75
     0
 76
     0
 77
     0
 78
     0
  0
ENDTAB
  0
TABLE
  2
LTYPE
 70
    16
  0
LTYPE
  2
CONTINUOUS
 70
     0
  3
Solid line
 72
    65
 73
     0
 40
0.0
  0
LTYPE
  2
VW-01____
 70
     0
  3

 72
    65
 73
     2
 40
2.1161248
 49
1.0580624
 49
-1.0580624
  0
LTYPE
  2
ISO-10______
 70
     0
  3

 72
    65
 73
     4
 40
4.699
 49
3.048
 49
-0.7619999999999999
 49
0.1270000000000001
 49
-0.7619999999999999
  0
LTYPE
  2
ISO-02___
 70
     0
  3

 72
    65
 73
     2
 40
3.81
 49
3.048
 49
-0.7619999999999999
  0
LTYPE
  2
ISO-07___
 70
     0
  3

 72
    65
 73
     2
 40
0.8889999999999999
 49
0.127
 49
-0.7619999999999998
  0
LTYPE
  2
ISO-04______
 70
     0
  3

 72
    65
 73
     4
 40
7.747000000000001
 49
6.095999999999999
 49
-0.7620000000000007
 49
0.1270000000000001
 49
-0.7620000000000007
  0
LTYPE
  2
DASHED
 70
     0
  3

 72
    65
 73
     2
 40
39.99999999999999
 49
24.0
 49
-16.0
  0
LTYPE
  2
1
 70
     0
  3

 72
    65
 73
     2
 40
101.60254
 49
101.6
 49
-0.0025399999999941
  0
LTYPE
  2
______-8
 70
     0
  3

 72
    65
 73
     2
 40
11.43
 49
7.619999999999999
 49
-3.809999999999999
  0
LTYPE
  2
______-7
 70
     0
  3

 72
    65
 73
     4
 40
34.28999999999999
 49
22.86
 49
-3.809999999999997
 49
3.809999999999997
 49
-3.809999999999997
  0
LTYPE
  2
______-6
 70
     0
  3

 72
    65
 73
     4
 40
7.747000000000001
 49
6.095999999999999
 49
-0.7620000000000007
 49
0.1270000000000001
 49
-0.7620000000000007
  0
LTYPE
  2
______-5
 70
     0
  3

 72
    65
 73
     2
 40
0.4
 49
0.24
 49
-0.16
  0
LTYPE
  2
______-4
 70
     0
  3

 72
    65
 73
     6
 40
2.7
 49
1.8
 49
-0.2
 49
0.2
 49
-0.1000000000000002
 49
0.2
 49
-0.2
  0
LTYPE
  2
______-3
 70
     0
  3

 72
    65
 73
     4
 40
2.4
 49
1.8
 49
-0.2
 49
0.2
 49
-0.2
  0
LTYPE
  2
______-2
 70
     0
  3

 72
    65
 73
     2
 40
38.09999999999999
 49
25.4
 49
-12.7
  0
LTYPE
  2
______-1
 70
     0
  3

 72
    65
 73
     2
 40
101.60254
 49
101.6
 49
-0.0025399999999941
  0
ENDTAB
  0
TABLE
  2
LAYER
 70
     7
  0
LAYER
  2
0
 70
     0
 62
     7
  6
CONTINUOUS
  0
LAYER
  2
_
 70
     0
 62
     7
  6
CONTINUOUS
  0
LAYER
  2
1_5_____
 70
     0
 62
     7
  6
CONTINUOUS
  0
LAYER
  2
1_5__
 70
     0
 62
     7
  6
CONTINUOUS
  0
LAYER
  2
1_5__-1
 70
     0
 62
     7
  6
CONTINUOUS
  0
LAYER
  2
1_2___
 70
     0
 62
     7
  6
CONTINUOUS
  0
LAYER
  2
DEFPOINTS
 70
     0
 62
     7
  6
CONTINUOUS
  0
ENDTAB
  0
TABLE
  2
STYLE
 70
     2
  0
STYLE
  2
STANDARD
 70
     0
 40
0.0
 41
1.0
 50
0.0
 71
     0
 42
0.2
  3
txt
  4
BIGFONT.SHX
  0
STYLE
  2
YUGOTHIC_MEDIUM
 70
     0
 40
0.0
 41
1.0
 50
0.0
 71
     0
 42
0.2
  3

  4
YuGothic Medium
  0
ENDTAB
  0
TABLE
  2
VIEW
 70
     0
  0
ENDTAB
  0
TABLE
  2
UCS
 70
     0
  0
ENDTAB
  0
TABLE
  2
APPID
 70
     2
  0
APPID
  2
ACAD
 70
     0
  0
APPID
  2
ACAECLAYERSTANDARD
 70
     0
  0
ENDTAB
  0
TABLE
  2
DIMSTYLE
 70
     2
  0
DIMSTYLE
  2
STANDARD
 70
     0
  3

  4

  5

  6

  7

 40
1.0
 41
0.18
 42
0.0625
 43
0.38
 44
0.18
 45
0.0
 46
0.0
 47
0.0
 48
0.0
140
0.18
141
0.09
142
0.0
143
25.4
144
1.0
145
0.0
146
1.0
147
0.09
 71
     0
 72
     0
 73
     1
 74
     1
 75
     0
 76
     0
 77
     0
 78
     0
170
     0
171
     2
172
     0
173
     0
174
     0
175
     0
176
     0
177
     0
178
     0
  0
DIMSTYLE
  2
TOOLBOX
 70
     0
  3
<>
  4
[]
  5
DOT
  6
DOT
  7
DOT
 40
1.0
 41
2.2479248046875
 42
7.499999972060323
 43
30.00000000651926
 44
0.0
 45
0.0
 46
0.0
 47
0.0
 48
0.0
140
10.62008101851851
141
0.0
142
0.0
143
1.0
144
1.0
145
0.0
146
0.8
147
0.0499999998137355
 71
     0
 72
     0
 73
     0
 74
     0
 75
     0
 76
     0
 77
     1
 78
     8
170
     0
171
     0
172
     1
173
     0
174
     1
175
     0
176
     0
177
     0
178
     0
  0
ENDTAB
  0
ENDSEC
  0
SECTION
  2
BLOCKS
  0
BLOCK
  8
0
  2
$MODEL_SPACE
 70
     0
 10
0.0
 20
0.0
 30
0.0
  3
$MODEL_SPACE
  1

  0
ENDBLK
  5
21
  8
0
  0
BLOCK
 67
     1
  8
0
  2
$PAPER_SPACE
 70
     0
 10
0.0
 20
0.0
 30
0.0
  3
$PAPER_SPACE
  1

  0
ENDBLK
  5
1D
 67
     1
  8
0
  0
BLOCK
  8
0
  2
GROUP
 70
     0
 10
0.0
 20
0.0
 30
0.0
  3
GROUP
  1

  0
ENDBLK
  5
70
  8
0
  0
BLOCK
  8
0
  2
__A3
 70
     0
 10
0.0
 20
0.0
 30
0.0
  3
__A3
  1

  0
LINE
  5
D8
  8
0
  6
CONTINUOUS
 62
     3
 10
10312.62689392944
 20
-89.92044693998241
 30
0.0
 11
-10269.83977273724
 21
-89.92044693998241
 31
0.0
  0
INSERT
  5
D9
  8
0
 62
    17
  2
GROUP
 10
0.0
 20
0.0
 30
0.0
  0
TEXT
  5
DA
  8
0
 62
     4
 10
9139.977640406578
 20
-226.0341168654482
 30
0.0
 40
79.65060763888889
  1
SCALE:
  7
YUGOTHIC_MEDIUM
 11
9139.977640406578
 21
-146.3835092265593
 31
0.0
 73
     3
  0
TEXT
  5
DB
  8
0
 62
     4
 10
-443.9643777938977
 20
-227.9787802733332
 30
0.0
 40
79.65060763888889
  1
NAME:
  7
YUGOTHIC_MEDIUM
 11
-443.9643777938977
 21
-148.3281726344443
 31
0.0
 73
     3
  0
TEXT
  5
DC
  8
0
 62
     4
 10
7281.663381210107
 20
-228.0537802733157
 30
0.0
 40
79.65060763888889
  1
DATE:
  7
YUGOTHIC_MEDIUM
 11
7281.663381210107
 21
-148.4031726344268
 31
0.0
 73
     3
  0
TEXT
  5
DD
  8
0
 62
     4
 10
5425.843209124179
 20
-236.1263220412507
 30
0.0
 40
79.65060763888889
  1
ID:
  7
YUGOTHIC_MEDIUM
 11
5425.843209124179
 21
-156.4757144023619
 31
0.0
 73
     3
  0
ENDBLK
  5
74
  8
0
  0
BLOCK
  8
0
  2
*D3
 70
     1
 10
0.0
 20
0.0
 30
0.0
  3
*D3
  1

  0
LINE
  5
DE
  8
1_5_____
  6
CONTINUOUS
 62
     0
 10
-66.70030745587314
 20
584.3166678945402
 30
0.0
 11
-159.2003074838128
 21
584.3166678945402
 31
0.0
  0
LINE
  5
DF
  8
1_5_____
  6
CONTINUOUS
 62
     0
 10
-66.70030745587314
 20
614.3139182251025
 30
0.0
 11
-159.2003074838128
 21
614.3139182251025
 31
0.0
  0
LINE
  5
E0
  8
1_5_____
  6
CONTINUOUS
 62
     0
 10
-159.2003074838128
 20
584.3166678945402
 30
0.0
 11
-159.2003074838128
 21
614.3139182251025
 31
0.0
  0
LINE
  5
E1
  8
1_5_____
  6
CONTINUOUS
 62
     0
 10
-159.2003074838128
 20
582.0687430898527
 30
0.0
 11
-159.2003074838128
 21
579.8208182851652
 31
0.0
  0
LINE
  5
E2
  8
1_5_____
  6
CONTINUOUS
 62
     0
 10
-159.2003074838128
 20
616.56184302979
 30
0.0
 11
-159.2003074838128
 21
618.8097678344775
 31
0.0
  0
INSERT
  5
E3
  8
1_5_____
 62
     0
  2
_DOT
 10
-159.2003074838128
 20
584.3166678945402
 30
0.0
 41
2.2479248046875
 42
2.2479248046875
 43
2.2479248046875
 50
90.0
  0
INSERT
  5
E4
  8
1_5_____
 62
     0
  2
_DOT
 10
-159.2003074838128
 20
614.3139182251025
 30
0.0
 41
2.2479248046875
 42
2.2479248046875
 43
2.2479248046875
 50
270.0
  0
TEXT
  5
E5
  8
1_5_____
  6
CONTINUOUS
 62
     0
 10
-159.2503074836266
 20
566.4436137167878
 30
0.0
 40
10.62008101851851
  1
29.9973
 50
90.0
  7
YUGOTHIC_MEDIUM
  0
POINT
  5
E6
  8
DEFPOINTS
 62
     0
 10
-59.20030748381282
 20
584.3166678945402
 30
0.0
  0
POINT
  5
E7
  8
DEFPOINTS
 62
     0
 10
-59.20030748381282
 20
614.3139182251025
 30
0.0
  0
POINT
  5
290
  8
DEFPOINTS
 62
     0
 10
-159.2003074838128
 20
614.3139182251025
 30
0.0
  0
ENDBLK
  5
77
  8
0
  0
BLOCK
  8
0
  2
*D4
 70
     1
 10
0.0
 20
0.0
 30
0.0
  3
*D4
  1

  0
LINE
  5
E8
  8
1_5_____
  6
CONTINUOUS
 62
     0
 10
-66.70030745587314
 20
559.3166688945439
 30
0.0
 11
-209.2003074838128
 21
559.3166688945439
 31
0.0
  0
LINE
  5
E9
  8
1_5_____
  6
CONTINUOUS
 62
     0
 10
-66.70030745587314
 20
614.3139182251025
 30
0.0
 11
-209.2003074838128
 21
614.3139182251025
 31
0.0
  0
LINE
  5
EA
  8
1_5_____
  6
CONTINUOUS
 62
     0
 10
-209.2003074838128
 20
559.3166688945439
 30
0.0
 11
-209.2003074838128
 21
614.3139182251025
 31
0.0
  0
LINE
  5
EB
  8
1_5_____
  6
CONTINUOUS
 62
     0
 10
-209.2003074838128
 20
557.0687440898564
 30
0.0
 11
-209.2003074838128
 21
554.8208192851689
 31
0.0
  0
LINE
  5
EC
  8
1_5_____
  6
CONTINUOUS
 62
     0
 10
-209.2003074838128
 20
616.56184302979
 30
0.0
 11
-209.2003074838128
 21
618.8097678344775
 31
0.0
  0
INSERT
  5
ED
  8
1_5_____
 62
     0
  2
_DOT
 10
-209.2003074838128
 20
559.3166688945439
 30
0.0
 41
2.2479248046875
 42
2.2479248046875
 43
2.2479248046875
 50
90.0
  0
INSERT
  5
EE
  8
1_5_____
 62
     0
  2
_DOT
 10
-209.2003074838128
 20
614.3139182251025
 30
0.0
 41
2.2479248046875
 42
2.2479248046875
 43
2.2479248046875
 50
270.0
  0
TEXT
  5
EF
  8
1_5_____
  6
CONTINUOUS
 62
     0
 10
-209.2503074836266
 20
553.9436142167897
 30
0.0
 40
10.62008101851851
  1
54.9972
 50
90.0
  7
YUGOTHIC_MEDIUM
  0
POINT
  5
F0
  8
DEFPOINTS
 62
     0
 10
-59.20030748381282
 20
559.3166688945439
 30
0.0
  0
POINT
  5
F1
  8
DEFPOINTS
 62
     0
 10
-59.20030748381282
 20
614.3139182251025
 30
0.0
  0
POINT
  5
292
  8
DEFPOINTS
 62
     0
 10
-209.2003074838128
 20
614.3139182251025
 30
0.0
  0
ENDBLK
  5
7A
  8
0
  0
BLOCK
  8
0
  2
*D5
 70
     1
 10
0.0
 20
0.0
 30
0.0
  3
*D5
  1

  0
LINE
  5
F2
  8
1_5_____
  6
CONTINUOUS
 62
     0
 10
-66.70030745587314
 20
429.3139182251025
 30
0.0
 11
-259.2003074838128
 21
429.3139182251025
 31
0.0
  0
LINE
  5
F3
  8
1_5_____
  6
CONTINUOUS
 62
     0
 10
-66.70030745587314
 20
614.3139182251025
 30
0.0
 11
-259.2003074838128
 21
614.3139182251025
 31
0.0
  0
LINE
  5
F4
  8
1_5_____
  6
CONTINUOUS
 62
     0
 10
-259.2003074838128
 20
431.56184302979
 30
0.0
 11
-259.2003074838128
 21
612.065993420415
 31
0.0
  0
INSERT
  5
F5
  8
1_5_____
 62
     0
  2
_DOT
 10
-259.2003074838128
 20
429.3139182251025
 30
0.0
 41
2.2479248046875
 42
2.2479248046875
 43
2.2479248046875
 50
270.0
  0
INSERT
  5
F6
  8
1_5_____
 62
     0
  2
_DOT
 10
-259.2003074838128
 20
614.3139182251025
 30
0.0
 41
2.2479248046875
 42
2.2479248046875
 43
2.2479248046875
 50
90.0
  0
TEXT
  5
F7
  8
1_5_____
  6
CONTINUOUS
 62
     0
 10
-259.2503074836266
 20
505.8837966973247
 30
0.0
 40
10.62008101851851
  1
185
 50
90.0
  7
YUGOTHIC_MEDIUM
  0
POINT
  5
F8
  8
DEFPOINTS
 62
     0
 10
-59.20030748381282
 20
429.3139182251025
 30
0.0
  0
POINT
  5
F9
  8
DEFPOINTS
 62
     0
 10
-59.20030748381282
 20
614.3139182251025
 30
0.0
  0
POINT
  5
FA
  8
DEFPOINTS
 62
     0
 10
-259.2003074838128
 20
614.3139182251025
 30
0.0
  0
ENDBLK
  5
7D
  8
0
  0
BLOCK
  8
0
  2
*D6
 70
     1
 10
0.0
 20
0.0
 30
0.0
  3
*D6
  1

  0
LINE
  5
FC
  8
1_5_____
  6
CONTINUOUS
 62
     0
 10
174.6680357765201
 20
1027.589827868795
 30
0.0
 11
174.6680357765201
 21
935.0898191954461
 31
0.0
  0
LINE
  5
FD
  8
1_5_____
  6
CONTINUOUS
 62
     0
 10
128.6653818413272
 20
1027.589819223386
 30
0.0
 11
128.6653818413272
 21
935.0898191954461
 31
0.0
  0
LINE
  5
FE
  8
1_5_____
  6
CONTINUOUS
 62
     0
 10
174.6680357765201
 20
935.0898191954461
 30
0.0
 11
128.6653818413272
 21
935.0898191954461
 31
0.0
  0
LINE
  5
FF
  8
1_5_____
  6
CONTINUOUS
 62
     0
 10
176.9159605812076
 20
935.0898191954461
 30
0.0
 11
179.1638853858951
 21
935.0898191954461
 31
0.0
  0
LINE
  5
100
  8
1_5_____
  6
CONTINUOUS
 62
     0
 10
126.4174570366397
 20
935.0898191954461
 30
0.0
 11
124.1695322319522
 21
935.0898191954461
 31
0.0
  0
INSERT
  5
101
  8
1_5_____
 62
     0
  2
_DOT
 10
174.6680357765201
 20
935.0898191954461
 30
0.0
 41
2.2479248046875
 42
2.2479248046875
 43
2.2479248046875
 50
180.0
  0
INSERT
  5
102
  8
1_5_____
 62
     0
  2
_DOT
 10
128.6653818413272
 20
935.0898191954461
 30
0.0
 41
2.2479248046875
 42
2.2479248046875
 43
2.2479248046875
  0
TEXT
  5
103
  8
1_5_____
  6
CONTINUOUS
 62
     0
 10
118.7950294658902
 20
935.1398191952599
 30
0.0
 40
10.62008101851851
  1
46.0027
  7
YUGOTHIC_MEDIUM
  0
POINT
  5
104
  8
DEFPOINTS
 62
     0
 10
174.6680357765201
 20
1035.089827840855
 30
0.0
  0
POINT
  5
105
  8
DEFPOINTS
 62
     0
 10
128.6653818413272
 20
1035.089819195446
 30
0.0
  0
POINT
  5
295
  8
DEFPOINTS
 62
     0
 10
128.6653818413272
 20
935.0898191954461
 30
0.0
  0
ENDBLK
  5
80
  8
0
  0
BLOCK
  8
0
  2
*D7
 70
     1
 10
0.0
 20
0.0
 30
0.0
  3
*D7
  1

  0
LINE
  5
106
  8
1_5__
  6
CONTINUOUS
 62
     0
 10
376.6689857765208
 20
1207.58679379873
 30
0.0
 11
376.6689857765208
 21
1354.0
 31
0.0
  0
LINE
  5
107
  8
1_5__
  6
CONTINUOUS
 62
     0
 10
-73.3320162234811
 20
1207.58679379873
 30
0.0
 11
-73.3320162234811
 21
1354.0
 31
0.0
  0
LINE
  5
108
  8
1_5__
  6
CONTINUOUS
 62
     0
 10
374.4210609718333
 20
1354.0
 30
0.0
 11
-71.0840914187936
 21
1354.0
 31
0.0
  0
INSERT
  5
109
  8
1_5__
 62
     0
  2
_DOT
 10
376.6689857765208
 20
1354.0
 30
0.0
 41
2.2479248046875
 42
2.2479248046875
 43
2.2479248046875
  0
INSERT
  5
10A
  8
1_5__
 62
     0
  2
_DOT
 10
-73.3320162234811
 20
1354.0
 30
0.0
 41
2.2479248046875
 42
2.2479248046875
 43
2.2479248046875
 50
180.0
  0
TEXT
  5
10B
  8
1_5__
  6
CONTINUOUS
 62
     0
 10
120.3139598647033
 20
1354.049999999814
 30
0.0
 40
10.62008101851851
  1
450.001
  7
YUGOTHIC_MEDIUM
  0
POINT
  5
10C
  8
DEFPOINTS
 62
     0
 10
376.6689857765208
 20
1200.08679382667
 30
0.0
  0
POINT
  5
10D
  8
DEFPOINTS
 62
     0
 10
-73.3320162234811
 20
1200.08679382667
 30
0.0
  0
POINT
  5
10E
  8
DEFPOINTS
 62
     0
 10
-73.3320162234811
 20
1354.0
 30
0.0
  0
ENDBLK
  5
83
  8
0
  0
BLOCK
  8
0
  2
*D8
 70
     1
 10
0.0
 20
0.0
 30
0.0
  3
*D8
  1

  0
LINE
  5
110
  8
1_5__
  6
CONTINUOUS
 62
     0
 10
346.6689827765209
 20
1215.628443798736
 30
0.0
 11
346.6689827765209
 21
1302.0
 31
0.0
  0
LINE
  5
111
  8
1_5__
  6
CONTINUOUS
 62
     0
 10
-43.33201622348088
 20
1215.629931798733
 30
0.0
 11
-43.33201622348088
 21
1302.0
 31
0.0
  0
LINE
  5
112
  8
1_5__
  6
CONTINUOUS
 62
     0
 10
344.4210579718334
 20
1302.0
 30
0.0
 11
-41.08409141879338
 21
1302.0
 31
0.0
  0
INSERT
  5
113
  8
1_5__
 62
     0
  2
_DOT
 10
346.6689827765209
 20
1302.0
 30
0.0
 41
2.2479248046875
 42
2.2479248046875
 43
2.2479248046875
  0
INSERT
  5
114
  8
1_5__
 62
     0
  2
_DOT
 10
-43.33201622348088
 20
1302.0
 30
0.0
 41
2.2479248046875
 42
2.2479248046875
 43
2.2479248046875
 50
180.0
  0
TEXT
  5
115
  8
1_5__
  6
CONTINUOUS
 62
     0
 10
120.3139583647035
 20
1302.049999999814
 30
0.0
 40
10.62008101851851
  1
390.001
  7
YUGOTHIC_MEDIUM
  0
POINT
  5
116
  8
DEFPOINTS
 62
     0
 10
346.6689827765209
 20
1208.128443826675
 30
0.0
  0
POINT
  5
117
  8
DEFPOINTS
 62
     0
 10
-43.33201622348088
 20
1208.129931826672
 30
0.0
  0
POINT
  5
118
  8
DEFPOINTS
 62
     0
 10
-43.33201622348088
 20
1302.0
 30
0.0
  0
ENDBLK
  5
86
  8
0
  0
BLOCK
  8
0
  2
*D9
 70
     1
 10
0.0
 20
0.0
 30
0.0
  3
*D9
  1

  0
LINE
  5
11A
  8
1_5__
  6
CONTINUOUS
 62
     0
 10
-80.8320161955412
 20
880.0867928266857
 30
0.0
 11
-155.177029953481
 21
880.0867928266857
 31
0.0
  0
LINE
  5
11B
  8
1_5__
  6
CONTINUOUS
 62
     0
 10
-80.8320161955412
 20
1200.08679382667
 30
0.0
 11
-155.177029953481
 21
1200.08679382667
 31
0.0
  0
LINE
  5
11C
  8
1_5__
  6
CONTINUOUS
 62
     0
 10
-155.177029953481
 20
882.3347176313732
 30
0.0
 11
-155.177029953481
 21
1197.838869021983
 31
0.0
  0
INSERT
  5
11D
  8
1_5__
 62
     0
  2
_DOT
 10
-155.177029953481
 20
880.0867928266857
 30
0.0
 41
2.2479248046875
 42
2.2479248046875
 43
2.2479248046875
 50
270.0
  0
INSERT
  5
11E
  8
1_5__
 62
     0
  2
_DOT
 10
-155.177029953481
 20
1200.08679382667
 30
0.0
 41
2.2479248046875
 42
2.2479248046875
 43
2.2479248046875
 50
90.0
  0
TEXT
  5
11F
  8
1_5__
  6
CONTINUOUS
 62
     0
 10
-155.227029953295
 20
1024.915249014509
 30
0.0
 40
10.62008101851851
  1
320
 50
90.0
  7
YUGOTHIC_MEDIUM
  0
POINT
  5
120
  8
DEFPOINTS
 62
     0
 10
-73.33201622348088
 20
880.0867928266857
 30
0.0
  0
POINT
  5
121
  8
DEFPOINTS
 62
     0
 10
-73.33201622348088
 20
1200.08679382667
 30
0.0
  0
POINT
  5
122
  8
DEFPOINTS
 62
     0
 10
-155.177029953481
 20
1200.08679382667
 30
0.0
  0
ENDBLK
  5
89
  8
0
  0
BLOCK
  8
0
  2
*D10
 70
     1
 10
0.0
 20
0.0
 30
0.0
  3
*D10
  1

  0
LINE
  5
124
  8
1_5__
  6
CONTINUOUS
 62
     0
 10
-84.49999997206032
 20
910.0926518266829
 30
0.0
 11
-115.3421382234805
 21
910.0926518266829
 31
0.0
  0
LINE
  5
125
  8
1_5__
  6
CONTINUOUS
 62
     0
 10
-77.80902304596907
 20
1090.086795826674
 30
0.0
 11
-115.3421382234806
 21
1090.086795826674
 31
0.0
  0
LINE
  5
126
  8
1_5__
  6
CONTINUOUS
 62
     0
 10
-115.3421382234805
 20
912.3405766313704
 30
0.0
 11
-115.3421382234806
 21
1087.838871021987
 31
0.0
  0
INSERT
  5
127
  8
1_5__
 62
     0
  2
_DOT
 10
-115.3421382234805
 20
910.0926518266829
 30
0.0
 41
2.2479248046875
 42
2.2479248046875
 43
2.2479248046875
 50
270.0
  0
INSERT
  5
128
  8
1_5__
 62
     0
  2
_DOT
 10
-115.3421382234806
 20
1090.086795826674
 30
0.0
 41
2.2479248046875
 42
2.2479248046875
 43
2.2479248046875
 50
90.0
  0
TEXT
  5
129
  8
1_5__
  6
CONTINUOUS
 62
     0
 10
-115.3921382232943
 20
962.9194402618637
 30
0.0
 40
10.62008101851851
  1
179.9941
 50
90.0
  7
YUGOTHIC_MEDIUM
  0
POINT
  5
12A
  8
DEFPOINTS
 62
     0
 10
-77.0
 20
910.0926518266829
 30
0.0
  0
POINT
  5
12B
  8
DEFPOINTS
 62
     0
 10
-70.30902307390875
 20
1090.086795826674
 30
0.0
  0
POINT
  5
12C
  8
DEFPOINTS
 62
     0
 10
-115.3421382234806
 20
1090.086795826674
 30
0.0
  0
ENDBLK
  5
8C
  8
0
  0
BLOCK
  8
0
  2
*D11
 70
     1
 10
0.0
 20
0.0
 30
0.0
  3
*D11
  1

  0
LINE
  5
12E
  8
1_5__
  6
CONTINUOUS
 62
     0
 10
169.1661826920374
 20
1127.589525320082
 30
0.0
 11
169.1661826920374
 21
1105.720129159821
 31
0.0
  0
LINE
  5
12F
  8
1_5__
  6
CONTINUOUS
 62
     0
 10
133.8027332765203
 20
1127.586795854614
 30
0.0
 11
133.8027332765203
 21
1105.720129159821
 31
0.0
  0
LINE
  5
130
  8
1_5__
  6
CONTINUOUS
 62
     0
 10
169.1661826920374
 20
1105.720129159821
 30
0.0
 11
234.7288754637245
 21
1105.720129159821
 31
0.0
  0
LINE
  5
131
  8
1_5__
  6
CONTINUOUS
 62
     0
 10
166.9182578873499
 20
1105.720129159821
 30
0.0
 11
136.0506580812078
 21
1105.720129159821
 31
0.0
  0
INSERT
  5
132
  8
1_5__
 62
     0
  2
_DOT
 10
169.1661826920374
 20
1105.720129159821
 30
0.0
 41
2.2479248046875
 42
2.2479248046875
 43
2.2479248046875
  0
INSERT
  5
133
  8
1_5__
 62
     0
  2
_DOT
 10
133.8027332765203
 20
1105.720129159821
 30
0.0
 41
2.2479248046875
 42
2.2479248046875
 43
2.2479248046875
 50
180.0
  0
TEXT
  5
134
  8
1_5__
  6
CONTINUOUS
 62
     0
 10
169.9469530653217
 20
1105.770129159635
 30
0.0
 40
10.62008101851851
  1
35.3634
  7
YUGOTHIC_MEDIUM
  0
POINT
  5
135
  8
DEFPOINTS
 62
     0
 10
169.1661826920374
 20
1135.089525292143
 30
0.0
  0
POINT
  5
136
  8
DEFPOINTS
 62
     0
 10
133.8027332765203
 20
1135.086795826674
 30
0.0
  0
POINT
  5
137
  8
DEFPOINTS
 62
     0
 10
133.8027332765203
 20
1095.086795826674
 30
0.0
  0
ENDBLK
  5
8F
  8
0
  0
BLOCK
  8
0
  2
*D12
 70
     1
 10
0.0
 20
0.0
 30
0.0
  3
*D12
  1

  0
LINE
  5
139
  8
1_5__
  6
CONTINUOUS
 62
     0
 10
251.6659847765206
 20
559.4436678665759
 30
0.0
 11
251.6659847765206
 21
710.0
 31
0.0
  0
LINE
  5
13A
  8
1_5__
  6
CONTINUOUS
 62
     0
 10
51.66698277651972
 20
559.4436678665759
 30
0.0
 11
51.66698277651972
 21
710.0
 31
0.0
  0
LINE
  5
13B
  8
1_5__
  6
CONTINUOUS
 62
     0
 10
249.4180599718331
 20
710.0
 30
0.0
 11
53.91490758120722
 21
710.0
 31
0.0
  0
INSERT
  5
13C
  8
1_5__
 62
     0
  2
_DOT
 10
251.6659847765206
 20
710.0
 30
0.0
 41
2.2479248046875
 42
2.2479248046875
 43
2.2479248046875
  0
INSERT
  5
13D
  8
1_5__
 62
     0
  2
_DOT
 10
51.66698277651972
 20
710.0
 30
0.0
 41
2.2479248046875
 42
2.2479248046875
 43
2.2479248046875
 50
180.0
  0
TEXT
  5
13E
  8
1_5__
  6
CONTINUOUS
 62
     0
 10
118.2890862897477
 20
710.0499999998137
 30
0.0
 40
10.62008101851851
  1
199.999
  7
YUGOTHIC_MEDIUM
  0
POINT
  5
13F
  8
DEFPOINTS
 62
     0
 10
251.6659847765206
 20
551.9436678945156
 30
0.0
  0
POINT
  5
140
  8
DEFPOINTS
 62
     0
 10
51.66698277651972
 20
551.9436678945156
 30
0.0
  0
POINT
  5
141
  8
DEFPOINTS
 62
     0
 10
51.66698277651972
 20
710.0
 30
0.0
  0
ENDBLK
  5
92
  8
0
  0
BLOCK
  8
0
  2
*D13
 70
     1
 10
0.0
 20
0.0
 30
0.0
  3
*D13
  1

  0
LINE
  5
143
  8
1_5__
  6
CONTINUOUS
 62
     0
 10
289.5829847485812
 20
529.3086678945317
 30
0.0
 11
437.5369847765211
 21
529.3086678945317
 31
0.0
  0
LINE
  5
144
  8
1_5__
  6
CONTINUOUS
 62
     0
 10
370.0369847485814
 20
614.3166678945377
 30
0.0
 11
437.5369847765211
 21
614.3166678945377
 31
0.0
  0
LINE
  5
145
  8
1_5__
  6
CONTINUOUS
 62
     0
 10
437.5369847765211
 20
531.5565926992192
 30
0.0
 11
437.5369847765211
 21
612.0687430898502
 31
0.0
  0
INSERT
  5
146
  8
1_5__
 62
     0
  2
_DOT
 10
437.5369847765211
 20
529.3086678945317
 30
0.0
 41
2.2479248046875
 42
2.2479248046875
 43
2.2479248046875
 50
270.0
  0
INSERT
  5
147
  8
1_5__
 62
     0
  2
_DOT
 10
437.5369847765211
 20
614.3166678945377
 30
0.0
 41
2.2479248046875
 42
2.2479248046875
 43
2.2479248046875
 50
90.0
  0
TEXT
  5
148
  8
1_5__
  6
CONTINUOUS
 62
     0
 10
437.4869847767073
 20
543.998169988891
 30
0.0
 40
10.62008101851851
  1
85.008
 50
90.0
  7
YUGOTHIC_MEDIUM
  0
POINT
  5
149
  8
DEFPOINTS
 62
     0
 10
282.0829847765209
 20
529.3086678945317
 30
0.0
  0
POINT
  5
14A
  8
DEFPOINTS
 62
     0
 10
362.5369847765211
 20
614.3166678945377
 30
0.0
  0
POINT
  5
14B
  8
DEFPOINTS
 62
     0
 10
437.5369847765211
 20
614.3166678945377
 30
0.0
  0
ENDBLK
  5
95
  8
0
  0
BLOCK
  8
0
  2
*D14
 70
     1
 10
0.0
 20
0.0
 30
0.0
  3
*D14
  1

  0
LINE
  5
14D
  8
1_5__
  6
CONTINUOUS
 62
     0
 10
192.7339847485803
 20
1135.086795826674
 30
0.0
 11
476.6689857765208
 21
1135.086795826674
 31
0.0
  0
LINE
  5
14E
  8
1_5__
  6
CONTINUOUS
 62
     0
 10
384.1689857485811
 20
1200.08679382667
 30
0.0
 11
476.6689857765208
 21
1200.08679382667
 31
0.0
  0
LINE
  5
14F
  8
1_5__
  6
CONTINUOUS
 62
     0
 10
476.6689857765208
 20
1137.334720631362
 30
0.0
 11
476.6689857765208
 21
1197.838869021983
 31
0.0
  0
INSERT
  5
150
  8
1_5__
 62
     0
  2
_DOT
 10
476.6689857765208
 20
1135.086795826674
 30
0.0
 41
2.2479248046875
 42
2.2479248046875
 43
2.2479248046875
 50
270.0
  0
INSERT
  5
151
  8
1_5__
 62
     0
  2
_DOT
 10
476.6689857765208
 20
1200.08679382667
 30
0.0
 41
2.2479248046875
 42
2.2479248046875
 43
2.2479248046875
 50
90.0
  0
TEXT
  5
152
  8
1_5__
  6
CONTINUOUS
 62
     0
 10
476.6189857767069
 20
1157.219572880023
 30
0.0
 40
10.62008101851851
  1
65
 50
90.0
  7
YUGOTHIC_MEDIUM
  0
POINT
  5
153
  8
DEFPOINTS
 62
     0
 10
185.2339847765199
 20
1135.086795826674
 30
0.0
  0
POINT
  5
154
  8
DEFPOINTS
 62
     0
 10
376.6689857765208
 20
1200.08679382667
 30
0.0
  0
POINT
  5
155
  8
DEFPOINTS
 62
     0
 10
476.6689857765208
 20
1200.08679382667
 30
0.0
  0
ENDBLK
  5
98
  8
0
  0
BLOCK
  8
0
  2
*D15
 70
     1
 10
0.0
 20
0.0
 30
0.0
  3
*D15
  1

  0
LINE
  5
157
  8
1_5__
  6
CONTINUOUS
 62
     0
 10
218.8929827485812
 20
1035.08679382667
 30
0.0
 11
534.1689857485811
 21
1035.08679382667
 31
0.0
  0
LINE
  5
158
  8
1_5__
  6
CONTINUOUS
 62
     0
 10
391.6689857206414
 20
1200.08679382667
 30
0.0
 11
534.1689857485811
 21
1200.08679382667
 31
0.0
  0
LINE
  5
159
  8
1_5__
  6
CONTINUOUS
 62
     0
 10
534.1689857485811
 20
1037.334718631358
 30
0.0
 11
534.1689857485811
 21
1197.838869021983
 31
0.0
  0
INSERT
  5
15A
  8
1_5__
 62
     0
  2
_DOT
 10
534.1689857485811
 20
1035.08679382667
 30
0.0
 41
2.2479248046875
 42
2.2479248046875
 43
2.2479248046875
 50
270.0
  0
INSERT
  5
15B
  8
1_5__
 62
     0
  2
_DOT
 10
534.1689857485811
 20
1200.08679382667
 30
0.0
 41
2.2479248046875
 42
2.2479248046875
 43
2.2479248046875
 50
90.0
  0
TEXT
  5
15C
  8
1_5__
  6
CONTINUOUS
 62
     0
 10
534.118985748767
 20
1101.656672298892
 30
0.0
 40
10.62008101851851
  1
165
 50
90.0
  7
YUGOTHIC_MEDIUM
  0
POINT
  5
15D
  8
DEFPOINTS
 62
     0
 10
211.3929827765209
 20
1035.08679382667
 30
0.0
  0
POINT
  5
15E
  8
DEFPOINTS
 62
     0
 10
384.1689857485811
 20
1200.08679382667
 30
0.0
  0
POINT
  5
15F
  8
DEFPOINTS
 62
     0
 10
534.1689857485811
 20
1200.08679382667
 30
0.0
  0
ENDBLK
  5
9B
  8
0
  0
BLOCK
  8
0
  2
*D16
 70
     1
 10
0.0
 20
0.0
 30
0.0
  3
*D16
  1

  0
LINE
  5
161
  8
1_5__
  6
CONTINUOUS
 62
     0
 10
822.8837251052441
 20
466.5043299938638
 30
0.0
 11
623.3837240773058
 21
466.5043299938638
 31
0.0
  0
LINE
  5
162
  8
1_5__
  6
CONTINUOUS
 62
     0
 10
715.8837241052455
 20
576.5093289938632
 30
0.0
 11
623.3837240773058
 21
576.5093289938632
 31
0.0
  0
LINE
  5
163
  8
1_5__
  6
CONTINUOUS
 62
     0
 10
623.3837240773058
 20
468.7522547985513
 30
0.0
 11
623.3837240773058
 21
574.2614041891757
 31
0.0
  0
INSERT
  5
164
  8
1_5__
 62
     0
  2
_DOT
 10
623.3837240773058
 20
466.5043299938638
 30
0.0
 41
2.2479248046875
 42
2.2479248046875
 43
2.2479248046875
 50
270.0
  0
INSERT
  5
165
  8
1_5__
 62
     0
  2
_DOT
 10
623.3837240773058
 20
576.5093289938632
 30
0.0
 41
2.2479248046875
 42
2.2479248046875
 43
2.2479248046875
 50
90.0
  0
TEXT
  5
166
  8
1_5__
  6
CONTINUOUS
 62
     0
 10
623.3337240774921
 20
487.8765729352216
 30
0.0
 40
10.62008101851851
  1
110.005
 50
90.0
  7
YUGOTHIC_MEDIUM
  0
POINT
  5
167
  8
DEFPOINTS
 62
     0
 10
830.3837250773045
 20
466.5043299938638
 30
0.0
  0
POINT
  5
168
  8
DEFPOINTS
 62
     0
 10
723.3837240773058
 20
576.5093289938632
 30
0.0
  0
POINT
  5
169
  8
DEFPOINTS
 62
     0
 10
623.3837240773058
 20
576.5093289938632
 30
0.0
  0
ENDBLK
  5
9E
  8
0
  0
BLOCK
  8
0
  2
*D17
 70
     1
 10
0.0
 20
0.0
 30
0.0
  3
*D17
  1

  0
LINE
  5
16B
  8
1_5__
  6
CONTINUOUS
 62
     0
 10
922.5037261052452
 20
566.5093299938655
 30
0.0
 11
903.7003917443437
 21
566.5093299938655
 31
0.0
  0
LINE
  5
16C
  8
1_5__
  6
CONTINUOUS
 62
     0
 10
923.3837251052443
 20
576.5093289938632
 30
0.0
 11
903.7003917443437
 21
576.5093289938632
 31
0.0
  0
LINE
  5
16D
  8
1_5__
  6
CONTINUOUS
 62
     0
 10
903.7003917443437
 20
576.5093289938632
 30
0.0
 11
903.7003917443437
 21
594.9107380667957
 31
0.0
  0
LINE
  5
16E
  8
1_5__
  6
CONTINUOUS
 62
     0
 10
903.7003917443437
 20
568.757254798553
 30
0.0
 11
903.7003917443437
 21
574.2614041891757
 31
0.0
  0
INSERT
  5
16F
  8
1_5__
 62
     0
  2
_DOT
 10
903.7003917443437
 20
566.5093299938655
 30
0.0
 41
2.2479248046875
 42
2.2479248046875
 43
2.2479248046875
 50
270.0
  0
INSERT
  5
170
  8
1_5__
 62
     0
  2
_DOT
 10
903.7003917443437
 20
576.5093289938632
 30
0.0
 41
2.2479248046875
 42
2.2479248046875
 43
2.2479248046875
 50
90.0
  0
TEXT
  5
171
  8
1_5__
  6
CONTINUOUS
 62
     0
 10
903.6503917445299
 20
576.1491667486399
 30
0.0
 40
10.62008101851851
  1
10
 50
90.0
  7
YUGOTHIC_MEDIUM
  0
POINT
  5
172
  8
DEFPOINTS
 62
     0
 10
930.0037260773055
 20
566.5093299938655
 30
0.0
  0
POINT
  5
173
  8
DEFPOINTS
 62
     0
 10
930.8837250773046
 20
576.5093289938632
 30
0.0
  0
POINT
  5
174
  8
DEFPOINTS
 62
     0
 10
905.8837250773046
 20
576.5093289938632
 30
0.0
  0
ENDBLK
  5
A1
  8
0
  0
BLOCK
  8
0
  2
DIMENSION
 70
     0
 10
0.0
 20
0.0
 30
0.0
  3
DIMENSION
  1

  0
LINE
  5
176
  8
0
  6
CONTINUOUS
 62
     0
 10
804.3045225868154
 20
1166.764532354862
 30
0.0
 11
804.3045225868154
 21
1234.264532382802
 31
0.0
  0
LINE
  5
177
  8
0
  6
CONTINUOUS
 62
     0
 10
846.8045225868156
 20
1166.764532354862
 30
0.0
 11
846.8045225868156
 21
1234.264532382802
 31
0.0
  0
LINE
  5
178
  8
0
  6
CONTINUOUS
 62
     0
 10
804.3045225868154
 20
1234.264532382802
 30
0.0
 11
846.8045225868156
 21
1234.264532382802
 31
0.0
  0
CIRCLE
  5
179
  8
0
  6
CONTINUOUS
 62
     0
 10
804.3045225868154
 20
1234.264532382802
 30
0.0
 40
1.12396240234375
  0
CIRCLE
  5
17A
  8
0
  6
CONTINUOUS
 62
     0
 10
846.8045225868156
 20
1234.264532382802
 30
0.0
 40
1.12396240234375
  0
TEXT
  5
17B
  8
0
 62
     0
 10
789.5006361202594
 20
1243.063421271505
 30
0.0
 40
10.62008101851851
  1
六角対辺17
  7
YUGOTHIC_MEDIUM
 11
789.5006361202594
 21
1253.683502290023
 31
0.0
 73
     3
  0
POINT
  5
17C
  8
DEFPOINTS
 62
     0
 10
846.8045225868156
 20
1159.264532382802
 30
0.0
  0
POINT
  5
17D
  8
DEFPOINTS
 62
     0
 10
804.3045225868154
 20
1159.264532382802
 30
0.0
  0
POINT
  5
17E
  8
DEFPOINTS
 62
     0
 10
804.3045225868154
 20
1234.264532382802
 30
0.0
  0
ENDBLK
  5
A4
  8
0
  0
BLOCK
  8
0
  2
DIMENSION-1
 70
     0
 10
0.0
 20
0.0
 30
0.0
  3
DIMENSION-1
  1

  0
LINE
  5
17F
  8
0
  6
CONTINUOUS
 62
     0
 10
1032.497302614755
 20
1214.634997382816
 30
0.0
 11
977.4973025868156
 21
1214.634997382816
 31
0.0
  0
LINE
  5
180
  8
0
  6
CONTINUOUS
 62
     0
 10
1032.497302614755
 20
964.6349973828169
 30
0.0
 11
977.4973025868156
 21
964.6349973828169
 31
0.0
  0
LINE
  5
181
  8
0
  6
CONTINUOUS
 62
     0
 10
977.4973025868156
 20
1214.634997382816
 30
0.0
 11
977.4973025868156
 21
964.6349973828169
 31
0.0
  0
CIRCLE
  5
182
  8
0
  6
CONTINUOUS
 62
     0
 10
977.4973025868156
 20
1214.634997382816
 30
0.0
 40
1.12396240234375
  0
CIRCLE
  5
183
  8
0
  6
CONTINUOUS
 62
     0
 10
977.4973025868156
 20
964.6349973828169
 30
0.0
 40
1.12396240234375
  0
TEXT
  5
184
  8
0
 62
     0
 10
969.758691476015
 20
1079.355935118321
 30
0.0
 40
9.292570891203704
  1
100
 50
90.0
  7
YUGOTHIC_MEDIUM
 11
960.4661205848113
 21
1079.355935118321
 31
0.0
 73
     3
  0
POINT
  5
185
  8
DEFPOINTS
 62
     0
 10
1039.997302586816
 20
964.6349973828169
 30
0.0
  0
POINT
  5
186
  8
DEFPOINTS
 62
     0
 10
1039.997302586816
 20
1214.634997382816
 30
0.0
  0
POINT
  5
187
  8
DEFPOINTS
 62
     0
 10
977.4973025868156
 20
1214.634997382816
 30
0.0
  0
ENDBLK
  5
A7
  8
0
  0
BLOCK
  8
0
  2
DIMENSION-2
 70
     0
 10
0.0
 20
0.0
 30
0.0
  3
DIMENSION-2
  1

  0
LINE
  5
188
  8
0
  6
CONTINUOUS
 62
     0
 10
1317.268822348099
 20
1190.162532382818
 30
0.0
 11
1384.768822376039
 21
1190.162532382818
 31
0.0
  0
LINE
  5
189
  8
0
  6
CONTINUOUS
 62
     0
 10
1317.268822348099
 20
1000.162532382818
 30
0.0
 11
1384.768822376039
 21
1000.162532382818
 31
0.0
  0
LINE
  5
18A
  8
0
  6
CONTINUOUS
 62
     0
 10
1384.768822376039
 20
1190.162532382818
 30
0.0
 11
1384.768822376039
 21
1000.162532382818
 31
0.0
  0
CIRCLE
  5
18B
  8
0
  6
CONTINUOUS
 62
     0
 10
1384.768822376039
 20
1190.162532382818
 30
0.0
 40
1.12396240234375
  0
CIRCLE
  5
18C
  8
0
  6
CONTINUOUS
 62
     0
 10
1384.768822376039
 20
1000.162532382818
 30
0.0
 40
1.12396240234375
  0
TEXT
  5
18D
  8
0
 62
     0
 10
1375.969933487336
 20
1087.330865615221
 30
0.0
 40
10.62008101851851
  1
76
 50
90.0
  7
YUGOTHIC_MEDIUM
 11
1365.349852468818
 21
1087.330865615221
 31
0.0
 73
     3
  0
POINT
  5
18E
  8
DEFPOINTS
 62
     0
 10
1309.768822376039
 20
1000.162532382818
 30
0.0
  0
POINT
  5
18F
  8
DEFPOINTS
 62
     0
 10
1309.768822376039
 20
1190.162532382818
 30
0.0
  0
POINT
  5
190
  8
DEFPOINTS
 62
     0
 10
1384.768822376039
 20
1190.162532382818
 30
0.0
  0
ENDBLK
  5
AA
  8
0
  0
BLOCK
  8
0
  2
DIMENSION-3
 70
     0
 10
0.0
 20
0.0
 30
0.0
  3
DIMENSION-3
  1

  0
LINE
  5
191
  8
0
  6
CONTINUOUS
 62
     0
 10
1268.518822376039
 20
1197.662532354878
 30
0.0
 11
1268.518822376039
 21
1229.585097382804
 31
0.0
  0
LINE
  5
192
  8
0
  6
CONTINUOUS
 62
     0
 10
1302.268822376039
 20
1197.662532354878
 30
0.0
 11
1302.268822376039
 21
1229.585097382804
 31
0.0
  0
LINE
  5
193
  8
0
  6
CONTINUOUS
 62
     0
 10
1268.518822376039
 20
1229.585097382804
 30
0.0
 11
1302.268822376039
 21
1229.585097382804
 31
0.0
  0
CIRCLE
  5
194
  8
0
  6
CONTINUOUS
 62
     0
 10
1268.518822376039
 20
1229.585097382804
 30
0.0
 40
1.12396240234375
  0
CIRCLE
  5
195
  8
0
  6
CONTINUOUS
 62
     0
 10
1302.268822376039
 20
1229.585097382804
 30
0.0
 40
1.12396240234375
  0
TEXT
  5
196
  8
0
 62
     0
 10
1264.763379438823
 20
1238.383986271507
 30
0.0
 40
10.62008101851851
  1
φ13.5
  7
YUGOTHIC_MEDIUM
 11
1264.763379438823
 21
1249.004067290025
 31
0.0
 73
     3
  0
POINT
  5
197
  8
DEFPOINTS
 62
     0
 10
1302.268822376039
 20
1190.162532382818
 30
0.0
  0
POINT
  5
198
  8
DEFPOINTS
 62
     0
 10
1268.518822376039
 20
1190.162532382818
 30
0.0
  0
POINT
  5
199
  8
DEFPOINTS
 62
     0
 10
1268.518822376039
 20
1229.585097382804
 30
0.0
  0
ENDBLK
  5
AD
  8
0
  0
BLOCK
  8
0
  2
DIMENSION-4
 70
     0
 10
0.0
 20
0.0
 30
0.0
  3
DIMENSION-4
  1

  0
LINE
  5
19A
  8
0
  6
CONTINUOUS
 62
     0
 10
1050.757162586816
 20
1129.634997410756
 30
0.0
 11
1050.757162586816
 21
1124.634997382816
 31
0.0
  0
LINE
  5
19B
  8
0
  6
CONTINUOUS
 62
     0
 10
1070.757162586816
 20
1129.634997410756
 30
0.0
 11
1070.757162586816
 21
1124.634997382816
 31
0.0
  0
LINE
  5
19C
  8
0
  6
CONTINUOUS
 62
     0
 10
1070.757162586816
 20
1124.634997382816
 30
0.0
 11
1167.059165439607
 21
1124.634997382816
 31
0.0
  0
LINE
  5
19D
  8
0
  6
CONTINUOUS
 62
     0
 10
1050.757162586816
 20
1124.634997382816
 30
0.0
 11
1070.757162586816
 21
1124.634997382816
 31
0.0
  0
CIRCLE
  5
19E
  8
0
  6
CONTINUOUS
 62
     0
 10
1050.757162586816
 20
1124.634997382816
 30
0.0
 40
1.12396240234375
  0
CIRCLE
  5
19F
  8
0
  6
CONTINUOUS
 62
     0
 10
1070.757162586816
 20
1124.634997382816
 30
0.0
 40
1.12396240234375
  0
TEXT
  5
1A0
  8
0
 62
     0
 10
1102.783056750828
 20
1133.433886271519
 30
0.0
 40
10.62008101851851
  1
六角対辺8
  7
YUGOTHIC_MEDIUM
 11
1102.783056750828
 21
1144.053967290038
 31
0.0
 73
     3
  0
POINT
  5
1A1
  8
DEFPOINTS
 62
     0
 10
1070.757162586816
 20
1137.134997382816
 30
0.0
  0
POINT
  5
1A2
  8
DEFPOINTS
 62
     0
 10
1050.757162586816
 20
1137.134997382816
 30
0.0
  0
POINT
  5
1A3
  8
DEFPOINTS
 62
     0
 10
1050.757162586816
 20
1124.634997382816
 30
0.0
  0
ENDBLK
  5
B0
  8
0
  0
BLOCK
  8
0
  2
DIMENSION-5
 70
     0
 10
0.0
 20
0.0
 30
0.0
  3
DIMENSION-5
  1

  0
LINE
  5
1A4
  8
0
  6
CONTINUOUS
 62
     0
 10
1049.507162586816
 20
972.0110524107859
 30
0.0
 11
1049.507162586816
 21
915.2109573828043
 31
0.0
  0
LINE
  5
1A5
  8
0
  6
CONTINUOUS
 62
     0
 10
1072.007162586816
 20
980.2003824107501
 30
0.0
 11
1072.007162586816
 21
915.2109573828043
 31
0.0
  0
LINE
  5
1A6
  8
0
  6
CONTINUOUS
 62
     0
 10
1049.507162586816
 20
915.2109573828043
 30
0.0
 11
1072.007162586816
 21
915.2109573828043
 31
0.0
  0
CIRCLE
  5
1A7
  8
0
  6
CONTINUOUS
 62
     0
 10
1049.507162586816
 20
915.2109573828043
 30
0.0
 40
1.12396240234375
  0
CIRCLE
  5
1A8
  8
0
  6
CONTINUOUS
 62
     0
 10
1072.007162586816
 20
915.2109573828043
 30
0.0
 40
1.12396240234375
  0
TEXT
  5
1A9
  8
0
 62
     0
 10
1056.841329203017
 20
924.0098462715071
 30
0.0
 40
10.62008101851851
  1
9
  7
YUGOTHIC_MEDIUM
 11
1056.841329203017
 21
934.6299272900255
 31
0.0
 73
     3
  0
POINT
  5
1AA
  8
DEFPOINTS
 62
     0
 10
1072.007162586816
 20
987.7003823828104
 30
0.0
  0
POINT
  5
1AB
  8
DEFPOINTS
 62
     0
 10
1049.507162586816
 20
979.5110523828462
 30
0.0
  0
POINT
  5
1AC
  8
DEFPOINTS
 62
     0
 10
1049.507162586816
 20
915.2109573828043
 30
0.0
  0
ENDBLK
  5
B3
  8
0
  0
BLOCK
  8
0
  2
DIMENSION-6
 70
     0
 10
0.0
 20
0.0
 30
0.0
  3
DIMENSION-6
  1

  0
LINE
  5
1AD
  8
0
  6
CONTINUOUS
 62
     0
 10
796.8045226147551
 20
993.0459223827906
 30
0.0
 11
729.3045225868154
 21
993.0459223827906
 31
0.0
  0
LINE
  5
1AE
  8
0
  6
CONTINUOUS
 62
     0
 10
800.5545226147551
 20
915.5459223827906
 30
0.0
 11
729.3045225868154
 21
915.5459223827906
 31
0.0
  0
LINE
  5
1AF
  8
0
  6
CONTINUOUS
 62
     0
 10
729.3045225868154
 20
993.0459223827906
 30
0.0
 11
729.3045225868154
 21
915.5459223827906
 31
0.0
  0
CIRCLE
  5
1B0
  8
0
  6
CONTINUOUS
 62
     0
 10
729.3045225868154
 20
993.0459223827906
 30
0.0
 40
1.12396240234375
  0
CIRCLE
  5
1B1
  8
0
  6
CONTINUOUS
 62
     0
 10
729.3045225868154
 20
915.5459223827906
 30
0.0
 40
1.12396240234375
  0
TEXT
  5
1B2
  8
0
 62
     0
 10
720.5056336981129
 20
946.4642556151935
 30
0.0
 40
10.62008101851851
  1
31
 50
90.0
  7
YUGOTHIC_MEDIUM
 11
709.8855526795944
 21
946.4642556151935
 31
0.0
 73
     3
  0
POINT
  5
1B3
  8
DEFPOINTS
 62
     0
 10
808.0545225868154
 20
915.5459223827906
 30
0.0
  0
POINT
  5
1B4
  8
DEFPOINTS
 62
     0
 10
804.3045225868154
 20
993.0459223827906
 30
0.0
  0
POINT
  5
1B5
  8
DEFPOINTS
 62
     0
 10
729.3045225868154
 20
993.0459223827906
 30
0.0
  0
ENDBLK
  5
B6
  8
0
  0
BLOCK
  8
0
  2
DIMENSION-7
 70
     0
 10
0.0
 20
0.0
 30
0.0
  3
DIMENSION-7
  1

  0
LINE
  5
1B6
  8
0
  6
CONTINUOUS
 62
     0
 10
776.8045225868157
 20
965.545922354851
 30
0.0
 11
776.8045225868157
 21
1033.045922382791
 31
0.0
  0
LINE
  5
1B7
  8
0
  6
CONTINUOUS
 62
     0
 10
874.3045225868157
 20
965.545922354851
 30
0.0
 11
874.3045225868157
 21
1033.045922382791
 31
0.0
  0
LINE
  5
1B8
  8
0
  6
CONTINUOUS
 62
     0
 10
776.8045225868157
 20
1033.045922382791
 30
0.0
 11
874.3045225868157
 21
1033.045922382791
 31
0.0
  0
CIRCLE
  5
1B9
  8
0
  6
CONTINUOUS
 62
     0
 10
776.8045225868157
 20
1033.045922382791
 30
0.0
 40
1.12396240234375
  0
CIRCLE
  5
1BA
  8
0
  6
CONTINUOUS
 62
     0
 10
874.3045225868157
 20
1033.045922382791
 30
0.0
 40
1.12396240234375
  0
TEXT
  5
1BB
  8
0
 62
     0
 10
810.6673011047508
 20
1041.844811271493
 30
0.0
 40
10.62008101851852
  1
φ39
  7
YUGOTHIC_MEDIUM
 11
810.6673011047508
 21
1052.464892290012
 31
0.0
 73
     3
  0
POINT
  5
1BC
  8
DEFPOINTS
 62
     0
 10
874.3045225868157
 20
958.0459223827906
 30
0.0
  0
POINT
  5
1BD
  8
DEFPOINTS
 62
     0
 10
776.8045225868157
 20
958.0459223827906
 30
0.0
  0
POINT
  5
1BE
  8
DEFPOINTS
 62
     0
 10
776.8045225868157
 20
1033.045922382791
 30
0.0
  0
ENDBLK
  5
B9
  8
0
  0
BLOCK
  8
0
  2
_DOT
 70
     0
 10
0.0
 20
0.0
 30
0.0
  3
_DOT
  1

  0
POLYLINE
  5
D6
  8
0
  6
BYBLOCK
 62
     0
 66
     1
 10
0.0
 20
0.0
 30
0.0
 70
     1
 40
0.5
 41
0.5
  0
VERTEX
  5
34B
  8
0
  6
BYBLOCK
 62
     0
 10
-0.25
 20
0.0
 30
0.0
 42
1.0
  0
VERTEX
  5
34C
  8
0
  6
BYBLOCK
 62
     0
 10
0.25
 20
0.0
 30
0.0
 42
1.0
  0
SEQEND
  5
34D
  8
0
  6
BYBLOCK
 62
     0
  0
LINE
  5
D7
  8
0
  6
BYBLOCK
 62
     0
 10
-0.5
 20
0.0
 30
0.0
 11
-1.0
 21
0.0
 31
0.0
  0
ENDBLK
  5
D5
  8
0
  0
ENDSEC
  0
SECTION
  2
ENTITIES
  0
INSERT
  5
1BF
  8
_
 62
     7
  2
__A3
 10
524.4597052377339
 20
106.3691961421841
 30
0.0
 41
0.1
 42
0.1
 43
0.1
  0
TEXT
  5
1C0
  8
_
 62
     4
 10
1299.226184757971
 20
74.86823158540696
 30
0.0
 40
10.62008101851852
  1
2019.04.02
  7
YUGOTHIC_MEDIUM
 11
1299.226184757971
 21
80.17827209466623
 31
0.0
 73
     2
  0
TEXT
  5
1C1
  8
_
 62
     4
 10
1490.355367113541
 20
74.92484655722532
 30
0.0
 40
10.62008101851852
  1
1:5(A3)
  7
YUGOTHIC_MEDIUM
 11
1490.355367113541
 21
80.23488706648459
 31
0.0
 73
     2
  0
TEXT
  5
1C2
  8
_
 62
     4
 10
1094.98432095056
 20
75.068231585407
 30
0.0
 40
10.62008101851852
  1
KB-PR008-01
  7
YUGOTHIC_MEDIUM
 11
1094.98432095056
 21
80.37827209466627
 31
0.0
 73
     2
  0
TEXT
  5
1C3
  8
_
 62
     4
 10
529.0076903595975
 20
74.74449441147803
 30
0.0
 40
10.62008101851852
  1
ウェルラウンドシンク フレーム450 壁付け
  7
YUGOTHIC_MEDIUM
 11
529.0076903595975
 21
80.0545349207373
 31
0.0
 73
     2
  0
LINE
  5
1C4
  8
1_5_____
  6
CONTINUOUS
 62
     7
 10
494.2597187765194
 20
1200.08679382667
 30
0.0
 11
-190.9237512234799
 21
1200.08679382667
 31
0.0
  0
LINE
  5
1C5
  8
1_5_____
  6
CONTINUOUS
 62
     1
 10
1035.383724077305
 20
411.6643299938719
 30
0.0
 11
1035.383724077305
 21
661.5768789938543
 31
0.0
  0
TEXT
  5
1C6
  8
1_5_____
 62
     1
 10
-63.49622319506079
 20
489.4309401824802
 30
0.0
 40
9.292570891203704
  1
オーバーフロー穴
  7
YUGOTHIC_MEDIUM
 11
-63.49622319506079
 21
494.077225628082
 31
0.0
 73
     2
  0
ARC
  5
1C7
  8
1_5_____
  6
VW-01____
 62
    17
 10
101.6668547765205
 20
554.3146068945653
 30
0.0
 40
10.00032000000025
 50
359.9950749998636
 51
89.99504599999835
  0
ARC
  5
1C8
  8
1_5_____
  6
VW-01____
 62
    17
 10
101.6685827765207
 20
554.3146068945653
 30
0.0
 40
10.00031999996705
 50
90.00493499999668
 51
180.0049450001109
  0
ARC
  5
1C9
  8
1_5_____
  6
VW-01____
 62
    17
 10
101.6685737765204
 20
554.3128878945377
 30
0.0
 40
10.0003109999999
 50
179.9950360000323
 51
269.9950850000012
  0
ARC
  5
1CA
  8
1_5_____
  6
VW-01____
 62
    17
 10
101.6668547765205
 20
554.3128878945377
 30
0.0
 40
10.00032000000835
 50
270.0049540000016
 51
0.0049249999358381
  0
LINE
  5
1CB
  8
1_5_____
  6
CONTINUOUS
 62
     1
 10
723.3811170773062
 20
551.5052799938842
 30
0.0
 11
1035.383724077305
 21
551.5052799938842
 31
0.0
  0
LINE
  5
1CC
  8
1_5_____
  6
CONTINUOUS
 62
     1
 10
787.3810620773054
 20
460.5025089938631
 30
0.0
 11
952.2083790773054
 21
460.5025089938631
 31
0.0
  0
LINE
  5
1CD
  8
1_5_____
  6
CONTINUOUS
 62
     1
 10
1035.383724077305
 20
606.5093289938607
 30
0.0
 11
1013.383725077305
 21
606.5093289938607
 31
0.0
  0
LINE
  5
1CE
  8
1_5_____
  6
CONTINUOUS
 62
     1
 10
1005.383724077305
 20
598.5093279938424
 30
0.0
 11
1005.383724077305
 21
586.4993289938761
 31
0.0
  0
LINE
  5
1CF
  8
1_5_____
  6
CONTINUOUS
 62
     1
 10
1035.383724077305
 20
606.5093289938607
 30
0.0
 11
1013.383725077305
 21
606.5093289938607
 31
0.0
  0
ARC
  5
1D0
  8
1_5_____
  6
CONTINUOUS
 62
     1
 10
1013.690055077305
 20
598.2011499938762
 30
0.0
 40
8.311049999981588
 50
92.10903799999996
 51
177.8909320001974
  0
LINE
  5
1D1
  8
1_5_____
  6
CONTINUOUS
 62
     1
 10
1030.003725077305
 20
454.5183279938797
 30
0.0
 11
952.2083790773054
 21
460.5025089938631
 31
0.0
  0
ARC
  5
1D2
  8
1_5_____
  6
CONTINUOUS
 62
     1
 10
723.2227350773056
 20
543.2860389938601
 30
0.0
 40
8.217321000004077
 50
18.49813300009035
 51
88.89560199999886
  0
ARC
  5
1D3
  8
1_5_____
  6
CONTINUOUS
 62
     1
 10
787.3740960773057
 20
465.4642599938811
 30
0.0
 40
4.961760000008538
 50
243.6176920000441
 51
270.0804330000057
  0
LINE
  5
1D4
  8
1_5_____
  6
CONTINUOUS
 62
     1
 10
834.9137250773051
 20
454.5563289938877
 30
0.0
 11
824.8076790773054
 21
460.5025089938631
 31
0.0
  0
ARC
  5
1D5
  8
1_5_____
  6
CONTINUOUS
 62
     1
 10
832.2818940773057
 20
450.1873989938972
 30
0.0
 40
5.101898999999702
 50
0.6238169997376084
 51
58.90535799983788
  0
LINE
  5
1D6
  8
1_5_____
  6
CONTINUOUS
 62
     1
 10
903.3837240773054
 20
426.5063289938728
 30
0.0
 11
905.3837250773045
 21
426.5063289938728
 31
0.0
  0
LINE
  5
1D7
  8
1_5_____
  6
CONTINUOUS
 62
     1
 10
737.3837250773046
 20
576.5093289938632
 30
0.0
 11
995.3837250773046
 21
576.5093289938632
 31
0.0
  0
LINE
  5
1D8
  8
1_5_____
  6
CONTINUOUS
 62
     1
 10
723.3837240773058
 20
576.5093289938632
 30
0.0
 11
737.3837250773046
 21
576.5093289938632
 31
0.0
  0
ARC
  5
1D9
  8
1_5_____
  6
ISO-02___
 62
    17
 10
925.9632150773053
 20
644.5868979938755
 30
0.0
 40
202.1116710000076
 50
219.4562680000028
 51
241.7767950000018
  0
ARC
  5
1DA
  8
1_5_____
  6
ISO-02___
 62
    17
 10
882.0037140773053
 20
606.1719879938839
 30
0.0
 40
143.7681989999984
 50
206.9153869999991
 51
218.7688840000123
  0
ARC
  5
1DB
  8
1_5_____
  6
ISO-02___
 62
    17
 10
836.1509460773045
 20
582.0166089938766
 30
0.0
 40
91.95120000000085
 50
191.9968360000058
 51
206.4278479999958
  0
ARC
  5
1DC
  8
1_5_____
  6
ISO-02___
 62
    17
 10
807.3988740773052
 20
574.7914179938489
 30
0.0
 40
62.33483999999597
 50
185.7863099999667
 51
190.9939259999878
  0
ARC
  5
1DD
  8
1_5_____
  6
CONTINUOUS
 62
     1
 10
829.5336960773053
 20
542.9875779938616
 30
0.0
 40
93.20409900000134
 50
208.5228440000016
 51
241.5760589999937
  0
ARC
  5
1DE
  8
1_5_____
  6
CONTINUOUS
 62
     1
 10
866.9797440773051
 20
564.4081899938469
 30
0.0
 40
136.3369799999921
 50
196.55802599999
 51
208.917843
  0
ARC
  5
1DF
  8
1_5_____
  6
CONTINUOUS
 62
     1
 10
946.7991960773048
 20
591.0650499938733
 30
0.0
 40
220.4611109999972
 50
191.8235009999976
 51
197.2867850000006
  0
ARC
  5
1E0
  8
1_5_____
  6
ISO-02___
 62
    17
 10
737.0761140773064
 20
568.2009699938701
 30
0.0
 40
8.31116099999889
 50
2.109726999932206
 51
87.89026299999922
  0
LINE
  5
1E1
  8
1_5_____
  6
CONTINUOUS
 62
     1
 10
715.3837260773057
 20
568.5093279938449
 30
0.0
 11
715.3837260773057
 21
559.5093279938455
 31
0.0
  0
ARC
  5
1E2
  8
1_5_____
  6
CONTINUOUS
 62
     1
 10
723.6870750773063
 20
568.2009699938701
 30
0.0
 40
8.31114900000253
 50
92.10970000000401
 51
177.8902710001326
  0
ARC
  5
1E3
  8
1_5_____
  6
CONTINUOUS
 62
     1
 10
723.6869760773055
 20
559.8106989938597
 30
0.0
 40
8.311049999999167
 50
182.1090679997983
 51
267.8909619999969
  0
ARC
  5
1E4
  8
1_5_____
  6
CONTINUOUS
 62
     1
 10
905.3849340773045
 20
476.5033599938693
 30
0.0
 40
49.99727099999071
 50
269.9980460000006
 51
341.2856260000182
  0
LINE
  5
1E5
  8
1_5_____
  6
CONTINUOUS
 62
     1
 10
905.8437240773051
 20
454.5563289938877
 30
0.0
 11
915.9615000773052
 21
460.5025089938631
 31
0.0
  0
LINE
  5
1E6
  8
1_5_____
  6
CONTINUOUS
 62
     1
 10
903.3837240773054
 20
450.2433279938627
 30
0.0
 11
903.3837240773054
 21
423.5023299938598
 31
0.0
  0
ARC
  5
1E7
  8
1_5_____
  6
CONTINUOUS
 62
     1
 10
908.4908760773059
 20
450.1830099938825
 30
0.0
 40
5.109621000008447
 50
121.1428839999535
 51
179.3279010002322
  0
LINE
  5
1E8
  8
1_5_____
  6
ISO-02___
 62
    17
 10
911.1837240773053
 20
466.9763289938765
 30
0.0
 11
893.3837250773045
 21
456.5063289938703
 31
0.0
  0
LINE
  5
1E9
  8
1_5_____
  6
ISO-02___
 62
    17
 10
847.3837260773057
 20
456.5063289938703
 30
0.0
 11
830.3837250773045
 21
466.5043299938638
 31
0.0
  0
LINE
  5
1EA
  8
1_5_____
  6
ISO-02___
 62
    17
 10
847.3837260773057
 20
456.5063289938703
 30
0.0
 11
893.3837250773045
 21
456.5063289938703
 31
0.0
  0
LINE
  5
1EB
  8
1_5_____
  6
ISO-02___
 62
    17
 10
893.3837250773045
 20
456.5063289938703
 30
0.0
 11
893.3837250773045
 21
421.5033279938687
 31
0.0
  0
LINE
  5
1EC
  8
1_5_____
  6
ISO-02___
 62
    17
 10
847.3837260773057
 20
456.5063289938703
 30
0.0
 11
847.3837260773057
 21
421.5033279938687
 31
0.0
  0
LINE
  5
1ED
  8
1_5_____
  6
CONTINUOUS
 62
     1
 10
839.3837250773045
 20
421.5033279938687
 30
0.0
 11
901.3837260773057
 21
421.5033279938687
 31
0.0
  0
ARC
  5
1EE
  8
1_5_____
  6
CONTINUOUS
 62
     1
 10
901.3069950773057
 20
423.5783889938734
 30
0.0
 40
2.076021000006538
 50
272.1102619999569
 51
357.8897479999935
  0
LINE
  5
1EF
  8
1_5_____
  6
CONTINUOUS
 62
     1
 10
837.3837240773053
 20
450.2433279938627
 30
0.0
 11
837.3837240773053
 21
423.5023299938598
 31
0.0
  0
ARC
  5
1F0
  8
1_5_____
  6
CONTINUOUS
 62
     1
 10
839.4572550773061
 20
423.5775399938698
 30
0.0
 40
2.075139000000263
 50
182.0877299994986
 51
267.9122989999826
  0
LINE
  5
1F1
  8
1_5_____
  6
ISO-10______
 62
     2
 10
870.3837240773054
 20
587.4293289938691
 30
0.0
 11
870.3837240773054
 21
411.6643299938719
 31
0.0
  0
LINE
  5
1F2
  8
1_5_____
  6
ISO-02___
 62
    17
 10
925.0137240773054
 20
561.90932799388
 30
0.0
 11
918.1237260773055
 21
475.7053299938755
 31
0.0
  0
LINE
  5
1F3
  8
1_5_____
  6
ISO-02___
 62
    17
 10
830.3837250773045
 20
466.5043299938638
 30
0.0
 11
908.1537240773058
 21
466.5043299938638
 31
0.0
  0
ARC
  5
1F4
  8
1_5_____
  6
ISO-02___
 62
    17
 10
907.8185040773055
 20
476.8649289938753
 30
0.0
 40
10.36632900002489
 50
271.8306069999921
 51
353.5799600000054
  0
LINE
  5
1F5
  8
1_5_____
  6
ISO-02___
 62
    17
 10
930.0037260773055
 20
566.5093299938655
 30
0.0
 11
995.3837250773046
 21
566.5093299938655
 31
0.0
  0
ARC
  5
1F6
  8
1_5_____
  6
ISO-02___
 62
    17
 10
930.1680240773055
 20
561.3241299938534
 30
0.0
 40
5.183850000001069
 50
91.8350159999967
 51
173.5541249999011
  0
LINE
  5
1F7
  8
1_5_____
  6
CONTINUOUS
 62
     1
 10
1035.383724077305
 20
475.5023289938883
 30
0.0
 11
1035.383724077305
 21
459.5033289938676
 31
0.0
  0
ARC
  5
1F8
  8
1_5_____
  6
CONTINUOUS
 62
     1
 10
1030.208025077306
 20
459.7067799938584
 30
0.0
 40
5.19260999998351
 50
267.7040159999922
 51
353.5228080000962
  0
ARC
  5
1F9
  8
1_5_____
  6
CONTINUOUS
 62
     1
 10
1030.622904077306
 20
459.5263299938617
 30
0.0
 40
4.76187000000001
 50
355.1172940000143
 51
359.7244110002846
  0
ARC
  5
1FA
  8
1_5_____
  6
ISO-02___
 62
    17
 10
994.9970160773062
 20
576.892947993852
 30
0.0
 40
10.39481099999202
 50
272.1306089999966
 51
357.8694010000181
  0
LINE
  5
1FB
  8
1_5_____
  6
ISO-10______
 62
     2
 10
1018.115928077305
 20
521.5013289938547
 30
0.0
 11
1052.651523077305
 21
521.5013289938547
 31
0.0
  0
ARC
  5
1FC
  8
1_5_____
  6
CONTINUOUS
 62
     1
 10
994.9972560773056
 20
586.8940089938505
 30
0.0
 40
10.39470000000026
 50
272.1292909999968
 51
357.8509790000369
  0
LINE
  5
1FD
  8
1_5_____
  6
ISO-02___
 62
    17
 10
1005.383724077305
 20
586.4993289938761
 30
0.0
 11
1005.383724077305
 21
576.5093289938632
 31
0.0
  0
LINE
  5
1FE
  8
1_5_____
  6
CONTINUOUS
 62
     1
 10
1035.383724077305
 20
606.5093289938607
 30
0.0
 11
1035.383724077305
 21
475.5023289938883
 31
0.0
  0
LINE
  5
1FF
  8
1_5_____
  6
ISO-10______
 62
     2
 10
970.3837260773057
 20
587.4293289938691
 30
0.0
 11
970.3837260773057
 21
545.5393299938607
 31
0.0
  0
LINE
  5
200
  8
1_5_____
  6
CONTINUOUS
 62
     1
 10
-73.33201622348088
 20
1200.08679382667
 30
0.0
 11
376.6689857765208
 21
1200.08679382667
 31
0.0
  0
ARC
  5
201
  8
1_5_____
  6
CONTINUOUS
 62
     1
 10
-68.14129622348128
 20
1175.280873826686
 30
0.0
 40
5.194358999999873
 50
182.1451010001113
 51
267.8434890000232
  0
LINE
  5
202
  8
1_5_____
  6
CONTINUOUS
 62
     1
 10
-73.33201622348088
 20
1200.08679382667
 30
0.0
 11
-73.33201622348088
 21
1175.086794826672
 31
0.0
  0
ARC
  5
203
  8
1_5_____
  6
CONTINUOUS
 62
     1
 10
371.6675837765212
 20
1175.091633826673
 30
0.0
 40
5.001449999994447
 50
271.248508000005
 51
359.7438020000826
  0
LINE
  5
204
  8
1_5_____
  6
CONTINUOUS
 62
     1
 10
376.6689857765208
 20
1200.08679382667
 30
0.0
 11
376.6689857765208
 21
1175.086794826672
 31
0.0
  0
LINE
  5
205
  8
1_5_____
  6
ISO-10______
 62
     2
 10
151.6679837765207
 20
1226.896794826675
 30
0.0
 11
151.6679837765207
 21
857.1567938266771
 31
0.0
  0
LINE
  5
206
  8
1_5_____
  6
ISO-10______
 62
     2
 10
116.6589827765204
 20
1135.086795826674
 30
0.0
 11
185.2339847765199
 21
1135.086795826674
 31
0.0
  0
ARC
  5
207
  8
1_5_____
  6
CONTINUOUS
 62
     1
 10
151.6675637765204
 20
1135.088664826674
 30
0.0
 40
17.49861000002193
 50
270.002840000004
 51
0.0028099999835263
  0
ARC
  5
208
  8
1_5_____
  6
CONTINUOUS
 62
     1
 10
151.6675637765204
 20
1135.090374826667
 30
0.0
 40
17.5003290000001
 50
180.0028299999842
 51
270.0028400000001
  0
ARC
  5
209
  8
1_5_____
  6
CONTINUOUS
 62
     1
 10
151.6684337765212
 20
1135.089513826677
 30
0.0
 40
17.50119900000254
 50
90.0
 51
179.9999700000112
  0
ARC
  5
20A
  8
1_5_____
  6
CONTINUOUS
 62
     1
 10
151.6667027765209
 20
1135.091244826674
 30
0.0
 40
17.49947999999901
 50
359.9943700000499
 51
89.99433999999758
  0
ARC
  5
20B
  8
1_5_____
  6
CONTINUOUS
 62
     1
 10
151.6684247765209
 20
1035.089823826657
 30
0.0
 40
22.99961099998431
 50
270.0000200000005
 51
359.9999900000225
  0
ARC
  5
20C
  8
1_5_____
  6
CONTINUOUS
 62
     1
 10
151.6667027765209
 20
1035.091545826672
 30
0.0
 40
23.00132099999987
 50
180.0043010000219
 51
270.0043109999995
  0
ARC
  5
20D
  8
1_5_____
  6
CONTINUOUS
 62
     1
 10
151.6667147765204
 20
1035.088095826683
 30
0.0
 40
23.00132999997569
 50
89.99570899999833
 51
179.9956789999789
  0
ARC
  5
20E
  8
1_5_____
  6
CONTINUOUS
 62
     1
 10
151.6684247765209
 20
1035.089823826657
 30
0.0
 40
22.99961099999963
 50
0.0000100000228693
 51
89.99997999999957
  0
ARC
  5
20F
  8
1_5_____
  6
CONTINUOUS
 62
     1
 10
37.85500377651942
 20
52371.1668968266
 30
0.0
 40
51461.20010399997
 50
270.046893
 51
270.126727
  0
ARC
  5
210
  8
1_5_____
  6
CONTINUOUS
 62
     1
 10
80.3490137765209
 20
4207.80756082669
 30
0.0
 40
3297.827307000014
 50
269.2141569999999
 51
269.9933209999999
  0
ARC
  5
211
  8
1_5_____
  6
CONTINUOUS
 62
     1
 10
57.30964377651992
 20
2536.569357826705
 30
0.0
 40
1626.430302000037
 50
268.0962830000001
 51
269.2182320000001
  0
ARC
  5
212
  8
1_5_____
  6
CONTINUOUS
 62
     1
 10
32.94568377651876
 20
1812.009945826674
 30
0.0
 40
901.4614709999837
 50
266.6172379999999
 51
268.114112
  0
ARC
  5
213
  8
1_5_____
  6
CONTINUOUS
 62
     1
 10
9.768202776519047
 20
1424.689785826659
 30
0.0
 40
513.4486319999673
 50
265.0826279999997
 51
266.648796
  0
LINE
  5
214
  8
1_5_____
  6
CONTINUOUS
 62
     1
 10
79.00798377652018
 20
880.0067948266615
 30
0.0
 11
151.6679837765207
 21
880.0867928266857
 31
0.0
  0
ARC
  5
215
  8
1_5_____
  6
CONTINUOUS
 62
     1
 10
75.74866377652097
 20
4234.015959826686
 30
0.0
 40
3354.01150800001
 50
269.2609519999999
 51
270.0556869999999
  0
ARC
  5
216
  8
1_5_____
  6
CONTINUOUS
 62
     1
 10
51.64358277651957
 20
2337.102777826668
 30
0.0
 40
1456.945241999994
 50
268.044908
 51
269.246617
  0
ARC
  5
217
  8
1_5_____
  6
CONTINUOUS
 62
     1
 10
22.66615377651897
 20
1576.565235826663
 30
0.0
 40
695.8683599999985
 50
265.084062
 51
268.293055
  0
ARC
  5
218
  8
1_5_____
  6
CONTINUOUS
 62
     1
 10
151.6675637765204
 20
1035.088974826653
 30
0.0
 40
39.998678999981
 50
270.001254
 51
0.0012240000249903
  0
ARC
  5
219
  8
1_5_____
  6
CONTINUOUS
 62
     1
 10
151.6675637765204
 20
1035.090675826683
 30
0.0
 40
40.00038899999919
 50
180.0012440000206
 51
270.0012539999999
  0
ARC
  5
21A
  8
1_5_____
  6
CONTINUOUS
 62
     1
 10
151.6675727765207
 20
1035.088953826668
 30
0.0
 40
40.00040099999065
 50
89.99876599999921
 51
179.9987369999934
  0
ARC
  5
21B
  8
1_5_____
  6
CONTINUOUS
 62
     1
 10
151.6675637765204
 20
1035.090675826683
 30
0.0
 40
39.9986790000006
 50
359.9987760000252
 51
89.998746
  0
ARC
  5
21C
  8
1_5_____
  6
CONTINUOUS
 62
     1
 10
-32.94799622348069
 20
1079.705364826698
 30
0.0
 40
10.39121999998988
 50
92.30392500000441
 51
177.8789780001255
  0
LINE
  5
21D
  8
1_5_____
  6
CONTINUOUS
 62
     1
 10
-43.33201622348088
 20
1080.08679382667
 30
0.0
 11
-43.33201622348088
 21
923.0863988266779
 31
0.0
  0
ARC
  5
21E
  8
1_5_____
  6
CONTINUOUS
 62
     1
 10
336.6686447765209
 20
1080.089085826678
 30
0.0
 40
10.00031999999975
 50
0.0049450000092339
 51
89.3699939999978
  0
LINE
  5
21F
  8
1_5_____
  6
CONTINUOUS
 62
     1
 10
-33.33401522348004
 20
1090.086795826674
 30
0.0
 11
336.6679847765212
 21
1090.086795826674
 31
0.0
  0
ARC
  5
220
  8
1_5_____
  6
CONTINUOUS
 62
     1
 10
-38.13905522348114
 20
1164.897153826673
 30
0.0
 40
5.196668999992049
 50
92.98058599999095
 51
177.834850999827
  0
LINE
  5
221
  8
1_5_____
  6
CONTINUOUS
 62
     1
 10
-43.33201622348088
 20
1165.09348582666
 30
0.0
 11
-43.33201622348088
 21
1080.08679382667
 31
0.0
  0
LINE
  5
222
  8
1_5_____
  6
CONTINUOUS
 62
     1
 10
-68.33701622348099
 20
1170.08679382667
 30
0.0
 11
-38.33301722348051
 21
1170.08679382667
 31
0.0
  0
ARC
  5
223
  8
1_5_____
  6
CONTINUOUS
 62
     1
 10
341.4796037765212
 20
1164.900705826671
 30
0.0
 40
5.192850000000559
 50
2.094709000040773
 51
87.07614900000058
  0
LINE
  5
224
  8
1_5_____
  6
CONTINUOUS
 62
     1
 10
-38.33301722348051
 20
1170.08679382667
 30
0.0
 11
341.6669837765204
 21
1170.08679382667
 31
0.0
  0
LINE
  5
225
  8
1_5_____
  6
CONTINUOUS
 62
     1
 10
341.6669837765204
 20
1170.08679382667
 30
0.0
 11
371.6669837765204
 21
1170.08679382667
 31
0.0
  0
LINE
  5
226
  8
1_5_____
  6
CONTINUOUS
 62
     1
 10
346.6689827765209
 20
1165.090509826665
 30
0.0
 11
346.6689827765209
 21
1080.08679382667
 31
0.0
  0
LINE
  5
227
  8
1_5_____
  6
ISO-10______
 62
     2
 10
96.86698377652124
 20
1035.08679382667
 30
0.0
 11
211.3929827765209
 21
1035.08679382667
 31
0.0
  0
ARC
  5
228
  8
1_5_____
  6
CONTINUOUS
 62
     1
 10
-31.91933522348018
 20
924.3811748266844
 30
0.0
 40
41.43300000000119
 50
181.7945020000267
 51
263.0043329999995
  0
LINE
  5
229
  8
1_5_____
  6
CONTINUOUS
 62
     1
 10
-73.33201622348088
 20
1175.086794826672
 30
0.0
 11
-73.33201622348088
 21
923.0837048266649
 31
0.0
  0
ARC
  5
22A
  8
1_5_____
  6
CONTINUOUS
 62
     1
 10
-32.98094522347992
 20
923.4097748266636
 30
0.0
 40
10.35612000000039
 50
181.7893789999131
 51
262.9940799999941
  0
ARC
  5
22B
  8
1_5_____
  6
CONTINUOUS
 62
     1
 10
265.481854776521
 20
52371.1668968266
 30
0.0
 40
51461.20010399996
 50
269.873292
 51
269.953127
  0
ARC
  5
22C
  8
1_5_____
  6
CONTINUOUS
 62
     1
 10
222.9878447765207
 20
4207.80756082669
 30
0.0
 40
3297.827307000032
 50
270.007235
 51
270.7858629999999
  0
ARC
  5
22D
  8
1_5_____
  6
CONTINUOUS
 62
     1
 10
246.0272147765211
 20
2536.569357826705
 30
0.0
 40
1626.430302000043
 50
270.7817879999999
 51
271.9037279999999
  0
ARC
  5
22E
  8
1_5_____
  6
CONTINUOUS
 62
     1
 10
270.3897527765205
 20
1812.040656826667
 30
0.0
 40
901.4922209999846
 50
271.8859340000001
 51
273.3827570000001
  0
ARC
  5
22F
  8
1_5_____
  6
CONTINUOUS
 62
     1
 10
293.5686527765205
 20
1424.689785826659
 30
0.0
 40
513.4486319999728
 50
273.3512240000002
 51
274.917356
  0
LINE
  5
230
  8
1_5_____
  6
CONTINUOUS
 62
     1
 10
224.3277857765208
 20
880.0067948266615
 30
0.0
 11
151.6679837765207
 21
880.0867928266857
 31
0.0
  0
ARC
  5
231
  8
1_5_____
  6
CONTINUOUS
 62
     1
 10
227.5881947765204
 20
4234.015959826686
 30
0.0
 40
3354.011508000025
 50
269.944332
 51
270.739068
  0
ARC
  5
232
  8
1_5_____
  6
CONTINUOUS
 62
     1
 10
251.69327277652
 20
2337.102777826668
 30
0.0
 40
1456.945241999981
 50
270.7534220000001
 51
271.9551120000001
  0
ARC
  5
233
  8
1_5_____
  6
CONTINUOUS
 62
     1
 10
280.6707047765216
 20
1576.565235826663
 30
0.0
 40
695.8683599999719
 50
271.706965
 51
274.9159319999999
  0
LINE
  5
234
  8
1_5_____
  6
CONTINUOUS
 62
     1
 10
346.6689827765209
 20
1080.08679382667
 30
0.0
 11
346.6689827765209
 21
923.0899148266803
 31
0.0
  0
ARC
  5
235
  8
1_5_____
  6
CONTINUOUS
 62
     1
 10
335.2561727765209
 20
924.3811838266656
 30
0.0
 40
41.43300899997411
 50
276.995603000004
 51
358.2108050000035
  0
LINE
  5
236
  8
1_5_____
  6
CONTINUOUS
 62
     1
 10
376.6689857765208
 20
1175.086794826672
 30
0.0
 11
376.6689857765208
 21
923.0875508267009
 31
0.0
  0
ARC
  5
237
  8
1_5_____
  6
CONTINUOUS
 62
     1
 10
336.3131627765212
 20
923.4140048266895
 30
0.0
 40
10.3608900000066
 50
277.0281209999944
 51
358.2074929999864
  0
ARC
  5
238
  8
1_5_____
  6
CONTINUOUS
 62
     1
 10
137.9793437765204
 20
-2210.54222810544
 30
0.0
 40
2678.88704399998
 50
89.70720799999998
 51
90.60818600000003
  0
ARC
  5
239
  8
1_5_____
  6
CONTINUOUS
 62
     1
 10
116.9955947765204
 20
-170.0336621054414
 30
0.0
 40
638.2710599999792
 50
90.66896500000003
 51
92.47804800000023
  0
ARC
  5
23A
  8
1_5_____
  6
CONTINUOUS
 62
     1
 10
103.2333347765209
 20
146.7748668945437
 30
0.0
 40
321.1637700000026
 50
92.46884199999998
 51
95.01281300000008
  0
ARC
  5
23B
  8
1_5_____
  6
CONTINUOUS
 62
     1
 10
90.87349377652026
 20
287.1998178945605
 30
0.0
 40
180.1959299999869
 50
94.99932700000042
 51
98.37393700000032
  0
ARC
  5
23C
  8
1_5_____
  6
CONTINUOUS
 62
     1
 10
79.44193377651993
 20
364.2052578945395
 30
0.0
 40
102.3467010000171
 50
98.32067799999825
 51
102.8644879999952
  0
ARC
  5
23D
  8
1_5_____
  6
CONTINUOUS
 62
     1
 10
69.81291477652076
 20
405.8463168945473
 30
0.0
 40
59.60711100000606
 50
102.7528839999992
 51
107.6436289999913
  0
ARC
  5
23E
  8
1_5_____
  6
CONTINUOUS
 62
     1
 10
117.6776837765203
 20
455.7321288945363
 30
0.0
 40
21.44156999999819
 50
224.4168169999967
 51
272.6463290000055
  0
ARC
  5
23F
  8
1_5_____
  6
CONTINUOUS
 62
     1
 10
125.0061827765205
 20
461.0100468945484
 30
0.0
 40
30.40034999999923
 50
197.5423210000006
 51
221.8543100000209
  0
ARC
  5
240
  8
1_5_____
  6
CONTINUOUS
 62
     1
 10
149.1420227765205
 20
467.8330278945584
 30
0.0
 40
55.47558899999962
 50
180.0199390000113
 51
196.7479609999999
  0
ARC
  5
241
  8
1_5_____
  6
CONTINUOUS
 62
     1
 10
117.0911147765203
 20
724.9524888945275
 30
0.0
 40
271.6109099999809
 50
251.9500809999984
 51
254.8786539999977
  0
ARC
  5
242
  8
1_5_____
  6
CONTINUOUS
 62
     1
 10
85.0821347765202
 20
633.4218378945211
 30
0.0
 40
174.6792299999676
 50
241.6496459999941
 51
252.6301659999972
  0
ARC
  5
243
  8
1_5_____
  6
CONTINUOUS
 62
     1
 10
53.47806477652011
 20
578.8003968945343
 30
0.0
 40
111.6172589999893
 50
212.1304049999904
 51
242.6126029999992
  0
ARC
  5
244
  8
1_5_____
  6
CONTINUOUS
 62
     1
 10
82.0795427765205
 20
593.7830868945318
 30
0.0
 40
143.8287990000035
 50
197.1758950000026
 51
211.1250139999904
  0
LINE
  5
245
  8
1_5_____
  6
ISO-10______
 62
     2
 10
151.6679837765207
 20
644.3366688945634
 30
0.0
 11
151.6679837765207
 21
416.543668894546
 31
0.0
  0
ARC
  5
246
  8
1_5_____
  6
CONTINUOUS
 62
     1
 10
362.2068047765212
 20
603.9550968945459
 30
0.0
 40
10.36409099999827
 50
6.963517999897496
 51
88.17332400000157
  0
LINE
  5
247
  8
1_5_____
  6
CONTINUOUS
 62
     1
 10
362.5369847765211
 20
614.3166678945377
 30
0.0
 11
-59.12221322348023
 21
614.3166678945377
 31
0.0
  0
ARC
  5
248
  8
1_5_____
  6
CONTINUOUS
 62
     1
 10
366.8287337765197
 20
576.0281988945139
 30
0.0
 40
8.289690000004382
 50
6.995012000168598
 51
88.20657799999515
  0
LINE
  5
249
  8
1_5_____
  6
CONTINUOUS
 62
     1
 10
-63.70062422348087
 20
584.3166678945402
 30
0.0
 11
367.087984776521
 21
584.3166678945402
 31
0.0
  0
LINE
  5
24A
  8
1_5_____
  6
CONTINUOUS
 62
     1
 10
372.4944437765211
 20
605.2116138945532
 30
0.0
 11
375.0569837765207
 21
577.0366668945633
 31
0.0
  0
ARC
  5
24B
  8
1_5_____
  6
CONTINUOUS
 62
     1
 10
-58.87512722347992
 20
603.9529788945365
 30
0.0
 40
10.36604099998546
 50
91.79765000000707
 51
172.9859209999676
  0
ARC
  5
24C
  8
1_5_____
  6
CONTINUOUS
 62
     1
 10
-63.49967522348061
 20
576.0329778945297
 30
0.0
 40
8.284790999995325
 50
91.76430900000364
 51
172.9487919997668
  0
LINE
  5
24D
  8
1_5_____
  6
CONTINUOUS
 62
     1
 10
-69.16401722348064
 20
605.2166688945401
 30
0.0
 11
-71.72301722348084
 21
577.0366668945633
 31
0.0
  0
LINE
  5
24E
  8
1_5_____
  6
ISO-10______
 62
     2
 10
22.86198477651988
 20
529.3086678945317
 30
0.0
 11
82.0839827765202
 21
529.3086678945317
 31
0.0
  0
ARC
  5
24F
  8
1_5_____
  6
VW-01____
 62
    17
 10
47.04707277651937
 20
529.691458894519
 30
0.0
 40
10.38714000000001
 50
182.1096740000127
 51
267.8903559999939
  0
ARC
  5
250
  8
1_5_____
  6
VW-01____
 62
    17
 10
47.05143477651995
 20
528.9295188945459
 30
0.0
 40
10.39139999999206
 50
92.13282400000415
 51
177.9066199999298
  0
ARC
  5
251
  8
1_5_____
  6
VW-01____
 62
    17
 10
56.66415477652026
 20
529.3108068945614
 30
0.0
 40
10.00289999999985
 50
359.9901429997996
 51
89.99011300000461
  0
ARC
  5
252
  8
1_5_____
  6
VW-01____
 62
    17
 10
56.27971377652
 20
529.698826894534
 30
0.0
 40
10.39463999999383
 50
272.1290180000045
 51
357.8512520001102
  0
LINE
  5
253
  8
1_5_____
  6
VW-01____
 62
    17
 10
46.66498377651942
 20
539.3136678945409
 30
0.0
 11
56.66598477652042
 21
539.3136678945409
 31
0.0
  0
LINE
  5
254
  8
1_5_____
  6
VW-01____
 62
    17
 10
46.66498377651942
 20
519.3116688945372
 30
0.0
 11
56.66598477652042
 21
519.3116688945372
 31
0.0
  0
LINE
  5
255
  8
1_5_____
  6
ISO-10______
 62
     2
 10
51.66698277651972
 20
504.5696688945513
 30
0.0
 11
51.66698277651972
 21
551.9436678945156
 31
0.0
  0
LINE
  5
256
  8
1_5_____
  6
ISO-10______
 62
     2
 10
222.8619827765218
 20
529.3086678945317
 30
0.0
 11
282.0829847765209
 21
529.3086678945317
 31
0.0
  0
ARC
  5
257
  8
1_5_____
  6
VW-01____
 62
    17
 10
247.0465727765206
 20
529.6917078945469
 30
0.0
 40
10.3872599999999
 50
182.1109930000413
 51
267.9087769999954
  0
ARC
  5
258
  8
1_5_____
  6
VW-01____
 62
    17
 10
246.6692627765208
 20
529.3108068945614
 30
0.0
 40
10.00289999996496
 50
90.00986699999785
 51
180.0098770000178
  0
ARC
  5
259
  8
1_5_____
  6
VW-01____
 62
    17
 10
256.2794627765199
 20
528.9269988945482
 30
0.0
 40
10.39400999999968
 50
2.106726999836905
 51
87.85378900000364
  0
ARC
  5
25A
  8
1_5_____
  6
VW-01____
 62
    17
 10
256.2824627765206
 20
529.6953378945443
 30
0.0
 40
10.3911600000107
 50
272.1302239999983
 51
357.8697860000107
  0
LINE
  5
25B
  8
1_5_____
  6
VW-01____
 62
    17
 10
246.6679847765212
 20
539.3136678945409
 30
0.0
 11
256.6689827765206
 21
539.3136678945409
 31
0.0
  0
LINE
  5
25C
  8
1_5_____
  6
VW-01____
 62
    17
 10
246.6679847765212
 20
519.3116688945372
 30
0.0
 11
256.6689827765206
 21
519.3116688945372
 31
0.0
  0
LINE
  5
25D
  8
1_5_____
  6
ISO-10______
 62
     2
 10
251.6659847765206
 20
504.5696688945513
 30
0.0
 11
251.6659847765206
 21
551.9436678945156
 31
0.0
  0
LINE
  5
25E
  8
1_5_____
  6
CONTINUOUS
 62
     1
 10
-65.29801622348123
 20
559.3466688945373
 30
0.0
 11
-64.57501622348127
 21
559.3166688945439
 31
0.0
  0
ARC
  5
25F
  8
1_5_____
  6
CONTINUOUS
 62
     1
 10
-64.23981722348026
 20
567.5880168945234
 30
0.0
 40
8.312040000002135
 50
176.9128629997865
 51
262.6848659999723
  0
LINE
  5
260
  8
1_5_____
  6
CONTINUOUS
 62
     1
 10
-71.72301722348084
 20
577.0366668945633
 30
0.0
 11
-72.5400162234805
 21
568.0366668945642
 31
0.0
  0
ARC
  5
261
  8
1_5_____
  6
CONTINUOUS
 62
     1
 10
367.3367537765208
 20
567.3107178945386
 30
0.0
 40
8.570919000000307
 50
0.0097800001798374
 51
4.875050000001007
  0
ARC
  5
262
  8
1_5_____
  6
CONTINUOUS
 62
     1
 10
367.6021457765215
 20
567.6181368945397
 30
0.0
 40
8.311160999997513
 50
272.1097369999932
 51
357.8902729999516
  0
LINE
  5
263
  8
1_5_____
  6
CONTINUOUS
 62
     1
 10
-64.57501622348127
 20
559.3166688945439
 30
0.0
 11
367.9079837765208
 21
559.3166688945439
 31
0.0
  0
LINE
  5
264
  8
1_5_____
  6
CONTINUOUS
 62
     1
 10
375.0569837765207
 20
577.0366668945633
 30
0.0
 11
375.8769857765216
 21
568.0366668945642
 31
0.0
  0
ARC
  5
265
  8
1_5_____
  6
CONTINUOUS
 62
     1
 10
-63.64379522348077
 20
551.0038368945432
 30
0.0
 40
8.314538999998785
 50
2.107555999833786
 51
87.86776400000657
  0
ARC
  5
266
  8
1_5_____
  6
CONTINUOUS
 62
     1
 10
49.17501477651945
 20
472.2715188945372
 30
0.0
 40
9.959630999981277
 50
269.9473440000019
 51
284.9612720000046
  0
ARC
  5
267
  8
1_5_____
  6
CONTINUOUS
 62
     1
 10
49.15523277652005
 20
472.3346268945625
 30
0.0
 40
10.02273900000744
 50
253.0755640000078
 51
270.0607479999996
  0
ARC
  5
268
  8
1_5_____
  6
CONTINUOUS
 62
     1
 10
120.7414127765207
 20
431.3848788945468
 30
0.0
 40
2.075138999999411
 50
182.0877299994995
 51
267.9122989999833
  0
LINE
  5
269
  8
1_5_____
  6
CONTINUOUS
 62
     1
 10
118.6679837765207
 20
468.2826678945587
 30
0.0
 11
118.6679837765207
 21
431.3096688945368
 31
0.0
  0
ARC
  5
26A
  8
1_5_____
  6
CONTINUOUS
 62
     1
 10
165.3575147765207
 20
-2210.54222810544
 30
0.0
 40
2678.887043999998
 50
89.39179399999999
 51
90.29277199999999
  0
ARC
  5
26B
  8
1_5_____
  6
CONTINUOUS
 62
     1
 10
186.3412637765217
 20
-170.0336621054414
 30
0.0
 40
638.2710599999645
 50
87.52193199999995
 51
89.33101500000002
  0
ARC
  5
26C
  8
1_5_____
  6
CONTINUOUS
 62
     1
 10
200.1035237765212
 20
146.7748668945437
 30
0.0
 40
321.1637700000202
 50
84.98716700000043
 51
87.5311380000001
  0
ARC
  5
26D
  8
1_5_____
  6
CONTINUOUS
 62
     1
 10
212.4633647765206
 20
287.1998178945605
 30
0.0
 40
180.1959299999811
 50
81.62604299999921
 51
85.00065299999947
  0
ARC
  5
26E
  8
1_5_____
  6
CONTINUOUS
 62
     1
 10
223.8949247765216
 20
364.2052578945395
 30
0.0
 40
102.3467009999958
 50
77.13549199999987
 51
81.67930200000168
  0
ARC
  5
26F
  8
1_5_____
  6
CONTINUOUS
 62
     1
 10
233.5239437765206
 20
405.8463168945473
 30
0.0
 40
59.60711099999776
 50
72.35635099999892
 51
77.24709599999781
  0
ARC
  5
270
  8
1_5_____
  6
CONTINUOUS
 62
     1
 10
186.2457437765208
 20
724.9524888945275
 30
0.0
 40
271.6109099999954
 50
285.1213650000004
 51
288.0499390000016
  0
ARC
  5
271
  8
1_5_____
  6
CONTINUOUS
 62
     1
 10
218.2547237765215
 20
633.4218378945211
 30
0.0
 40
174.679229999973
 50
287.3698540000026
 51
298.3503730000097
  0
ARC
  5
272
  8
1_5_____
  6
CONTINUOUS
 62
     1
 10
249.8587937765208
 20
578.8003968945343
 30
0.0
 40
111.6172590000003
 50
297.3874170000002
 51
327.8696150000043
  0
ARC
  5
273
  8
1_5_____
  6
CONTINUOUS
 62
     1
 10
221.2573127765211
 20
593.7830868945318
 30
0.0
 40
143.8287989999958
 50
328.8750060000029
 51
342.8241250000025
  0
ARC
  5
274
  8
1_5_____
  6
CONTINUOUS
 62
     1
 10
366.9806537765209
 20
551.0038368945432
 30
0.0
 40
8.314529999997834
 50
92.13219899999845
 51
177.892441000156
  0
ARC
  5
275
  8
1_5_____
  6
CONTINUOUS
 62
     1
 10
254.1734537765208
 20
472.3601988945411
 30
0.0
 40
10.04829899998862
 50
255.105367999982
 51
269.9860559999974
  0
ARC
  5
276
  8
1_5_____
  6
CONTINUOUS
 62
     1
 10
254.1862547765207
 20
472.303396894546
 30
0.0
 40
9.99152100000452
 50
269.9125350000023
 51
286.9511930000326
  0
ARC
  5
277
  8
1_5_____
  6
CONTINUOUS
 62
     1
 10
182.5954427765212
 20
431.3848788945468
 30
0.0
 40
2.075138999979629
 50
272.0877379999843
 51
357.9122720002953
  0
LINE
  5
278
  8
1_5_____
  6
CONTINUOUS
 62
     1
 10
184.6689827765206
 20
468.2826678945587
 30
0.0
 11
184.6689827765206
 21
431.3096688945368
 31
0.0
  0
ARC
  5
279
  8
1_5_____
  6
CONTINUOUS
 62
     1
 10
182.5912127765208
 20
431.3856678945647
 30
0.0
 40
2.075949000022345
 50
272.1085729999625
 51
357.8914369994093
  0
LINE
  5
27A
  8
1_5_____
  6
CONTINUOUS
 62
     1
 10
120.6659837765212
 20
429.3106668945456
 30
0.0
 11
182.6679827765204
 21
429.3106668945456
 31
0.0
  0
LINE
  5
27B
  8
1_5_____
  6
CONTINUOUS
 62
     1
 10
336.6679847765212
 20
1090.086795826674
 30
0.0
 11
336.7786037765201
 21
1090.088799826689
 31
0.0
  0
LINE
  5
27C
  8
1_5_____
  6
CONTINUOUS
 62
     1
 10
-33.36572522348115
 20
1090.088184826668
 30
0.0
 11
-33.33401522348004
 21
1090.086795826674
 31
0.0
  0
LINE
  5
27D
  8
1_5_____
  6
CONTINUOUS
 62
     1
 10
-63.75475022348064
 20
584.3138418945525
 30
0.0
 11
-63.70062422348087
 21
584.3166678945402
 31
0.0
  0
LINE
  5
27E
  8
1_5_____
  6
CONTINUOUS
 62
     1
 10
-59.20030622348122
 20
614.313916894545
 30
0.0
 11
-59.12221322348023
 21
614.3166678945377
 31
0.0
  0
LINE
  5
27F
  8
1_5_____
  6
CONTINUOUS
 62
     1
 10
-72.5400162234805
 20
568.0366668945642
 30
0.0
 11
-72.53979422347993
 21
568.0356588945372
 31
0.0
  0
LINE
  5
280
  8
1_5_____
  6
CONTINUOUS
 62
     1
 10
371.6669837765204
 20
1170.08679382667
 30
0.0
 11
371.7765587765213
 21
1170.091371826692
 31
0.0
  0
LINE
  5
281
  8
1_5_____
  6
CONTINUOUS
 62
     1
 10
346.6689647765207
 20
1080.089946826668
 30
0.0
 11
346.6689827765209
 21
1080.089946826668
 31
0.0
  0
LINE
  5
282
  8
1_5_____
  6
CONTINUOUS
 62
     1
 10
337.5808187765211
 20
913.1309648266747
 30
0.0
 11
337.5808847765205
 21
913.1309648266747
 31
0.0
  0
LINE
  5
283
  8
1_5_____
  6
CONTINUOUS
 62
     1
 10
300.0575597765212
 20
911.0367518266821
 30
0.0
 11
300.0576947765205
 21
911.036748826677
 31
0.0
  0
LINE
  5
284
  8
1_5_____
  6
CONTINUOUS
 62
     1
 10
223.3820597765209
 20
909.9840158266989
 30
0.0
 11
223.4042807765211
 21
909.9802808266872
 31
0.0
  0
LINE
  5
285
  8
1_5_____
  6
CONTINUOUS
 62
     1
 10
224.3277857765208
 20
880.0067948266615
 30
0.0
 11
224.3294717765204
 21
880.0060358266624
 31
0.0
  0
LINE
  5
286
  8
1_5_____
  6
CONTINUOUS
 62
     1
 10
270.8509577765209
 20
880.2834848266543
 30
0.0
 11
270.8511077765198
 21
880.2834968266934
 31
0.0
  0
TEXT
  5
287
  8
1_5_____
 62
     1
 10
-190.9237512234799
 20
1207.171710202375
 30
0.0
 40
9.292570891203704
  1
▽ＷＬ
  7
YUGOTHIC_MEDIUM
 11
-190.9237512234799
 21
1211.817995647977
 31
0.0
 73
     2
  0
LINE
  5
288
  8
1_5_____
  6
CONTINUOUS
 62
     5
 10
-64.8544123345921
 20
486.6506925453912
 30
0.0
 11
68.1455876654079
 21
486.6506925453912
 31
0.0
  0
LINE
  5
289
  8
1_5_____
  6
CONTINUOUS
 62
     5
 10
101.4382240114965
 20
544.3152302147371
 30
0.0
 11
68.1455876654079
 21
486.6506925453912
 31
0.0
  0
POLYLINE
  5
28A
  8
1_5_____
  6
CONTINUOUS
 62
    17
 66
     1
 10
0.0
 20
0.0
 30
0.0
 70
   129
  0
VERTEX
  5
28B
  8
1_5_____
  6
CONTINUOUS
 62
    17
 10
97.84262716041417
 20
540.5918806792713
 30
0.0
  0
VERTEX
  5
28C
  8
1_5_____
  6
CONTINUOUS
 62
    17
 10
101.4382240114965
 20
544.3152302147371
 30
0.0
  0
VERTEX
  5
28D
  8
1_5_____
  6
CONTINUOUS
 62
    17
 10
100.1860205644247
 20
539.2929165043136
 30
0.0
  0
SEQEND
  5
28E
  8
1_5_____
  6
CONTINUOUS
 62
    17
  0
DIMENSION
  5
28F
  8
1_5_____
  6
CONTINUOUS
 62
    17
  2
*D3
 10
-159.2003074838128
 20
614.3139182251025
 30
0.0
 11
-164.5603479928858
 21
599.3152930598213
 31
0.0
 70
    32
  3
TOOLBOX
 13
-59.20030748381282
 23
584.3166678945402
 33
0.0
 14
-59.20030748381282
 24
614.3139182251025
 34
0.0
 50
-90.0
  0
DIMENSION
  5
291
  8
1_5_____
  6
CONTINUOUS
 62
    17
  2
*D4
 10
-209.2003074838128
 20
614.3139182251025
 30
0.0
 11
-214.5603479928858
 21
586.8152935598232
 31
0.0
 70
    32
  3
TOOLBOX
 13
-59.20030748381282
 23
559.3166688945439
 33
0.0
 14
-59.20030748381282
 24
614.3139182251025
 34
0.0
 50
-90.0
  0
DIMENSION
  5
293
  8
1_5_____
  6
CONTINUOUS
 62
    17
  2
*D5
 10
-259.2003074838128
 20
614.3139182251025
 30
0.0
 11
-264.5603479928858
 21
521.8139182251025
 31
0.0
 70
    32
  3
TOOLBOX
 13
-59.20030748381282
 23
429.3139182251025
 33
0.0
 14
-59.20030748381282
 24
614.3139182251025
 34
0.0
 50
-90.0
  0
DIMENSION
  5
294
  8
1_5_____
  6
CONTINUOUS
 62
    17
  2
*D6
 10
128.6653818413272
 20
935.0898191954461
 30
0.0
 11
151.6667088089237
 21
940.4498597045191
 31
0.0
 70
    32
  3
TOOLBOX
 13
174.6680357765201
 23
1035.089827840855
 33
0.0
 14
128.6653818413272
 24
1035.089819195446
 34
0.0
  0
DIMENSION
  5
296
  8
1_5__
  6
CONTINUOUS
 62
    17
  2
*D7
 10
-73.3320162234811
 20
1354.0
 30
0.0
 11
151.6684847765198
 21
1359.360040509073
 31
0.0
 70
    32
  3
TOOLBOX
 13
376.6689857765208
 23
1200.08679382667
 33
0.0
 14
-73.3320162234811
 24
1200.08679382667
 34
0.0
  0
DIMENSION
  5
297
  8
1_5__
  6
CONTINUOUS
 62
    17
  2
*D8
 10
-43.33201622348088
 20
1302.0
 30
0.0
 11
151.66848327652
 21
1307.360040509073
 31
0.0
 70
    32
  3
TOOLBOX
 13
346.6689827765209
 23
1208.128443826675
 33
0.0
 14
-43.33201622348088
 24
1208.129931826672
 34
0.0
  0
DIMENSION
  5
298
  8
1_5__
  6
CONTINUOUS
 62
    17
  2
*D9
 10
-155.177029953481
 20
1200.08679382667
 30
0.0
 11
-160.5370704625541
 21
1040.086793326678
 31
0.0
 70
    32
  3
TOOLBOX
 13
-73.33201622348088
 23
880.0867928266857
 33
0.0
 14
-73.33201622348088
 24
1200.08679382667
 34
0.0
 50
-90.0
  0
DIMENSION
  5
299
  8
1_5__
  6
CONTINUOUS
 62
    17
  2
*D10
 10
-115.3421382234806
 20
1090.086795826674
 30
0.0
 11
-120.7021787325535
 21
1000.089723826678
 31
0.0
 70
    32
  3
TOOLBOX
 13
-77.0
 23
910.0926518266829
 33
0.0
 14
-70.30902307390875
 24
1090.086795826674
 34
0.0
 50
-90.0
  0
DIMENSION
  5
29A
  8
1_5__
  6
CONTINUOUS
 62
    17
  2
*D11
 10
133.8027332765203
 20
1105.720129159821
 30
0.0
 11
203.0714914802247
 21
1105.720129159821
 31
0.0
 70
   160
  3
TOOLBOX
 13
169.1661826920374
 23
1135.089525292143
 33
0.0
 14
133.8027332765203
 24
1135.086795826674
 34
0.0
  0
DIMENSION
  5
29B
  8
1_5__
  6
CONTINUOUS
 62
    17
  2
*D12
 10
51.66698277651972
 20
710.0
 30
0.0
 11
151.6664837765202
 21
715.360040509073
 31
0.0
 70
    32
  3
TOOLBOX
 13
251.6659847765206
 23
551.9436678945156
 33
0.0
 14
51.66698277651972
 24
551.9436678945156
 34
0.0
  0
DIMENSION
  5
29C
  8
1_5__
  6
CONTINUOUS
 62
    17
  2
*D13
 10
437.5369847765211
 20
614.3166678945377
 30
0.0
 11
432.1769442674481
 21
571.8126678945347
 31
0.0
 70
    32
  3
TOOLBOX
 13
282.0829847765209
 23
529.3086678945317
 33
0.0
 14
362.5369847765211
 24
614.3166678945377
 34
0.0
 50
-90.0
  0
TEXT
  5
29D
  8
1_5__
 62
     1
 10
1036.479166666667
 20
635.527325665509
 30
0.0
 40
9.292570891203704
  1
\U+25C1ＷＬ
  7
YUGOTHIC_MEDIUM
 11
1036.479166666667
 21
640.1736111111109
 31
0.0
 73
     2
  0
DIMENSION
  5
29E
  8
1_5__
  6
CONTINUOUS
 62
    17
  2
*D14
 10
476.6689857765208
 20
1200.08679382667
 30
0.0
 11
471.3089452674477
 21
1167.586794826672
 31
0.0
 70
    32
  3
TOOLBOX
 13
185.2339847765199
 23
1135.086795826674
 33
0.0
 14
376.6689857765208
 24
1200.08679382667
 34
0.0
 50
-90.0
  0
DIMENSION
  5
29F
  8
1_5__
  6
CONTINUOUS
 62
    17
  2
*D15
 10
534.1689857485811
 20
1200.08679382667
 30
0.0
 11
528.808945239508
 21
1117.58679382667
 31
0.0
 70
    32
  3
TOOLBOX
 13
211.3929827765209
 23
1035.08679382667
 33
0.0
 14
384.1689857485811
 24
1200.08679382667
 34
0.0
 50
-90.0
  0
DIMENSION
  5
2A0
  8
1_5__
  6
CONTINUOUS
 62
    17
  2
*D16
 10
623.3837240773058
 20
576.5093289938632
 30
0.0
 11
618.0236835682329
 21
521.5068294938635
 31
0.0
 70
    32
  3
TOOLBOX
 13
830.3837250773045
 23
466.5043299938638
 33
0.0
 14
723.3837240773058
 24
576.5093289938632
 34
0.0
 50
-90.0
  0
DIMENSION
  5
2A1
  8
1_5__
  6
CONTINUOUS
 62
    17
  2
*D17
 10
903.7003917443437
 20
576.5093289938632
 30
0.0
 11
903.7003917443437
 21
587.0221068390279
 31
0.0
 70
   160
  3
TOOLBOX
 13
930.0037260773055
 23
566.5093299938655
 33
0.0
 14
930.8837250773046
 24
576.5093289938632
 34
0.0
 50
-90.0
  0
TEXT
  5
2A2
  8
1_5__-1
 62
     1
 10
-501.7643438888883
 20
168.9226029100494
 30
0.0
 40
10.62008101851852
  1
※1　（　）内寸法は参考寸法である。 
  7
YUGOTHIC_MEDIUM
 11
-501.7643438888883
 21
165.8882940476155
 31
0.0
 73
     1
  0
TEXT
  5
2A3
  8
1_5__-1
 62
     1
 10
-501.7643438888883
 20
147.7559362433827
 30
0.0
 40
10.62008101851852
  1
※２　容量2.8L・質量10.0ｋｇ 
  7
YUGOTHIC_MEDIUM
 11
-501.7643438888883
 21
144.7216273809488
 31
0.0
 73
     1
  0
TEXT
  5
2A4
  8
1_5__-1
 62
     1
 10
-501.7643438888883
 20
126.5892695767161
 30
0.0
 40
10.62008101851852
  1
※３　壁掛専用 
  7
YUGOTHIC_MEDIUM
 11
-501.7643438888883
 21
123.5549607142823
 31
0.0
 73
     1
  0
TEXT
  5
2A5
  8
1_5__-1
 62
     1
 10
-501.7643438888883
 20
105.4226029100494
 30
0.0
 40
10.62008101851852
  1
※４　製品取付下地は、製品の使用に十分耐えられるような構造、材質を準備してください。
  7
YUGOTHIC_MEDIUM
 11
-501.7643438888883
 21
102.3882940476155
 31
0.0
 73
     1
  0
POLYLINE
  5
2A6
  8
1_5__-1
  6
CONTINUOUS
 62
    17
 66
     1
 10
0.0
 20
0.0
 30
0.0
 70
   129
  0
VERTEX
  5
2A7
  8
1_5__-1
  6
CONTINUOUS
 62
    17
 10
677.3000000000002
 20
1412.315000000001
 30
0.0
  0
VERTEX
  5
2A8
  8
1_5__-1
  6
CONTINUOUS
 62
    17
 10
1477.3
 20
1412.315000000001
 30
0.0
  0
VERTEX
  5
2A9
  8
1_5__-1
  6
CONTINUOUS
 62
    17
 10
1477.3
 20
812.3150000000005
 30
0.0
  0
VERTEX
  5
2AA
  8
1_5__-1
  6
CONTINUOUS
 62
    17
 10
677.3000000000002
 20
812.3150000000005
 30
0.0
  0
SEQEND
  5
2AB
  8
1_5__-1
  6
CONTINUOUS
 62
    17
  0
TEXT
  5
2AC
  8
1_5__-1
 62
     1
 10
699.0321358891064
 20
1373.688333333334
 30
0.0
 40
15.93012152777778
  1
付属品(S=1/2)
  7
YUGOTHIC_MEDIUM
 11
699.0321358891064
 21
1389.618454861112
 31
0.0
 73
     3
  0
INSERT
  5
2AD
  8
1_2___
 62
    17
  2
DIMENSION
 10
0.0
 20
0.0
 30
0.0
  0
LINE
  5
2AE
  8
1_2___
  6
CONTINUOUS
 62
     1
 10
804.3045225868154
 20
1134.727142382818
 30
0.0
 11
804.3045225868154
 21
1159.264532382802
 31
0.0
  0
LINE
  5
2AF
  8
1_2___
  6
CONTINUOUS
 62
     1
 10
846.8045225868156
 20
1134.727142382818
 30
0.0
 11
846.8045225868156
 21
1159.264532382802
 31
0.0
  0
LINE
  5
2B0
  8
1_2___
  6
CONTINUOUS
 62
     1
 10
846.8045225868156
 20
1134.727142382818
 30
0.0
 11
825.5545225868154
 21
1122.458452382822
 31
0.0
  0
LINE
  5
2B1
  8
1_2___
  6
CONTINUOUS
 62
     1
 10
825.5545225868154
 20
1171.533222382828
 30
0.0
 11
804.3045225868154
 21
1159.264532382802
 31
0.0
  0
LINE
  5
2B2
  8
1_2___
  6
CONTINUOUS
 62
     1
 10
825.5545225868154
 20
1171.533222382828
 30
0.0
 11
846.8045225868156
 21
1159.264532382802
 31
0.0
  0
LINE
  5
2B3
  8
1_2___
  6
CONTINUOUS
 62
     1
 10
804.3045225868154
 20
1134.727142382818
 30
0.0
 11
825.5545225868154
 21
1122.458452382822
 31
0.0
  0
CIRCLE
  5
2B4
  8
1_2___
  6
CONTINUOUS
 62
     1
 10
825.5545225868154
 20
1146.995837382824
 30
0.0
 40
48.75000000000021
  0
CIRCLE
  5
2B5
  8
1_2___
  6
CONTINUOUS
 62
     1
 10
825.5545225868154
 20
1146.995837382824
 30
0.0
 40
12.5
  0
TEXT
  5
2B6
  8
1_2___
 62
     1
 10
901.1211436703956
 20
1085.353714554398
 30
0.0
 40
9.292570891203704
  1
M10
  7
YUGOTHIC_MEDIUM
 11
901.1211436703956
 21
1090.0
 31
0.0
 73
     2
  0
LINE
  5
2B7
  8
1_2___
  6
ISO-10______
 62
     2
 10
886.8045225868157
 20
1146.995837382824
 30
0.0
 11
764.3045225868157
 21
1146.995837382824
 31
0.0
  0
LINE
  5
2B8
  8
1_2___
  6
ISO-10______
 62
     2
 10
825.5545225868154
 20
1208.245837382824
 30
0.0
 11
825.5545225868154
 21
1085.745837382825
 31
0.0
  0
LINE
  5
2B9
  8
1_2___
  6
CONTINUOUS
 62
     1
 10
804.3045225868154
 20
993.0459223827906
 30
0.0
 11
846.8045225868156
 21
993.0459223827906
 31
0.0
  0
LINE
  5
2BA
  8
1_2___
  6
CONTINUOUS
 62
     1
 10
808.0545225868154
 20
915.5459223827906
 30
0.0
 11
843.0545225868156
 21
915.5459223827906
 31
0.0
  0
LINE
  5
2BB
  8
1_2___
  6
CONTINUOUS
 62
     1
 10
776.8045225868157
 20
950.5459223827906
 30
0.0
 11
874.3045225868157
 21
950.5459223827906
 31
0.0
  0
LINE
  5
2BC
  8
1_2___
  6
CONTINUOUS
 62
     1
 10
804.3045225868154
 20
970.5459223827906
 30
0.0
 11
846.8045225868156
 21
970.5459223827906
 31
0.0
  0
LINE
  5
2BD
  8
1_2___
  6
CONTINUOUS
 62
     1
 10
776.8045225868157
 20
958.0459223827906
 30
0.0
 11
776.8045225868157
 21
950.5459223827906
 31
0.0
  0
LINE
  5
2BE
  8
1_2___
  6
CONTINUOUS
 62
     1
 10
874.3045225868157
 20
958.0459223827906
 30
0.0
 11
874.3045225868157
 21
950.5459223827906
 31
0.0
  0
LINE
  5
2BF
  8
1_2___
  6
CONTINUOUS
 62
     1
 10
776.8045225868157
 20
958.0459223827906
 30
0.0
 11
874.3045225868157
 21
958.0459223827906
 31
0.0
  0
LINE
  5
2C0
  8
1_2___
  6
CONTINUOUS
 62
     1
 10
804.3045225868154
 20
993.0459223827906
 30
0.0
 11
804.3045225868154
 21
970.5459223827906
 31
0.0
  0
LINE
  5
2C1
  8
1_2___
  6
CONTINUOUS
 62
     1
 10
846.8045225868156
 20
993.0459223827906
 30
0.0
 11
846.8045225868156
 21
970.5459223827906
 31
0.0
  0
LINE
  5
2C2
  8
1_2___
  6
CONTINUOUS
 62
     1
 10
804.3045225868154
 20
970.5459223827906
 30
0.0
 11
776.8045225868157
 21
958.0459223827906
 31
0.0
  0
LINE
  5
2C3
  8
1_2___
  6
CONTINUOUS
 62
     1
 10
846.8045225868156
 20
970.5459223827906
 30
0.0
 11
874.3045225868157
 21
958.0459223827906
 31
0.0
  0
LINE
  5
2C4
  8
1_2___
  6
CONTINUOUS
 62
     1
 10
843.0545225868156
 20
950.5459223827906
 30
0.0
 11
843.0545225868156
 21
915.5459223827906
 31
0.0
  0
LINE
  5
2C5
  8
1_2___
  6
CONTINUOUS
 62
     1
 10
808.0545225868154
 20
950.5459223827906
 30
0.0
 11
808.0545225868154
 21
915.5459223827906
 31
0.0
  0
LINE
  5
2C6
  8
1_2___
  6
ISO-10______
 62
     2
 10
825.5545225868154
 20
1005.545922382791
 30
0.0
 11
825.5545225868154
 21
903.0459223827906
 31
0.0
  0
LINE
  5
2C7
  8
1_2___
  6
CONTINUOUS
 62
     1
 10
825.5545225868154
 20
993.0459223827906
 30
0.0
 11
825.5545225868154
 21
970.5459223827906
 31
0.0
  0
LINE
  5
2C8
  8
1_2___
  6
CONTINUOUS
 62
     1
 10
1050.287162586815
 20
1214.634997382816
 30
0.0
 11
1071.227162586816
 21
1214.634997382816
 31
0.0
  0
LINE
  5
2C9
  8
1_2___
  6
ISO-10______
 62
     2
 10
1060.757162586816
 20
952.1349973828169
 30
0.0
 11
1060.757162586816
 21
1227.134997382816
 31
0.0
  0
LINE
  5
2CA
  8
1_2___
  6
CONTINUOUS
 62
     1
 10
1050.757162586816
 20
1114.634997382817
 30
0.0
 11
1070.757162586816
 21
1114.634997382817
 31
0.0
  0
LINE
  5
2CB
  8
1_2___
  6
CONTINUOUS
 62
     1
 10
1051.382162586816
 20
990.9950073828495
 30
0.0
 11
1051.382162586816
 21
1114.634997382817
 31
0.0
  0
LINE
  5
2CC
  8
1_2___
  6
CONTINUOUS
 62
     1
 10
1070.132162586816
 20
990.9950073828495
 30
0.0
 11
1070.132162586816
 21
1114.634997382817
 31
0.0
  0
LINE
  5
2CD
  8
1_2___
  6
CONTINUOUS
 62
     1
 10
1051.859697586816
 20
988.3615823828418
 30
0.0
 11
1060.757162586816
 21
964.6349973828169
 31
0.0
  0
LINE
  5
2CE
  8
1_2___
  6
CONTINUOUS
 62
     1
 10
1060.757162586816
 20
964.6349973828169
 30
0.0
 11
1069.654632586817
 21
988.3615823828418
 31
0.0
  0
ARC
  5
2CF
  8
1_2___
  6
CONTINUOUS
 62
     1
 10
1058.882162586816
 20
990.9950073828495
 30
0.0
 40
7.500000000000001
 50
180.0
 51
200.5560450002059
  0
ARC
  5
2D0
  8
1_2___
  6
CONTINUOUS
 62
     1
 10
1062.632162586816
 20
990.9950073828495
 30
0.0
 40
7.500000000008797
 50
339.4439549998193
 51
0.0
  0
LINE
  5
2D1
  8
1_2___
  6
CONTINUOUS
 62
     1
 10
1060.757162586816
 20
1114.634997382817
 30
0.0
 11
1049.507162586816
 21
1110.540332382805
 31
0.0
  0
LINE
  5
2D2
  8
1_2___
  6
CONTINUOUS
 62
     1
 10
1049.507162586816
 20
1110.540332382805
 30
0.0
 11
1072.007162586816
 21
1102.35100238284
 31
0.0
  0
LINE
  5
2D3
  8
1_2___
  6
CONTINUOUS
 62
     1
 10
1072.007162586816
 20
1102.35100238284
 30
0.0
 11
1049.507162586816
 21
1094.161672382817
 31
0.0
  0
LINE
  5
2D4
  8
1_2___
  6
CONTINUOUS
 62
     1
 10
1049.507162586816
 20
1094.161672382817
 30
0.0
 11
1072.007162586816
 21
1085.972342382853
 31
0.0
  0
LINE
  5
2D5
  8
1_2___
  6
CONTINUOUS
 62
     1
 10
1072.007162586816
 20
1085.972342382853
 30
0.0
 11
1049.507162586816
 21
1077.78301238283
 31
0.0
  0
LINE
  5
2D6
  8
1_2___
  6
CONTINUOUS
 62
     1
 10
1049.507162586816
 20
1077.78301238283
 30
0.0
 11
1072.007162586816
 21
1069.593682382807
 31
0.0
  0
LINE
  5
2D7
  8
1_2___
  6
CONTINUOUS
 62
     1
 10
1072.007162586816
 20
1069.593682382807
 30
0.0
 11
1049.507162586816
 21
1061.404352382814
 31
0.0
  0
LINE
  5
2D8
  8
1_2___
  6
CONTINUOUS
 62
     1
 10
1049.507162586816
 20
1061.404352382814
 30
0.0
 11
1072.007162586816
 21
1053.215022382791
 31
0.0
  0
LINE
  5
2D9
  8
1_2___
  6
CONTINUOUS
 62
     1
 10
1072.007162586816
 20
1053.215022382791
 30
0.0
 11
1049.507162586816
 21
1045.025692382825
 31
0.0
  0
LINE
  5
2DA
  8
1_2___
  6
CONTINUOUS
 62
     1
 10
1049.507162586816
 20
1045.025692382825
 30
0.0
 11
1072.007162586816
 21
1036.836362382802
 31
0.0
  0
LINE
  5
2DB
  8
1_2___
  6
CONTINUOUS
 62
     1
 10
1072.007162586816
 20
1036.836362382802
 30
0.0
 11
1049.507162586816
 21
1028.647032382779
 31
0.0
  0
LINE
  5
2DC
  8
1_2___
  6
CONTINUOUS
 62
     1
 10
1049.507162586816
 20
1028.647032382779
 30
0.0
 11
1072.007162586816
 21
1020.457702382815
 31
0.0
  0
LINE
  5
2DD
  8
1_2___
  6
CONTINUOUS
 62
     1
 10
1072.007162586816
 20
1020.457702382815
 30
0.0
 11
1049.507162586816
 21
1012.268372382792
 31
0.0
  0
LINE
  5
2DE
  8
1_2___
  6
CONTINUOUS
 62
     1
 10
1049.507162586816
 20
1012.268372382792
 30
0.0
 11
1072.007162586816
 21
1004.079042382799
 31
0.0
  0
LINE
  5
2DF
  8
1_2___
  6
CONTINUOUS
 62
     1
 10
1072.007162586816
 20
1004.079042382799
 30
0.0
 11
1049.507162586816
 21
995.8897123828333
 31
0.0
  0
LINE
  5
2E0
  8
1_2___
  6
CONTINUOUS
 62
     1
 10
1049.507162586816
 20
995.8897123828333
 30
0.0
 11
1072.007162586816
 21
987.7003823828104
 31
0.0
  0
LINE
  5
2E1
  8
1_2___
  6
CONTINUOUS
 62
     1
 10
1072.007162586816
 20
987.7003823828104
 30
0.0
 11
1049.507162586816
 21
979.5110523828462
 31
0.0
  0
LINE
  5
2E2
  8
1_2___
  6
CONTINUOUS
 62
     1
 10
1049.507162586816
 20
979.5110523828462
 30
0.0
 11
1066.242642586815
 21
973.4198323827864
 31
0.0
  0
LINE
  5
2E3
  8
1_2___
  6
CONTINUOUS
 62
     1
 10
1066.242642586815
 20
973.4198323827864
 30
0.0
 11
1055.890912586816
 21
969.6521123828111
 31
0.0
  0
LINE
  5
2E4
  8
1_2___
  6
CONTINUOUS
 62
     1
 10
1055.890912586816
 20
969.6521123828111
 30
0.0
 11
1060.757162586816
 21
964.6349973828169
 31
0.0
  0
LINE
  5
2E5
  8
1_2___
  6
CONTINUOUS
 62
     1
 10
1048.257162586816
 20
1144.634997382816
 30
0.0
 11
1073.257162586816
 21
1144.634997382816
 31
0.0
  0
LINE
  5
2E6
  8
1_2___
  6
CONTINUOUS
 62
     1
 10
1048.257162586816
 20
1144.634997382816
 30
0.0
 11
1048.257162586816
 21
1212.604997382788
 31
0.0
  0
LINE
  5
2E7
  8
1_2___
  6
CONTINUOUS
 62
     1
 10
1050.757162586816
 20
1114.634997382817
 30
0.0
 11
1050.757162586816
 21
1144.634997382816
 31
0.0
  0
LINE
  5
2E8
  8
1_2___
  6
CONTINUOUS
 62
     1
 10
1070.757162586816
 20
1114.634997382817
 30
0.0
 11
1070.757162586816
 21
1144.634997382816
 31
0.0
  0
LINE
  5
2E9
  8
1_2___
  6
CONTINUOUS
 62
     1
 10
1050.287162586815
 20
1148.15106238282
 30
0.0
 11
1050.287162586815
 21
1214.634997382816
 31
0.0
  0
LINE
  5
2EA
  8
1_2___
  6
CONTINUOUS
 62
     1
 10
1048.257162586816
 20
1144.634997382816
 30
0.0
 11
1050.287162586815
 21
1148.15106238282
 31
0.0
  0
LINE
  5
2EB
  8
1_2___
  6
CONTINUOUS
 62
     1
 10
1050.287162586815
 20
1214.634997382816
 30
0.0
 11
1048.257162586816
 21
1212.604997382788
 31
0.0
  0
LINE
  5
2EC
  8
1_2___
  6
CONTINUOUS
 62
     1
 10
1048.257162586816
 20
1148.15106238282
 30
0.0
 11
1073.257162586816
 21
1148.15106238282
 31
0.0
  0
LINE
  5
2ED
  8
1_2___
  6
CONTINUOUS
 62
     1
 10
1048.257162586816
 20
1212.604997382788
 30
0.0
 11
1073.257162586816
 21
1212.604997382788
 31
0.0
  0
LINE
  5
2EE
  8
1_2___
  6
CONTINUOUS
 62
     1
 10
1071.227162586816
 20
1214.634997382816
 30
0.0
 11
1073.257162586816
 21
1212.604997382788
 31
0.0
  0
LINE
  5
2EF
  8
1_2___
  6
CONTINUOUS
 62
     1
 10
1073.257162586816
 20
1144.634997382816
 30
0.0
 11
1073.257162586816
 21
1212.604997382788
 31
0.0
  0
LINE
  5
2F0
  8
1_2___
  6
CONTINUOUS
 62
     1
 10
1071.227162586816
 20
1148.15106238282
 30
0.0
 11
1071.227162586816
 21
1214.634997382816
 31
0.0
  0
LINE
  5
2F1
  8
1_2___
  6
CONTINUOUS
 62
     1
 10
1073.257162586816
 20
1144.634997382816
 30
0.0
 11
1071.227162586816
 21
1148.15106238282
 31
0.0
  0
TEXT
  5
2F2
  8
1_2___
 62
     1
 10
1004.657242586816
 20
1277.496238204277
 30
0.0
 40
11.06258439429013
  1
ハンガーボルト（×2）
  7
YUGOTHIC_MEDIUM
 11
1004.657242586816
 21
1288.558822598567
 31
0.0
 73
     3
  0
TEXT
  5
2F3
  8
1_2___
 62
     1
 10
778.5829775868162
 20
1278.994518204248
 30
0.0
 40
11.06258439429013
  1
ナット（×2）
  7
YUGOTHIC_MEDIUM
 11
778.5829775868162
 21
1290.057102598538
 31
0.0
 73
     3
  0
LINE
  5
2F4
  8
1_2___
  6
CONTINUOUS
 62
     1
 10
1275.393822376039
 20
1000.162532382818
 30
0.0
 11
1284.143822376039
 21
1000.162532382818
 31
0.0
  0
LINE
  5
2F5
  8
1_2___
  6
CONTINUOUS
 62
     1
 10
1302.268822376039
 20
1190.162532382818
 30
0.0
 11
1302.268822376039
 21
1121.412532382818
 31
0.0
  0
LINE
  5
2F6
  8
1_2___
  6
CONTINUOUS
 62
     1
 10
1295.393822376039
 20
1000.162532382818
 30
0.0
 11
1302.268822376039
 21
1010.162532382818
 31
0.0
  0
LINE
  5
2F7
  8
1_2___
  6
CONTINUOUS
 62
     1
 10
1296.643822376039
 20
1022.662532382818
 30
0.0
 11
1302.268822376039
 21
1022.662532382818
 31
0.0
  0
LINE
  5
2F8
  8
1_2___
  6
CONTINUOUS
 62
     1
 10
1296.643822376039
 20
1030.162532382818
 30
0.0
 11
1296.643822376039
 21
1022.662532382818
 31
0.0
  0
LINE
  5
2F9
  8
1_2___
  6
CONTINUOUS
 62
     1
 10
1296.643822376039
 20
1030.162532382818
 30
0.0
 11
1302.268822376039
 21
1042.662532382818
 31
0.0
  0
LINE
  5
2FA
  8
1_2___
  6
CONTINUOUS
 62
     1
 10
1302.268822376039
 20
1022.662532382818
 30
0.0
 11
1302.268822376039
 21
1010.162532382818
 31
0.0
  0
LINE
  5
2FB
  8
1_2___
  6
CONTINUOUS
 62
     1
 10
1296.643822376039
 20
1048.912532382818
 30
0.0
 11
1302.268822376039
 21
1048.912532382818
 31
0.0
  0
LINE
  5
2FC
  8
1_2___
  6
CONTINUOUS
 62
     1
 10
1296.643822376039
 20
1056.412532382818
 30
0.0
 11
1302.268822376039
 21
1068.912532382818
 31
0.0
  0
LINE
  5
2FD
  8
1_2___
  6
CONTINUOUS
 62
     1
 10
1296.643822376039
 20
1056.412532382818
 30
0.0
 11
1296.643822376039
 21
1048.912532382818
 31
0.0
  0
LINE
  5
2FE
  8
1_2___
  6
CONTINUOUS
 62
     1
 10
1296.643822376039
 20
1075.162532382818
 30
0.0
 11
1302.268822376039
 21
1075.162532382818
 31
0.0
  0
LINE
  5
2FF
  8
1_2___
  6
CONTINUOUS
 62
     1
 10
1296.643822376039
 20
1082.662532382818
 30
0.0
 11
1302.268822376039
 21
1095.162532382818
 31
0.0
  0
LINE
  5
300
  8
1_2___
  6
CONTINUOUS
 62
     1
 10
1296.643822376039
 20
1082.662532382818
 30
0.0
 11
1296.643822376039
 21
1075.162532382818
 31
0.0
  0
LINE
  5
301
  8
1_2___
  6
CONTINUOUS
 62
     1
 10
1296.643822376039
 20
1101.412532382818
 30
0.0
 11
1302.268822376039
 21
1101.412532382818
 31
0.0
  0
LINE
  5
302
  8
1_2___
  6
CONTINUOUS
 62
     1
 10
1296.643822376039
 20
1108.912532382818
 30
0.0
 11
1302.268822376039
 21
1121.412532382818
 31
0.0
  0
LINE
  5
303
  8
1_2___
  6
CONTINUOUS
 62
     1
 10
1296.643822376039
 20
1108.912532382818
 30
0.0
 11
1296.643822376039
 21
1101.412532382818
 31
0.0
  0
LINE
  5
304
  8
1_2___
  6
CONTINUOUS
 62
     1
 10
1302.268822376039
 20
1048.912532382818
 30
0.0
 11
1302.268822376039
 21
1042.662532382818
 31
0.0
  0
LINE
  5
305
  8
1_2___
  6
CONTINUOUS
 62
     1
 10
1302.268822376039
 20
1075.162532382818
 30
0.0
 11
1302.268822376039
 21
1068.912532382818
 31
0.0
  0
LINE
  5
306
  8
1_2___
  6
CONTINUOUS
 62
     1
 10
1302.268822376039
 20
1101.412532382818
 30
0.0
 11
1302.268822376039
 21
1095.162532382818
 31
0.0
  0
ARC
  5
307
  8
1_2___
  6
CONTINUOUS
 62
     1
 10
1373.378352376038
 20
1082.589372382789
 30
0.0
 40
78.78091500001092
 50
142.0827559999892
 51
166.1765769999641
  0
ARC
  5
308
  8
1_2___
  6
CONTINUOUS
 62
     1
 10
1373.378352376038
 20
1082.589372382789
 30
0.0
 40
73.78091500001037
 50
142.0827559999886
 51
165.2191659999868
  0
ARC
  5
309
  8
1_2___
  6
CONTINUOUS
 62
     1
 10
1313.200402376038
 20
1129.465727382832
 30
0.0
 40
2.500000000009452
 50
322.082755999729
 51
142.0827560012927
  0
LINE
  5
30A
  8
1_2___
  6
CONTINUOUS
 62
     1
 10
1298.518822376039
 20
1133.079202382794
 30
0.0
 11
1298.518822376039
 21
1113.079202382795
 31
0.0
  0
LINE
  5
30B
  8
1_2___
  6
CONTINUOUS
 62
     1
 10
1302.268822376039
 20
1133.079202382794
 30
0.0
 11
1298.518822376039
 21
1133.079202382794
 31
0.0
  0
LINE
  5
30C
  8
1_2___
  6
CONTINUOUS
 62
     1
 10
1268.518822376039
 20
1190.162532382818
 30
0.0
 11
1268.518822376039
 21
1121.412532382818
 31
0.0
  0
LINE
  5
30D
  8
1_2___
  6
CONTINUOUS
 62
     1
 10
1275.393822376039
 20
1000.162532382818
 30
0.0
 11
1268.518822376039
 21
1010.162532382818
 31
0.0
  0
LINE
  5
30E
  8
1_2___
  6
CONTINUOUS
 62
     1
 10
1268.518822376039
 20
1133.079202382794
 30
0.0
 11
1272.268822376039
 21
1133.079202382794
 31
0.0
  0
LINE
  5
30F
  8
1_2___
  6
CONTINUOUS
 62
     1
 10
1272.268822376039
 20
1133.079202382794
 30
0.0
 11
1272.268822376039
 21
1113.079202382795
 31
0.0
  0
ARC
  5
310
  8
1_2___
  6
CONTINUOUS
 62
     1
 10
1257.587237376038
 20
1129.465727382832
 30
0.0
 40
2.499999999973648
 50
37.91724399921753
 51
217.9172440007854
  0
ARC
  5
311
  8
1_2___
  6
CONTINUOUS
 62
     1
 10
1197.409287376037
 20
1082.589372382789
 30
0.0
 40
73.78091500000694
 50
14.78083400001391
 51
37.9172440000135
  0
ARC
  5
312
  8
1_2___
  6
CONTINUOUS
 62
     1
 10
1197.409287376037
 20
1082.589372382789
 30
0.0
 40
78.78091500001278
 50
13.82342300003559
 51
37.91724400000957
  0
LINE
  5
313
  8
1_2___
  6
CONTINUOUS
 62
     1
 10
1268.518822376039
 20
1101.412532382818
 30
0.0
 11
1268.518822376039
 21
1095.162532382818
 31
0.0
  0
LINE
  5
314
  8
1_2___
  6
CONTINUOUS
 62
     1
 10
1268.518822376039
 20
1075.162532382818
 30
0.0
 11
1268.518822376039
 21
1068.912532382818
 31
0.0
  0
LINE
  5
315
  8
1_2___
  6
CONTINUOUS
 62
     1
 10
1268.518822376039
 20
1048.912532382818
 30
0.0
 11
1268.518822376039
 21
1042.662532382818
 31
0.0
  0
LINE
  5
316
  8
1_2___
  6
CONTINUOUS
 62
     1
 10
1274.143822376039
 20
1108.912532382818
 30
0.0
 11
1274.143822376039
 21
1101.412532382818
 31
0.0
  0
LINE
  5
317
  8
1_2___
  6
CONTINUOUS
 62
     1
 10
1274.143822376039
 20
1108.912532382818
 30
0.0
 11
1268.518822376039
 21
1121.412532382818
 31
0.0
  0
LINE
  5
318
  8
1_2___
  6
CONTINUOUS
 62
     1
 10
1274.143822376039
 20
1101.412532382818
 30
0.0
 11
1268.518822376039
 21
1101.412532382818
 31
0.0
  0
LINE
  5
319
  8
1_2___
  6
CONTINUOUS
 62
     1
 10
1274.143822376039
 20
1082.662532382818
 30
0.0
 11
1274.143822376039
 21
1075.162532382818
 31
0.0
  0
LINE
  5
31A
  8
1_2___
  6
CONTINUOUS
 62
     1
 10
1274.143822376039
 20
1082.662532382818
 30
0.0
 11
1268.518822376039
 21
1095.162532382818
 31
0.0
  0
LINE
  5
31B
  8
1_2___
  6
CONTINUOUS
 62
     1
 10
1274.143822376039
 20
1075.162532382818
 30
0.0
 11
1268.518822376039
 21
1075.162532382818
 31
0.0
  0
LINE
  5
31C
  8
1_2___
  6
CONTINUOUS
 62
     1
 10
1274.143822376039
 20
1056.412532382818
 30
0.0
 11
1274.143822376039
 21
1048.912532382818
 31
0.0
  0
LINE
  5
31D
  8
1_2___
  6
CONTINUOUS
 62
     1
 10
1274.143822376039
 20
1056.412532382818
 30
0.0
 11
1268.518822376039
 21
1068.912532382818
 31
0.0
  0
LINE
  5
31E
  8
1_2___
  6
CONTINUOUS
 62
     1
 10
1274.143822376039
 20
1048.912532382818
 30
0.0
 11
1268.518822376039
 21
1048.912532382818
 31
0.0
  0
LINE
  5
31F
  8
1_2___
  6
CONTINUOUS
 62
     1
 10
1268.518822376039
 20
1022.662532382818
 30
0.0
 11
1268.518822376039
 21
1010.162532382818
 31
0.0
  0
LINE
  5
320
  8
1_2___
  6
CONTINUOUS
 62
     1
 10
1274.143822376039
 20
1030.162532382818
 30
0.0
 11
1268.518822376039
 21
1042.662532382818
 31
0.0
  0
LINE
  5
321
  8
1_2___
  6
CONTINUOUS
 62
     1
 10
1274.143822376039
 20
1030.162532382818
 30
0.0
 11
1274.143822376039
 21
1022.662532382818
 31
0.0
  0
LINE
  5
322
  8
1_2___
  6
CONTINUOUS
 62
     1
 10
1274.143822376039
 20
1022.662532382818
 30
0.0
 11
1268.518822376039
 21
1022.662532382818
 31
0.0
  0
LINE
  5
323
  8
1_2___
  6
CONTINUOUS
 62
     1
 10
1284.143822376039
 20
1167.662532382818
 30
0.0
 11
1285.393822376039
 21
1167.662532382818
 31
0.0
  0
LINE
  5
324
  8
1_2___
  6
CONTINUOUS
 62
     1
 10
1286.643822376039
 20
1167.662532382818
 30
0.0
 11
1286.643822376039
 21
1000.162532382818
 31
0.0
  0
LINE
  5
325
  8
1_2___
  6
CONTINUOUS
 62
     1
 10
1284.143822376039
 20
1167.662532382818
 30
0.0
 11
1284.143822376039
 21
1000.162532382818
 31
0.0
  0
LINE
  5
326
  8
1_2___
  6
CONTINUOUS
 62
     1
 10
1286.643822376039
 20
1000.162532382818
 30
0.0
 11
1295.393822376039
 21
1000.162532382818
 31
0.0
  0
LINE
  5
327
  8
1_2___
  6
ISO-10______
 62
     2
 10
1285.393822376039
 20
1202.662532382818
 30
0.0
 11
1285.393822376039
 21
987.662532382818
 31
0.0
  0
TEXT
  5
328
  8
1_2___
 62
     1
 10
1236.095102376039
 20
1277.496238204277
 30
0.0
 40
11.06258439429013
  1
アンカープラグS14（×2）
  7
YUGOTHIC_MEDIUM
 11
1236.095102376039
 21
1288.558822598567
 31
0.0
 73
     3
  0
LINE
  5
329
  8
1_2___
  6
CONTINUOUS
 62
     1
 10
1268.518822376039
 20
1190.162532382818
 30
0.0
 11
1302.268822376039
 21
1190.162532382818
 31
0.0
  0
INSERT
  5
32A
  8
1_2___
 62
    17
  2
DIMENSION-1
 10
0.0
 20
0.0
 30
0.0
  0
INSERT
  5
32B
  8
1_2___
 62
    17
  2
DIMENSION-2
 10
0.0
 20
0.0
 30
0.0
  0
INSERT
  5
32C
  8
1_2___
 62
    17
  2
DIMENSION-3
 10
0.0
 20
0.0
 30
0.0
  0
INSERT
  5
32D
  8
1_2___
 62
    17
  2
DIMENSION-4
 10
0.0
 20
0.0
 30
0.0
  0
INSERT
  5
32E
  8
1_2___
 62
    17
  2
DIMENSION-5
 10
0.0
 20
0.0
 30
0.0
  0
INSERT
  5
32F
  8
1_2___
 62
    17
  2
DIMENSION-6
 10
0.0
 20
0.0
 30
0.0
  0
INSERT
  5
330
  8
1_2___
 62
    17
  2
DIMENSION-7
 10
0.0
 20
0.0
 30
0.0
  0
LINE
  5
331
  8
1_2___
  6
CONTINUOUS
 62
     5
 10
825.5545225868157
 20
1146.995837382824
 30
0.0
 11
864.2345873343698
 21
1080.0
 31
0.0
  0
POLYLINE
  5
332
  8
1_2___
  6
CONTINUOUS
 62
    17
 66
     1
 10
0.0
 20
0.0
 30
0.0
 70
   129
  0
VERTEX
  5
333
  8
1_2___
  6
CONTINUOUS
 62
    17
 10
828.2338509679187
 20
1136.996447734387
 30
0.0
  0
VERTEX
  5
334
  8
1_2___
  6
CONTINUOUS
 62
    17
 10
825.5545225868157
 20
1146.995837382824
 30
0.0
  0
VERTEX
  5
335
  8
1_2___
  6
CONTINUOUS
 62
    17
 10
832.8745838541502
 20
1139.67577611549
 30
0.0
  0
SEQEND
  5
336
  8
1_2___
  6
CONTINUOUS
 62
    17
  0
LINE
  5
337
  8
1_2___
  6
CONTINUOUS
 62
     5
 10
864.2345873343698
 20
1080.0
 30
0.0
 11
930.2900481929679
 21
1080.0
 31
0.0
  0
TEXT
  5
338
  8
1_2___
 62
     1
 10
1140.237534182962
 20
1249.976182497437
 30
0.0
 40
9.292570891203704
  1
M10
  7
YUGOTHIC_MEDIUM
 11
1140.237534182962
 21
1254.622467943039
 31
0.0
 73
     2
  0
LINE
  5
339
  8
1_2___
  6
CONTINUOUS
 62
     5
 10
1073.257162586816
 20
1178.619997382802
 30
0.0
 11
1111.93722733437
 21
1245.615834765627
 31
0.0
  0
POLYLINE
  5
33A
  8
1_2___
  6
CONTINUOUS
 62
    17
 66
     1
 10
0.0
 20
0.0
 30
0.0
 70
   129
  0
VERTEX
  5
33B
  8
1_2___
  6
CONTINUOUS
 62
    17
 10
1080.57722385415
 20
1185.940058650137
 30
0.0
  0
VERTEX
  5
33C
  8
1_2___
  6
CONTINUOUS
 62
    17
 10
1073.257162586816
 20
1178.619997382802
 30
0.0
  0
VERTEX
  5
33D
  8
1_2___
  6
CONTINUOUS
 62
    17
 10
1075.936490967919
 20
1188.61938703124
 30
0.0
  0
SEQEND
  5
33E
  8
1_2___
  6
CONTINUOUS
 62
    17
  0
LINE
  5
33F
  8
1_2___
  6
CONTINUOUS
 62
     5
 10
1111.93722733437
 20
1245.615834765627
 30
0.0
 11
1167.059165439607
 21
1245.615834765627
 31
0.0
  0
VIEWPORT
  5
340
 67
     1
  8
0
 10
128.5
 20
97.5
 30
0.0
 40
314.226
 41
222.18
 68
     1
 69
     1
1001
ACAD
1000
MVIEW
1002
{
1070
    16
1010
0.0
1020
0.0
1030
0.0
1010
0.0
1020
0.0
1030
1.0
1040
0.0
1040
222.18
1040
128.5
1040
97.5
1040
50.0
1040
0.0
1040
0.0
1070
     0
1070
   100
1070
     0
1070
     3
1070
     0
1070
     0
1070
     0
1070
     0
1040
0.0
1040
0.0
1040
0.0
1040
10.0
1040
10.0
1040
10.0
1040
10.0
1070
     0
1002
{
1002
}
1002
}
  0
ENDSEC
  0
EOF
