  0
SECTION
  2
HEADER
  9
$ACADVER
  1
AC1009
  9
$DWGCODEPAGE
  3
dos932
  9
$INSBASE
 10
0.0
 20
0.0
 30
0.0
  9
$EXTMIN
 10
-33000.0
 20
-51664.08000000002
 30
-154.3685
  9
$EXTMAX
 10
-2126.29999999949
 20
-47335.92000000001
 30
154.3685
  9
$LIMMIN
 10
0.0
 20
0.0
  9
$LIMMAX
 10
12.0
 20
9.0
  9
$ORTHOMODE
 70
     0
  9
$REGENMODE
 70
     1
  9
$FILLMODE
 70
     1
  9
$QTEXTMODE
 70
     0
  9
$MIRRTEXT
 70
     1
  9
$DRAGMODE
 70
     2
  9
$LTSCALE
 40
38.09999999999999
  9
$OSMODE
 70
    37
  9
$ATTMODE
 70
     1
  9
$TEXTSIZE
 40
0.2
  9
$TRACEWID
 40
1.0
  9
$TEXTSTYLE
  7
STANDARD
  9
$CLAYER
  8
_
  9
$CELTYPE
  6
BYLAYER
  9
$CECOLOR
 62
   256
  9
$DIMSCALE
 40
1.0
  9
$DIMASZ
 40
0.18
  9
$DIMEXO
 40
0.0625
  9
$DIMDLI
 40
0.38
  9
$DIMRND
 40
0.0
  9
$DIMDLE
 40
0.0
  9
$DIMEXE
 40
0.18
  9
$DIMTP
 40
0.0
  9
$DIMTM
 40
0.0
  9
$DIMTXT
 40
0.18
  9
$DIMCEN
 40
0.09
  9
$DIMTSZ
 40
0.0
  9
$DIMTOL
 70
     0
  9
$DIMLIM
 70
     0
  9
$DIMTIH
 70
     1
  9
$DIMTOH
 70
     1
  9
$DIMSE1
 70
     0
  9
$DIMSE2
 70
     0
  9
$DIMTAD
 70
     0
  9
$DIMZIN
 70
     0
  9
$DIMBLK
  1

  9
$DIMASO
 70
     1
  9
$DIMSHO
 70
     1
  9
$DIMPOST
  1

  9
$DIMAPOST
  1

  9
$DIMALT
 70
     0
  9
$DIMALTD
 70
     2
  9
$DIMALTF
 40
25.4
  9
$DIMLFAC
 40
1.0
  9
$DIMTOFL
 70
     0
  9
$DIMTVP
 40
0.0
  9
$DIMTIX
 70
     0
  9
$DIMSOXD
 70
     0
  9
$DIMSAH
 70
     0
  9
$DIMBLK1
  1

  9
$DIMBLK2
  1

  9
$DIMSTYLE
  2
STANDARD
  9
$DIMCLRD
 70
     0
  9
$DIMCLRE
 70
     0
  9
$DIMCLRT
 70
     0
  9
$DIMTFAC
 40
1.0
  9
$DIMGAP
 40
0.09
  9
$LUNITS
 70
     2
  9
$LUPREC
 70
     2
  9
$SKETCHINC
 40
0.1
  9
$FILLETRAD
 40
0.5
  9
$AUNITS
 70
     0
  9
$AUPREC
 70
     2
  9
$MENU
  1
.
  9
$ELEVATION
 40
0.0
  9
$PELEVATION
 40
0.0
  9
$THICKNESS
 40
0.0
  9
$LIMCHECK
 70
     0
  9
$CHAMFERA
 40
0.0
  9
$CHAMFERB
 40
0.0
  9
$SKPOLY
 70
     0
  9
$TDCREATE
 40
2459739.721776285
  9
$TDUPDATE
 40
2459739.721788646
  9
$TDINDWG
 40
0.0000000116
  9
$TDUSRTIMER
 40
0.0000000116
  9
$USRTIMER
 70
     1
  9
$ANGBASE
 50
0.0
  9
$ANGDIR
 70
     0
  9
$PDMODE
 70
     1
  9
$PDSIZE
 40
-2.0
  9
$PLINEWID
 40
0.0
  9
$COORDS
 70
     1
  9
$SPLFRAME
 70
     0
  9
$SPLINETYPE
 70
     6
  9
$SPLINESEGS
 70
     8
  9
$ATTDIA
 70
     0
  9
$ATTREQ
 70
     1
  9
$HANDLING
 70
     1
  9
$HANDSEED
  5
B18
  9
$SURFTAB1
 70
     6
  9
$SURFTAB2
 70
     6
  9
$SURFTYPE
 70
     6
  9
$SURFU
 70
     6
  9
$SURFV
 70
     6
  9
$UCSNAME
  2

  9
$UCSORG
 10
0.0
 20
0.0
 30
0.0
  9
$UCSXDIR
 10
1.0
 20
0.0
 30
0.0
  9
$UCSYDIR
 10
0.0
 20
1.0
 30
0.0
  9
$PUCSNAME
  2

  9
$PUCSORG
 10
0.0
 20
0.0
 30
0.0
  9
$PUCSXDIR
 10
1.0
 20
0.0
 30
0.0
  9
$PUCSYDIR
 10
0.0
 20
1.0
 30
0.0
  9
$USERI1
 70
     0
  9
$USERI2
 70
     0
  9
$USERI3
 70
     0
  9
$USERI4
 70
     0
  9
$USERI5
 70
     0
  9
$USERR1
 40
0.0
  9
$USERR2
 40
0.0
  9
$USERR3
 40
0.0
  9
$USERR4
 40
0.0
  9
$USERR5
 40
0.0
  9
$WORLDVIEW
 70
     1
  9
$SHADEDGE
 70
     3
  9
$SHADEDIF
 70
    70
  9
$TILEMODE
 70
     1
  9
$MAXACTVP
 70
    64
  9
$PLIMCHECK
 70
     0
  9
$PEXTMIN
 10
1.000000000000000E+20
 20
1.000000000000000E+20
 30
1.000000000000000E+20
  9
$PEXTMAX
 10
-1.000000000000000E+20
 20
-1.000000000000000E+20
 30
-1.000000000000000E+20
  9
$PLIMMIN
 10
-20.0
 20
-7.5
  9
$PLIMMAX
 10
277.0
 20
202.5
  9
$UNITMODE
 70
     0
  9
$VISRETAIN
 70
     1
  9
$PLINEGEN
 70
     0
  9
$PSLTSCALE
 70
     1
  0
ENDSEC
  0
SECTION
  2
TABLES
  0
TABLE
  2
VPORT
 70
     1
  0
VPORT
  2
*ACTIVE
 70
     0
 10
0.0
 20
0.0
 11
1.0
 21
1.0
 12
-17563.14999999975
 22
-49500.00000000001
 13
0.0
 23
0.0
 14
0.5
 24
0.5
 15
0.5
 25
0.5
 16
0.0
 26
0.0
 36
1.0
 17
0.0
 27
0.0
 37
0.0
 40
4328.160000000011
 41
7.133215962441414
 42
2000.0
 43
0.0
 44
0.0
 50
0.0
 51
0.0
 71
     0
 72
   100
 73
     1
 74
     3
 75
     0
 76
     0
 77
     0
 78
     0
  0
ENDTAB
  0
TABLE
  2
LTYPE
 70
    44
  0
LTYPE
  2
CONTINUOUS
 70
     0
  3
Solid line
 72
    65
 73
     0
 40
0.0
  0
LTYPE
  2
DASH_CENTER
 70
     0
  3

 72
    65
 73
     4
 40
17.32283464566929
 49
17.32283464566929
 49
-1.574803149606299
 49
1.574803149606299
 49
-1.574803149606301
  0
LTYPE
  2
______-6
 70
     0
  3

 72
    65
 73
     4
 40
1.25
 49
1.25
 49
-0.41656
 49
0.1388600000000001
 49
-0.2778600000000001
  0
LTYPE
  2
______-1
 70
     0
  3

 72
    65
 73
     2
 40
0.41656
 49
0.41656
 49
-0.41672
  0
LTYPE
  2
DIVIDE
 70
     0
  3

 72
    65
 73
     6
 40
1.476377952755906
 49
1.476377952755906
 49
-0.7381889763779528
 49
0.0009999999999999
 49
-0.7371889763779529
 49
0.0009999999999999
 49
-0.7371889763779527
  0
LTYPE
  2
______-3
 70
     0
  3

 72
    65
 73
     6
 40
0.2362204724409449
 49
0.2362204724409449
 49
-0.078740157480315
 49
0.078740157480315
 49
-0.078740157480315
 49
0.078740157480315
 49
-0.078740157480315
  0
LTYPE
  2
DASHDOT-5
 70
     0
  3

 72
    65
 73
     4
 40
0.1574803149606299
 49
0.1574803149606299
 49
-0.078740157480315
 49
0.001
 49
-0.077740157480315
  0
LTYPE
  2
DOT-9
 70
     0
  3

 72
    65
 73
     2
 40
0.001
 49
0.001
 49
-0.077740157480315
  0
LTYPE
  2
CENTER_DASH_DASH-5
 70
     0
  3

 72
    65
 73
     6
 40
2.834645669291338
 49
2.834645669291338
 49
-0.3149606299212598
 49
0.3149606299212598
 49
-0.3149606299212598
 49
0.3149606299212598
 49
-0.3149606299212598
  0
LTYPE
  2
CENTER6
 70
     0
  3

 72
    65
 73
     4
 40
0.2362204724409449
 49
0.2362204724409449
 49
-0.0393700787401575
 49
0.0393700787401575
 49
-0.0393700787401575
  0
LTYPE
  2
PHANTOM-5
 70
     0
  3

 72
    65
 73
     6
 40
0.3937007874015748
 49
0.3937007874015748
 49
-0.078740157480315
 49
0.078740157480315
 49
-0.078740157480315
 49
0.078740157480315
 49
-0.078740157480315
  0
LTYPE
  2
HIDDEN-5
 70
     0
  3

 72
    65
 73
     2
 40
0.078740157480315
 49
0.078740157480315
 49
-0.0393700787401575
  0
LTYPE
  2
CENTER-5
 70
     0
  3

 72
    65
 73
     4
 40
0.3937007874015748
 49
0.3937007874015748
 49
-0.078740157480315
 49
0.078740157480315
 49
-0.078740157480315
  0
LTYPE
  2
DASHDOT-4
 70
     0
  3

 72
    65
 73
     4
 40
0.1574803149606299
 49
0.1574803149606299
 49
-0.078740157480315
 49
0.001
 49
-0.077740157480315
  0
LTYPE
  2
DOT-7
 70
     0
  3

 72
    65
 73
     2
 40
0.001
 49
0.001
 49
-0.077740157480315
  0
LTYPE
  2
CENTER_DASH_DASH-4
 70
     0
  3

 72
    65
 73
     6
 40
2.834645669291338
 49
2.834645669291338
 49
-0.3149606299212598
 49
0.3149606299212598
 49
-0.3149606299212598
 49
0.3149606299212598
 49
-0.3149606299212598
  0
LTYPE
  2
CENTER5
 70
     0
  3

 72
    65
 73
     4
 40
0.2362204724409449
 49
0.2362204724409449
 49
-0.0393700787401575
 49
0.0393700787401575
 49
-0.0393700787401575
  0
LTYPE
  2
PHANTOM-4
 70
     0
  3

 72
    65
 73
     6
 40
0.3937007874015748
 49
0.3937007874015748
 49
-0.078740157480315
 49
0.078740157480315
 49
-0.078740157480315
 49
0.078740157480315
 49
-0.078740157480315
  0
LTYPE
  2
HIDDEN-4
 70
     0
  3

 72
    65
 73
     2
 40
0.078740157480315
 49
0.078740157480315
 49
-0.0393700787401575
  0
LTYPE
  2
CENTER-4
 70
     0
  3

 72
    65
 73
     4
 40
0.3937007874015748
 49
0.3937007874015748
 49
-0.078740157480315
 49
0.078740157480315
 49
-0.078740157480315
  0
LTYPE
  2
DASHDOT-3
 70
     0
  3

 72
    65
 73
     4
 40
0.1574803149606299
 49
0.1574803149606299
 49
-0.078740157480315
 49
0.001
 49
-0.077740157480315
  0
LTYPE
  2
DOT-5
 70
     0
  3

 72
    65
 73
     2
 40
0.001
 49
0.001
 49
-0.077740157480315
  0
LTYPE
  2
CENTER_DASH_DASH-3
 70
     0
  3

 72
    65
 73
     6
 40
2.834645669291338
 49
2.834645669291338
 49
-0.3149606299212598
 49
0.3149606299212598
 49
-0.3149606299212598
 49
0.3149606299212598
 49
-0.3149606299212598
  0
LTYPE
  2
DASHED-2
 70
     0
  3

 72
    65
 73
     2
 40
0.6299212598425197
 49
0.6299212598425197
 49
-0.3149606299212598
  0
LTYPE
  2
PHANTOM-3
 70
     0
  3

 72
    65
 73
     6
 40
0.3937007874015748
 49
0.3937007874015748
 49
-0.078740157480315
 49
0.078740157480315
 49
-0.078740157480315
 49
0.078740157480315
 49
-0.078740157480315
  0
LTYPE
  2
CENTER4
 70
     0
  3

 72
    65
 73
     4
 40
0.2362204724409449
 49
0.2362204724409449
 49
-0.0393700787401575
 49
0.0393700787401575
 49
-0.0393700787401575
  0
LTYPE
  2
HIDDEN-3
 70
     0
  3

 72
    65
 73
     2
 40
0.078740157480315
 49
0.078740157480315
 49
-0.0393700787401575
  0
LTYPE
  2
CENTER-3
 70
     0
  3

 72
    65
 73
     4
 40
0.3937007874015748
 49
0.3937007874015748
 49
-0.078740157480315
 49
0.078740157480315
 49
-0.078740157480315
  0
LTYPE
  2
DASHDOT-2
 70
     0
  3

 72
    65
 73
     4
 40
0.1574803149606299
 49
0.1574803149606299
 49
-0.078740157480315
 49
0.001
 49
-0.077740157480315
  0
LTYPE
  2
DOT-3
 70
     0
  3

 72
    65
 73
     2
 40
0.001
 49
0.001
 49
-0.077740157480315
  0
LTYPE
  2
CENTER_DASH_DASH-2
 70
     0
  3

 72
    65
 73
     6
 40
2.834645669291338
 49
2.834645669291338
 49
-0.3149606299212598
 49
0.3149606299212598
 49
-0.3149606299212598
 49
0.3149606299212598
 49
-0.3149606299212598
  0
LTYPE
  2
DASHED
 70
     0
  3

 72
    65
 73
     2
 40
0.6332021358267717
 49
0.6332021358267717
 49
-0.3166010679133858
  0
LTYPE
  2
PHANTOM-2
 70
     0
  3

 72
    65
 73
     6
 40
0.3937007874015748
 49
0.3937007874015748
 49
-0.078740157480315
 49
0.078740157480315
 49
-0.078740157480315
 49
0.078740157480315
 49
-0.078740157480315
  0
LTYPE
  2
CENTER3
 70
     0
  3

 72
    65
 73
     4
 40
0.2362204724409449
 49
0.2362204724409449
 49
-0.0393700787401575
 49
0.0393700787401575
 49
-0.0393700787401575
  0
LTYPE
  2
HIDDEN-2
 70
     0
  3

 72
    65
 73
     2
 40
0.078740157480315
 49
0.078740157480315
 49
-0.0393700787401575
  0
LTYPE
  2
CENTER-2
 70
     0
  3

 72
    65
 73
     4
 40
0.3937007874015748
 49
0.3937007874015748
 49
-0.078740157480315
 49
0.078740157480315
 49
-0.078740157480315
  0
LTYPE
  2
DASHDOT
 70
     0
  3

 72
    65
 73
     4
 40
1.476377952755906
 49
1.476377952755906
 49
-0.7381889763779528
 49
0.0009999999999999
 49
-0.7371889763779529
  0
LTYPE
  2
DOT
 70
     0
  3

 72
    65
 73
     2
 40
0.001
 49
0.001
 49
-0.7371889763779528
  0
LTYPE
  2
CENTER_DASH_DASH
 70
     0
  3

 72
    65
 73
     6
 40
2.834645669291338
 49
2.834645669291338
 49
-0.3149606299212598
 49
0.3149606299212598
 49
-0.3149606299212598
 49
0.3149606299212598
 49
-0.3149606299212598
  0
LTYPE
  2
CENTER2
 70
     0
  3

 72
    65
 73
     4
 40
0.2362204724409449
 49
0.2362204724409449
 49
-0.0393700787401575
 49
0.0393700787401575
 49
-0.0393700787401575
  0
LTYPE
  2
PHANTOM
 70
     0
  3

 72
    65
 73
     6
 40
0.3937007874015748
 49
0.3937007874015748
 49
-0.078740157480315
 49
0.078740157480315
 49
-0.078740157480315
 49
0.078740157480315
 49
-0.078740157480315
  0
LTYPE
  2
HIDDEN
 70
     0
  3

 72
    65
 73
     2
 40
0.078740157480315
 49
0.078740157480315
 49
-0.0393700787401575
  0
LTYPE
  2
CENTER
 70
     0
  3

 72
    65
 73
     4
 40
1.583005339566929
 49
1.583005339566929
 49
-0.3166010679133857
 49
0.3166010679133857
 49
-0.3166010679133857
  0
LTYPE
  2
______-21
 70
     0
  3

 72
    65
 73
     4
 40
0.9842519685039369
 49
0.9842519685039369
 49
-0.1968503937007873
 49
0.1968503937007873
 49
-0.1968503937007873
  0
ENDTAB
  0
TABLE
  2
LAYER
 70
    10
  0
LAYER
  2
0
 70
     0
 62
     7
  6
CONTINUOUS
  0
LAYER
  2
1_10
 70
     0
 62
     7
  6
CONTINUOUS
  0
LAYER
  2
_
 70
     0
 62
     7
  6
CONTINUOUS
  0
LAYER
  2
DEFPOINTS
 70
     0
 62
     7
  6
CONTINUOUS
  0
ENDTAB
  0
TABLE
  2
STYLE
 70
     4
  0
STYLE
  2
STANDARD
 70
     0
 40
0.0
 41
1.0
 50
0.0
 71
     0
 42
0.2
  3
txt
  4
BIGFONT.SHX
  0
STYLE
  2
YUGOTHIC_MEDIUM
 70
     0
 40
0.0
 41
1.0
 50
0.0
 71
     0
 42
0.2
  3

  4
YuGothic Medium
  0
STYLE
  2
YUGOTHIC_MEDIUM-B
 70
     0
 40
0.0
 41
1.0
 50
0.0
 71
     0
 42
0.2
  3

  4
YuGothic Medium
  0
STYLE
  2
ARIAL
 70
     0
 40
0.0
 41
1.0
 50
0.0
 71
     0
 42
0.2
  3
Arial.ttf
  4

  0
ENDTAB
  0
TABLE
  2
VIEW
 70
     0
  0
ENDTAB
  0
TABLE
  2
UCS
 70
     0
  0
ENDTAB
  0
TABLE
  2
APPID
 70
     2
  0
APPID
  2
ACAD
 70
     0
  0
APPID
  2
ACAECLAYERSTANDARD
 70
     0
  0
ENDTAB
  0
TABLE
  2
DIMSTYLE
 70
     1
  0
DIMSTYLE
  2
STANDARD
 70
     0
  3

  4

  5

  6

  7

 40
1.0
 41
0.18
 42
0.0625
 43
0.38
 44
0.18
 45
0.0
 46
0.0
 47
0.0
 48
0.0
140
0.18
141
0.09
142
0.0
143
25.4
144
1.0
145
0.0
146
1.0
147
0.09
 71
     0
 72
     0
 73
     1
 74
     1
 75
     0
 76
     0
 77
     0
 78
     0
170
     0
171
     2
172
     0
173
     0
174
     0
175
     0
176
     0
177
     0
178
     0
  0
ENDTAB
  0
ENDSEC
  0
SECTION
  2
BLOCKS
  0
BLOCK
  8
0
  2
$MODEL_SPACE
 70
     0
 10
0.0
 20
0.0
 30
0.0
  3
$MODEL_SPACE
  1

  0
ENDBLK
  5
21
  8
0
  0
BLOCK
 67
     1
  8
0
  2
$PAPER_SPACE
 70
     0
 10
0.0
 20
0.0
 30
0.0
  3
$PAPER_SPACE
  1

  0
ENDBLK
  5
1D
 67
     1
  8
0
  0
BLOCK
  8
0
  2
___
 70
     0
 10
0.0
 20
0.0
 30
0.0
  3
___
  1

  0
LINE
  5
253
  8
0
  6
CONTINUOUS
 62
     0
 10
-19177.5
 20
-48153.36927949861
 30
0.0
 11
-19471.66630136804
 21
-48153.36927949861
 31
0.0
  0
LINE
  5
254
  8
0
  6
CONTINUOUS
 62
     0
 10
-19177.5
 20
-48873.36927949861
 30
0.0
 11
-19471.66630136804
 21
-48873.36927949861
 31
0.0
  0
LINE
  5
255
  8
0
  6
CONTINUOUS
 62
     0
 10
-19471.66630136804
 20
-48153.36927949861
 30
0.0
 11
-19471.66630136804
 21
-48873.36927949861
 31
0.0
  0
CIRCLE
  5
256
  8
0
  6
CONTINUOUS
 62
     0
 10
-19471.66630136804
 20
-48153.36927949861
 30
0.0
 40
4.499725341796875
  0
CIRCLE
  5
257
  8
0
  6
CONTINUOUS
 62
     0
 10
-19471.66630136804
 20
-48873.36927949861
 30
0.0
 40
4.499725341796875
  0
TEXT
  5
258
  8
0
 62
     0
 10
-19500.91296803471
 20
-48605.02094455039
 30
0.0
 40
31.86024305555556
  1
400?900
 50
90.0
  7
YUGOTHIC_MEDIUM
 11
-19532.77321109026
 21
-48605.02094455039
 31
0.0
 73
     3
  0
ENDBLK
  5
71
  8
0
  0
BLOCK
  8
0
  2
___-1
 70
     0
 10
0.0
 20
0.0
 30
0.0
  3
___-1
  1

  0
LINE
  5
259
  8
0
  6
CONTINUOUS
 62
     0
 10
-19158.75
 20
-48888.36927949861
 30
0.0
 11
-19158.75
 21
-49023.36927949861
 31
0.0
  0
LINE
  5
25A
  8
0
  6
CONTINUOUS
 62
     0
 10
-19162.5
 20
-48888.36927949861
 30
0.0
 11
-19162.5
 21
-49023.36927949861
 31
0.0
  0
LINE
  5
25B
  8
0
  6
CONTINUOUS
 62
     0
 10
-19162.5
 20
-49023.36927949861
 30
0.0
 11
-19241.45433155711
 21
-49023.36927949861
 31
0.0
  0
LINE
  5
25C
  8
0
  6
CONTINUOUS
 62
     0
 10
-19158.75
 20
-49023.36927949861
 30
0.0
 11
-19162.5
 21
-49023.36927949861
 31
0.0
  0
CIRCLE
  5
25D
  8
0
  6
CONTINUOUS
 62
     0
 10
-19158.75
 20
-49023.36927949861
 30
0.0
 40
4.499725341796875
  0
CIRCLE
  5
25E
  8
0
  6
CONTINUOUS
 62
     0
 10
-19162.5
 20
-49023.36927949861
 30
0.0
 40
4.499725341796875
  0
TEXT
  5
25F
  8
0
 62
     0
 10
-19241.45433155711
 20
-48994.12261283193
 30
0.0
 40
31.86024305555556
  1
2.5
  7
YUGOTHIC_MEDIUM
 11
-19241.45433155711
 21
-48962.26236977638
 31
0.0
 73
     3
  0
ENDBLK
  5
74
  8
0
  0
BLOCK
  8
0
  2
___-2
 70
     0
 10
0.0
 20
0.0
 30
0.0
  3
___-2
  1

  0
LINE
  5
260
  8
0
  6
CONTINUOUS
 62
     0
 10
-19162.5
 20
-48888.36927949861
 30
0.0
 11
-19162.5
 21
-49173.3692794986
 31
0.0
  0
LINE
  5
261
  8
0
  6
CONTINUOUS
 62
     0
 10
-17362.5
 20
-48888.36927949861
 30
0.0
 11
-17362.5
 21
-49173.3692794986
 31
0.0
  0
LINE
  5
262
  8
0
  6
CONTINUOUS
 62
     0
 10
-19162.5
 20
-49173.3692794986
 30
0.0
 11
-17362.5
 21
-49173.3692794986
 31
0.0
  0
CIRCLE
  5
263
  8
0
  6
CONTINUOUS
 62
     0
 10
-19162.5
 20
-49173.3692794986
 30
0.0
 40
4.499725341796875
  0
CIRCLE
  5
264
  8
0
  6
CONTINUOUS
 62
     0
 10
-17362.5
 20
-49173.3692794986
 30
0.0
 40
4.499725341796875
  0
TEXT
  5
265
  8
0
 62
     0
 10
-18519.88666343689
 20
-49144.12261283193
 30
0.0
 40
31.86024305555556
  1
キャビネットW 810?1200
  7
YUGOTHIC_MEDIUM-B
 11
-18519.88666343689
 21
-49112.26236977638
 31
0.0
 73
     3
  0
ENDBLK
  5
78
  8
0
  0
BLOCK
  8
0
  2
___-3
 70
     0
 10
0.0
 20
0.0
 30
0.0
  3
___-3
  1

  0
LINE
  5
266
  8
0
  6
CONTINUOUS
 62
     0
 10
-17366.25
 20
-48888.36927949861
 30
0.0
 11
-17366.25
 21
-49023.36927949861
 31
0.0
  0
LINE
  5
267
  8
0
  6
CONTINUOUS
 62
     0
 10
-17362.5
 20
-48888.36927949861
 30
0.0
 11
-17362.5
 21
-49023.36927949861
 31
0.0
  0
LINE
  5
268
  8
0
  6
CONTINUOUS
 62
     0
 10
-17362.5
 20
-49023.36927949861
 30
0.0
 11
-17283.54566844289
 21
-49023.36927949861
 31
0.0
  0
LINE
  5
269
  8
0
  6
CONTINUOUS
 62
     0
 10
-17366.25
 20
-49023.36927949861
 30
0.0
 11
-17362.5
 21
-49023.36927949861
 31
0.0
  0
CIRCLE
  5
26A
  8
0
  6
CONTINUOUS
 62
     0
 10
-17366.25
 20
-49023.36927949861
 30
0.0
 40
4.499725341796875
  0
CIRCLE
  5
26B
  8
0
  6
CONTINUOUS
 62
     0
 10
-17362.5
 20
-49023.36927949861
 30
0.0
 40
4.499725341796875
  0
TEXT
  5
26C
  8
0
 62
     0
 10
-17341.49999999985
 20
-48994.12261283193
 30
0.0
 40
31.86024305555556
  1
2.5
  7
YUGOTHIC_MEDIUM
 11
-17341.49999999985
 21
-48962.26236977638
 31
0.0
 73
     3
  0
ENDBLK
  5
7B
  8
0
  0
BLOCK
  8
0
  2
___-4
 70
     0
 10
0.0
 20
0.0
 30
0.0
  3
___-4
  1

  0
LINE
  5
26D
  8
0
  6
CONTINUOUS
 62
     0
 10
-19158.75
 20
-48888.36927949861
 30
0.0
 11
-19158.75
 21
-49023.36927949861
 31
0.0
  0
LINE
  5
26E
  8
0
  6
CONTINUOUS
 62
     0
 10
-18566.25
 20
-48888.36927949861
 30
0.0
 11
-18566.25
 21
-49023.36927949861
 31
0.0
  0
LINE
  5
26F
  8
0
  6
CONTINUOUS
 62
     0
 10
-19158.75
 20
-49023.36927949861
 30
0.0
 11
-18566.25
 21
-49023.36927949861
 31
0.0
  0
CIRCLE
  5
270
  8
0
  6
CONTINUOUS
 62
     0
 10
-19158.75
 20
-49023.36927949861
 30
0.0
 40
4.499725341796875
  0
CIRCLE
  5
271
  8
0
  6
CONTINUOUS
 62
     0
 10
-18566.25
 20
-49023.36927949861
 30
0.0
 40
4.499725341796875
  0
TEXT
  5
272
  8
0
 62
     0
 10
-19001.03583494822
 20
-48994.12261283193
 30
0.0
 40
31.86024305555556
  1
扉W 265?395
  7
YUGOTHIC_MEDIUM
 11
-19001.03583494822
 21
-48962.26236977638
 31
0.0
 73
     3
  0
ENDBLK
  5
7E
  8
0
  0
BLOCK
  8
0
  2
___-5
 70
     0
 10
0.0
 20
0.0
 30
0.0
  3
___-5
  1

  0
LINE
  5
273
  8
0
  6
CONTINUOUS
 62
     0
 10
-17958.75
 20
-48888.36927949861
 30
0.0
 11
-17958.75
 21
-49023.36927949861
 31
0.0
  0
LINE
  5
274
  8
0
  6
CONTINUOUS
 62
     0
 10
-17366.25
 20
-48888.36927949861
 30
0.0
 11
-17366.25
 21
-49023.36927949861
 31
0.0
  0
LINE
  5
275
  8
0
  6
CONTINUOUS
 62
     0
 10
-17958.75
 20
-49023.36927949861
 30
0.0
 11
-17366.25
 21
-49023.36927949861
 31
0.0
  0
CIRCLE
  5
276
  8
0
  6
CONTINUOUS
 62
     0
 10
-17958.75
 20
-49023.36927949861
 30
0.0
 40
4.499725341796875
  0
CIRCLE
  5
277
  8
0
  6
CONTINUOUS
 62
     0
 10
-17366.25
 20
-49023.36927949861
 30
0.0
 40
4.499725341796875
  0
TEXT
  5
278
  8
0
 62
     0
 10
-17801.03583494822
 20
-48994.12261283193
 30
0.0
 40
31.86024305555556
  1
扉W 265?395
  7
YUGOTHIC_MEDIUM
 11
-17801.03583494822
 21
-48962.26236977638
 31
0.0
 73
     3
  0
ENDBLK
  5
81
  8
0
  0
BLOCK
  8
0
  2
___-6
 70
     0
 10
0.0
 20
0.0
 30
0.0
  3
___-6
  1

  0
LINE
  5
279
  8
0
  6
CONTINUOUS
 62
     0
 10
-17958.75
 20
-48888.36927949861
 30
0.0
 11
-17958.75
 21
-49023.36927949861
 31
0.0
  0
LINE
  5
27A
  8
0
  6
CONTINUOUS
 62
     0
 10
-17966.25
 20
-48888.36927949861
 30
0.0
 11
-17966.25
 21
-49023.36927949861
 31
0.0
  0
LINE
  5
27B
  8
0
  6
CONTINUOUS
 62
     0
 10
-17958.75
 20
-49023.36927949861
 30
0.0
 11
-17966.25
 21
-49023.36927949861
 31
0.0
  0
CIRCLE
  5
27C
  8
0
  6
CONTINUOUS
 62
     0
 10
-17958.75
 20
-49023.36927949861
 30
0.0
 40
4.499725341796875
  0
CIRCLE
  5
27D
  8
0
  6
CONTINUOUS
 62
     0
 10
-17966.25
 20
-49023.36927949861
 30
0.0
 40
4.499725341796875
  0
TEXT
  5
27E
  8
0
 62
     0
 10
-17974.2475001514
 20
-48994.12261283193
 30
0.0
 40
31.86024305555556
  1
5
  7
YUGOTHIC_MEDIUM
 11
-17974.2475001514
 21
-48962.26236977638
 31
0.0
 73
     3
  0
ENDBLK
  5
84
  8
0
  0
BLOCK
  8
0
  2
___-7
 70
     0
 10
0.0
 20
0.0
 30
0.0
  3
___-7
  1

  0
LINE
  5
27F
  8
0
  6
CONTINUOUS
 62
     0
 10
-18558.75
 20
-48888.36927949861
 30
0.0
 11
-18558.75
 21
-49023.36927949861
 31
0.0
  0
LINE
  5
280
  8
0
  6
CONTINUOUS
 62
     0
 10
-17966.25
 20
-48888.36927949861
 30
0.0
 11
-17966.25
 21
-49023.36927949861
 31
0.0
  0
LINE
  5
281
  8
0
  6
CONTINUOUS
 62
     0
 10
-18558.75
 20
-49023.36927949861
 30
0.0
 11
-17966.25
 21
-49023.36927949861
 31
0.0
  0
CIRCLE
  5
282
  8
0
  6
CONTINUOUS
 62
     0
 10
-18558.75
 20
-49023.36927949861
 30
0.0
 40
4.499725341796875
  0
CIRCLE
  5
283
  8
0
  6
CONTINUOUS
 62
     0
 10
-17966.25
 20
-49023.36927949861
 30
0.0
 40
4.499725341796875
  0
TEXT
  5
284
  8
0
 62
     0
 10
-18401.03583494822
 20
-48994.12261283193
 30
0.0
 40
31.86024305555556
  1
扉W 265?395
  7
YUGOTHIC_MEDIUM
 11
-18401.03583494822
 21
-48962.26236977638
 31
0.0
 73
     3
  0
ENDBLK
  5
87
  8
0
  0
BLOCK
  8
0
  2
___-8
 70
     0
 10
0.0
 20
0.0
 30
0.0
  3
___-8
  1

  0
LINE
  5
285
  8
0
  6
CONTINUOUS
 62
     0
 10
-18558.75
 20
-48888.36927949861
 30
0.0
 11
-18558.75
 21
-49023.36927949861
 31
0.0
  0
LINE
  5
286
  8
0
  6
CONTINUOUS
 62
     0
 10
-18566.25
 20
-48888.36927949861
 30
0.0
 11
-18566.25
 21
-49023.36927949861
 31
0.0
  0
LINE
  5
287
  8
0
  6
CONTINUOUS
 62
     0
 10
-18558.75
 20
-49023.36927949861
 30
0.0
 11
-18566.25
 21
-49023.36927949861
 31
0.0
  0
CIRCLE
  5
288
  8
0
  6
CONTINUOUS
 62
     0
 10
-18558.75
 20
-49023.36927949861
 30
0.0
 40
4.499725341796875
  0
CIRCLE
  5
289
  8
0
  6
CONTINUOUS
 62
     0
 10
-18566.25
 20
-49023.36927949861
 30
0.0
 40
4.499725341796875
  0
TEXT
  5
28A
  8
0
 62
     0
 10
-18574.2475001514
 20
-48994.12261283193
 30
0.0
 40
31.86024305555556
  1
5
  7
YUGOTHIC_MEDIUM
 11
-18574.2475001514
 21
-48962.26236977638
 31
0.0
 73
     3
  0
ENDBLK
  5
8A
  8
0
  0
BLOCK
  8
0
  2
___-9
 70
     0
 10
0.0
 20
0.0
 30
0.0
  3
___-9
  1

  0
LINE
  5
28B
  8
0
  6
CONTINUOUS
 62
     0
 10
-12802.5
 20
-48153.36927949861
 30
0.0
 11
-13096.66630136804
 21
-48153.36927949861
 31
0.0
  0
LINE
  5
28C
  8
0
  6
CONTINUOUS
 62
     0
 10
-12802.5
 20
-48753.36927949861
 30
0.0
 11
-13096.66630136804
 21
-48753.36927949861
 31
0.0
  0
LINE
  5
28D
  8
0
  6
CONTINUOUS
 62
     0
 10
-13096.66630136804
 20
-48153.36927949861
 30
0.0
 11
-13096.66630136804
 21
-48753.36927949861
 31
0.0
  0
CIRCLE
  5
28E
  8
0
  6
CONTINUOUS
 62
     0
 10
-13096.66630136804
 20
-48153.36927949861
 30
0.0
 40
4.499725341796875
  0
CIRCLE
  5
28F
  8
0
  6
CONTINUOUS
 62
     0
 10
-13096.66630136804
 20
-48753.36927949861
 30
0.0
 40
4.499725341796875
  0
TEXT
  5
290
  8
0
 62
     0
 10
-13125.91296803471
 20
-48488.61177869116
 30
0.0
 40
31.86024305555556
  1
400
 50
90.0
  7
YUGOTHIC_MEDIUM
 11
-13157.77321109026
 21
-48488.61177869116
 31
0.0
 73
     3
  0
ENDBLK
  5
8D
  8
0
  0
BLOCK
  8
0
  2
___-10
 70
     0
 10
0.0
 20
0.0
 30
0.0
  3
___-10
  1

  0
LINE
  5
291
  8
0
  6
CONTINUOUS
 62
     0
 10
-12783.75
 20
-48768.36927949861
 30
0.0
 11
-12783.75
 21
-48903.36927949861
 31
0.0
  0
LINE
  5
292
  8
0
  6
CONTINUOUS
 62
     0
 10
-12787.5
 20
-48768.36927949861
 30
0.0
 11
-12787.5
 21
-48903.36927949861
 31
0.0
  0
LINE
  5
293
  8
0
  6
CONTINUOUS
 62
     0
 10
-12787.5
 20
-48903.36927949861
 30
0.0
 11
-12866.45433155711
 21
-48903.36927949861
 31
0.0
  0
LINE
  5
294
  8
0
  6
CONTINUOUS
 62
     0
 10
-12783.75
 20
-48903.36927949861
 30
0.0
 11
-12787.5
 21
-48903.36927949861
 31
0.0
  0
CIRCLE
  5
295
  8
0
  6
CONTINUOUS
 62
     0
 10
-12783.75
 20
-48903.36927949861
 30
0.0
 40
4.499725341796875
  0
CIRCLE
  5
296
  8
0
  6
CONTINUOUS
 62
     0
 10
-12787.5
 20
-48903.36927949861
 30
0.0
 40
4.499725341796875
  0
TEXT
  5
297
  8
0
 62
     0
 10
-12866.45433155711
 20
-48874.12261283194
 30
0.0
 40
31.86024305555556
  1
2.5
  7
YUGOTHIC_MEDIUM
 11
-12866.45433155711
 21
-48842.26236977638
 31
0.0
 73
     3
  0
ENDBLK
  5
90
  8
0
  0
BLOCK
  8
0
  2
___-11
 70
     0
 10
0.0
 20
0.0
 30
0.0
  3
___-11
  1

  0
LINE
  5
298
  8
0
  6
CONTINUOUS
 62
     0
 10
-12787.5
 20
-48817.22213271911
 30
0.0
 11
-12787.5
 21
-49054.14660585717
 31
0.0
  0
LINE
  5
299
  8
0
  6
CONTINUOUS
 62
     0
 10
-11587.5
 20
-48817.22213271911
 30
0.0
 11
-11587.5
 21
-49054.14660585717
 31
0.0
  0
LINE
  5
29A
  8
0
  6
CONTINUOUS
 62
     0
 10
-12787.5
 20
-49054.14660585717
 30
0.0
 11
-11587.5
 21
-49054.14660585717
 31
0.0
  0
CIRCLE
  5
29B
  8
0
  6
CONTINUOUS
 62
     0
 10
-12787.5
 20
-49054.14660585717
 30
0.0
 40
4.499725341796875
  0
CIRCLE
  5
29C
  8
0
  6
CONTINUOUS
 62
     0
 10
-11587.5
 20
-49054.14660585717
 30
0.0
 40
4.499725341796875
  0
TEXT
  5
29D
  8
0
 62
     0
 10
-12432.75814421972
 20
-49024.8999391905
 30
0.0
 40
31.86024305555556
  1
キャビネットW 600?800
  7
YUGOTHIC_MEDIUM-B
 11
-12432.75814421972
 21
-48993.03969613495
 31
0.0
 73
     3
  0
ENDBLK
  5
93
  8
0
  0
BLOCK
  8
0
  2
___-12
 70
     0
 10
0.0
 20
0.0
 30
0.0
  3
___-12
  1

  0
LINE
  5
29E
  8
0
  6
CONTINUOUS
 62
     0
 10
-11591.25
 20
-48768.36927949861
 30
0.0
 11
-11591.25
 21
-48903.36927949861
 31
0.0
  0
LINE
  5
29F
  8
0
  6
CONTINUOUS
 62
     0
 10
-11587.5
 20
-48768.36927949861
 30
0.0
 11
-11587.5
 21
-48903.36927949861
 31
0.0
  0
LINE
  5
2A0
  8
0
  6
CONTINUOUS
 62
     0
 10
-11587.5
 20
-48903.36927949861
 30
0.0
 11
-11508.54566844289
 21
-48903.36927949861
 31
0.0
  0
LINE
  5
2A1
  8
0
  6
CONTINUOUS
 62
     0
 10
-11591.25
 20
-48903.36927949861
 30
0.0
 11
-11587.5
 21
-48903.36927949861
 31
0.0
  0
CIRCLE
  5
2A2
  8
0
  6
CONTINUOUS
 62
     0
 10
-11591.25
 20
-48903.36927949861
 30
0.0
 40
4.499725341796875
  0
CIRCLE
  5
2A3
  8
0
  6
CONTINUOUS
 62
     0
 10
-11587.5
 20
-48903.36927949861
 30
0.0
 40
4.499725341796875
  0
TEXT
  5
2A4
  8
0
 62
     0
 10
-11566.49999999985
 20
-48874.12261283194
 30
0.0
 40
31.86024305555556
  1
2.5
  7
YUGOTHIC_MEDIUM
 11
-11566.49999999985
 21
-48842.26236977638
 31
0.0
 73
     3
  0
ENDBLK
  5
96
  8
0
  0
BLOCK
  8
0
  2
___-13
 70
     0
 10
0.0
 20
0.0
 30
0.0
  3
___-13
  1

  0
LINE
  5
2A5
  8
0
  6
CONTINUOUS
 62
     0
 10
-12783.75
 20
-48768.36927949861
 30
0.0
 11
-12783.75
 21
-48903.36927949861
 31
0.0
  0
LINE
  5
2A6
  8
0
  6
CONTINUOUS
 62
     0
 10
-11591.25
 20
-48768.36927949861
 30
0.0
 11
-11591.25
 21
-48903.36927949861
 31
0.0
  0
LINE
  5
2A7
  8
0
  6
CONTINUOUS
 62
     0
 10
-12783.75
 20
-48903.36927949861
 30
0.0
 11
-11591.25
 21
-48903.36927949861
 31
0.0
  0
CIRCLE
  5
2A8
  8
0
  6
CONTINUOUS
 62
     0
 10
-12783.75
 20
-48903.36927949861
 30
0.0
 40
4.499725341796875
  0
CIRCLE
  5
2A9
  8
0
  6
CONTINUOUS
 62
     0
 10
-11591.25
 20
-48903.36927949861
 30
0.0
 40
4.499725341796875
  0
TEXT
  5
2AA
  8
0
 62
     0
 10
-12326.03583494822
 20
-48874.12261283194
 30
0.0
 40
31.86024305555556
  1
扉W 595?895
  7
YUGOTHIC_MEDIUM
 11
-12326.03583494822
 21
-48842.26236977638
 31
0.0
 73
     3
  0
ENDBLK
  5
99
  8
0
  0
BLOCK
  8
0
  2
___-14
 70
     0
 10
0.0
 20
0.0
 30
0.0
  3
___-14
  1

  0
LINE
  5
2AB
  8
0
  6
CONTINUOUS
 62
     0
 10
-19177.5
 20
-48160.86927949861
 30
0.0
 11
-19367.25
 21
-48160.86927949861
 31
0.0
  0
LINE
  5
2AC
  8
0
  6
CONTINUOUS
 62
     0
 10
-19177.5
 20
-48873.36927949861
 30
0.0
 11
-19367.25
 21
-48873.36927949861
 31
0.0
  0
LINE
  5
2AD
  8
0
  6
CONTINUOUS
 62
     0
 10
-19367.25
 20
-48160.86927949861
 30
0.0
 11
-19367.25
 21
-48873.36927949861
 31
0.0
  0
CIRCLE
  5
2AE
  8
0
  6
CONTINUOUS
 62
     0
 10
-19367.25
 20
-48160.86927949861
 30
0.0
 40
4.499725341796875
  0
CIRCLE
  5
2AF
  8
0
  6
CONTINUOUS
 62
     0
 10
-19367.25
 20
-48873.36927949861
 30
0.0
 40
4.499725341796875
  0
TEXT
  5
2B0
  8
0
 62
     0
 10
-19396.49666666667
 20
-48651.76043736414
 30
0.0
 40
31.86024305555556
  1
扉H 395?895
 50
90.0
  7
YUGOTHIC_MEDIUM
 11
-19428.35690972222
 21
-48651.76043736414
 31
0.0
 73
     3
  0
ENDBLK
  5
9C
  8
0
  0
BLOCK
  8
0
  2
___-15
 70
     0
 10
0.0
 20
0.0
 30
0.0
  3
___-15
  1

  0
LINE
  5
2B1
  8
0
  6
CONTINUOUS
 62
     0
 10
-19177.5
 20
-48160.86927949861
 30
0.0
 11
-19367.25
 21
-48160.86927949861
 31
0.0
  0
LINE
  5
2B2
  8
0
  6
CONTINUOUS
 62
     0
 10
-19177.5
 20
-48153.36927949861
 30
0.0
 11
-19367.25
 21
-48153.36927949861
 31
0.0
  0
LINE
  5
2B3
  8
0
  6
CONTINUOUS
 62
     0
 10
-19367.25
 20
-48160.86927949861
 30
0.0
 11
-19367.25
 21
-48153.36927949861
 31
0.0
  0
CIRCLE
  5
2B4
  8
0
  6
CONTINUOUS
 62
     0
 10
-19367.25
 20
-48160.86927949861
 30
0.0
 40
4.499725341796875
  0
CIRCLE
  5
2B5
  8
0
  6
CONTINUOUS
 62
     0
 10
-19367.25
 20
-48153.36927949861
 30
0.0
 40
4.499725341796875
  0
TEXT
  5
2B6
  8
0
 62
     0
 10
-19396.49666666667
 20
-48168.86677965001
 30
0.0
 40
31.86024305555556
  1
5
 50
90.0
  7
YUGOTHIC_MEDIUM
 11
-19428.35690972222
 21
-48168.86677965001
 31
0.0
 73
     3
  0
ENDBLK
  5
9F
  8
0
  0
BLOCK
  8
0
  2
___-16
 70
     0
 10
0.0
 20
0.0
 30
0.0
  3
___-16
  1

  0
LINE
  5
2B7
  8
0
  6
CONTINUOUS
 62
     0
 10
-19177.5
 20
-49531.40816003564
 30
0.0
 11
-19471.66630136804
 21
-49531.40816003564
 31
0.0
  0
LINE
  5
2B8
  8
0
  6
CONTINUOUS
 62
     0
 10
-19177.5
 20
-50236.40816003564
 30
0.0
 11
-19471.66630136804
 21
-50236.40816003564
 31
0.0
  0
LINE
  5
2B9
  8
0
  6
CONTINUOUS
 62
     0
 10
-19471.66630136804
 20
-49531.40816003564
 30
0.0
 11
-19471.66630136804
 21
-50236.40816003564
 31
0.0
  0
CIRCLE
  5
2BA
  8
0
  6
CONTINUOUS
 62
     0
 10
-19471.66630136804
 20
-49531.40816003564
 30
0.0
 40
4.499725341796875
  0
CIRCLE
  5
2BB
  8
0
  6
CONTINUOUS
 62
     0
 10
-19471.66630136804
 20
-50236.40816003564
 30
0.0
 40
4.499725341796875
  0
TEXT
  5
2BC
  8
0
 62
     0
 10
-19500.91296803471
 20
-49919.15065922818
 30
0.0
 40
31.86024305555556
  1
470
 50
90.0
  7
YUGOTHIC_MEDIUM
 11
-19532.77321109026
 21
-49919.15065922818
 31
0.0
 73
     3
  0
ENDBLK
  5
A2
  8
0
  0
BLOCK
  8
0
  2
___-17
 70
     0
 10
0.0
 20
0.0
 30
0.0
  3
___-17
  1

  0
LINE
  5
2BD
  8
0
  6
CONTINUOUS
 62
     0
 10
-19162.5
 20
-50266.40816003564
 30
0.0
 11
-19162.5
 21
-50551.40816003564
 31
0.0
  0
LINE
  5
2BE
  8
0
  6
CONTINUOUS
 62
     0
 10
-17362.5
 20
-50266.40816003564
 30
0.0
 11
-17362.5
 21
-50551.40816003564
 31
0.0
  0
LINE
  5
2BF
  8
0
  6
CONTINUOUS
 62
     0
 10
-19162.5
 20
-50551.40816003564
 30
0.0
 11
-17362.5
 21
-50551.40816003564
 31
0.0
  0
CIRCLE
  5
2C0
  8
0
  6
CONTINUOUS
 62
     0
 10
-19162.5
 20
-50551.40816003564
 30
0.0
 40
4.499725341796875
  0
CIRCLE
  5
2C1
  8
0
  6
CONTINUOUS
 62
     0
 10
-17362.5
 20
-50551.40816003564
 30
0.0
 40
4.499725341796875
  0
TEXT
  5
2C2
  8
0
 62
     0
 10
-18519.88666343689
 20
-50522.16149336896
 30
0.0
 40
31.86024305555556
  1
キャビネットW 810?1200
  7
YUGOTHIC_MEDIUM-B
 11
-18519.88666343689
 21
-50490.30125031341
 31
0.0
 73
     3
  0
ENDBLK
  5
A5
  8
0
  0
BLOCK
  8
0
  2
___-18
 70
     0
 10
0.0
 20
0.0
 30
0.0
  3
___-18
  1

  0
LINE
  5
2C3
  8
0
  6
CONTINUOUS
 62
     0
 10
-18540.0
 20
-50266.40816003564
 30
0.0
 11
-18540.0
 21
-50401.40816003564
 31
0.0
  0
LINE
  5
2C4
  8
0
  6
CONTINUOUS
 62
     0
 10
-18585.0
 20
-50266.40816003564
 30
0.0
 11
-18585.0
 21
-50401.40816003564
 31
0.0
  0
LINE
  5
2C5
  8
0
  6
CONTINUOUS
 62
     0
 10
-18540.0
 20
-50401.40816003564
 30
0.0
 11
-18585.0
 21
-50401.40816003564
 31
0.0
  0
CIRCLE
  5
2C6
  8
0
  6
CONTINUOUS
 62
     0
 10
-18540.0
 20
-50401.40816003564
 30
0.0
 40
4.499725341796875
  0
CIRCLE
  5
2C7
  8
0
  6
CONTINUOUS
 62
     0
 10
-18585.0
 20
-50401.40816003564
 30
0.0
 40
4.499725341796875
  0
TEXT
  5
2C8
  8
0
 62
     0
 10
-18585.99500030279
 20
-50372.16149336896
 30
0.0
 40
31.86024305555556
  1
30
  7
YUGOTHIC_MEDIUM
 11
-18585.99500030279
 21
-50340.30125031341
 31
0.0
 73
     3
  0
ENDBLK
  5
A8
  8
0
  0
BLOCK
  8
0
  2
___-19
 70
     0
 10
0.0
 20
0.0
 30
0.0
  3
___-19
  1

  0
LINE
  5
2C9
  8
0
  6
CONTINUOUS
 62
     0
 10
-19177.5
 20
-49553.90816003564
 30
0.0
 11
-19367.25
 21
-49553.90816003564
 31
0.0
  0
LINE
  5
2CA
  8
0
  6
CONTINUOUS
 62
     0
 10
-19177.5
 20
-50213.90816003564
 30
0.0
 11
-19367.25
 21
-50213.90816003564
 31
0.0
  0
LINE
  5
2CB
  8
0
  6
CONTINUOUS
 62
     0
 10
-19367.25
 20
-49553.90816003564
 30
0.0
 11
-19367.25
 21
-50213.90816003564
 31
0.0
  0
CIRCLE
  5
2CC
  8
0
  6
CONTINUOUS
 62
     0
 10
-19367.25
 20
-49553.90816003564
 30
0.0
 40
4.499725341796875
  0
CIRCLE
  5
2CD
  8
0
  6
CONTINUOUS
 62
     0
 10
-19367.25
 20
-50213.90816003564
 30
0.0
 40
4.499725341796875
  0
TEXT
  5
2CE
  8
0
 62
     0
 10
-19396.49666666667
 20
-49919.15065922818
 30
0.0
 40
31.86024305555556
  1
440
 50
90.0
  7
YUGOTHIC_MEDIUM
 11
-19428.35690972222
 21
-49919.15065922818
 31
0.0
 73
     3
  0
ENDBLK
  5
AB
  8
0
  0
BLOCK
  8
0
  2
___-20
 70
     0
 10
0.0
 20
0.0
 30
0.0
  3
___-20
  1

  0
LINE
  5
2CF
  8
0
  6
CONTINUOUS
 62
     0
 10
-19177.5
 20
-49553.90816003564
 30
0.0
 11
-19367.25
 21
-49553.90816003564
 31
0.0
  0
LINE
  5
2D0
  8
0
  6
CONTINUOUS
 62
     0
 10
-19177.5
 20
-49531.40816003564
 30
0.0
 11
-19367.25
 21
-49531.40816003564
 31
0.0
  0
LINE
  5
2D1
  8
0
  6
CONTINUOUS
 62
     0
 10
-19367.25
 20
-49553.90816003564
 30
0.0
 11
-19367.25
 21
-49531.40816003564
 31
0.0
  0
CIRCLE
  5
2D2
  8
0
  6
CONTINUOUS
 62
     0
 10
-19367.25
 20
-49553.90816003564
 30
0.0
 40
4.499725341796875
  0
CIRCLE
  5
2D3
  8
0
  6
CONTINUOUS
 62
     0
 10
-19367.25
 20
-49531.40816003564
 30
0.0
 40
4.499725341796875
  0
TEXT
  5
2D4
  8
0
 62
     0
 10
-19396.49666666667
 20
-49566.15316033843
 30
0.0
 40
31.86024305555556
  1
15
 50
90.0
  7
YUGOTHIC_MEDIUM
 11
-19428.35690972222
 21
-49566.15316033843
 31
0.0
 73
     3
  0
ENDBLK
  5
AE
  8
0
  0
BLOCK
  8
0
  2
___-21
 70
     0
 10
0.0
 20
0.0
 30
0.0
  3
___-21
  1

  0
LINE
  5
2D5
  8
0
  6
CONTINUOUS
 62
     0
 10
-19177.5
 20
-50236.40816003564
 30
0.0
 11
-19367.25
 21
-50236.40816003564
 31
0.0
  0
LINE
  5
2D6
  8
0
  6
CONTINUOUS
 62
     0
 10
-19177.5
 20
-50213.90816003564
 30
0.0
 11
-19367.25
 21
-50213.90816003564
 31
0.0
  0
LINE
  5
2D7
  8
0
  6
CONTINUOUS
 62
     0
 10
-19367.25
 20
-50236.40816003564
 30
0.0
 11
-19367.25
 21
-50213.90816003564
 31
0.0
  0
CIRCLE
  5
2D8
  8
0
  6
CONTINUOUS
 62
     0
 10
-19367.25
 20
-50236.40816003564
 30
0.0
 40
4.499725341796875
  0
CIRCLE
  5
2D9
  8
0
  6
CONTINUOUS
 62
     0
 10
-19367.25
 20
-50213.90816003564
 30
0.0
 40
4.499725341796875
  0
TEXT
  5
2DA
  8
0
 62
     0
 10
-19396.49666666667
 20
-50305.46448894821
 30
0.0
 40
31.86024305555556
  1
15
 50
90.0
  7
YUGOTHIC_MEDIUM
 11
-19428.35690972222
 21
-50305.46448894821
 31
0.0
 73
     3
  0
TEXT
  5
2DB
  8
0
 62
     0
 10
-19396.49666666667
 20
-50258.47448834262
 30
0.0
 40
31.86024305555556
  1
(17.5)
 50
90.0
  7
YUGOTHIC_MEDIUM
 11
-19428.35690972222
 21
-50258.47448834262
 31
0.0
 73
     3
  0
ENDBLK
  5
B1
  8
0
  0
BLOCK
  8
0
  2
___-22
 70
     0
 10
0.0
 20
0.0
 30
0.0
  3
___-22
  1

  0
LINE
  5
2DC
  8
0
  6
CONTINUOUS
 62
     0
 10
-19140.0
 20
-50266.40816003564
 30
0.0
 11
-19140.0
 21
-50401.40816003564
 31
0.0
  0
LINE
  5
2DD
  8
0
  6
CONTINUOUS
 62
     0
 10
-19162.5
 20
-50266.40816003564
 30
0.0
 11
-19162.5
 21
-50401.40816003564
 31
0.0
  0
LINE
  5
2DE
  8
0
  6
CONTINUOUS
 62
     0
 10
-19140.0
 20
-50401.40816003564
 30
0.0
 11
-19162.5
 21
-50401.40816003564
 31
0.0
  0
CIRCLE
  5
2DF
  8
0
  6
CONTINUOUS
 62
     0
 10
-19140.0
 20
-50401.40816003564
 30
0.0
 40
4.499725341796875
  0
CIRCLE
  5
2E0
  8
0
  6
CONTINUOUS
 62
     0
 10
-19162.5
 20
-50401.40816003564
 30
0.0
 40
4.499725341796875
  0
TEXT
  5
2E1
  8
0
 62
     0
 10
-19231.55632891258
 20
-50372.16149336896
 30
0.0
 40
31.86024305555556
  1
15
  7
YUGOTHIC_MEDIUM
 11
-19231.55632891258
 21
-50340.30125031341
 31
0.0
 73
     3
  0
TEXT
  5
2E2
  8
0
 62
     0
 10
-19184.566328307
 20
-50372.16149336896
 30
0.0
 40
31.86024305555556
  1
(14.5)
  7
YUGOTHIC_MEDIUM
 11
-19184.566328307
 21
-50340.30125031341
 31
0.0
 73
     3
  0
ENDBLK
  5
B4
  8
0
  0
BLOCK
  8
0
  2
___-23
 70
     0
 10
0.0
 20
0.0
 30
0.0
  3
___-23
  1

  0
LINE
  5
2E3
  8
0
  6
CONTINUOUS
 62
     0
 10
-17362.5
 20
-50266.40816003564
 30
0.0
 11
-17362.5
 21
-50401.40816003564
 31
0.0
  0
LINE
  5
2E4
  8
0
  6
CONTINUOUS
 62
     0
 10
-17385.0
 20
-50266.40816003564
 30
0.0
 11
-17385.0
 21
-50401.40816003564
 31
0.0
  0
LINE
  5
2E5
  8
0
  6
CONTINUOUS
 62
     0
 10
-17362.5
 20
-50401.40816003564
 30
0.0
 11
-17385.0
 21
-50401.40816003564
 31
0.0
  0
CIRCLE
  5
2E6
  8
0
  6
CONTINUOUS
 62
     0
 10
-17362.5
 20
-50401.40816003564
 30
0.0
 40
4.499725341796875
  0
CIRCLE
  5
2E7
  8
0
  6
CONTINUOUS
 62
     0
 10
-17385.0
 20
-50401.40816003564
 30
0.0
 40
4.499725341796875
  0
TEXT
  5
2E8
  8
0
 62
     0
 10
-17454.05632891258
 20
-50372.16149336896
 30
0.0
 40
31.86024305555556
  1
15
  7
YUGOTHIC_MEDIUM
 11
-17454.05632891258
 21
-50340.30125031341
 31
0.0
 73
     3
  0
TEXT
  5
2E9
  8
0
 62
     0
 10
-17407.066328307
 20
-50372.16149336896
 30
0.0
 40
31.86024305555556
  1
(14.5)
  7
YUGOTHIC_MEDIUM
 11
-17407.066328307
 21
-50340.30125031341
 31
0.0
 73
     3
  0
ENDBLK
  5
B7
  8
0
  0
BLOCK
  8
0
  2
____-1
 70
     0
 10
0.0
 20
0.0
 30
0.0
  3
____-1
  1

  0
POLYLINE
  5
2EA
  8
0
  6
CONTINUOUS
 62
     7
 66
     1
 10
0.0
 20
0.0
 30
0.0
 70
   129
  0
VERTEX
  5
2EB
  8
0
  6
CONTINUOUS
 62
     7
 10
-12760.0
 20
-33378.34114734217
 30
0.0
  0
VERTEX
  5
2EC
  8
0
  6
CONTINUOUS
 62
     7
 10
-12752.42424242424
 20
-33378.34114734217
 30
0.0
  0
VERTEX
  5
2ED
  8
0
  6
CONTINUOUS
 62
     7
 10
-12752.42424242424
 20
-33438.34114734217
 30
0.0
  0
VERTEX
  5
2EE
  8
0
  6
CONTINUOUS
 62
     7
 10
-12760.0
 20
-33438.34114734217
 30
0.0
  0
SEQEND
  5
2EF
  8
0
  6
CONTINUOUS
 62
     7
  0
POLYLINE
  5
2F0
  8
0
  6
CONTINUOUS
 62
     7
 66
     1
 10
0.0
 20
0.0
 30
0.0
 70
   129
  0
VERTEX
  5
2F1
  8
0
  6
CONTINUOUS
 62
     7
 10
-12760.0
 20
-33398.34114734217
 30
0.0
  0
VERTEX
  5
2F2
  8
0
  6
CONTINUOUS
 62
     7
 10
-12740.0
 20
-33398.34114734217
 30
0.0
  0
VERTEX
  5
2F3
  8
0
  6
CONTINUOUS
 62
     7
 10
-12740.0
 20
-33418.34114734217
 30
0.0
  0
VERTEX
  5
2F4
  8
0
  6
CONTINUOUS
 62
     7
 10
-12760.0
 20
-33418.34114734217
 30
0.0
  0
SEQEND
  5
2F5
  8
0
  6
CONTINUOUS
 62
     7
  0
POLYLINE
  5
2F6
  8
0
  6
CONTINUOUS
 62
     7
 66
     1
 10
0.0
 20
0.0
 30
0.0
 70
   129
  0
VERTEX
  5
2F7
  8
0
  6
CONTINUOUS
 62
     7
 10
-12757.57575757576
 20
-33403.34114734217
 30
0.0
  0
VERTEX
  5
2F8
  8
0
  6
CONTINUOUS
 62
     7
 10
-12742.42424242424
 20
-33403.34114734217
 30
0.0
  0
VERTEX
  5
2F9
  8
0
  6
CONTINUOUS
 62
     7
 10
-12742.42424242424
 20
-33413.34114734217
 30
0.0
  0
VERTEX
  5
2FA
  8
0
  6
CONTINUOUS
 62
     7
 10
-12757.57575757576
 20
-33413.34114734217
 30
0.0
  0
SEQEND
  5
2FB
  8
0
  6
CONTINUOUS
 62
     7
  0
ENDBLK
  5
BA
  8
0
  0
BLOCK
  8
0
  2
____-2-1
 70
     0
 10
0.0
 20
0.0
 30
0.0
  3
____-2-1
  1

  0
POLYLINE
  5
2FC
  8
0
  6
CONTINUOUS
 62
     7
 66
     1
 10
0.0
 20
0.0
 30
0.0
 70
   129
  0
VERTEX
  5
2FD
  8
0
  6
CONTINUOUS
 62
     7
 10
-12760.0
 20
-33064.95361856048
 30
0.0
  0
VERTEX
  5
2FE
  8
0
  6
CONTINUOUS
 62
     7
 10
-12752.42424242424
 20
-33064.95361856048
 30
0.0
  0
VERTEX
  5
2FF
  8
0
  6
CONTINUOUS
 62
     7
 10
-12752.42424242424
 20
-33124.95361856048
 30
0.0
  0
VERTEX
  5
300
  8
0
  6
CONTINUOUS
 62
     7
 10
-12760.0
 20
-33124.95361856048
 30
0.0
  0
SEQEND
  5
301
  8
0
  6
CONTINUOUS
 62
     7
  0
POLYLINE
  5
302
  8
0
  6
CONTINUOUS
 62
     7
 66
     1
 10
0.0
 20
0.0
 30
0.0
 70
   129
  0
VERTEX
  5
303
  8
0
  6
CONTINUOUS
 62
     7
 10
-12760.0
 20
-33084.95361856048
 30
0.0
  0
VERTEX
  5
304
  8
0
  6
CONTINUOUS
 62
     7
 10
-12740.0
 20
-33084.95361856048
 30
0.0
  0
VERTEX
  5
305
  8
0
  6
CONTINUOUS
 62
     7
 10
-12740.0
 20
-33104.95361856048
 30
0.0
  0
VERTEX
  5
306
  8
0
  6
CONTINUOUS
 62
     7
 10
-12760.0
 20
-33104.95361856048
 30
0.0
  0
SEQEND
  5
307
  8
0
  6
CONTINUOUS
 62
     7
  0
POLYLINE
  5
308
  8
0
  6
CONTINUOUS
 62
     7
 66
     1
 10
0.0
 20
0.0
 30
0.0
 70
   129
  0
VERTEX
  5
309
  8
0
  6
CONTINUOUS
 62
     7
 10
-12757.57575757576
 20
-33089.95361856048
 30
0.0
  0
VERTEX
  5
30A
  8
0
  6
CONTINUOUS
 62
     7
 10
-12742.42424242424
 20
-33089.95361856048
 30
0.0
  0
VERTEX
  5
30B
  8
0
  6
CONTINUOUS
 62
     7
 10
-12742.42424242424
 20
-33099.95361856048
 30
0.0
  0
VERTEX
  5
30C
  8
0
  6
CONTINUOUS
 62
     7
 10
-12757.57575757576
 20
-33099.95361856048
 30
0.0
  0
SEQEND
  5
30D
  8
0
  6
CONTINUOUS
 62
     7
  0
ENDBLK
  5
BD
  8
0
  0
BLOCK
  8
0
  2
____-3-1
 70
     0
 10
0.0
 20
0.0
 30
0.0
  3
____-3-1
  1

  0
POLYLINE
  5
30E
  8
0
  6
CONTINUOUS
 62
     7
 66
     1
 10
0.0
 20
0.0
 30
0.0
 70
   129
  0
VERTEX
  5
30F
  8
0
  6
CONTINUOUS
 62
     7
 10
-12397.65151515152
 20
-33378.34114734217
 30
0.0
  0
VERTEX
  5
310
  8
0
  6
CONTINUOUS
 62
     7
 10
-12390.07575757576
 20
-33378.34114734217
 30
0.0
  0
VERTEX
  5
311
  8
0
  6
CONTINUOUS
 62
     7
 10
-12390.07575757576
 20
-33438.34114734217
 30
0.0
  0
VERTEX
  5
312
  8
0
  6
CONTINUOUS
 62
     7
 10
-12397.65151515152
 20
-33438.34114734217
 30
0.0
  0
SEQEND
  5
313
  8
0
  6
CONTINUOUS
 62
     7
  0
POLYLINE
  5
314
  8
0
  6
CONTINUOUS
 62
     7
 66
     1
 10
0.0
 20
0.0
 30
0.0
 70
   129
  0
VERTEX
  5
315
  8
0
  6
CONTINUOUS
 62
     7
 10
-12410.07575757576
 20
-33398.34114734217
 30
0.0
  0
VERTEX
  5
316
  8
0
  6
CONTINUOUS
 62
     7
 10
-12390.07575757576
 20
-33398.34114734217
 30
0.0
  0
VERTEX
  5
317
  8
0
  6
CONTINUOUS
 62
     7
 10
-12390.07575757576
 20
-33418.34114734217
 30
0.0
  0
VERTEX
  5
318
  8
0
  6
CONTINUOUS
 62
     7
 10
-12410.07575757576
 20
-33418.34114734217
 30
0.0
  0
SEQEND
  5
319
  8
0
  6
CONTINUOUS
 62
     7
  0
POLYLINE
  5
31A
  8
0
  6
CONTINUOUS
 62
     7
 66
     1
 10
0.0
 20
0.0
 30
0.0
 70
   129
  0
VERTEX
  5
31B
  8
0
  6
CONTINUOUS
 62
     7
 10
-12407.65151515152
 20
-33403.34114734217
 30
0.0
  0
VERTEX
  5
31C
  8
0
  6
CONTINUOUS
 62
     7
 10
-12392.5
 20
-33403.34114734217
 30
0.0
  0
VERTEX
  5
31D
  8
0
  6
CONTINUOUS
 62
     7
 10
-12392.5
 20
-33413.34114734217
 30
0.0
  0
VERTEX
  5
31E
  8
0
  6
CONTINUOUS
 62
     7
 10
-12407.65151515152
 20
-33413.34114734217
 30
0.0
  0
SEQEND
  5
31F
  8
0
  6
CONTINUOUS
 62
     7
  0
ENDBLK
  5
C0
  8
0
  0
BLOCK
  8
0
  2
____-4-1
 70
     0
 10
0.0
 20
0.0
 30
0.0
  3
____-4-1
  1

  0
POLYLINE
  5
320
  8
0
  6
CONTINUOUS
 62
     7
 66
     1
 10
0.0
 20
0.0
 30
0.0
 70
   129
  0
VERTEX
  5
321
  8
0
  6
CONTINUOUS
 62
     7
 10
-12397.65151515152
 20
-33064.95361856048
 30
0.0
  0
VERTEX
  5
322
  8
0
  6
CONTINUOUS
 62
     7
 10
-12390.07575757576
 20
-33064.95361856048
 30
0.0
  0
VERTEX
  5
323
  8
0
  6
CONTINUOUS
 62
     7
 10
-12390.07575757576
 20
-33124.95361856048
 30
0.0
  0
VERTEX
  5
324
  8
0
  6
CONTINUOUS
 62
     7
 10
-12397.65151515152
 20
-33124.95361856048
 30
0.0
  0
SEQEND
  5
325
  8
0
  6
CONTINUOUS
 62
     7
  0
POLYLINE
  5
326
  8
0
  6
CONTINUOUS
 62
     7
 66
     1
 10
0.0
 20
0.0
 30
0.0
 70
   129
  0
VERTEX
  5
327
  8
0
  6
CONTINUOUS
 62
     7
 10
-12410.07575757576
 20
-33084.95361856048
 30
0.0
  0
VERTEX
  5
328
  8
0
  6
CONTINUOUS
 62
     7
 10
-12390.07575757576
 20
-33084.95361856048
 30
0.0
  0
VERTEX
  5
329
  8
0
  6
CONTINUOUS
 62
     7
 10
-12390.07575757576
 20
-33104.95361856048
 30
0.0
  0
VERTEX
  5
32A
  8
0
  6
CONTINUOUS
 62
     7
 10
-12410.07575757576
 20
-33104.95361856048
 30
0.0
  0
SEQEND
  5
32B
  8
0
  6
CONTINUOUS
 62
     7
  0
POLYLINE
  5
32C
  8
0
  6
CONTINUOUS
 62
     7
 66
     1
 10
0.0
 20
0.0
 30
0.0
 70
   129
  0
VERTEX
  5
32D
  8
0
  6
CONTINUOUS
 62
     7
 10
-12407.65151515152
 20
-33089.95361856048
 30
0.0
  0
VERTEX
  5
32E
  8
0
  6
CONTINUOUS
 62
     7
 10
-12392.5
 20
-33089.95361856048
 30
0.0
  0
VERTEX
  5
32F
  8
0
  6
CONTINUOUS
 62
     7
 10
-12392.5
 20
-33099.95361856048
 30
0.0
  0
VERTEX
  5
330
  8
0
  6
CONTINUOUS
 62
     7
 10
-12407.65151515152
 20
-33099.95361856048
 30
0.0
  0
SEQEND
  5
331
  8
0
  6
CONTINUOUS
 62
     7
  0
ENDBLK
  5
C3
  8
0
  0
BLOCK
  8
0
  2
____-5-1
 70
     0
 10
0.0
 20
0.0
 30
0.0
  3
____-5-1
  1

  0
POLYLINE
  5
332
  8
0
  6
CONTINUOUS
 62
     7
 66
     1
 10
0.0
 20
0.0
 30
0.0
 70
   129
  0
VERTEX
  5
333
  8
0
  6
CONTINUOUS
 62
     7
 10
-12359.92424242424
 20
-33378.34114734217
 30
0.0
  0
VERTEX
  5
334
  8
0
  6
CONTINUOUS
 62
     7
 10
-12352.34848484848
 20
-33378.34114734217
 30
0.0
  0
VERTEX
  5
335
  8
0
  6
CONTINUOUS
 62
     7
 10
-12352.34848484848
 20
-33438.34114734217
 30
0.0
  0
VERTEX
  5
336
  8
0
  6
CONTINUOUS
 62
     7
 10
-12359.92424242424
 20
-33438.34114734217
 30
0.0
  0
SEQEND
  5
337
  8
0
  6
CONTINUOUS
 62
     7
  0
POLYLINE
  5
338
  8
0
  6
CONTINUOUS
 62
     7
 66
     1
 10
0.0
 20
0.0
 30
0.0
 70
   129
  0
VERTEX
  5
339
  8
0
  6
CONTINUOUS
 62
     7
 10
-12359.92424242424
 20
-33398.34114734217
 30
0.0
  0
VERTEX
  5
33A
  8
0
  6
CONTINUOUS
 62
     7
 10
-12339.92424242424
 20
-33398.34114734217
 30
0.0
  0
VERTEX
  5
33B
  8
0
  6
CONTINUOUS
 62
     7
 10
-12339.92424242424
 20
-33418.34114734217
 30
0.0
  0
VERTEX
  5
33C
  8
0
  6
CONTINUOUS
 62
     7
 10
-12359.92424242424
 20
-33418.34114734217
 30
0.0
  0
SEQEND
  5
33D
  8
0
  6
CONTINUOUS
 62
     7
  0
POLYLINE
  5
33E
  8
0
  6
CONTINUOUS
 62
     7
 66
     1
 10
0.0
 20
0.0
 30
0.0
 70
   129
  0
VERTEX
  5
33F
  8
0
  6
CONTINUOUS
 62
     7
 10
-12357.5
 20
-33403.34114734217
 30
0.0
  0
VERTEX
  5
340
  8
0
  6
CONTINUOUS
 62
     7
 10
-12342.34848484848
 20
-33403.34114734217
 30
0.0
  0
VERTEX
  5
341
  8
0
  6
CONTINUOUS
 62
     7
 10
-12342.34848484848
 20
-33413.34114734217
 30
0.0
  0
VERTEX
  5
342
  8
0
  6
CONTINUOUS
 62
     7
 10
-12357.5
 20
-33413.34114734217
 30
0.0
  0
SEQEND
  5
343
  8
0
  6
CONTINUOUS
 62
     7
  0
ENDBLK
  5
C6
  8
0
  0
BLOCK
  8
0
  2
____-6-1
 70
     0
 10
0.0
 20
0.0
 30
0.0
  3
____-6-1
  1

  0
POLYLINE
  5
344
  8
0
  6
CONTINUOUS
 62
     7
 66
     1
 10
0.0
 20
0.0
 30
0.0
 70
   129
  0
VERTEX
  5
345
  8
0
  6
CONTINUOUS
 62
     7
 10
-12359.92424242424
 20
-33064.95361856048
 30
0.0
  0
VERTEX
  5
346
  8
0
  6
CONTINUOUS
 62
     7
 10
-12352.34848484848
 20
-33064.95361856048
 30
0.0
  0
VERTEX
  5
347
  8
0
  6
CONTINUOUS
 62
     7
 10
-12352.34848484848
 20
-33124.95361856048
 30
0.0
  0
VERTEX
  5
348
  8
0
  6
CONTINUOUS
 62
     7
 10
-12359.92424242424
 20
-33124.95361856048
 30
0.0
  0
SEQEND
  5
349
  8
0
  6
CONTINUOUS
 62
     7
  0
POLYLINE
  5
34A
  8
0
  6
CONTINUOUS
 62
     7
 66
     1
 10
0.0
 20
0.0
 30
0.0
 70
   129
  0
VERTEX
  5
34B
  8
0
  6
CONTINUOUS
 62
     7
 10
-12359.92424242424
 20
-33084.95361856048
 30
0.0
  0
VERTEX
  5
34C
  8
0
  6
CONTINUOUS
 62
     7
 10
-12339.92424242424
 20
-33084.95361856048
 30
0.0
  0
VERTEX
  5
34D
  8
0
  6
CONTINUOUS
 62
     7
 10
-12339.92424242424
 20
-33104.95361856048
 30
0.0
  0
VERTEX
  5
34E
  8
0
  6
CONTINUOUS
 62
     7
 10
-12359.92424242424
 20
-33104.95361856048
 30
0.0
  0
SEQEND
  5
34F
  8
0
  6
CONTINUOUS
 62
     7
  0
POLYLINE
  5
350
  8
0
  6
CONTINUOUS
 62
     7
 66
     1
 10
0.0
 20
0.0
 30
0.0
 70
   129
  0
VERTEX
  5
351
  8
0
  6
CONTINUOUS
 62
     7
 10
-12357.5
 20
-33089.95361856048
 30
0.0
  0
VERTEX
  5
352
  8
0
  6
CONTINUOUS
 62
     7
 10
-12342.34848484848
 20
-33089.95361856048
 30
0.0
  0
VERTEX
  5
353
  8
0
  6
CONTINUOUS
 62
     7
 10
-12342.34848484848
 20
-33099.95361856048
 30
0.0
  0
VERTEX
  5
354
  8
0
  6
CONTINUOUS
 62
     7
 10
-12357.5
 20
-33099.95361856048
 30
0.0
  0
SEQEND
  5
355
  8
0
  6
CONTINUOUS
 62
     7
  0
ENDBLK
  5
C9
  8
0
  0
BLOCK
  8
0
  2
____-7-1
 70
     0
 10
0.0
 20
0.0
 30
0.0
  3
____-7-1
  1

  0
POLYLINE
  5
356
  8
0
  6
CONTINUOUS
 62
     7
 66
     1
 10
0.0
 20
0.0
 30
0.0
 70
   129
  0
VERTEX
  5
357
  8
0
  6
CONTINUOUS
 62
     7
 10
-11597.57575757576
 20
-33378.34114734217
 30
0.0
  0
VERTEX
  5
358
  8
0
  6
CONTINUOUS
 62
     7
 10
-11590.0
 20
-33378.34114734217
 30
0.0
  0
VERTEX
  5
359
  8
0
  6
CONTINUOUS
 62
     7
 10
-11590.0
 20
-33438.34114734217
 30
0.0
  0
VERTEX
  5
35A
  8
0
  6
CONTINUOUS
 62
     7
 10
-11597.57575757576
 20
-33438.34114734217
 30
0.0
  0
SEQEND
  5
35B
  8
0
  6
CONTINUOUS
 62
     7
  0
POLYLINE
  5
35C
  8
0
  6
CONTINUOUS
 62
     7
 66
     1
 10
0.0
 20
0.0
 30
0.0
 70
   129
  0
VERTEX
  5
35D
  8
0
  6
CONTINUOUS
 62
     7
 10
-11610.0
 20
-33398.34114734217
 30
0.0
  0
VERTEX
  5
35E
  8
0
  6
CONTINUOUS
 62
     7
 10
-11590.0
 20
-33398.34114734217
 30
0.0
  0
VERTEX
  5
35F
  8
0
  6
CONTINUOUS
 62
     7
 10
-11590.0
 20
-33418.34114734217
 30
0.0
  0
VERTEX
  5
360
  8
0
  6
CONTINUOUS
 62
     7
 10
-11610.0
 20
-33418.34114734217
 30
0.0
  0
SEQEND
  5
361
  8
0
  6
CONTINUOUS
 62
     7
  0
POLYLINE
  5
362
  8
0
  6
CONTINUOUS
 62
     7
 66
     1
 10
0.0
 20
0.0
 30
0.0
 70
   129
  0
VERTEX
  5
363
  8
0
  6
CONTINUOUS
 62
     7
 10
-11607.57575757576
 20
-33403.34114734217
 30
0.0
  0
VERTEX
  5
364
  8
0
  6
CONTINUOUS
 62
     7
 10
-11592.42424242424
 20
-33403.34114734217
 30
0.0
  0
VERTEX
  5
365
  8
0
  6
CONTINUOUS
 62
     7
 10
-11592.42424242424
 20
-33413.34114734217
 30
0.0
  0
VERTEX
  5
366
  8
0
  6
CONTINUOUS
 62
     7
 10
-11607.57575757576
 20
-33413.34114734217
 30
0.0
  0
SEQEND
  5
367
  8
0
  6
CONTINUOUS
 62
     7
  0
ENDBLK
  5
CC
  8
0
  0
BLOCK
  8
0
  2
____-8-1
 70
     0
 10
0.0
 20
0.0
 30
0.0
  3
____-8-1
  1

  0
POLYLINE
  5
368
  8
0
  6
CONTINUOUS
 62
     7
 66
     1
 10
0.0
 20
0.0
 30
0.0
 70
   129
  0
VERTEX
  5
369
  8
0
  6
CONTINUOUS
 62
     7
 10
-11597.57575757576
 20
-33064.95361856048
 30
0.0
  0
VERTEX
  5
36A
  8
0
  6
CONTINUOUS
 62
     7
 10
-11590.0
 20
-33064.95361856048
 30
0.0
  0
VERTEX
  5
36B
  8
0
  6
CONTINUOUS
 62
     7
 10
-11590.0
 20
-33124.95361856048
 30
0.0
  0
VERTEX
  5
36C
  8
0
  6
CONTINUOUS
 62
     7
 10
-11597.57575757576
 20
-33124.95361856048
 30
0.0
  0
SEQEND
  5
36D
  8
0
  6
CONTINUOUS
 62
     7
  0
POLYLINE
  5
36E
  8
0
  6
CONTINUOUS
 62
     7
 66
     1
 10
0.0
 20
0.0
 30
0.0
 70
   129
  0
VERTEX
  5
36F
  8
0
  6
CONTINUOUS
 62
     7
 10
-11610.0
 20
-33084.95361856048
 30
0.0
  0
VERTEX
  5
370
  8
0
  6
CONTINUOUS
 62
     7
 10
-11590.0
 20
-33084.95361856048
 30
0.0
  0
VERTEX
  5
371
  8
0
  6
CONTINUOUS
 62
     7
 10
-11590.0
 20
-33104.95361856048
 30
0.0
  0
VERTEX
  5
372
  8
0
  6
CONTINUOUS
 62
     7
 10
-11610.0
 20
-33104.95361856048
 30
0.0
  0
SEQEND
  5
373
  8
0
  6
CONTINUOUS
 62
     7
  0
POLYLINE
  5
374
  8
0
  6
CONTINUOUS
 62
     7
 66
     1
 10
0.0
 20
0.0
 30
0.0
 70
   129
  0
VERTEX
  5
375
  8
0
  6
CONTINUOUS
 62
     7
 10
-11607.57575757576
 20
-33089.95361856048
 30
0.0
  0
VERTEX
  5
376
  8
0
  6
CONTINUOUS
 62
     7
 10
-11592.42424242424
 20
-33089.95361856048
 30
0.0
  0
VERTEX
  5
377
  8
0
  6
CONTINUOUS
 62
     7
 10
-11592.42424242424
 20
-33099.95361856048
 30
0.0
  0
VERTEX
  5
378
  8
0
  6
CONTINUOUS
 62
     7
 10
-11607.57575757576
 20
-33099.95361856048
 30
0.0
  0
SEQEND
  5
379
  8
0
  6
CONTINUOUS
 62
     7
  0
ENDBLK
  5
CF
  8
0
  0
BLOCK
  8
0
  2
___-24
 70
     0
 10
0.0
 20
0.0
 30
0.0
  3
___-24
  1

  0
LINE
  5
37A
  8
0
  6
CONTINUOUS
 62
     0
 10
-12802.5
 20
-49531.40816003564
 30
0.0
 11
-13096.66630136804
 21
-49531.40816003564
 31
0.0
  0
LINE
  5
37B
  8
0
  6
CONTINUOUS
 62
     0
 10
-12802.5
 20
-50116.40816003564
 30
0.0
 11
-13096.66630136804
 21
-50116.40816003564
 31
0.0
  0
LINE
  5
37C
  8
0
  6
CONTINUOUS
 62
     0
 10
-13096.66630136804
 20
-49531.40816003564
 30
0.0
 11
-13096.66630136804
 21
-50116.40816003564
 31
0.0
  0
CIRCLE
  5
37D
  8
0
  6
CONTINUOUS
 62
     0
 10
-13096.66630136804
 20
-49531.40816003564
 30
0.0
 40
4.499725341796875
  0
CIRCLE
  5
37E
  8
0
  6
CONTINUOUS
 62
     0
 10
-13096.66630136804
 20
-50116.40816003564
 30
0.0
 40
4.499725341796875
  0
TEXT
  5
37F
  8
0
 62
     0
 10
-13125.91296803471
 20
-49859.15065922818
 30
0.0
 40
31.86024305555556
  1
390
 50
90.0
  7
YUGOTHIC_MEDIUM
 11
-13157.77321109026
 21
-49859.15065922818
 31
0.0
 73
     3
  0
ENDBLK
  5
D2
  8
0
  0
BLOCK
  8
0
  2
___-25
 70
     0
 10
0.0
 20
0.0
 30
0.0
  3
___-25
  1

  0
LINE
  5
380
  8
0
  6
CONTINUOUS
 62
     0
 10
-12787.5
 20
-50146.40816003564
 30
0.0
 11
-12787.5
 21
-50431.40816003564
 31
0.0
  0
LINE
  5
381
  8
0
  6
CONTINUOUS
 62
     0
 10
-11587.5
 20
-50146.40816003564
 30
0.0
 11
-11587.5
 21
-50431.40816003564
 31
0.0
  0
LINE
  5
382
  8
0
  6
CONTINUOUS
 62
     0
 10
-12787.5
 20
-50431.40816003564
 30
0.0
 11
-11587.5
 21
-50431.40816003564
 31
0.0
  0
CIRCLE
  5
383
  8
0
  6
CONTINUOUS
 62
     0
 10
-12787.5
 20
-50431.40816003564
 30
0.0
 40
4.499725341796875
  0
CIRCLE
  5
384
  8
0
  6
CONTINUOUS
 62
     0
 10
-11587.5
 20
-50431.40816003564
 30
0.0
 40
4.499725341796875
  0
TEXT
  5
385
  8
0
 62
     0
 10
-12432.75814421972
 20
-50402.16149336896
 30
0.0
 40
31.86024305555556
  1
キャビネットW 600?800
  7
YUGOTHIC_MEDIUM-B
 11
-12432.75814421972
 21
-50370.30125031341
 31
0.0
 73
     3
  0
ENDBLK
  5
D5
  8
0
  0
BLOCK
  8
0
  2
___-26
 70
     0
 10
0.0
 20
0.0
 30
0.0
  3
___-26
  1

  0
LINE
  5
386
  8
0
  6
CONTINUOUS
 62
     0
 10
-12802.5
 20
-49553.90816003564
 30
0.0
 11
-12992.25
 21
-49553.90816003564
 31
0.0
  0
LINE
  5
387
  8
0
  6
CONTINUOUS
 62
     0
 10
-12802.5
 20
-50093.90816003564
 30
0.0
 11
-12992.25
 21
-50093.90816003564
 31
0.0
  0
LINE
  5
388
  8
0
  6
CONTINUOUS
 62
     0
 10
-12992.25
 20
-49553.90816003564
 30
0.0
 11
-12992.25
 21
-50093.90816003564
 31
0.0
  0
CIRCLE
  5
389
  8
0
  6
CONTINUOUS
 62
     0
 10
-12992.25
 20
-49553.90816003564
 30
0.0
 40
4.499725341796875
  0
CIRCLE
  5
38A
  8
0
  6
CONTINUOUS
 62
     0
 10
-12992.25
 20
-50093.90816003564
 30
0.0
 40
4.499725341796875
  0
TEXT
  5
38B
  8
0
 62
     0
 10
-13021.49666666667
 20
-49859.15065922818
 30
0.0
 40
31.86024305555556
  1
360
 50
90.0
  7
YUGOTHIC_MEDIUM
 11
-13053.35690972222
 21
-49859.15065922818
 31
0.0
 73
     3
  0
ENDBLK
  5
D8
  8
0
  0
BLOCK
  8
0
  2
___-27
 70
     0
 10
0.0
 20
0.0
 30
0.0
  3
___-27
  1

  0
LINE
  5
38C
  8
0
  6
CONTINUOUS
 62
     0
 10
-12802.5
 20
-49553.90816003564
 30
0.0
 11
-12992.25
 21
-49553.90816003564
 31
0.0
  0
LINE
  5
38D
  8
0
  6
CONTINUOUS
 62
     0
 10
-12802.5
 20
-49531.40816003564
 30
0.0
 11
-12992.25
 21
-49531.40816003564
 31
0.0
  0
LINE
  5
38E
  8
0
  6
CONTINUOUS
 62
     0
 10
-12992.25
 20
-49553.90816003564
 30
0.0
 11
-12992.25
 21
-49531.40816003564
 31
0.0
  0
CIRCLE
  5
38F
  8
0
  6
CONTINUOUS
 62
     0
 10
-12992.25
 20
-49553.90816003564
 30
0.0
 40
4.499725341796875
  0
CIRCLE
  5
390
  8
0
  6
CONTINUOUS
 62
     0
 10
-12992.25
 20
-49531.40816003564
 30
0.0
 40
4.499725341796875
  0
TEXT
  5
391
  8
0
 62
     0
 10
-13021.49666666667
 20
-49566.15316033843
 30
0.0
 40
31.86024305555556
  1
15
 50
90.0
  7
YUGOTHIC_MEDIUM
 11
-13053.35690972222
 21
-49566.15316033843
 31
0.0
 73
     3
  0
ENDBLK
  5
DB
  8
0
  0
BLOCK
  8
0
  2
___-28
 70
     0
 10
0.0
 20
0.0
 30
0.0
  3
___-28
  1

  0
LINE
  5
392
  8
0
  6
CONTINUOUS
 62
     0
 10
-12802.5
 20
-50116.40816003564
 30
0.0
 11
-12992.25
 21
-50116.40816003564
 31
0.0
  0
LINE
  5
393
  8
0
  6
CONTINUOUS
 62
     0
 10
-12802.5
 20
-50093.90816003564
 30
0.0
 11
-12992.25
 21
-50093.90816003564
 31
0.0
  0
LINE
  5
394
  8
0
  6
CONTINUOUS
 62
     0
 10
-12992.25
 20
-50116.40816003564
 30
0.0
 11
-12992.25
 21
-50093.90816003564
 31
0.0
  0
CIRCLE
  5
395
  8
0
  6
CONTINUOUS
 62
     0
 10
-12992.25
 20
-50116.40816003564
 30
0.0
 40
4.499725341796875
  0
CIRCLE
  5
396
  8
0
  6
CONTINUOUS
 62
     0
 10
-12992.25
 20
-50093.90816003564
 30
0.0
 40
4.499725341796875
  0
TEXT
  5
397
  8
0
 62
     0
 10
-13021.49666666667
 20
-50185.46448894821
 30
0.0
 40
31.86024305555556
  1
15
 50
90.0
  7
YUGOTHIC_MEDIUM
 11
-13053.35690972222
 21
-50185.46448894821
 31
0.0
 73
     3
  0
TEXT
  5
398
  8
0
 62
     0
 10
-13021.49666666667
 20
-50138.47448834262
 30
0.0
 40
31.86024305555556
  1
(17.5)
 50
90.0
  7
YUGOTHIC_MEDIUM
 11
-13053.35690972222
 21
-50138.47448834262
 31
0.0
 73
     3
  0
ENDBLK
  5
DE
  8
0
  0
BLOCK
  8
0
  2
___-29
 70
     0
 10
0.0
 20
0.0
 30
0.0
  3
___-29
  1

  0
LINE
  5
399
  8
0
  6
CONTINUOUS
 62
     0
 10
-12765.0
 20
-50146.40816003564
 30
0.0
 11
-12765.0
 21
-50281.40816003564
 31
0.0
  0
LINE
  5
39A
  8
0
  6
CONTINUOUS
 62
     0
 10
-12787.5
 20
-50146.40816003564
 30
0.0
 11
-12787.5
 21
-50281.40816003564
 31
0.0
  0
LINE
  5
39B
  8
0
  6
CONTINUOUS
 62
     0
 10
-12765.0
 20
-50281.40816003564
 30
0.0
 11
-12787.5
 21
-50281.40816003564
 31
0.0
  0
CIRCLE
  5
39C
  8
0
  6
CONTINUOUS
 62
     0
 10
-12765.0
 20
-50281.40816003564
 30
0.0
 40
4.499725341796875
  0
CIRCLE
  5
39D
  8
0
  6
CONTINUOUS
 62
     0
 10
-12787.5
 20
-50281.40816003564
 30
0.0
 40
4.499725341796875
  0
TEXT
  5
39E
  8
0
 62
     0
 10
-12856.55632891258
 20
-50252.16149336896
 30
0.0
 40
31.86024305555556
  1
15
  7
YUGOTHIC_MEDIUM
 11
-12856.55632891258
 21
-50220.30125031341
 31
0.0
 73
     3
  0
TEXT
  5
39F
  8
0
 62
     0
 10
-12809.56632830699
 20
-50252.16149336896
 30
0.0
 40
31.86024305555556
  1
(14.5)
  7
YUGOTHIC_MEDIUM
 11
-12809.56632830699
 21
-50220.30125031341
 31
0.0
 73
     3
  0
ENDBLK
  5
E1
  8
0
  0
BLOCK
  8
0
  2
___-30
 70
     0
 10
0.0
 20
0.0
 30
0.0
  3
___-30
  1

  0
LINE
  5
3A0
  8
0
  6
CONTINUOUS
 62
     0
 10
-11587.5
 20
-50146.40816003564
 30
0.0
 11
-11587.5
 21
-50281.40816003564
 31
0.0
  0
LINE
  5
3A1
  8
0
  6
CONTINUOUS
 62
     0
 10
-11610.0
 20
-50146.40816003564
 30
0.0
 11
-11610.0
 21
-50281.40816003564
 31
0.0
  0
LINE
  5
3A2
  8
0
  6
CONTINUOUS
 62
     0
 10
-11587.5
 20
-50281.40816003564
 30
0.0
 11
-11610.0
 21
-50281.40816003564
 31
0.0
  0
CIRCLE
  5
3A3
  8
0
  6
CONTINUOUS
 62
     0
 10
-11587.5
 20
-50281.40816003564
 30
0.0
 40
4.499725341796875
  0
CIRCLE
  5
3A4
  8
0
  6
CONTINUOUS
 62
     0
 10
-11610.0
 20
-50281.40816003564
 30
0.0
 40
4.499725341796875
  0
TEXT
  5
3A5
  8
0
 62
     0
 10
-11679.05632891258
 20
-50252.16149336896
 30
0.0
 40
31.86024305555556
  1
15
  7
YUGOTHIC_MEDIUM
 11
-11679.05632891258
 21
-50220.30125031341
 31
0.0
 73
     3
  0
TEXT
  5
3A6
  8
0
 62
     0
 10
-11632.06632830699
 20
-50252.16149336896
 30
0.0
 40
31.86024305555556
  1
(14.5)
  7
YUGOTHIC_MEDIUM
 11
-11632.06632830699
 21
-50220.30125031341
 31
0.0
 73
     3
  0
ENDBLK
  5
E4
  8
0
  0
BLOCK
  8
0
  2
___-31
 70
     0
 10
0.0
 20
0.0
 30
0.0
  3
___-31
  1

  0
LINE
  5
3A7
  8
0
  6
CONTINUOUS
 62
     0
 10
-31739.45882518619
 20
-48153.36927949861
 30
0.0
 11
-32033.62512655423
 21
-48153.36927949861
 31
0.0
  0
LINE
  5
3A8
  8
0
  6
CONTINUOUS
 62
     0
 10
-31739.45882518619
 20
-48873.36927949861
 30
0.0
 11
-32033.62512655423
 21
-48873.36927949861
 31
0.0
  0
LINE
  5
3A9
  8
0
  6
CONTINUOUS
 62
     0
 10
-32033.62512655423
 20
-48153.36927949861
 30
0.0
 11
-32033.62512655423
 21
-48873.36927949861
 31
0.0
  0
CIRCLE
  5
3AA
  8
0
  6
CONTINUOUS
 62
     0
 10
-32033.62512655423
 20
-48153.36927949861
 30
0.0
 40
4.499725341796875
  0
CIRCLE
  5
3AB
  8
0
  6
CONTINUOUS
 62
     0
 10
-32033.62512655423
 20
-48873.36927949861
 30
0.0
 40
4.499725341796875
  0
TEXT
  5
3AC
  8
0
 62
     0
 10
-32062.8717932209
 20
-48605.02094455039
 30
0.0
 40
31.86024305555556
  1
400?900
 50
90.0
  7
YUGOTHIC_MEDIUM
 11
-32094.73203627646
 21
-48605.02094455039
 31
0.0
 73
     3
  0
ENDBLK
  5
E7
  8
0
  0
BLOCK
  8
0
  2
___-32
 70
     0
 10
0.0
 20
0.0
 30
0.0
  3
___-32
  1

  0
LINE
  5
3AD
  8
0
  6
CONTINUOUS
 62
     0
 10
-31720.70882518619
 20
-48888.36927949861
 30
0.0
 11
-31720.70882518619
 21
-49023.36927949861
 31
0.0
  0
LINE
  5
3AE
  8
0
  6
CONTINUOUS
 62
     0
 10
-31724.45882518619
 20
-48888.36927949861
 30
0.0
 11
-31724.45882518619
 21
-49023.36927949861
 31
0.0
  0
LINE
  5
3AF
  8
0
  6
CONTINUOUS
 62
     0
 10
-31724.45882518619
 20
-49023.36927949861
 30
0.0
 11
-31803.41315674329
 21
-49023.36927949861
 31
0.0
  0
LINE
  5
3B0
  8
0
  6
CONTINUOUS
 62
     0
 10
-31720.70882518619
 20
-49023.36927949861
 30
0.0
 11
-31724.45882518619
 21
-49023.36927949861
 31
0.0
  0
CIRCLE
  5
3B1
  8
0
  6
CONTINUOUS
 62
     0
 10
-31720.70882518619
 20
-49023.36927949861
 30
0.0
 40
4.499725341796875
  0
CIRCLE
  5
3B2
  8
0
  6
CONTINUOUS
 62
     0
 10
-31724.45882518619
 20
-49023.36927949861
 30
0.0
 40
4.499725341796875
  0
TEXT
  5
3B3
  8
0
 62
     0
 10
-31803.41315674329
 20
-48994.12261283193
 30
0.0
 40
31.86024305555556
  1
2.5
  7
YUGOTHIC_MEDIUM
 11
-31803.41315674329
 21
-48962.26236977638
 31
0.0
 73
     3
  0
ENDBLK
  5
EA
  8
0
  0
BLOCK
  8
0
  2
___-33
 70
     0
 10
0.0
 20
0.0
 30
0.0
  3
___-33
  1

  0
LINE
  5
3B4
  8
0
  6
CONTINUOUS
 62
     0
 10
-31724.45882518619
 20
-48888.36927949861
 30
0.0
 11
-31724.45882518619
 21
-49173.3692794986
 31
0.0
  0
LINE
  5
3B5
  8
0
  6
CONTINUOUS
 62
     0
 10
-31124.45882518619
 20
-48888.36927949861
 30
0.0
 11
-31124.45882518619
 21
-49173.3692794986
 31
0.0
  0
LINE
  5
3B6
  8
0
  6
CONTINUOUS
 62
     0
 10
-31724.45882518619
 20
-49173.3692794986
 30
0.0
 11
-31124.45882518619
 21
-49173.3692794986
 31
0.0
  0
CIRCLE
  5
3B7
  8
0
  6
CONTINUOUS
 62
     0
 10
-31724.45882518619
 20
-49173.3692794986
 30
0.0
 40
4.499725341796875
  0
CIRCLE
  5
3B8
  8
0
  6
CONTINUOUS
 62
     0
 10
-31124.45882518619
 20
-49173.3692794986
 30
0.0
 40
4.499725341796875
  0
TEXT
  5
3B9
  8
0
 62
     0
 10
-31669.7169694059
 20
-49144.12261283193
 30
0.0
 40
31.86024305555556
  1
キャビネットW 250?400
  7
YUGOTHIC_MEDIUM-B
 11
-31669.7169694059
 21
-49112.26236977638
 31
0.0
 73
     3
  0
ENDBLK
  5
ED
  8
0
  0
BLOCK
  8
0
  2
___-34
 70
     0
 10
0.0
 20
0.0
 30
0.0
  3
___-34
  1

  0
LINE
  5
3BA
  8
0
  6
CONTINUOUS
 62
     0
 10
-29928.20882518619
 20
-48888.36927949861
 30
0.0
 11
-29928.20882518619
 21
-49023.36927949861
 31
0.0
  0
LINE
  5
3BB
  8
0
  6
CONTINUOUS
 62
     0
 10
-29924.45882518619
 20
-48888.36927949861
 30
0.0
 11
-29924.45882518619
 21
-49023.36927949861
 31
0.0
  0
LINE
  5
3BC
  8
0
  6
CONTINUOUS
 62
     0
 10
-29924.45882518619
 20
-49023.36927949861
 30
0.0
 11
-29845.50449362908
 21
-49023.36927949861
 31
0.0
  0
LINE
  5
3BD
  8
0
  6
CONTINUOUS
 62
     0
 10
-29928.20882518619
 20
-49023.36927949861
 30
0.0
 11
-29924.45882518619
 21
-49023.36927949861
 31
0.0
  0
CIRCLE
  5
3BE
  8
0
  6
CONTINUOUS
 62
     0
 10
-29928.20882518619
 20
-49023.36927949861
 30
0.0
 40
4.499725341796875
  0
CIRCLE
  5
3BF
  8
0
  6
CONTINUOUS
 62
     0
 10
-29924.45882518619
 20
-49023.36927949861
 30
0.0
 40
4.499725341796875
  0
TEXT
  5
3C0
  8
0
 62
     0
 10
-29903.45882518604
 20
-48994.12261283193
 30
0.0
 40
31.86024305555556
  1
2.5
  7
YUGOTHIC_MEDIUM
 11
-29903.45882518604
 21
-48962.26236977638
 31
0.0
 73
     3
  0
ENDBLK
  5
F0
  8
0
  0
BLOCK
  8
0
  2
___-35
 70
     0
 10
0.0
 20
0.0
 30
0.0
  3
___-35
  1

  0
LINE
  5
3C1
  8
0
  6
CONTINUOUS
 62
     0
 10
-31720.70882518619
 20
-48888.36927949861
 30
0.0
 11
-31720.70882518619
 21
-49023.36927949861
 31
0.0
  0
LINE
  5
3C2
  8
0
  6
CONTINUOUS
 62
     0
 10
-31128.20882518619
 20
-48888.36927949861
 30
0.0
 11
-31128.20882518619
 21
-49023.36927949861
 31
0.0
  0
LINE
  5
3C3
  8
0
  6
CONTINUOUS
 62
     0
 10
-31720.70882518619
 20
-49023.36927949861
 30
0.0
 11
-31128.20882518619
 21
-49023.36927949861
 31
0.0
  0
CIRCLE
  5
3C4
  8
0
  6
CONTINUOUS
 62
     0
 10
-31720.70882518619
 20
-49023.36927949861
 30
0.0
 40
4.499725341796875
  0
CIRCLE
  5
3C5
  8
0
  6
CONTINUOUS
 62
     0
 10
-31128.20882518619
 20
-49023.36927949861
 30
0.0
 40
4.499725341796875
  0
TEXT
  5
3C6
  8
0
 62
     0
 10
-31562.99466013441
 20
-48994.12261283193
 30
0.0
 40
31.86024305555556
  1
扉W 245?395
  7
YUGOTHIC_MEDIUM
 11
-31562.99466013441
 21
-48962.26236977638
 31
0.0
 73
     3
  0
ENDBLK
  5
F3
  8
0
  0
BLOCK
  8
0
  2
___-36
 70
     0
 10
0.0
 20
0.0
 30
0.0
  3
___-36
  1

  0
LINE
  5
3C7
  8
0
  6
CONTINUOUS
 62
     0
 10
-30520.70882518619
 20
-48888.36927949861
 30
0.0
 11
-30520.70882518619
 21
-49023.36927949861
 31
0.0
  0
LINE
  5
3C8
  8
0
  6
CONTINUOUS
 62
     0
 10
-29928.20882518619
 20
-48888.36927949861
 30
0.0
 11
-29928.20882518619
 21
-49023.36927949861
 31
0.0
  0
LINE
  5
3C9
  8
0
  6
CONTINUOUS
 62
     0
 10
-30520.70882518619
 20
-49023.36927949861
 30
0.0
 11
-29928.20882518619
 21
-49023.36927949861
 31
0.0
  0
CIRCLE
  5
3CA
  8
0
  6
CONTINUOUS
 62
     0
 10
-30520.70882518619
 20
-49023.36927949861
 30
0.0
 40
4.499725341796875
  0
CIRCLE
  5
3CB
  8
0
  6
CONTINUOUS
 62
     0
 10
-29928.20882518619
 20
-49023.36927949861
 30
0.0
 40
4.499725341796875
  0
TEXT
  5
3CC
  8
0
 62
     0
 10
-30362.99466013441
 20
-48994.12261283193
 30
0.0
 40
31.86024305555556
  1
扉W 245?395
  7
YUGOTHIC_MEDIUM
 11
-30362.99466013441
 21
-48962.26236977638
 31
0.0
 73
     3
  0
ENDBLK
  5
F6
  8
0
  0
BLOCK
  8
0
  2
___-37
 70
     0
 10
0.0
 20
0.0
 30
0.0
  3
___-37
  1

  0
LINE
  5
3CD
  8
0
  6
CONTINUOUS
 62
     0
 10
-31124.45882518619
 20
-48888.36927949861
 30
0.0
 11
-31124.45882518619
 21
-49023.36927949861
 31
0.0
  0
LINE
  5
3CE
  8
0
  6
CONTINUOUS
 62
     0
 10
-31128.20882518619
 20
-48888.36927949861
 30
0.0
 11
-31128.20882518619
 21
-49023.36927949861
 31
0.0
  0
LINE
  5
3CF
  8
0
  6
CONTINUOUS
 62
     0
 10
-31124.45882518619
 20
-49023.36927949861
 30
0.0
 11
-31058.04291490459
 21
-49023.36927949861
 31
0.0
  0
LINE
  5
3D0
  8
0
  6
CONTINUOUS
 62
     0
 10
-31124.45882518619
 20
-49023.36927949861
 30
0.0
 11
-31128.20882518619
 21
-49023.36927949861
 31
0.0
  0
CIRCLE
  5
3D1
  8
0
  6
CONTINUOUS
 62
     0
 10
-31124.45882518619
 20
-49023.36927949861
 30
0.0
 40
4.499725341796875
  0
CIRCLE
  5
3D2
  8
0
  6
CONTINUOUS
 62
     0
 10
-31128.20882518619
 20
-49023.36927949861
 30
0.0
 40
4.499725341796875
  0
TEXT
  5
3D3
  8
0
 62
     0
 10
-31115.99724646155
 20
-48994.12261283193
 30
0.0
 40
31.86024305555556
  1
2.5
  7
YUGOTHIC_MEDIUM
 11
-31115.99724646155
 21
-48962.26236977638
 31
0.0
 73
     3
  0
ENDBLK
  5
F9
  8
0
  0
BLOCK
  8
0
  2
___-38
 70
     0
 10
0.0
 20
0.0
 30
0.0
  3
___-38
  1

  0
LINE
  5
3D4
  8
0
  6
CONTINUOUS
 62
     0
 10
-31739.45882518619
 20
-48160.86927949861
 30
0.0
 11
-31929.20882518619
 21
-48160.86927949861
 31
0.0
  0
LINE
  5
3D5
  8
0
  6
CONTINUOUS
 62
     0
 10
-31739.45882518619
 20
-48873.36927949861
 30
0.0
 11
-31929.20882518619
 21
-48873.36927949861
 31
0.0
  0
LINE
  5
3D6
  8
0
  6
CONTINUOUS
 62
     0
 10
-31929.20882518619
 20
-48160.86927949861
 30
0.0
 11
-31929.20882518619
 21
-48873.36927949861
 31
0.0
  0
CIRCLE
  5
3D7
  8
0
  6
CONTINUOUS
 62
     0
 10
-31929.20882518619
 20
-48160.86927949861
 30
0.0
 40
4.499725341796875
  0
CIRCLE
  5
3D8
  8
0
  6
CONTINUOUS
 62
     0
 10
-31929.20882518619
 20
-48873.36927949861
 30
0.0
 40
4.499725341796875
  0
TEXT
  5
3D9
  8
0
 62
     0
 10
-31958.45549185286
 20
-48651.76043736414
 30
0.0
 40
31.86024305555556
  1
扉H 395?895
 50
90.0
  7
YUGOTHIC_MEDIUM
 11
-31990.31573490841
 21
-48651.76043736414
 31
0.0
 73
     3
  0
ENDBLK
  5
FC
  8
0
  0
BLOCK
  8
0
  2
___-39
 70
     0
 10
0.0
 20
0.0
 30
0.0
  3
___-39
  1

  0
LINE
  5
3DA
  8
0
  6
CONTINUOUS
 62
     0
 10
-31739.45882518619
 20
-48160.86927949861
 30
0.0
 11
-31929.20882518619
 21
-48160.86927949861
 31
0.0
  0
LINE
  5
3DB
  8
0
  6
CONTINUOUS
 62
     0
 10
-31739.45882518619
 20
-48153.36927949861
 30
0.0
 11
-31929.20882518619
 21
-48153.36927949861
 31
0.0
  0
LINE
  5
3DC
  8
0
  6
CONTINUOUS
 62
     0
 10
-31929.20882518619
 20
-48160.86927949861
 30
0.0
 11
-31929.20882518619
 21
-48153.36927949861
 31
0.0
  0
CIRCLE
  5
3DD
  8
0
  6
CONTINUOUS
 62
     0
 10
-31929.20882518619
 20
-48160.86927949861
 30
0.0
 40
4.499725341796875
  0
CIRCLE
  5
3DE
  8
0
  6
CONTINUOUS
 62
     0
 10
-31929.20882518619
 20
-48153.36927949861
 30
0.0
 40
4.499725341796875
  0
TEXT
  5
3DF
  8
0
 62
     0
 10
-31958.45549185286
 20
-48168.86677965001
 30
0.0
 40
31.86024305555556
  1
5
 50
90.0
  7
YUGOTHIC_MEDIUM
 11
-31990.31573490841
 21
-48168.86677965001
 31
0.0
 73
     3
  0
ENDBLK
  5
FF
  8
0
  0
BLOCK
  8
0
  2
___-40
 70
     0
 10
0.0
 20
0.0
 30
0.0
  3
___-40
  1

  0
LINE
  5
3E0
  8
0
  6
CONTINUOUS
 62
     0
 10
-31739.45882518619
 20
-49531.40816003564
 30
0.0
 11
-32033.62512655423
 21
-49531.40816003564
 31
0.0
  0
LINE
  5
3E1
  8
0
  6
CONTINUOUS
 62
     0
 10
-31739.45882518619
 20
-50236.40816003564
 30
0.0
 11
-32033.62512655423
 21
-50236.40816003564
 31
0.0
  0
LINE
  5
3E2
  8
0
  6
CONTINUOUS
 62
     0
 10
-32033.62512655423
 20
-49531.40816003564
 30
0.0
 11
-32033.62512655423
 21
-50236.40816003564
 31
0.0
  0
CIRCLE
  5
3E3
  8
0
  6
CONTINUOUS
 62
     0
 10
-32033.62512655423
 20
-49531.40816003564
 30
0.0
 40
4.499725341796875
  0
CIRCLE
  5
3E4
  8
0
  6
CONTINUOUS
 62
     0
 10
-32033.62512655423
 20
-50236.40816003564
 30
0.0
 40
4.499725341796875
  0
TEXT
  5
3E5
  8
0
 62
     0
 10
-32062.8717932209
 20
-50123.32432395699
 30
0.0
 40
31.86024305555556
  1
キャビネットH 390?890
 50
90.0
  7
YUGOTHIC_MEDIUM
 11
-32094.73203627646
 21
-50123.32432395699
 31
0.0
 73
     3
  0
ENDBLK
  5
102
  8
0
  0
BLOCK
  8
0
  2
___-41
 70
     0
 10
0.0
 20
0.0
 30
0.0
  3
___-41
  1

  0
LINE
  5
3E6
  8
0
  6
CONTINUOUS
 62
     0
 10
-31724.45882518619
 20
-50266.40816003564
 30
0.0
 11
-31724.45882518619
 21
-50551.40816003564
 31
0.0
  0
LINE
  5
3E7
  8
0
  6
CONTINUOUS
 62
     0
 10
-31124.45882518619
 20
-50266.40816003564
 30
0.0
 11
-31124.45882518619
 21
-50551.40816003564
 31
0.0
  0
LINE
  5
3E8
  8
0
  6
CONTINUOUS
 62
     0
 10
-31724.45882518619
 20
-50551.40816003564
 30
0.0
 11
-31124.45882518619
 21
-50551.40816003564
 31
0.0
  0
CIRCLE
  5
3E9
  8
0
  6
CONTINUOUS
 62
     0
 10
-31724.45882518619
 20
-50551.40816003564
 30
0.0
 40
4.499725341796875
  0
CIRCLE
  5
3EA
  8
0
  6
CONTINUOUS
 62
     0
 10
-31124.45882518619
 20
-50551.40816003564
 30
0.0
 40
4.499725341796875
  0
TEXT
  5
3EB
  8
0
 62
     0
 10
-31669.7169694059
 20
-50522.16149336896
 30
0.0
 40
31.86024305555556
  1
キャビネットW 250?400
  7
YUGOTHIC_MEDIUM-B
 11
-31669.7169694059
 21
-50490.30125031341
 31
0.0
 73
     3
  0
ENDBLK
  5
105
  8
0
  0
BLOCK
  8
0
  2
___-42
 70
     0
 10
0.0
 20
0.0
 30
0.0
  3
___-42
  1

  0
LINE
  5
3EC
  8
0
  6
CONTINUOUS
 62
     0
 10
-31124.45882518619
 20
-50266.40816003564
 30
0.0
 11
-31124.45882518619
 21
-50401.40816003564
 31
0.0
  0
LINE
  5
3ED
  8
0
  6
CONTINUOUS
 62
     0
 10
-31146.95882518619
 20
-50266.40816003564
 30
0.0
 11
-31146.95882518619
 21
-50401.40816003564
 31
0.0
  0
LINE
  5
3EE
  8
0
  6
CONTINUOUS
 62
     0
 10
-31124.45882518619
 20
-50401.40816003564
 30
0.0
 11
-31146.95882518619
 21
-50401.40816003564
 31
0.0
  0
CIRCLE
  5
3EF
  8
0
  6
CONTINUOUS
 62
     0
 10
-31124.45882518619
 20
-50401.40816003564
 30
0.0
 40
4.499725341796875
  0
CIRCLE
  5
3F0
  8
0
  6
CONTINUOUS
 62
     0
 10
-31146.95882518619
 20
-50401.40816003564
 30
0.0
 40
4.499725341796875
  0
TEXT
  5
3F1
  8
0
 62
     0
 10
-31216.01515409876
 20
-50372.16149336896
 30
0.0
 40
31.86024305555556
  1
15
  7
YUGOTHIC_MEDIUM
 11
-31216.01515409876
 21
-50340.30125031341
 31
0.0
 73
     3
  0
TEXT
  5
3F2
  8
0
 62
     0
 10
-31169.02515349318
 20
-50372.16149336896
 30
0.0
 40
31.86024305555556
  1
(14.5)
  7
YUGOTHIC_MEDIUM
 11
-31169.02515349318
 21
-50340.30125031341
 31
0.0
 73
     3
  0
ENDBLK
  5
108
  8
0
  0
BLOCK
  8
0
  2
___-43
 70
     0
 10
0.0
 20
0.0
 30
0.0
  3
___-43
  1

  0
LINE
  5
3F3
  8
0
  6
CONTINUOUS
 62
     0
 10
-31739.45882518619
 20
-49553.90816003564
 30
0.0
 11
-31929.20882518619
 21
-49553.90816003564
 31
0.0
  0
LINE
  5
3F4
  8
0
  6
CONTINUOUS
 62
     0
 10
-31739.45882518619
 20
-49531.40816003564
 30
0.0
 11
-31929.20882518619
 21
-49531.40816003564
 31
0.0
  0
LINE
  5
3F5
  8
0
  6
CONTINUOUS
 62
     0
 10
-31929.20882518619
 20
-49553.90816003564
 30
0.0
 11
-31929.20882518619
 21
-49531.40816003564
 31
0.0
  0
CIRCLE
  5
3F6
  8
0
  6
CONTINUOUS
 62
     0
 10
-31929.20882518619
 20
-49553.90816003564
 30
0.0
 40
4.499725341796875
  0
CIRCLE
  5
3F7
  8
0
  6
CONTINUOUS
 62
     0
 10
-31929.20882518619
 20
-49531.40816003564
 30
0.0
 40
4.499725341796875
  0
TEXT
  5
3F8
  8
0
 62
     0
 10
-31958.45549185286
 20
-49566.15316033843
 30
0.0
 40
31.86024305555556
  1
15
 50
90.0
  7
YUGOTHIC_MEDIUM
 11
-31990.31573490841
 21
-49566.15316033843
 31
0.0
 73
     3
  0
ENDBLK
  5
10B
  8
0
  0
BLOCK
  8
0
  2
___-44
 70
     0
 10
0.0
 20
0.0
 30
0.0
  3
___-44
  1

  0
LINE
  5
3F9
  8
0
  6
CONTINUOUS
 62
     0
 10
-31739.45882518619
 20
-50236.40816003564
 30
0.0
 11
-31929.20882518619
 21
-50236.40816003564
 31
0.0
  0
LINE
  5
3FA
  8
0
  6
CONTINUOUS
 62
     0
 10
-31739.45882518619
 20
-50213.90816003564
 30
0.0
 11
-31929.20882518619
 21
-50213.90816003564
 31
0.0
  0
LINE
  5
3FB
  8
0
  6
CONTINUOUS
 62
     0
 10
-31929.20882518619
 20
-50236.40816003564
 30
0.0
 11
-31929.20882518619
 21
-50213.90816003564
 31
0.0
  0
CIRCLE
  5
3FC
  8
0
  6
CONTINUOUS
 62
     0
 10
-31929.20882518619
 20
-50236.40816003564
 30
0.0
 40
4.499725341796875
  0
CIRCLE
  5
3FD
  8
0
  6
CONTINUOUS
 62
     0
 10
-31929.20882518619
 20
-50213.90816003564
 30
0.0
 40
4.499725341796875
  0
TEXT
  5
3FE
  8
0
 62
     0
 10
-31958.45549185286
 20
-50305.46448894821
 30
0.0
 40
31.86024305555556
  1
15
 50
90.0
  7
YUGOTHIC_MEDIUM
 11
-31990.31573490841
 21
-50305.46448894821
 31
0.0
 73
     3
  0
TEXT
  5
3FF
  8
0
 62
     0
 10
-31958.45549185286
 20
-50258.47448834262
 30
0.0
 40
31.86024305555556
  1
(17.5)
 50
90.0
  7
YUGOTHIC_MEDIUM
 11
-31990.31573490841
 21
-50258.47448834262
 31
0.0
 73
     3
  0
ENDBLK
  5
10E
  8
0
  0
BLOCK
  8
0
  2
___-45
 70
     0
 10
0.0
 20
0.0
 30
0.0
  3
___-45
  1

  0
LINE
  5
400
  8
0
  6
CONTINUOUS
 62
     0
 10
-31701.95882518619
 20
-50266.40816003564
 30
0.0
 11
-31701.95882518619
 21
-50401.40816003564
 31
0.0
  0
LINE
  5
401
  8
0
  6
CONTINUOUS
 62
     0
 10
-31724.45882518619
 20
-50266.40816003564
 30
0.0
 11
-31724.45882518619
 21
-50401.40816003564
 31
0.0
  0
LINE
  5
402
  8
0
  6
CONTINUOUS
 62
     0
 10
-31701.95882518619
 20
-50401.40816003564
 30
0.0
 11
-31724.45882518619
 21
-50401.40816003564
 31
0.0
  0
CIRCLE
  5
403
  8
0
  6
CONTINUOUS
 62
     0
 10
-31701.95882518619
 20
-50401.40816003564
 30
0.0
 40
4.499725341796875
  0
CIRCLE
  5
404
  8
0
  6
CONTINUOUS
 62
     0
 10
-31724.45882518619
 20
-50401.40816003564
 30
0.0
 40
4.499725341796875
  0
TEXT
  5
405
  8
0
 62
     0
 10
-31793.51515409876
 20
-50372.16149336896
 30
0.0
 40
31.86024305555556
  1
15
  7
YUGOTHIC_MEDIUM
 11
-31793.51515409876
 21
-50340.30125031341
 31
0.0
 73
     3
  0
TEXT
  5
406
  8
0
 62
     0
 10
-31746.52515349318
 20
-50372.16149336896
 30
0.0
 40
31.86024305555556
  1
(14.5)
  7
YUGOTHIC_MEDIUM
 11
-31746.52515349318
 21
-50340.30125031341
 31
0.0
 73
     3
  0
ENDBLK
  5
111
  8
0
  0
BLOCK
  8
0
  2
____-9-1
 70
     0
 10
0.0
 20
0.0
 30
0.0
  3
____-9-1
  1

  0
POLYLINE
  5
407
  8
0
  6
CONTINUOUS
 62
     7
 66
     1
 10
0.0
 20
0.0
 30
0.0
 70
   129
  0
VERTEX
  5
408
  8
0
  6
CONTINUOUS
 62
     7
 10
-21134.63921679079
 20
-33378.34114734217
 30
0.0
  0
VERTEX
  5
409
  8
0
  6
CONTINUOUS
 62
     7
 10
-21127.06345921503
 20
-33378.34114734217
 30
0.0
  0
VERTEX
  5
40A
  8
0
  6
CONTINUOUS
 62
     7
 10
-21127.06345921503
 20
-33438.34114734217
 30
0.0
  0
VERTEX
  5
40B
  8
0
  6
CONTINUOUS
 62
     7
 10
-21134.63921679079
 20
-33438.34114734217
 30
0.0
  0
SEQEND
  5
40C
  8
0
  6
CONTINUOUS
 62
     7
  0
POLYLINE
  5
40D
  8
0
  6
CONTINUOUS
 62
     7
 66
     1
 10
0.0
 20
0.0
 30
0.0
 70
   129
  0
VERTEX
  5
40E
  8
0
  6
CONTINUOUS
 62
     7
 10
-21134.63921679079
 20
-33398.34114734217
 30
0.0
  0
VERTEX
  5
40F
  8
0
  6
CONTINUOUS
 62
     7
 10
-21114.63921679079
 20
-33398.34114734217
 30
0.0
  0
VERTEX
  5
410
  8
0
  6
CONTINUOUS
 62
     7
 10
-21114.63921679079
 20
-33418.34114734217
 30
0.0
  0
VERTEX
  5
411
  8
0
  6
CONTINUOUS
 62
     7
 10
-21134.63921679079
 20
-33418.34114734217
 30
0.0
  0
SEQEND
  5
412
  8
0
  6
CONTINUOUS
 62
     7
  0
POLYLINE
  5
413
  8
0
  6
CONTINUOUS
 62
     7
 66
     1
 10
0.0
 20
0.0
 30
0.0
 70
   129
  0
VERTEX
  5
414
  8
0
  6
CONTINUOUS
 62
     7
 10
-21132.21497436655
 20
-33403.34114734217
 30
0.0
  0
VERTEX
  5
415
  8
0
  6
CONTINUOUS
 62
     7
 10
-21117.06345921503
 20
-33403.34114734217
 30
0.0
  0
VERTEX
  5
416
  8
0
  6
CONTINUOUS
 62
     7
 10
-21117.06345921503
 20
-33413.34114734217
 30
0.0
  0
VERTEX
  5
417
  8
0
  6
CONTINUOUS
 62
     7
 10
-21132.21497436655
 20
-33413.34114734217
 30
0.0
  0
SEQEND
  5
418
  8
0
  6
CONTINUOUS
 62
     7
  0
ENDBLK
  5
114
  8
0
  0
BLOCK
  8
0
  2
____-10-1
 70
     0
 10
0.0
 20
0.0
 30
0.0
  3
____-10-1
  1

  0
POLYLINE
  5
419
  8
0
  6
CONTINUOUS
 62
     7
 66
     1
 10
0.0
 20
0.0
 30
0.0
 70
   129
  0
VERTEX
  5
41A
  8
0
  6
CONTINUOUS
 62
     7
 10
-21134.63921679079
 20
-33064.95361856048
 30
0.0
  0
VERTEX
  5
41B
  8
0
  6
CONTINUOUS
 62
     7
 10
-21127.06345921503
 20
-33064.95361856048
 30
0.0
  0
VERTEX
  5
41C
  8
0
  6
CONTINUOUS
 62
     7
 10
-21127.06345921503
 20
-33124.95361856048
 30
0.0
  0
VERTEX
  5
41D
  8
0
  6
CONTINUOUS
 62
     7
 10
-21134.63921679079
 20
-33124.95361856048
 30
0.0
  0
SEQEND
  5
41E
  8
0
  6
CONTINUOUS
 62
     7
  0
POLYLINE
  5
41F
  8
0
  6
CONTINUOUS
 62
     7
 66
     1
 10
0.0
 20
0.0
 30
0.0
 70
   129
  0
VERTEX
  5
420
  8
0
  6
CONTINUOUS
 62
     7
 10
-21134.63921679079
 20
-33084.95361856048
 30
0.0
  0
VERTEX
  5
421
  8
0
  6
CONTINUOUS
 62
     7
 10
-21114.63921679079
 20
-33084.95361856048
 30
0.0
  0
VERTEX
  5
422
  8
0
  6
CONTINUOUS
 62
     7
 10
-21114.63921679079
 20
-33104.95361856048
 30
0.0
  0
VERTEX
  5
423
  8
0
  6
CONTINUOUS
 62
     7
 10
-21134.63921679079
 20
-33104.95361856048
 30
0.0
  0
SEQEND
  5
424
  8
0
  6
CONTINUOUS
 62
     7
  0
POLYLINE
  5
425
  8
0
  6
CONTINUOUS
 62
     7
 66
     1
 10
0.0
 20
0.0
 30
0.0
 70
   129
  0
VERTEX
  5
426
  8
0
  6
CONTINUOUS
 62
     7
 10
-21132.21497436655
 20
-33089.95361856048
 30
0.0
  0
VERTEX
  5
427
  8
0
  6
CONTINUOUS
 62
     7
 10
-21117.06345921503
 20
-33089.95361856048
 30
0.0
  0
VERTEX
  5
428
  8
0
  6
CONTINUOUS
 62
     7
 10
-21117.06345921503
 20
-33099.95361856048
 30
0.0
  0
VERTEX
  5
429
  8
0
  6
CONTINUOUS
 62
     7
 10
-21132.21497436655
 20
-33099.95361856048
 30
0.0
  0
SEQEND
  5
42A
  8
0
  6
CONTINUOUS
 62
     7
  0
ENDBLK
  5
117
  8
0
  0
BLOCK
  8
0
  2
___-46
 70
     0
 10
0.0
 20
0.0
 30
0.0
  3
___-46
  1

  0
LINE
  5
42B
  8
0
  6
CONTINUOUS
 62
     0
 10
-25352.2400000001
 20
-48153.36927949861
 30
0.0
 11
-25646.40630136814
 21
-48153.36927949861
 31
0.0
  0
LINE
  5
42C
  8
0
  6
CONTINUOUS
 62
     0
 10
-25352.2400000001
 20
-48873.36927949861
 30
0.0
 11
-25646.40630136814
 21
-48873.36927949861
 31
0.0
  0
LINE
  5
42D
  8
0
  6
CONTINUOUS
 62
     0
 10
-25646.40630136814
 20
-48153.36927949861
 30
0.0
 11
-25646.40630136814
 21
-48873.36927949861
 31
0.0
  0
CIRCLE
  5
42E
  8
0
  6
CONTINUOUS
 62
     0
 10
-25646.40630136814
 20
-48153.36927949861
 30
0.0
 40
4.499725341796875
  0
CIRCLE
  5
42F
  8
0
  6
CONTINUOUS
 62
     0
 10
-25646.40630136814
 20
-48873.36927949861
 30
0.0
 40
4.499725341796875
  0
TEXT
  5
430
  8
0
 62
     0
 10
-25675.65296803482
 20
-48605.02094455039
 30
0.0
 40
31.86024305555556
  1
400?900
 50
90.0
  7
YUGOTHIC_MEDIUM
 11
-25707.51321109037
 21
-48605.02094455039
 31
0.0
 73
     3
  0
ENDBLK
  5
11A
  8
0
  0
BLOCK
  8
0
  2
___-47
 70
     0
 10
0.0
 20
0.0
 30
0.0
  3
___-47
  1

  0
LINE
  5
431
  8
0
  6
CONTINUOUS
 62
     0
 10
-25333.4900000001
 20
-48888.36927949861
 30
0.0
 11
-25333.4900000001
 21
-49023.36927949861
 31
0.0
  0
LINE
  5
432
  8
0
  6
CONTINUOUS
 62
     0
 10
-25337.2400000001
 20
-48888.36927949861
 30
0.0
 11
-25337.2400000001
 21
-49023.36927949861
 31
0.0
  0
LINE
  5
433
  8
0
  6
CONTINUOUS
 62
     0
 10
-25337.2400000001
 20
-49023.36927949861
 30
0.0
 11
-25416.19433155721
 21
-49023.36927949861
 31
0.0
  0
LINE
  5
434
  8
0
  6
CONTINUOUS
 62
     0
 10
-25333.4900000001
 20
-49023.36927949861
 30
0.0
 11
-25337.2400000001
 21
-49023.36927949861
 31
0.0
  0
CIRCLE
  5
435
  8
0
  6
CONTINUOUS
 62
     0
 10
-25333.4900000001
 20
-49023.36927949861
 30
0.0
 40
4.499725341796875
  0
CIRCLE
  5
436
  8
0
  6
CONTINUOUS
 62
     0
 10
-25337.2400000001
 20
-49023.36927949861
 30
0.0
 40
4.499725341796875
  0
TEXT
  5
437
  8
0
 62
     0
 10
-25416.19433155721
 20
-48994.12261283193
 30
0.0
 40
31.86024305555556
  1
2.5
  7
YUGOTHIC_MEDIUM
 11
-25416.19433155721
 21
-48962.26236977638
 31
0.0
 73
     3
  0
ENDBLK
  5
11D
  8
0
  0
BLOCK
  8
0
  2
___-48
 70
     0
 10
0.0
 20
0.0
 30
0.0
  3
___-48
  1

  0
LINE
  5
438
  8
0
  6
CONTINUOUS
 62
     0
 10
-25337.2400000001
 20
-48888.36927949861
 30
0.0
 11
-25337.2400000001
 21
-49173.3692794986
 31
0.0
  0
LINE
  5
439
  8
0
  6
CONTINUOUS
 62
     0
 10
-24137.2400000001
 20
-48888.36927949861
 30
0.0
 11
-24137.2400000001
 21
-49173.3692794986
 31
0.0
  0
LINE
  5
43A
  8
0
  6
CONTINUOUS
 62
     0
 10
-25337.2400000001
 20
-49173.3692794986
 30
0.0
 11
-24137.2400000001
 21
-49173.3692794986
 31
0.0
  0
CIRCLE
  5
43B
  8
0
  6
CONTINUOUS
 62
     0
 10
-25337.2400000001
 20
-49173.3692794986
 30
0.0
 40
4.499725341796875
  0
CIRCLE
  5
43C
  8
0
  6
CONTINUOUS
 62
     0
 10
-24137.2400000001
 20
-49173.3692794986
 30
0.0
 40
4.499725341796875
  0
TEXT
  5
43D
  8
0
 62
     0
 10
-24982.49814421982
 20
-49144.12261283193
 30
0.0
 40
31.86024305555556
  1
キャビネットW 410?800
  7
YUGOTHIC_MEDIUM-B
 11
-24982.49814421982
 21
-49112.26236977638
 31
0.0
 73
     3
  0
ENDBLK
  5
120
  8
0
  0
BLOCK
  8
0
  2
___-49
 70
     0
 10
0.0
 20
0.0
 30
0.0
  3
___-49
  1

  0
LINE
  5
43E
  8
0
  6
CONTINUOUS
 62
     0
 10
-25333.4900000001
 20
-48888.36927949861
 30
0.0
 11
-25333.4900000001
 21
-49023.36927949861
 31
0.0
  0
LINE
  5
43F
  8
0
  6
CONTINUOUS
 62
     0
 10
-24740.9900000001
 20
-48888.36927949861
 30
0.0
 11
-24740.9900000001
 21
-49023.36927949861
 31
0.0
  0
LINE
  5
440
  8
0
  6
CONTINUOUS
 62
     0
 10
-25333.4900000001
 20
-49023.36927949861
 30
0.0
 11
-24740.9900000001
 21
-49023.36927949861
 31
0.0
  0
CIRCLE
  5
441
  8
0
  6
CONTINUOUS
 62
     0
 10
-25333.4900000001
 20
-49023.36927949861
 30
0.0
 40
4.499725341796875
  0
CIRCLE
  5
442
  8
0
  6
CONTINUOUS
 62
     0
 10
-24740.9900000001
 20
-49023.36927949861
 30
0.0
 40
4.499725341796875
  0
TEXT
  5
443
  8
0
 62
     0
 10
-25175.77583494833
 20
-48994.12261283193
 30
0.0
 40
31.86024305555556
  1
扉W 200?395
  7
YUGOTHIC_MEDIUM
 11
-25175.77583494833
 21
-48962.26236977638
 31
0.0
 73
     3
  0
ENDBLK
  5
123
  8
0
  0
BLOCK
  8
0
  2
___-50
 70
     0
 10
0.0
 20
0.0
 30
0.0
  3
___-50
  1

  0
LINE
  5
444
  8
0
  6
CONTINUOUS
 62
     0
 10
-24137.2400000001
 20
-48888.36927949861
 30
0.0
 11
-24137.2400000001
 21
-49023.36927949861
 31
0.0
  0
LINE
  5
445
  8
0
  6
CONTINUOUS
 62
     0
 10
-24140.9900000001
 20
-48888.36927949861
 30
0.0
 11
-24140.9900000001
 21
-49023.36927949861
 31
0.0
  0
LINE
  5
446
  8
0
  6
CONTINUOUS
 62
     0
 10
-24137.2400000001
 20
-49023.36927949861
 30
0.0
 11
-24069.09656109667
 21
-49023.36927949861
 31
0.0
  0
LINE
  5
447
  8
0
  6
CONTINUOUS
 62
     0
 10
-24137.2400000001
 20
-49023.36927949861
 30
0.0
 11
-24140.9900000001
 21
-49023.36927949861
 31
0.0
  0
CIRCLE
  5
448
  8
0
  6
CONTINUOUS
 62
     0
 10
-24137.2400000001
 20
-49023.36927949861
 30
0.0
 40
4.499725341796875
  0
CIRCLE
  5
449
  8
0
  6
CONTINUOUS
 62
     0
 10
-24140.9900000001
 20
-49023.36927949861
 30
0.0
 40
4.499725341796875
  0
TEXT
  5
44A
  8
0
 62
     0
 10
-24127.05089265363
 20
-48994.12261283193
 30
0.0
 40
31.86024305555556
  1
2.5
  7
YUGOTHIC_MEDIUM
 11
-24127.05089265363
 21
-48962.26236977638
 31
0.0
 73
     3
  0
ENDBLK
  5
126
  8
0
  0
BLOCK
  8
0
  2
___-51
 70
     0
 10
0.0
 20
0.0
 30
0.0
  3
___-51
  1

  0
LINE
  5
44B
  8
0
  6
CONTINUOUS
 62
     0
 10
-24733.4900000001
 20
-48888.36927949861
 30
0.0
 11
-24733.4900000001
 21
-49023.36927949861
 31
0.0
  0
LINE
  5
44C
  8
0
  6
CONTINUOUS
 62
     0
 10
-24140.9900000001
 20
-48888.36927949861
 30
0.0
 11
-24140.9900000001
 21
-49023.36927949861
 31
0.0
  0
LINE
  5
44D
  8
0
  6
CONTINUOUS
 62
     0
 10
-24733.4900000001
 20
-49023.36927949861
 30
0.0
 11
-24140.9900000001
 21
-49023.36927949861
 31
0.0
  0
CIRCLE
  5
44E
  8
0
  6
CONTINUOUS
 62
     0
 10
-24733.4900000001
 20
-49023.36927949861
 30
0.0
 40
4.499725341796875
  0
CIRCLE
  5
44F
  8
0
  6
CONTINUOUS
 62
     0
 10
-24140.9900000001
 20
-49023.36927949861
 30
0.0
 40
4.499725341796875
  0
TEXT
  5
450
  8
0
 62
     0
 10
-24575.77583494833
 20
-48994.12261283193
 30
0.0
 40
31.86024305555556
  1
扉W 245?395
  7
YUGOTHIC_MEDIUM
 11
-24575.77583494833
 21
-48962.26236977638
 31
0.0
 73
     3
  0
ENDBLK
  5
129
  8
0
  0
BLOCK
  8
0
  2
___-52
 70
     0
 10
0.0
 20
0.0
 30
0.0
  3
___-52
  1

  0
LINE
  5
451
  8
0
  6
CONTINUOUS
 62
     0
 10
-24733.4900000001
 20
-48888.36927949861
 30
0.0
 11
-24733.4900000001
 21
-49023.36927949861
 31
0.0
  0
LINE
  5
452
  8
0
  6
CONTINUOUS
 62
     0
 10
-24740.9900000001
 20
-48888.36927949861
 30
0.0
 11
-24740.9900000001
 21
-49023.36927949861
 31
0.0
  0
LINE
  5
453
  8
0
  6
CONTINUOUS
 62
     0
 10
-24733.4900000001
 20
-49023.36927949861
 30
0.0
 11
-24740.9900000001
 21
-49023.36927949861
 31
0.0
  0
CIRCLE
  5
454
  8
0
  6
CONTINUOUS
 62
     0
 10
-24733.4900000001
 20
-49023.36927949861
 30
0.0
 40
4.499725341796875
  0
CIRCLE
  5
455
  8
0
  6
CONTINUOUS
 62
     0
 10
-24740.9900000001
 20
-49023.36927949861
 30
0.0
 40
4.499725341796875
  0
TEXT
  5
456
  8
0
 62
     0
 10
-24748.9875001515
 20
-48994.12261283193
 30
0.0
 40
31.86024305555556
  1
5
  7
YUGOTHIC_MEDIUM
 11
-24748.9875001515
 21
-48962.26236977638
 31
0.0
 73
     3
  0
ENDBLK
  5
12C
  8
0
  0
BLOCK
  8
0
  2
___-53
 70
     0
 10
0.0
 20
0.0
 30
0.0
  3
___-53
  1

  0
LINE
  5
457
  8
0
  6
CONTINUOUS
 62
     0
 10
-25352.2400000001
 20
-48160.86927949861
 30
0.0
 11
-25541.9900000001
 21
-48160.86927949861
 31
0.0
  0
LINE
  5
458
  8
0
  6
CONTINUOUS
 62
     0
 10
-25352.2400000001
 20
-48873.36927949861
 30
0.0
 11
-25541.9900000001
 21
-48873.36927949861
 31
0.0
  0
LINE
  5
459
  8
0
  6
CONTINUOUS
 62
     0
 10
-25541.9900000001
 20
-48160.86927949861
 30
0.0
 11
-25541.9900000001
 21
-48873.36927949861
 31
0.0
  0
CIRCLE
  5
45A
  8
0
  6
CONTINUOUS
 62
     0
 10
-25541.9900000001
 20
-48160.86927949861
 30
0.0
 40
4.499725341796875
  0
CIRCLE
  5
45B
  8
0
  6
CONTINUOUS
 62
     0
 10
-25541.9900000001
 20
-48873.36927949861
 30
0.0
 40
4.499725341796875
  0
TEXT
  5
45C
  8
0
 62
     0
 10
-25571.23666666677
 20
-48651.76043736414
 30
0.0
 40
31.86024305555556
  1
扉H 395?895
 50
90.0
  7
YUGOTHIC_MEDIUM
 11
-25603.09690972233
 21
-48651.76043736414
 31
0.0
 73
     3
  0
ENDBLK
  5
12F
  8
0
  0
BLOCK
  8
0
  2
___-54
 70
     0
 10
0.0
 20
0.0
 30
0.0
  3
___-54
  1

  0
LINE
  5
45D
  8
0
  6
CONTINUOUS
 62
     0
 10
-25352.2400000001
 20
-48160.86927949861
 30
0.0
 11
-25541.9900000001
 21
-48160.86927949861
 31
0.0
  0
LINE
  5
45E
  8
0
  6
CONTINUOUS
 62
     0
 10
-25352.2400000001
 20
-48153.36927949861
 30
0.0
 11
-25541.9900000001
 21
-48153.36927949861
 31
0.0
  0
LINE
  5
45F
  8
0
  6
CONTINUOUS
 62
     0
 10
-25541.9900000001
 20
-48160.86927949861
 30
0.0
 11
-25541.9900000001
 21
-48153.36927949861
 31
0.0
  0
CIRCLE
  5
460
  8
0
  6
CONTINUOUS
 62
     0
 10
-25541.9900000001
 20
-48160.86927949861
 30
0.0
 40
4.499725341796875
  0
CIRCLE
  5
461
  8
0
  6
CONTINUOUS
 62
     0
 10
-25541.9900000001
 20
-48153.36927949861
 30
0.0
 40
4.499725341796875
  0
TEXT
  5
462
  8
0
 62
     0
 10
-25571.23666666677
 20
-48168.86677965001
 30
0.0
 40
31.86024305555556
  1
5
 50
90.0
  7
YUGOTHIC_MEDIUM
 11
-25603.09690972233
 21
-48168.86677965001
 31
0.0
 73
     3
  0
ENDBLK
  5
132
  8
0
  0
BLOCK
  8
0
  2
___-55
 70
     0
 10
0.0
 20
0.0
 30
0.0
  3
___-55
  1

  0
LINE
  5
463
  8
0
  6
CONTINUOUS
 62
     0
 10
-25352.2400000001
 20
-49531.40816003564
 30
0.0
 11
-25646.40630136814
 21
-49531.40816003564
 31
0.0
  0
LINE
  5
464
  8
0
  6
CONTINUOUS
 62
     0
 10
-25352.2400000001
 20
-50236.40816003564
 30
0.0
 11
-25646.40630136814
 21
-50236.40816003564
 31
0.0
  0
LINE
  5
465
  8
0
  6
CONTINUOUS
 62
     0
 10
-25646.40630136814
 20
-49531.40816003564
 30
0.0
 11
-25646.40630136814
 21
-50236.40816003564
 31
0.0
  0
CIRCLE
  5
466
  8
0
  6
CONTINUOUS
 62
     0
 10
-25646.40630136814
 20
-49531.40816003564
 30
0.0
 40
4.499725341796875
  0
CIRCLE
  5
467
  8
0
  6
CONTINUOUS
 62
     0
 10
-25646.40630136814
 20
-50236.40816003564
 30
0.0
 40
4.499725341796875
  0
TEXT
  5
468
  8
0
 62
     0
 10
-25675.65296803482
 20
-50123.32432395699
 30
0.0
 40
31.86024305555556
  1
キャビネットH 390?890
 50
90.0
  7
YUGOTHIC_MEDIUM
 11
-25707.51321109037
 21
-50123.32432395699
 31
0.0
 73
     3
  0
ENDBLK
  5
135
  8
0
  0
BLOCK
  8
0
  2
___-56
 70
     0
 10
0.0
 20
0.0
 30
0.0
  3
___-56
  1

  0
LINE
  5
469
  8
0
  6
CONTINUOUS
 62
     0
 10
-25337.2400000001
 20
-50266.40816003564
 30
0.0
 11
-25337.2400000001
 21
-50551.40816003564
 31
0.0
  0
LINE
  5
46A
  8
0
  6
CONTINUOUS
 62
     0
 10
-24137.2400000001
 20
-50266.40816003564
 30
0.0
 11
-24137.2400000001
 21
-50551.40816003564
 31
0.0
  0
LINE
  5
46B
  8
0
  6
CONTINUOUS
 62
     0
 10
-25337.2400000001
 20
-50551.40816003564
 30
0.0
 11
-24137.2400000001
 21
-50551.40816003564
 31
0.0
  0
CIRCLE
  5
46C
  8
0
  6
CONTINUOUS
 62
     0
 10
-25337.2400000001
 20
-50551.40816003564
 30
0.0
 40
4.499725341796875
  0
CIRCLE
  5
46D
  8
0
  6
CONTINUOUS
 62
     0
 10
-24137.2400000001
 20
-50551.40816003564
 30
0.0
 40
4.499725341796875
  0
TEXT
  5
46E
  8
0
 62
     0
 10
-24982.49814421982
 20
-50522.16149336896
 30
0.0
 40
31.86024305555556
  1
キャビネットW 410?800
  7
YUGOTHIC_MEDIUM-B
 11
-24982.49814421982
 21
-50490.30125031341
 31
0.0
 73
     3
  0
ENDBLK
  5
138
  8
0
  0
BLOCK
  8
0
  2
___-57
 70
     0
 10
0.0
 20
0.0
 30
0.0
  3
___-57
  1

  0
LINE
  5
46F
  8
0
  6
CONTINUOUS
 62
     0
 10
-25352.2400000001
 20
-49553.90816003564
 30
0.0
 11
-25541.9900000001
 21
-49553.90816003564
 31
0.0
  0
LINE
  5
470
  8
0
  6
CONTINUOUS
 62
     0
 10
-25352.2400000001
 20
-49531.40816003564
 30
0.0
 11
-25541.9900000001
 21
-49531.40816003564
 31
0.0
  0
LINE
  5
471
  8
0
  6
CONTINUOUS
 62
     0
 10
-25541.9900000001
 20
-49553.90816003564
 30
0.0
 11
-25541.9900000001
 21
-49531.40816003564
 31
0.0
  0
CIRCLE
  5
472
  8
0
  6
CONTINUOUS
 62
     0
 10
-25541.9900000001
 20
-49553.90816003564
 30
0.0
 40
4.499725341796875
  0
CIRCLE
  5
473
  8
0
  6
CONTINUOUS
 62
     0
 10
-25541.9900000001
 20
-49531.40816003564
 30
0.0
 40
4.499725341796875
  0
TEXT
  5
474
  8
0
 62
     0
 10
-25571.23666666677
 20
-49566.15316033843
 30
0.0
 40
31.86024305555556
  1
15
 50
90.0
  7
YUGOTHIC_MEDIUM
 11
-25603.09690972233
 21
-49566.15316033843
 31
0.0
 73
     3
  0
ENDBLK
  5
13B
  8
0
  0
BLOCK
  8
0
  2
___-58
 70
     0
 10
0.0
 20
0.0
 30
0.0
  3
___-58
  1

  0
LINE
  5
475
  8
0
  6
CONTINUOUS
 62
     0
 10
-25352.2400000001
 20
-50236.40816003564
 30
0.0
 11
-25541.9900000001
 21
-50236.40816003564
 31
0.0
  0
LINE
  5
476
  8
0
  6
CONTINUOUS
 62
     0
 10
-25352.2400000001
 20
-50213.90816003564
 30
0.0
 11
-25541.9900000001
 21
-50213.90816003564
 31
0.0
  0
LINE
  5
477
  8
0
  6
CONTINUOUS
 62
     0
 10
-25541.9900000001
 20
-50236.40816003564
 30
0.0
 11
-25541.9900000001
 21
-50213.90816003564
 31
0.0
  0
CIRCLE
  5
478
  8
0
  6
CONTINUOUS
 62
     0
 10
-25541.9900000001
 20
-50236.40816003564
 30
0.0
 40
4.499725341796875
  0
CIRCLE
  5
479
  8
0
  6
CONTINUOUS
 62
     0
 10
-25541.9900000001
 20
-50213.90816003564
 30
0.0
 40
4.499725341796875
  0
TEXT
  5
47A
  8
0
 62
     0
 10
-25571.23666666677
 20
-50305.46448894821
 30
0.0
 40
31.86024305555556
  1
15
 50
90.0
  7
YUGOTHIC_MEDIUM
 11
-25603.09690972233
 21
-50305.46448894821
 31
0.0
 73
     3
  0
TEXT
  5
47B
  8
0
 62
     0
 10
-25571.23666666677
 20
-50258.47448834262
 30
0.0
 40
31.86024305555556
  1
(17.5)
 50
90.0
  7
YUGOTHIC_MEDIUM
 11
-25603.09690972233
 21
-50258.47448834262
 31
0.0
 73
     3
  0
ENDBLK
  5
13E
  8
0
  0
BLOCK
  8
0
  2
___-59
 70
     0
 10
0.0
 20
0.0
 30
0.0
  3
___-59
  1

  0
LINE
  5
47C
  8
0
  6
CONTINUOUS
 62
     0
 10
-25314.7400000001
 20
-50266.40816003564
 30
0.0
 11
-25314.7400000001
 21
-50401.40816003564
 31
0.0
  0
LINE
  5
47D
  8
0
  6
CONTINUOUS
 62
     0
 10
-25337.2400000001
 20
-50266.40816003564
 30
0.0
 11
-25337.2400000001
 21
-50401.40816003564
 31
0.0
  0
LINE
  5
47E
  8
0
  6
CONTINUOUS
 62
     0
 10
-25314.7400000001
 20
-50401.40816003564
 30
0.0
 11
-25337.2400000001
 21
-50401.40816003564
 31
0.0
  0
CIRCLE
  5
47F
  8
0
  6
CONTINUOUS
 62
     0
 10
-25314.7400000001
 20
-50401.40816003564
 30
0.0
 40
4.499725341796875
  0
CIRCLE
  5
480
  8
0
  6
CONTINUOUS
 62
     0
 10
-25337.2400000001
 20
-50401.40816003564
 30
0.0
 40
4.499725341796875
  0
TEXT
  5
481
  8
0
 62
     0
 10
-25406.29632891268
 20
-50372.16149336896
 30
0.0
 40
31.86024305555556
  1
15
  7
YUGOTHIC_MEDIUM
 11
-25406.29632891268
 21
-50340.30125031341
 31
0.0
 73
     3
  0
TEXT
  5
482
  8
0
 62
     0
 10
-25359.3063283071
 20
-50372.16149336896
 30
0.0
 40
31.86024305555556
  1
(14.5)
  7
YUGOTHIC_MEDIUM
 11
-25359.3063283071
 21
-50340.30125031341
 31
0.0
 73
     3
  0
ENDBLK
  5
141
  8
0
  0
BLOCK
  8
0
  2
___-60
 70
     0
 10
0.0
 20
0.0
 30
0.0
  3
___-60
  1

  0
LINE
  5
483
  8
0
  6
CONTINUOUS
 62
     0
 10
-24137.2400000001
 20
-50266.40816003564
 30
0.0
 11
-24137.2400000001
 21
-50401.40816003564
 31
0.0
  0
LINE
  5
484
  8
0
  6
CONTINUOUS
 62
     0
 10
-24159.7400000001
 20
-50266.40816003564
 30
0.0
 11
-24159.7400000001
 21
-50401.40816003564
 31
0.0
  0
LINE
  5
485
  8
0
  6
CONTINUOUS
 62
     0
 10
-24137.2400000001
 20
-50401.40816003564
 30
0.0
 11
-24159.7400000001
 21
-50401.40816003564
 31
0.0
  0
CIRCLE
  5
486
  8
0
  6
CONTINUOUS
 62
     0
 10
-24137.2400000001
 20
-50401.40816003564
 30
0.0
 40
4.499725341796875
  0
CIRCLE
  5
487
  8
0
  6
CONTINUOUS
 62
     0
 10
-24159.7400000001
 20
-50401.40816003564
 30
0.0
 40
4.499725341796875
  0
TEXT
  5
488
  8
0
 62
     0
 10
-24228.79632891268
 20
-50372.16149336896
 30
0.0
 40
31.86024305555556
  1
15
  7
YUGOTHIC_MEDIUM
 11
-24228.79632891268
 21
-50340.30125031341
 31
0.0
 73
     3
  0
TEXT
  5
489
  8
0
 62
     0
 10
-24181.8063283071
 20
-50372.16149336896
 30
0.0
 40
31.86024305555556
  1
(14.5)
  7
YUGOTHIC_MEDIUM
 11
-24181.8063283071
 21
-50340.30125031341
 31
0.0
 73
     3
  0
ENDBLK
  5
144
  8
0
  0
BLOCK
  8
0
  2
____-11-1
 70
     0
 10
0.0
 20
0.0
 30
0.0
  3
____-11-1
  1

  0
POLYLINE
  5
48A
  8
0
  6
CONTINUOUS
 62
     7
 66
     1
 10
0.0
 20
0.0
 30
0.0
 70
   129
  0
VERTEX
  5
48B
  8
0
  6
CONTINUOUS
 62
     7
 10
-16876.4933333334
 20
-33378.34114734217
 30
0.0
  0
VERTEX
  5
48C
  8
0
  6
CONTINUOUS
 62
     7
 10
-16868.91757575764
 20
-33378.34114734217
 30
0.0
  0
VERTEX
  5
48D
  8
0
  6
CONTINUOUS
 62
     7
 10
-16868.91757575764
 20
-33438.34114734217
 30
0.0
  0
VERTEX
  5
48E
  8
0
  6
CONTINUOUS
 62
     7
 10
-16876.4933333334
 20
-33438.34114734217
 30
0.0
  0
SEQEND
  5
48F
  8
0
  6
CONTINUOUS
 62
     7
  0
POLYLINE
  5
490
  8
0
  6
CONTINUOUS
 62
     7
 66
     1
 10
0.0
 20
0.0
 30
0.0
 70
   129
  0
VERTEX
  5
491
  8
0
  6
CONTINUOUS
 62
     7
 10
-16876.4933333334
 20
-33398.34114734217
 30
0.0
  0
VERTEX
  5
492
  8
0
  6
CONTINUOUS
 62
     7
 10
-16856.4933333334
 20
-33398.34114734217
 30
0.0
  0
VERTEX
  5
493
  8
0
  6
CONTINUOUS
 62
     7
 10
-16856.4933333334
 20
-33418.34114734217
 30
0.0
  0
VERTEX
  5
494
  8
0
  6
CONTINUOUS
 62
     7
 10
-16876.4933333334
 20
-33418.34114734217
 30
0.0
  0
SEQEND
  5
495
  8
0
  6
CONTINUOUS
 62
     7
  0
POLYLINE
  5
496
  8
0
  6
CONTINUOUS
 62
     7
 66
     1
 10
0.0
 20
0.0
 30
0.0
 70
   129
  0
VERTEX
  5
497
  8
0
  6
CONTINUOUS
 62
     7
 10
-16874.06909090916
 20
-33403.34114734217
 30
0.0
  0
VERTEX
  5
498
  8
0
  6
CONTINUOUS
 62
     7
 10
-16858.91757575764
 20
-33403.34114734217
 30
0.0
  0
VERTEX
  5
499
  8
0
  6
CONTINUOUS
 62
     7
 10
-16858.91757575764
 20
-33413.34114734217
 30
0.0
  0
VERTEX
  5
49A
  8
0
  6
CONTINUOUS
 62
     7
 10
-16874.06909090916
 20
-33413.34114734217
 30
0.0
  0
SEQEND
  5
49B
  8
0
  6
CONTINUOUS
 62
     7
  0
ENDBLK
  5
147
  8
0
  0
BLOCK
  8
0
  2
____-12-1
 70
     0
 10
0.0
 20
0.0
 30
0.0
  3
____-12-1
  1

  0
POLYLINE
  5
49C
  8
0
  6
CONTINUOUS
 62
     7
 66
     1
 10
0.0
 20
0.0
 30
0.0
 70
   129
  0
VERTEX
  5
49D
  8
0
  6
CONTINUOUS
 62
     7
 10
-16876.4933333334
 20
-33064.95361856048
 30
0.0
  0
VERTEX
  5
49E
  8
0
  6
CONTINUOUS
 62
     7
 10
-16868.91757575764
 20
-33064.95361856048
 30
0.0
  0
VERTEX
  5
49F
  8
0
  6
CONTINUOUS
 62
     7
 10
-16868.91757575764
 20
-33124.95361856048
 30
0.0
  0
VERTEX
  5
4A0
  8
0
  6
CONTINUOUS
 62
     7
 10
-16876.4933333334
 20
-33124.95361856048
 30
0.0
  0
SEQEND
  5
4A1
  8
0
  6
CONTINUOUS
 62
     7
  0
POLYLINE
  5
4A2
  8
0
  6
CONTINUOUS
 62
     7
 66
     1
 10
0.0
 20
0.0
 30
0.0
 70
   129
  0
VERTEX
  5
4A3
  8
0
  6
CONTINUOUS
 62
     7
 10
-16876.4933333334
 20
-33084.95361856048
 30
0.0
  0
VERTEX
  5
4A4
  8
0
  6
CONTINUOUS
 62
     7
 10
-16856.4933333334
 20
-33084.95361856048
 30
0.0
  0
VERTEX
  5
4A5
  8
0
  6
CONTINUOUS
 62
     7
 10
-16856.4933333334
 20
-33104.95361856048
 30
0.0
  0
VERTEX
  5
4A6
  8
0
  6
CONTINUOUS
 62
     7
 10
-16876.4933333334
 20
-33104.95361856048
 30
0.0
  0
SEQEND
  5
4A7
  8
0
  6
CONTINUOUS
 62
     7
  0
POLYLINE
  5
4A8
  8
0
  6
CONTINUOUS
 62
     7
 66
     1
 10
0.0
 20
0.0
 30
0.0
 70
   129
  0
VERTEX
  5
4A9
  8
0
  6
CONTINUOUS
 62
     7
 10
-16874.06909090916
 20
-33089.95361856048
 30
0.0
  0
VERTEX
  5
4AA
  8
0
  6
CONTINUOUS
 62
     7
 10
-16858.91757575764
 20
-33089.95361856048
 30
0.0
  0
VERTEX
  5
4AB
  8
0
  6
CONTINUOUS
 62
     7
 10
-16858.91757575764
 20
-33099.95361856048
 30
0.0
  0
VERTEX
  5
4AC
  8
0
  6
CONTINUOUS
 62
     7
 10
-16874.06909090916
 20
-33099.95361856048
 30
0.0
  0
SEQEND
  5
4AD
  8
0
  6
CONTINUOUS
 62
     7
  0
ENDBLK
  5
14A
  8
0
  0
BLOCK
  8
0
  2
____-13-1
 70
     0
 10
0.0
 20
0.0
 30
0.0
  3
____-13-1
  1

  0
POLYLINE
  5
4AE
  8
0
  6
CONTINUOUS
 62
     7
 66
     1
 10
0.0
 20
0.0
 30
0.0
 70
   129
  0
VERTEX
  5
4AF
  8
0
  6
CONTINUOUS
 62
     7
 10
-16114.06909090916
 20
-33378.34114734217
 30
0.0
  0
VERTEX
  5
4B0
  8
0
  6
CONTINUOUS
 62
     7
 10
-16106.4933333334
 20
-33378.34114734217
 30
0.0
  0
VERTEX
  5
4B1
  8
0
  6
CONTINUOUS
 62
     7
 10
-16106.4933333334
 20
-33438.34114734217
 30
0.0
  0
VERTEX
  5
4B2
  8
0
  6
CONTINUOUS
 62
     7
 10
-16114.06909090916
 20
-33438.34114734217
 30
0.0
  0
SEQEND
  5
4B3
  8
0
  6
CONTINUOUS
 62
     7
  0
POLYLINE
  5
4B4
  8
0
  6
CONTINUOUS
 62
     7
 66
     1
 10
0.0
 20
0.0
 30
0.0
 70
   129
  0
VERTEX
  5
4B5
  8
0
  6
CONTINUOUS
 62
     7
 10
-16126.4933333334
 20
-33398.34114734217
 30
0.0
  0
VERTEX
  5
4B6
  8
0
  6
CONTINUOUS
 62
     7
 10
-16106.4933333334
 20
-33398.34114734217
 30
0.0
  0
VERTEX
  5
4B7
  8
0
  6
CONTINUOUS
 62
     7
 10
-16106.4933333334
 20
-33418.34114734217
 30
0.0
  0
VERTEX
  5
4B8
  8
0
  6
CONTINUOUS
 62
     7
 10
-16126.4933333334
 20
-33418.34114734217
 30
0.0
  0
SEQEND
  5
4B9
  8
0
  6
CONTINUOUS
 62
     7
  0
POLYLINE
  5
4BA
  8
0
  6
CONTINUOUS
 62
     7
 66
     1
 10
0.0
 20
0.0
 30
0.0
 70
   129
  0
VERTEX
  5
4BB
  8
0
  6
CONTINUOUS
 62
     7
 10
-16124.06909090916
 20
-33403.34114734217
 30
0.0
  0
VERTEX
  5
4BC
  8
0
  6
CONTINUOUS
 62
     7
 10
-16108.91757575764
 20
-33403.34114734217
 30
0.0
  0
VERTEX
  5
4BD
  8
0
  6
CONTINUOUS
 62
     7
 10
-16108.91757575764
 20
-33413.34114734217
 30
0.0
  0
VERTEX
  5
4BE
  8
0
  6
CONTINUOUS
 62
     7
 10
-16124.06909090916
 20
-33413.34114734217
 30
0.0
  0
SEQEND
  5
4BF
  8
0
  6
CONTINUOUS
 62
     7
  0
ENDBLK
  5
14D
  8
0
  0
BLOCK
  8
0
  2
____-14-1
 70
     0
 10
0.0
 20
0.0
 30
0.0
  3
____-14-1
  1

  0
POLYLINE
  5
4C0
  8
0
  6
CONTINUOUS
 62
     7
 66
     1
 10
0.0
 20
0.0
 30
0.0
 70
   129
  0
VERTEX
  5
4C1
  8
0
  6
CONTINUOUS
 62
     7
 10
-16114.06909090916
 20
-33064.95361856048
 30
0.0
  0
VERTEX
  5
4C2
  8
0
  6
CONTINUOUS
 62
     7
 10
-16106.4933333334
 20
-33064.95361856048
 30
0.0
  0
VERTEX
  5
4C3
  8
0
  6
CONTINUOUS
 62
     7
 10
-16106.4933333334
 20
-33124.95361856048
 30
0.0
  0
VERTEX
  5
4C4
  8
0
  6
CONTINUOUS
 62
     7
 10
-16114.06909090916
 20
-33124.95361856048
 30
0.0
  0
SEQEND
  5
4C5
  8
0
  6
CONTINUOUS
 62
     7
  0
POLYLINE
  5
4C6
  8
0
  6
CONTINUOUS
 62
     7
 66
     1
 10
0.0
 20
0.0
 30
0.0
 70
   129
  0
VERTEX
  5
4C7
  8
0
  6
CONTINUOUS
 62
     7
 10
-16126.4933333334
 20
-33084.95361856048
 30
0.0
  0
VERTEX
  5
4C8
  8
0
  6
CONTINUOUS
 62
     7
 10
-16106.4933333334
 20
-33084.95361856048
 30
0.0
  0
VERTEX
  5
4C9
  8
0
  6
CONTINUOUS
 62
     7
 10
-16106.4933333334
 20
-33104.95361856048
 30
0.0
  0
VERTEX
  5
4CA
  8
0
  6
CONTINUOUS
 62
     7
 10
-16126.4933333334
 20
-33104.95361856048
 30
0.0
  0
SEQEND
  5
4CB
  8
0
  6
CONTINUOUS
 62
     7
  0
POLYLINE
  5
4CC
  8
0
  6
CONTINUOUS
 62
     7
 66
     1
 10
0.0
 20
0.0
 30
0.0
 70
   129
  0
VERTEX
  5
4CD
  8
0
  6
CONTINUOUS
 62
     7
 10
-16124.06909090916
 20
-33089.95361856048
 30
0.0
  0
VERTEX
  5
4CE
  8
0
  6
CONTINUOUS
 62
     7
 10
-16108.91757575764
 20
-33089.95361856048
 30
0.0
  0
VERTEX
  5
4CF
  8
0
  6
CONTINUOUS
 62
     7
 10
-16108.91757575764
 20
-33099.95361856048
 30
0.0
  0
VERTEX
  5
4D0
  8
0
  6
CONTINUOUS
 62
     7
 10
-16124.06909090916
 20
-33099.95361856048
 30
0.0
  0
SEQEND
  5
4D1
  8
0
  6
CONTINUOUS
 62
     7
  0
ENDBLK
  5
150
  8
0
  0
BLOCK
  8
0
  2
___-61
 70
     0
 10
0.0
 20
0.0
 30
0.0
  3
___-61
  1

  0
LINE
  5
4D2
  8
0
  6
CONTINUOUS
 62
     0
 10
-6704.236285547957
 20
-48768.36927949861
 30
0.0
 11
-6704.236285547957
 21
-48903.36927949861
 31
0.0
  0
LINE
  5
4D3
  8
0
  6
CONTINUOUS
 62
     0
 10
-6707.986285547957
 20
-48768.36927949861
 30
0.0
 11
-6707.986285547957
 21
-48903.36927949861
 31
0.0
  0
LINE
  5
4D4
  8
0
  6
CONTINUOUS
 62
     0
 10
-6707.986285547957
 20
-48903.36927949861
 30
0.0
 11
-6786.940617105063
 21
-48903.36927949861
 31
0.0
  0
LINE
  5
4D5
  8
0
  6
CONTINUOUS
 62
     0
 10
-6704.236285547957
 20
-48903.36927949861
 30
0.0
 11
-6707.986285547957
 21
-48903.36927949861
 31
0.0
  0
CIRCLE
  5
4D6
  8
0
  6
CONTINUOUS
 62
     0
 10
-6704.236285547957
 20
-48903.36927949861
 30
0.0
 40
4.499725341796875
  0
CIRCLE
  5
4D7
  8
0
  6
CONTINUOUS
 62
     0
 10
-6707.986285547957
 20
-48903.36927949861
 30
0.0
 40
4.499725341796875
  0
TEXT
  5
4D8
  8
0
 62
     0
 10
-6786.940617105063
 20
-48874.12261283194
 30
0.0
 40
31.86024305555556
  1
2.5
  7
YUGOTHIC_MEDIUM
 11
-6786.940617105063
 21
-48842.26236977638
 31
0.0
 73
     3
  0
ENDBLK
  5
153
  8
0
  0
BLOCK
  8
0
  2
___-62
 70
     0
 10
0.0
 20
0.0
 30
0.0
  3
___-62
  1

  0
LINE
  5
4D9
  8
0
  6
CONTINUOUS
 62
     0
 10
-6707.986285547957
 20
-48817.22213271911
 30
0.0
 11
-6707.986285547957
 21
-49057.14660585717
 31
0.0
  0
LINE
  5
4DA
  8
0
  6
CONTINUOUS
 62
     0
 10
-5132.986285547957
 20
-48817.22213271911
 30
0.0
 11
-5132.986285547957
 21
-49057.14660585717
 31
0.0
  0
LINE
  5
4DB
  8
0
  6
CONTINUOUS
 62
     0
 10
-6707.986285547957
 20
-49057.14660585717
 30
0.0
 11
-5132.986285547957
 21
-49057.14660585717
 31
0.0
  0
CIRCLE
  5
4DC
  8
0
  6
CONTINUOUS
 62
     0
 10
-6707.986285547957
 20
-49057.14660585717
 30
0.0
 40
4.499725341796875
  0
CIRCLE
  5
4DD
  8
0
  6
CONTINUOUS
 62
     0
 10
-5132.986285547957
 20
-49057.14660585717
 30
0.0
 40
4.499725341796875
  0
TEXT
  5
4DE
  8
0
 62
     0
 10
-6177.872948984847
 20
-49027.8999391905
 30
0.0
 40
31.86024305555556
  1
キャビネットW 810?1200
  7
YUGOTHIC_MEDIUM-B
 11
-6177.872948984847
 21
-48996.03969613495
 31
0.0
 73
     3
  0
ENDBLK
  5
156
  8
0
  0
BLOCK
  8
0
  2
___-63
 70
     0
 10
0.0
 20
0.0
 30
0.0
  3
___-63
  1

  0
LINE
  5
4DF
  8
0
  6
CONTINUOUS
 62
     0
 10
-5136.736285547957
 20
-48768.36927949861
 30
0.0
 11
-5136.736285547957
 21
-48903.36927949861
 31
0.0
  0
LINE
  5
4E0
  8
0
  6
CONTINUOUS
 62
     0
 10
-5132.986285547957
 20
-48768.36927949861
 30
0.0
 11
-5132.986285547957
 21
-48903.36927949861
 31
0.0
  0
LINE
  5
4E1
  8
0
  6
CONTINUOUS
 62
     0
 10
-5132.986285547957
 20
-48903.36927949861
 30
0.0
 11
-5054.03195399085
 21
-48903.36927949861
 31
0.0
  0
LINE
  5
4E2
  8
0
  6
CONTINUOUS
 62
     0
 10
-5136.736285547957
 20
-48903.36927949861
 30
0.0
 11
-5132.986285547957
 21
-48903.36927949861
 31
0.0
  0
CIRCLE
  5
4E3
  8
0
  6
CONTINUOUS
 62
     0
 10
-5136.736285547957
 20
-48903.36927949861
 30
0.0
 40
4.499725341796875
  0
CIRCLE
  5
4E4
  8
0
  6
CONTINUOUS
 62
     0
 10
-5132.986285547957
 20
-48903.36927949861
 30
0.0
 40
4.499725341796875
  0
TEXT
  5
4E5
  8
0
 62
     0
 10
-5111.986285547806
 20
-48874.12261283194
 30
0.0
 40
31.86024305555556
  1
2.5
  7
YUGOTHIC_MEDIUM
 11
-5111.986285547806
 21
-48842.26236977638
 31
0.0
 73
     3
  0
ENDBLK
  5
159
  8
0
  0
BLOCK
  8
0
  2
___-64
 70
     0
 10
0.0
 20
0.0
 30
0.0
  3
___-64
  1

  0
LINE
  5
4E6
  8
0
  6
CONTINUOUS
 62
     0
 10
-6722.986285547957
 20
-49531.40816003564
 30
0.0
 11
-7017.152586915999
 21
-49531.40816003564
 31
0.0
  0
LINE
  5
4E7
  8
0
  6
CONTINUOUS
 62
     0
 10
-6722.986285547957
 20
-50116.40816003564
 30
0.0
 11
-7017.152586915999
 21
-50116.40816003564
 31
0.0
  0
LINE
  5
4E8
  8
0
  6
CONTINUOUS
 62
     0
 10
-7017.152586915999
 20
-49531.40816003564
 30
0.0
 11
-7017.152586915999
 21
-50116.40816003564
 31
0.0
  0
CIRCLE
  5
4E9
  8
0
  6
CONTINUOUS
 62
     0
 10
-7017.152586915999
 20
-49531.40816003564
 30
0.0
 40
4.499725341796875
  0
CIRCLE
  5
4EA
  8
0
  6
CONTINUOUS
 62
     0
 10
-7017.152586915999
 20
-50116.40816003564
 30
0.0
 40
4.499725341796875
  0
TEXT
  5
4EB
  8
0
 62
     0
 10
-7046.399253582665
 20
-49859.15065922818
 30
0.0
 40
31.86024305555556
  1
390
 50
90.0
  7
YUGOTHIC_MEDIUM
 11
-7078.25949663822
 21
-49859.15065922818
 31
0.0
 73
     3
  0
ENDBLK
  5
15C
  8
0
  0
BLOCK
  8
0
  2
___-65
 70
     0
 10
0.0
 20
0.0
 30
0.0
  3
___-65
  1

  0
LINE
  5
4EC
  8
0
  6
CONTINUOUS
 62
     0
 10
-6707.986285547957
 20
-50146.40816003564
 30
0.0
 11
-6707.986285547957
 21
-50431.40816003564
 31
0.0
  0
LINE
  5
4ED
  8
0
  6
CONTINUOUS
 62
     0
 10
-5132.986285547957
 20
-50146.40816003564
 30
0.0
 11
-5132.986285547957
 21
-50431.40816003564
 31
0.0
  0
LINE
  5
4EE
  8
0
  6
CONTINUOUS
 62
     0
 10
-6707.986285547957
 20
-50431.40816003564
 30
0.0
 11
-5132.986285547957
 21
-50431.40816003564
 31
0.0
  0
CIRCLE
  5
4EF
  8
0
  6
CONTINUOUS
 62
     0
 10
-6707.986285547957
 20
-50431.40816003564
 30
0.0
 40
4.499725341796875
  0
CIRCLE
  5
4F0
  8
0
  6
CONTINUOUS
 62
     0
 10
-5132.986285547957
 20
-50431.40816003564
 30
0.0
 40
4.499725341796875
  0
TEXT
  5
4F1
  8
0
 62
     0
 10
-6177.872948984847
 20
-50402.16149336896
 30
0.0
 40
31.86024305555556
  1
キャビネットW 810?1200
  7
YUGOTHIC_MEDIUM-B
 11
-6177.872948984847
 21
-50370.30125031341
 31
0.0
 73
     3
  0
ENDBLK
  5
15F
  8
0
  0
BLOCK
  8
0
  2
___-66
 70
     0
 10
0.0
 20
0.0
 30
0.0
  3
___-66
  1

  0
LINE
  5
4F2
  8
0
  6
CONTINUOUS
 62
     0
 10
-6722.986285547957
 20
-49553.90816003564
 30
0.0
 11
-6912.736285547957
 21
-49553.90816003564
 31
0.0
  0
LINE
  5
4F3
  8
0
  6
CONTINUOUS
 62
     0
 10
-6722.986285547957
 20
-50093.90816003564
 30
0.0
 11
-6912.736285547957
 21
-50093.90816003564
 31
0.0
  0
LINE
  5
4F4
  8
0
  6
CONTINUOUS
 62
     0
 10
-6912.736285547957
 20
-49553.90816003564
 30
0.0
 11
-6912.736285547957
 21
-50093.90816003564
 31
0.0
  0
CIRCLE
  5
4F5
  8
0
  6
CONTINUOUS
 62
     0
 10
-6912.736285547957
 20
-49553.90816003564
 30
0.0
 40
4.499725341796875
  0
CIRCLE
  5
4F6
  8
0
  6
CONTINUOUS
 62
     0
 10
-6912.736285547957
 20
-50093.90816003564
 30
0.0
 40
4.499725341796875
  0
TEXT
  5
4F7
  8
0
 62
     0
 10
-6941.982952214622
 20
-49859.15065922818
 30
0.0
 40
31.86024305555556
  1
360
 50
90.0
  7
YUGOTHIC_MEDIUM
 11
-6973.843195270178
 21
-49859.15065922818
 31
0.0
 73
     3
  0
ENDBLK
  5
162
  8
0
  0
BLOCK
  8
0
  2
___-67
 70
     0
 10
0.0
 20
0.0
 30
0.0
  3
___-67
  1

  0
LINE
  5
4F8
  8
0
  6
CONTINUOUS
 62
     0
 10
-6722.986285547957
 20
-49553.90816003564
 30
0.0
 11
-6912.736285547957
 21
-49553.90816003564
 31
0.0
  0
LINE
  5
4F9
  8
0
  6
CONTINUOUS
 62
     0
 10
-6722.986285547957
 20
-49531.40816003564
 30
0.0
 11
-6912.736285547957
 21
-49531.40816003564
 31
0.0
  0
LINE
  5
4FA
  8
0
  6
CONTINUOUS
 62
     0
 10
-6912.736285547957
 20
-49553.90816003564
 30
0.0
 11
-6912.736285547957
 21
-49531.40816003564
 31
0.0
  0
CIRCLE
  5
4FB
  8
0
  6
CONTINUOUS
 62
     0
 10
-6912.736285547957
 20
-49553.90816003564
 30
0.0
 40
4.499725341796875
  0
CIRCLE
  5
4FC
  8
0
  6
CONTINUOUS
 62
     0
 10
-6912.736285547957
 20
-49531.40816003564
 30
0.0
 40
4.499725341796875
  0
TEXT
  5
4FD
  8
0
 62
     0
 10
-6941.982952214624
 20
-49566.15316033843
 30
0.0
 40
31.86024305555556
  1
15
 50
90.0
  7
YUGOTHIC_MEDIUM
 11
-6973.843195270179
 21
-49566.15316033843
 31
0.0
 73
     3
  0
ENDBLK
  5
165
  8
0
  0
BLOCK
  8
0
  2
___-68
 70
     0
 10
0.0
 20
0.0
 30
0.0
  3
___-68
  1

  0
LINE
  5
4FE
  8
0
  6
CONTINUOUS
 62
     0
 10
-6722.986285547957
 20
-50116.40816003564
 30
0.0
 11
-6912.736285547957
 21
-50116.40816003564
 31
0.0
  0
LINE
  5
4FF
  8
0
  6
CONTINUOUS
 62
     0
 10
-6722.986285547957
 20
-50093.90816003564
 30
0.0
 11
-6912.736285547957
 21
-50093.90816003564
 31
0.0
  0
LINE
  5
500
  8
0
  6
CONTINUOUS
 62
     0
 10
-6912.736285547957
 20
-50116.40816003564
 30
0.0
 11
-6912.736285547957
 21
-50093.90816003564
 31
0.0
  0
CIRCLE
  5
501
  8
0
  6
CONTINUOUS
 62
     0
 10
-6912.736285547957
 20
-50116.40816003564
 30
0.0
 40
4.499725341796875
  0
CIRCLE
  5
502
  8
0
  6
CONTINUOUS
 62
     0
 10
-6912.736285547957
 20
-50093.90816003564
 30
0.0
 40
4.499725341796875
  0
TEXT
  5
503
  8
0
 62
     0
 10
-6941.982952214624
 20
-50185.46448894821
 30
0.0
 40
31.86024305555556
  1
15
 50
90.0
  7
YUGOTHIC_MEDIUM
 11
-6973.843195270179
 21
-50185.46448894821
 31
0.0
 73
     3
  0
TEXT
  5
504
  8
0
 62
     0
 10
-6941.982952214624
 20
-50138.47448834262
 30
0.0
 40
31.86024305555556
  1
(17.5)
 50
90.0
  7
YUGOTHIC_MEDIUM
 11
-6973.843195270179
 21
-50138.47448834262
 31
0.0
 73
     3
  0
ENDBLK
  5
168
  8
0
  0
BLOCK
  8
0
  2
___-69
 70
     0
 10
0.0
 20
0.0
 30
0.0
  3
___-69
  1

  0
LINE
  5
505
  8
0
  6
CONTINUOUS
 62
     0
 10
-6685.486285547957
 20
-50146.40816003564
 30
0.0
 11
-6685.486285547957
 21
-50281.40816003564
 31
0.0
  0
LINE
  5
506
  8
0
  6
CONTINUOUS
 62
     0
 10
-6707.986285547957
 20
-50146.40816003564
 30
0.0
 11
-6707.986285547957
 21
-50281.40816003564
 31
0.0
  0
LINE
  5
507
  8
0
  6
CONTINUOUS
 62
     0
 10
-6685.486285547957
 20
-50281.40816003564
 30
0.0
 11
-6707.986285547957
 21
-50281.40816003564
 31
0.0
  0
CIRCLE
  5
508
  8
0
  6
CONTINUOUS
 62
     0
 10
-6685.486285547957
 20
-50281.40816003564
 30
0.0
 40
4.499725341796875
  0
CIRCLE
  5
509
  8
0
  6
CONTINUOUS
 62
     0
 10
-6707.986285547957
 20
-50281.40816003564
 30
0.0
 40
4.499725341796875
  0
TEXT
  5
50A
  8
0
 62
     0
 10
-6777.042614460534
 20
-50252.16149336896
 30
0.0
 40
31.86024305555556
  1
15
  7
YUGOTHIC_MEDIUM
 11
-6777.042614460534
 21
-50220.30125031341
 31
0.0
 73
     3
  0
TEXT
  5
50B
  8
0
 62
     0
 10
-6730.05261385495
 20
-50252.16149336896
 30
0.0
 40
31.86024305555556
  1
(14.5)
  7
YUGOTHIC_MEDIUM
 11
-6730.05261385495
 21
-50220.30125031341
 31
0.0
 73
     3
  0
ENDBLK
  5
16B
  8
0
  0
BLOCK
  8
0
  2
___-70
 70
     0
 10
0.0
 20
0.0
 30
0.0
  3
___-70
  1

  0
LINE
  5
50C
  8
0
  6
CONTINUOUS
 62
     0
 10
-5132.986285547957
 20
-50146.40816003564
 30
0.0
 11
-5132.986285547957
 21
-50281.40816003564
 31
0.0
  0
LINE
  5
50D
  8
0
  6
CONTINUOUS
 62
     0
 10
-5155.486285547957
 20
-50146.40816003564
 30
0.0
 11
-5155.486285547957
 21
-50281.40816003564
 31
0.0
  0
LINE
  5
50E
  8
0
  6
CONTINUOUS
 62
     0
 10
-5132.986285547957
 20
-50281.40816003564
 30
0.0
 11
-5155.486285547957
 21
-50281.40816003564
 31
0.0
  0
CIRCLE
  5
50F
  8
0
  6
CONTINUOUS
 62
     0
 10
-5132.986285547957
 20
-50281.40816003564
 30
0.0
 40
4.499725341796875
  0
CIRCLE
  5
510
  8
0
  6
CONTINUOUS
 62
     0
 10
-5155.486285547957
 20
-50281.40816003564
 30
0.0
 40
4.499725341796875
  0
TEXT
  5
511
  8
0
 62
     0
 10
-5224.542614460533
 20
-50252.16149336896
 30
0.0
 40
31.86024305555556
  1
15
  7
YUGOTHIC_MEDIUM
 11
-5224.542614460533
 21
-50220.30125031341
 31
0.0
 73
     3
  0
TEXT
  5
512
  8
0
 62
     0
 10
-5177.552613854949
 20
-50252.16149336896
 30
0.0
 40
31.86024305555556
  1
(14.5)
  7
YUGOTHIC_MEDIUM
 11
-5177.552613854949
 21
-50220.30125031341
 31
0.0
 73
     3
  0
ENDBLK
  5
16E
  8
0
  0
BLOCK
  8
0
  2
___-71
 70
     0
 10
0.0
 20
0.0
 30
0.0
  3
___-71
  1

  0
LINE
  5
513
  8
0
  6
CONTINUOUS
 62
     0
 10
-29924.45882518619
 20
-48888.36927949861
 30
0.0
 11
-29924.45882518619
 21
-49173.3692794986
 31
0.0
  0
LINE
  5
514
  8
0
  6
CONTINUOUS
 62
     0
 10
-30524.45882518619
 20
-48888.36927949861
 30
0.0
 11
-30524.45882518619
 21
-49173.3692794986
 31
0.0
  0
LINE
  5
515
  8
0
  6
CONTINUOUS
 62
     0
 10
-29924.45882518619
 20
-49173.3692794986
 30
0.0
 11
-30524.45882518619
 21
-49173.3692794986
 31
0.0
  0
CIRCLE
  5
516
  8
0
  6
CONTINUOUS
 62
     0
 10
-29924.45882518619
 20
-49173.3692794986
 30
0.0
 40
4.499725341796875
  0
CIRCLE
  5
517
  8
0
  6
CONTINUOUS
 62
     0
 10
-30524.45882518619
 20
-49173.3692794986
 30
0.0
 40
4.499725341796875
  0
TEXT
  5
518
  8
0
 62
     0
 10
-30469.7169694059
 20
-49144.12261283193
 30
0.0
 40
31.86024305555556
  1
キャビネットW 250?400
  7
YUGOTHIC_MEDIUM-B
 11
-30469.7169694059
 21
-49112.26236977638
 31
0.0
 73
     3
  0
ENDBLK
  5
171
  8
0
  0
BLOCK
  8
0
  2
___-72
 70
     0
 10
0.0
 20
0.0
 30
0.0
  3
___-72
  1

  0
LINE
  5
519
  8
0
  6
CONTINUOUS
 62
     0
 10
-30520.70882518619
 20
-48888.36927949861
 30
0.0
 11
-30520.70882518619
 21
-49023.36927949861
 31
0.0
  0
LINE
  5
51A
  8
0
  6
CONTINUOUS
 62
     0
 10
-30524.45882518619
 20
-48888.36927949861
 30
0.0
 11
-30524.45882518619
 21
-49023.36927949861
 31
0.0
  0
LINE
  5
51B
  8
0
  6
CONTINUOUS
 62
     0
 10
-30524.45882518619
 20
-49023.36927949861
 30
0.0
 11
-30603.41315674329
 21
-49023.36927949861
 31
0.0
  0
LINE
  5
51C
  8
0
  6
CONTINUOUS
 62
     0
 10
-30520.70882518619
 20
-49023.36927949861
 30
0.0
 11
-30524.45882518619
 21
-49023.36927949861
 31
0.0
  0
CIRCLE
  5
51D
  8
0
  6
CONTINUOUS
 62
     0
 10
-30520.70882518619
 20
-49023.36927949861
 30
0.0
 40
4.499725341796875
  0
CIRCLE
  5
51E
  8
0
  6
CONTINUOUS
 62
     0
 10
-30524.45882518619
 20
-49023.36927949861
 30
0.0
 40
4.499725341796875
  0
TEXT
  5
51F
  8
0
 62
     0
 10
-30603.41315674329
 20
-48994.12261283193
 30
0.0
 40
31.86024305555556
  1
2.5
  7
YUGOTHIC_MEDIUM
 11
-30603.41315674329
 21
-48962.26236977638
 31
0.0
 73
     3
  0
ENDBLK
  5
174
  8
0
  0
BLOCK
  8
0
  2
___-73
 70
     0
 10
0.0
 20
0.0
 30
0.0
  3
___-73
  1

  0
LINE
  5
520
  8
0
  6
CONTINUOUS
 62
     0
 10
-29924.45882518619
 20
-50266.40816003564
 30
0.0
 11
-29924.45882518619
 21
-50551.40816003564
 31
0.0
  0
LINE
  5
521
  8
0
  6
CONTINUOUS
 62
     0
 10
-30524.45882518619
 20
-50266.40816003564
 30
0.0
 11
-30524.45882518619
 21
-50551.40816003564
 31
0.0
  0
LINE
  5
522
  8
0
  6
CONTINUOUS
 62
     0
 10
-29924.45882518619
 20
-50551.40816003564
 30
0.0
 11
-30524.45882518619
 21
-50551.40816003564
 31
0.0
  0
CIRCLE
  5
523
  8
0
  6
CONTINUOUS
 62
     0
 10
-29924.45882518619
 20
-50551.40816003564
 30
0.0
 40
4.499725341796875
  0
CIRCLE
  5
524
  8
0
  6
CONTINUOUS
 62
     0
 10
-30524.45882518619
 20
-50551.40816003564
 30
0.0
 40
4.499725341796875
  0
TEXT
  5
525
  8
0
 62
     0
 10
-30469.7169694059
 20
-50522.16149336896
 30
0.0
 40
31.86024305555556
  1
キャビネットW 250?400
  7
YUGOTHIC_MEDIUM-B
 11
-30469.7169694059
 21
-50490.30125031341
 31
0.0
 73
     3
  0
ENDBLK
  5
177
  8
0
  0
BLOCK
  8
0
  2
___-74
 70
     0
 10
0.0
 20
0.0
 30
0.0
  3
___-74
  1

  0
LINE
  5
526
  8
0
  6
CONTINUOUS
 62
     0
 10
-30524.45882518619
 20
-50266.40816003564
 30
0.0
 11
-30524.45882518619
 21
-50401.40816003564
 31
0.0
  0
LINE
  5
527
  8
0
  6
CONTINUOUS
 62
     0
 10
-30501.95882518619
 20
-50266.40816003564
 30
0.0
 11
-30501.95882518619
 21
-50401.40816003564
 31
0.0
  0
LINE
  5
528
  8
0
  6
CONTINUOUS
 62
     0
 10
-30524.45882518619
 20
-50401.40816003564
 30
0.0
 11
-30501.95882518619
 21
-50401.40816003564
 31
0.0
  0
CIRCLE
  5
529
  8
0
  6
CONTINUOUS
 62
     0
 10
-30524.45882518619
 20
-50401.40816003564
 30
0.0
 40
4.499725341796875
  0
CIRCLE
  5
52A
  8
0
  6
CONTINUOUS
 62
     0
 10
-30501.95882518619
 20
-50401.40816003564
 30
0.0
 40
4.499725341796875
  0
TEXT
  5
52B
  8
0
 62
     0
 10
-30593.51515409876
 20
-50372.16149336896
 30
0.0
 40
31.86024305555556
  1
15
  7
YUGOTHIC_MEDIUM
 11
-30593.51515409876
 21
-50340.30125031341
 31
0.0
 73
     3
  0
TEXT
  5
52C
  8
0
 62
     0
 10
-30546.52515349318
 20
-50372.16149336896
 30
0.0
 40
31.86024305555556
  1
(14.5)
  7
YUGOTHIC_MEDIUM
 11
-30546.52515349318
 21
-50340.30125031341
 31
0.0
 73
     3
  0
ENDBLK
  5
17A
  8
0
  0
BLOCK
  8
0
  2
___-75
 70
     0
 10
0.0
 20
0.0
 30
0.0
  3
___-75
  1

  0
LINE
  5
52D
  8
0
  6
CONTINUOUS
 62
     0
 10
-29946.95882518619
 20
-50266.40816003564
 30
0.0
 11
-29946.95882518619
 21
-50401.40816003564
 31
0.0
  0
LINE
  5
52E
  8
0
  6
CONTINUOUS
 62
     0
 10
-29924.45882518619
 20
-50266.40816003564
 30
0.0
 11
-29924.45882518619
 21
-50401.40816003564
 31
0.0
  0
LINE
  5
52F
  8
0
  6
CONTINUOUS
 62
     0
 10
-29946.95882518619
 20
-50401.40816003564
 30
0.0
 11
-29924.45882518619
 21
-50401.40816003564
 31
0.0
  0
CIRCLE
  5
530
  8
0
  6
CONTINUOUS
 62
     0
 10
-29946.95882518619
 20
-50401.40816003564
 30
0.0
 40
4.499725341796875
  0
CIRCLE
  5
531
  8
0
  6
CONTINUOUS
 62
     0
 10
-29924.45882518619
 20
-50401.40816003564
 30
0.0
 40
4.499725341796875
  0
TEXT
  5
532
  8
0
 62
     0
 10
-30016.01515409876
 20
-50372.16149336896
 30
0.0
 40
31.86024305555556
  1
15
  7
YUGOTHIC_MEDIUM
 11
-30016.01515409876
 21
-50340.30125031341
 31
0.0
 73
     3
  0
TEXT
  5
533
  8
0
 62
     0
 10
-29969.02515349318
 20
-50372.16149336896
 30
0.0
 40
31.86024305555556
  1
(14.5)
  7
YUGOTHIC_MEDIUM
 11
-29969.02515349318
 21
-50340.30125031341
 31
0.0
 73
     3
  0
ENDBLK
  5
17D
  8
0
  0
BLOCK
  8
0
  2
____-15-1
 70
     0
 10
0.0
 20
0.0
 30
0.0
  3
____-15-1
  1

  0
POLYLINE
  5
534
  8
0
  6
CONTINUOUS
 62
     7
 66
     1
 10
0.0
 20
0.0
 30
0.0
 70
   129
  0
VERTEX
  5
535
  8
0
  6
CONTINUOUS
 62
     7
 10
-19972.21497436655
 20
-33378.34114734217
 30
0.0
  0
VERTEX
  5
536
  8
0
  6
CONTINUOUS
 62
     7
 10
-19964.63921679079
 20
-33378.34114734217
 30
0.0
  0
VERTEX
  5
537
  8
0
  6
CONTINUOUS
 62
     7
 10
-19964.63921679079
 20
-33438.34114734217
 30
0.0
  0
VERTEX
  5
538
  8
0
  6
CONTINUOUS
 62
     7
 10
-19972.21497436655
 20
-33438.34114734217
 30
0.0
  0
SEQEND
  5
539
  8
0
  6
CONTINUOUS
 62
     7
  0
POLYLINE
  5
53A
  8
0
  6
CONTINUOUS
 62
     7
 66
     1
 10
0.0
 20
0.0
 30
0.0
 70
   129
  0
VERTEX
  5
53B
  8
0
  6
CONTINUOUS
 62
     7
 10
-19984.63921679079
 20
-33398.34114734217
 30
0.0
  0
VERTEX
  5
53C
  8
0
  6
CONTINUOUS
 62
     7
 10
-19964.63921679079
 20
-33398.34114734217
 30
0.0
  0
VERTEX
  5
53D
  8
0
  6
CONTINUOUS
 62
     7
 10
-19964.63921679079
 20
-33418.34114734217
 30
0.0
  0
VERTEX
  5
53E
  8
0
  6
CONTINUOUS
 62
     7
 10
-19984.63921679079
 20
-33418.34114734217
 30
0.0
  0
SEQEND
  5
53F
  8
0
  6
CONTINUOUS
 62
     7
  0
POLYLINE
  5
540
  8
0
  6
CONTINUOUS
 62
     7
 66
     1
 10
0.0
 20
0.0
 30
0.0
 70
   129
  0
VERTEX
  5
541
  8
0
  6
CONTINUOUS
 62
     7
 10
-19982.21497436655
 20
-33403.34114734217
 30
0.0
  0
VERTEX
  5
542
  8
0
  6
CONTINUOUS
 62
     7
 10
-19967.06345921503
 20
-33403.34114734217
 30
0.0
  0
VERTEX
  5
543
  8
0
  6
CONTINUOUS
 62
     7
 10
-19967.06345921503
 20
-33413.34114734217
 30
0.0
  0
VERTEX
  5
544
  8
0
  6
CONTINUOUS
 62
     7
 10
-19982.21497436655
 20
-33413.34114734217
 30
0.0
  0
SEQEND
  5
545
  8
0
  6
CONTINUOUS
 62
     7
  0
ENDBLK
  5
180
  8
0
  0
BLOCK
  8
0
  2
____-16-1
 70
     0
 10
0.0
 20
0.0
 30
0.0
  3
____-16-1
  1

  0
POLYLINE
  5
546
  8
0
  6
CONTINUOUS
 62
     7
 66
     1
 10
0.0
 20
0.0
 30
0.0
 70
   129
  0
VERTEX
  5
547
  8
0
  6
CONTINUOUS
 62
     7
 10
-19972.21497436655
 20
-33064.95361856048
 30
0.0
  0
VERTEX
  5
548
  8
0
  6
CONTINUOUS
 62
     7
 10
-19964.63921679079
 20
-33064.95361856048
 30
0.0
  0
VERTEX
  5
549
  8
0
  6
CONTINUOUS
 62
     7
 10
-19964.63921679079
 20
-33124.95361856048
 30
0.0
  0
VERTEX
  5
54A
  8
0
  6
CONTINUOUS
 62
     7
 10
-19972.21497436655
 20
-33124.95361856048
 30
0.0
  0
SEQEND
  5
54B
  8
0
  6
CONTINUOUS
 62
     7
  0
POLYLINE
  5
54C
  8
0
  6
CONTINUOUS
 62
     7
 66
     1
 10
0.0
 20
0.0
 30
0.0
 70
   129
  0
VERTEX
  5
54D
  8
0
  6
CONTINUOUS
 62
     7
 10
-19984.63921679079
 20
-33084.95361856048
 30
0.0
  0
VERTEX
  5
54E
  8
0
  6
CONTINUOUS
 62
     7
 10
-19964.63921679079
 20
-33084.95361856048
 30
0.0
  0
VERTEX
  5
54F
  8
0
  6
CONTINUOUS
 62
     7
 10
-19964.63921679079
 20
-33104.95361856048
 30
0.0
  0
VERTEX
  5
550
  8
0
  6
CONTINUOUS
 62
     7
 10
-19984.63921679079
 20
-33104.95361856048
 30
0.0
  0
SEQEND
  5
551
  8
0
  6
CONTINUOUS
 62
     7
  0
POLYLINE
  5
552
  8
0
  6
CONTINUOUS
 62
     7
 66
     1
 10
0.0
 20
0.0
 30
0.0
 70
   129
  0
VERTEX
  5
553
  8
0
  6
CONTINUOUS
 62
     7
 10
-19982.21497436655
 20
-33089.95361856048
 30
0.0
  0
VERTEX
  5
554
  8
0
  6
CONTINUOUS
 62
     7
 10
-19967.06345921503
 20
-33089.95361856048
 30
0.0
  0
VERTEX
  5
555
  8
0
  6
CONTINUOUS
 62
     7
 10
-19967.06345921503
 20
-33099.95361856048
 30
0.0
  0
VERTEX
  5
556
  8
0
  6
CONTINUOUS
 62
     7
 10
-19982.21497436655
 20
-33099.95361856048
 30
0.0
  0
SEQEND
  5
557
  8
0
  6
CONTINUOUS
 62
     7
  0
ENDBLK
  5
183
  8
0
  0
BLOCK
  8
0
  2
___-76
 70
     0
 10
0.0
 20
0.0
 30
0.0
  3
___-76
  1

  0
LINE
  5
558
  8
0
  6
CONTINUOUS
 62
     0
 10
-6704.236285547957
 20
-48768.36927949861
 30
0.0
 11
-6704.236285547957
 21
-48903.36927949861
 31
0.0
  0
LINE
  5
559
  8
0
  6
CONTINUOUS
 62
     0
 10
-5136.736285547957
 20
-48768.36927949861
 30
0.0
 11
-5136.736285547957
 21
-48903.36927949861
 31
0.0
  0
LINE
  5
55A
  8
0
  6
CONTINUOUS
 62
     0
 10
-6704.236285547957
 20
-48903.36927949861
 30
0.0
 11
-5136.736285547957
 21
-48903.36927949861
 31
0.0
  0
CIRCLE
  5
55B
  8
0
  6
CONTINUOUS
 62
     0
 10
-6704.236285547957
 20
-48903.36927949861
 30
0.0
 40
4.499725341796875
  0
CIRCLE
  5
55C
  8
0
  6
CONTINUOUS
 62
     0
 10
-5136.736285547957
 20
-48903.36927949861
 30
0.0
 40
4.499725341796875
  0
TEXT
  5
55D
  8
0
 62
     0
 10
-6070.76961686268
 20
-48874.12261283194
 30
0.0
 40
31.86024305555556
  1
扉W 905?1195
  7
YUGOTHIC_MEDIUM
 11
-6070.76961686268
 21
-48842.26236977638
 31
0.0
 73
     3
  0
ENDBLK
  5
186
  8
0
  0
BLOCK
  8
0
  2
___-77
 70
     0
 10
0.0
 20
0.0
 30
0.0
  3
___-77
  1

  0
LINE
  5
55E
  8
0
  6
CONTINUOUS
 62
     0
 10
-12802.5
 20
-48160.86927949861
 30
0.0
 11
-12992.25
 21
-48160.86927949861
 31
0.0
  0
LINE
  5
55F
  8
0
  6
CONTINUOUS
 62
     0
 10
-12802.5
 20
-48753.36927949861
 30
0.0
 11
-12992.25
 21
-48753.36927949861
 31
0.0
  0
LINE
  5
560
  8
0
  6
CONTINUOUS
 62
     0
 10
-12992.25
 20
-48160.86927949861
 30
0.0
 11
-12992.25
 21
-48753.36927949861
 31
0.0
  0
CIRCLE
  5
561
  8
0
  6
CONTINUOUS
 62
     0
 10
-12992.25
 20
-48160.86927949861
 30
0.0
 40
4.499725341796875
  0
CIRCLE
  5
562
  8
0
  6
CONTINUOUS
 62
     0
 10
-12992.25
 20
-48753.36927949861
 30
0.0
 40
4.499725341796875
  0
TEXT
  5
563
  8
0
 62
     0
 10
-13021.49666666667
 20
-48535.35127655144
 30
0.0
 40
31.86024305555556
  1
扉H 395
 50
90.0
  7
YUGOTHIC_MEDIUM
 11
-13053.35690972222
 21
-48535.35127655144
 31
0.0
 73
     3
  0
ENDBLK
  5
189
  8
0
  0
BLOCK
  8
0
  2
___-78
 70
     0
 10
0.0
 20
0.0
 30
0.0
  3
___-78
  1

  0
LINE
  5
564
  8
0
  6
CONTINUOUS
 62
     0
 10
-12802.5
 20
-48160.86927949861
 30
0.0
 11
-12992.25
 21
-48160.86927949861
 31
0.0
  0
LINE
  5
565
  8
0
  6
CONTINUOUS
 62
     0
 10
-12802.5
 20
-48153.36927949861
 30
0.0
 11
-12992.25
 21
-48153.36927949861
 31
0.0
  0
LINE
  5
566
  8
0
  6
CONTINUOUS
 62
     0
 10
-12992.25
 20
-48160.86927949861
 30
0.0
 11
-12992.25
 21
-48153.36927949861
 31
0.0
  0
CIRCLE
  5
567
  8
0
  6
CONTINUOUS
 62
     0
 10
-12992.25
 20
-48160.86927949861
 30
0.0
 40
4.499725341796875
  0
CIRCLE
  5
568
  8
0
  6
CONTINUOUS
 62
     0
 10
-12992.25
 20
-48153.36927949861
 30
0.0
 40
4.499725341796875
  0
TEXT
  5
569
  8
0
 62
     0
 10
-13021.49666666667
 20
-48168.86677965001
 30
0.0
 40
31.86024305555556
  1
5
 50
90.0
  7
YUGOTHIC_MEDIUM
 11
-13053.35690972222
 21
-48168.86677965001
 31
0.0
 73
     3
  0
ENDBLK
  5
18C
  8
0
  0
BLOCK
  8
0
  2
___-79
 70
     0
 10
0.0
 20
0.0
 30
0.0
  3
___-79
  1

  0
LINE
  5
56A
  8
0
  6
CONTINUOUS
 62
     0
 10
181.5554596593247
 20
-143.1216808510253
 30
0.0
 11
181.5554596593247
 21
-253.2391808510217
 31
0.0
  0
LINE
  5
56B
  8
0
  6
CONTINUOUS
 62
     0
 10
-146.4445403406753
 20
-153.1216808510217
 30
0.0
 11
-146.4445403406753
 21
-253.2391808510217
 31
0.0
  0
LINE
  5
56C
  8
0
  6
CONTINUOUS
 62
     0
 10
181.3754596593247
 20
-253.0591808510217
 30
0.0
 11
18.26260251646755
 21
-253.0591808510217
 31
0.0
  0
LINE
  5
56D
  8
0
  6
CONTINUOUS
 62
     0
 10
-146.2645403406753
 20
-253.0591808510217
 30
0.0
 11
16.84831680218184
 21
-253.0591808510217
 31
0.0
  0
SOLID
  5
56E
  8
0
 62
     0
 10
181.3754596593247
 20
-253.0891808510217
 30
0.0
 11
181.3754596593247
 21
-253.0291808510217
 31
0.0
 12
181.5554596593247
 22
-253.0591808510217
 32
0.0
 13
181.5554596593247
 23
-253.0591808510217
 33
0.0
  0
SOLID
  5
56F
  8
0
 62
     0
 10
-146.2645403406753
 20
-253.0291808510217
 30
0.0
 11
-146.2645403406753
 21
-253.0891808510217
 31
0.0
 12
-146.4445403406753
 22
-253.0591808510217
 32
0.0
 13
-146.4445403406753
 23
-253.0591808510217
 33
0.0
  0
TEXT
  5
5E4
  8
0
  6
CONTINUOUS
 62
     0
 10
16.91260251646755
 20
-253.1491808510217
 30
0.0
 40
0.18
  1
328.0000
  0
POINT
  5
5E5
  8
DEFPOINTS
 62
     0
 10
181.5554596593247
 20
-143.0591808510253
 30
0.0
  0
POINT
  5
5E6
  8
DEFPOINTS
 62
     0
 10
-146.4445403406753
 20
-153.0591808510217
 30
0.0
  0
POINT
  5
5E7
  8
DEFPOINTS
 62
     0
 10
-146.4445403406753
 20
-253.0591808510217
 30
0.0
  0
ENDBLK
  5
18F
  8
0
  0
BLOCK
  8
0
  2
___-80
 70
     0
 10
0.0
 20
0.0
 30
0.0
  3
___-80
  1

  0
LINE
  5
570
  8
0
  6
CONTINUOUS
 62
     0
 10
-99.54737242087513
 20
-174.3875285013928
 30
0.0
 11
-99.36737242087513
 21
-174.3875285013928
 31
0.0
  0
LINE
  5
571
  8
0
  6
CONTINUOUS
 62
     0
 10
-99.36737242087513
 20
-174.3875285013928
 30
0.0
 11
-99.36737242087513
 21
-153.0591808510217
 31
0.0
  0
LINE
  5
572
  8
0
  6
CONTINUOUS
 62
     0
 10
-146.3820403406753
 20
-143.0591808510253
 30
0.0
 11
-99.18737242087512
 21
-143.0591808510253
 31
0.0
  0
LINE
  5
573
  8
0
  6
CONTINUOUS
 62
     0
 10
-148.3820403406753
 20
-153.0591808510217
 30
0.0
 11
-99.18737242087512
 21
-153.0591808510217
 31
0.0
  0
LINE
  5
574
  8
0
  6
CONTINUOUS
 62
     0
 10
-99.36737242087513
 20
-143.2391808510253
 30
0.0
 11
-99.36737242087513
 21
-152.8791808510217
 31
0.0
  0
SOLID
  5
575
  8
0
 62
     0
 10
-99.33737242087513
 20
-143.2391808510253
 30
0.0
 11
-99.39737242087513
 21
-143.2391808510253
 31
0.0
 12
-99.36737242087513
 22
-143.0591808510253
 32
0.0
 13
-99.36737242087513
 23
-143.0591808510253
 33
0.0
  0
SOLID
  5
576
  8
0
 62
     0
 10
-99.39737242087513
 20
-152.8791808510217
 30
0.0
 11
-99.33737242087513
 21
-152.8791808510217
 31
0.0
 12
-99.36737242087513
 22
-153.0591808510217
 32
0.0
 13
-99.36737242087513
 23
-153.0591808510217
 33
0.0
  0
TEXT
  5
5E9
  8
0
  6
CONTINUOUS
 62
     0
 10
-100.7259438494466
 20
-174.4775285013928
 30
0.0
 40
0.18
  1
10.0000
  0
POINT
  5
5EA
  8
DEFPOINTS
 62
     0
 10
-146.4445403406753
 20
-143.0591808510253
 30
0.0
  0
POINT
  5
5EB
  8
DEFPOINTS
 62
     0
 10
-148.4445403406753
 20
-153.0591808510217
 30
0.0
  0
POINT
  5
5EC
  8
DEFPOINTS
 62
     0
 10
-76.98927718277992
 20
-153.0591808510217
 30
0.0
  0
ENDBLK
  5
192
  8
0
  0
BLOCK
  8
0
  2
___-81
 70
     0
 10
0.0
 20
0.0
 30
0.0
  3
___-81
  1

  0
LINE
  5
577
  8
0
  6
CONTINUOUS
 62
     0
 10
-163.5070403406753
 20
321.9408191489747
 30
0.0
 11
-322.4159451858729
 21
321.9408191489747
 31
0.0
  0
LINE
  5
578
  8
0
  6
CONTINUOUS
 62
     0
 10
-146.5070403406753
 20
326.9408191489747
 30
0.0
 11
-322.4159451858729
 21
326.9408191489747
 31
0.0
  0
LINE
  5
579
  8
0
  6
CONTINUOUS
 62
     0
 10
-322.2359451858729
 20
322.1208191489747
 30
0.0
 11
-322.2359451858729
 21
324.2608191489747
 31
0.0
  0
LINE
  5
57A
  8
0
  6
CONTINUOUS
 62
     0
 10
-322.2359451858729
 20
326.7608191489747
 30
0.0
 11
-322.2359451858729
 21
324.6208191489746
 31
0.0
  0
SOLID
  5
57B
  8
0
 62
     0
 10
-322.2659451858729
 20
322.1208191489747
 30
0.0
 11
-322.2059451858729
 21
322.1208191489747
 31
0.0
 12
-322.2359451858729
 22
321.9408191489747
 32
0.0
 13
-322.2359451858729
 23
321.9408191489747
 33
0.0
  0
SOLID
  5
57C
  8
0
 62
     0
 10
-322.2059451858729
 20
326.7608191489747
 30
0.0
 11
-322.2659451858729
 21
326.7608191489747
 31
0.0
 12
-322.2359451858729
 22
326.9408191489747
 32
0.0
 13
-322.2359451858729
 23
326.9408191489747
 33
0.0
  0
TEXT
  5
5F2
  8
0
  6
CONTINUOUS
 62
     0
 10
-322.7073737573015
 20
324.3508191489747
 30
0.0
 40
0.18
  1
5.0000
  0
POINT
  5
5F3
  8
DEFPOINTS
 62
     0
 10
-163.4445403406753
 20
321.9408191489747
 30
0.0
  0
POINT
  5
5F4
  8
DEFPOINTS
 62
     0
 10
-146.4445403406753
 20
326.9408191489747
 30
0.0
  0
POINT
  5
5F5
  8
DEFPOINTS
 62
     0
 10
-322.2359451858729
 20
326.9408191489747
 30
0.0
  0
ENDBLK
  5
195
  8
0
  0
BLOCK
  8
0
  2
____-17-1
 70
     0
 10
0.0
 20
0.0
 30
0.0
  3
____-17-1
  1

  0
POLYLINE
  5
57D
  8
0
  6
CONTINUOUS
 62
     7
 66
     1
 10
0.0
 20
0.0
 30
0.0
 70
   128
  0
VERTEX
  5
57E
  8
0
  6
CONTINUOUS
 62
     7
 10
-123.4445403406753
 20
222.2213362011316
 30
0.0
  0
VERTEX
  5
57F
  8
0
  6
CONTINUOUS
 62
     7
 10
-123.4445403406753
 20
202.2213362011316
 30
0.0
  0
VERTEX
  5
580
  8
0
  6
CONTINUOUS
 62
     7
 10
-148.4445403406753
 20
202.2213362011316
 30
0.0
  0
VERTEX
  5
581
  8
0
  6
CONTINUOUS
 62
     7
 10
-148.4445403406753
 20
262.2213362011353
 30
0.0
  0
VERTEX
  5
582
  8
0
  6
CONTINUOUS
 62
     7
 10
-123.4445403406753
 20
262.2213362011353
 30
0.0
  0
VERTEX
  5
583
  8
0
  6
CONTINUOUS
 62
     7
 10
-123.4445403406753
 20
242.2213362011353
 30
0.0
  0
SEQEND
  5
584
  8
0
  6
CONTINUOUS
 62
     7
  0
POLYLINE
  5
585
  8
0
  6
CONTINUOUS
 62
     7
 66
     1
 10
0.0
 20
0.0
 30
0.0
 70
   129
  0
VERTEX
  5
586
  8
0
  6
CONTINUOUS
 62
     7
 10
-148.4445403406753
 20
242.2213362011353
 30
0.0
  0
VERTEX
  5
587
  8
0
  6
CONTINUOUS
 62
     7
 10
-82.44454034068258
 20
242.2213362011353
 30
0.0
  0
VERTEX
  5
588
  8
0
  6
CONTINUOUS
 62
     7
 10
-82.44454034068258
 20
222.2213362011316
 30
0.0
  0
VERTEX
  5
589
  8
0
  6
CONTINUOUS
 62
     7
 10
-148.4445403406753
 20
222.2213362011316
 30
0.0
  0
SEQEND
  5
58A
  8
0
  6
CONTINUOUS
 62
     7
  0
POLYLINE
  5
58B
  8
0
  6
CONTINUOUS
 62
     7
 66
     1
 10
0.0
 20
0.0
 30
0.0
 70
   129
  0
VERTEX
  5
58C
  8
0
  6
CONTINUOUS
 62
     7
 10
-140.4445403406826
 20
237.2213362011353
 30
0.0
  0
VERTEX
  5
58D
  8
0
  6
CONTINUOUS
 62
     7
 10
-90.4445403406753
 20
237.2213362011353
 30
0.0
  0
VERTEX
  5
58E
  8
0
  6
CONTINUOUS
 62
     7
 10
-90.4445403406753
 20
227.2213362011316
 30
0.0
  0
VERTEX
  5
58F
  8
0
  6
CONTINUOUS
 62
     7
 10
-140.4445403406826
 20
227.2213362011316
 30
0.0
  0
SEQEND
  5
590
  8
0
  6
CONTINUOUS
 62
     7
  0
ENDBLK
  5
198
  8
0
  0
BLOCK
  8
0
  2
____-18-1
 70
     0
 10
0.0
 20
0.0
 30
0.0
  3
____-18-1
  1

  0
POLYLINE
  5
591
  8
0
  6
CONTINUOUS
 62
     7
 66
     1
 10
0.0
 20
0.0
 30
0.0
 70
   128
  0
VERTEX
  5
592
  8
0
  6
CONTINUOUS
 62
     7
 10
-123.4445403406753
 20
-46.7860388733643
 30
0.0
  0
VERTEX
  5
593
  8
0
  6
CONTINUOUS
 62
     7
 10
-123.4445403406753
 20
-26.7860388733643
 30
0.0
  0
VERTEX
  5
594
  8
0
  6
CONTINUOUS
 62
     7
 10
-148.4445403406753
 20
-26.7860388733643
 30
0.0
  0
VERTEX
  5
595
  8
0
  6
CONTINUOUS
 62
     7
 10
-148.4445403406753
 20
-86.78603887336794
 30
0.0
  0
VERTEX
  5
596
  8
0
  6
CONTINUOUS
 62
     7
 10
-123.4445403406753
 20
-86.78603887336794
 30
0.0
  0
VERTEX
  5
597
  8
0
  6
CONTINUOUS
 62
     7
 10
-123.4445403406753
 20
-66.78603887336794
 30
0.0
  0
SEQEND
  5
598
  8
0
  6
CONTINUOUS
 62
     7
  0
POLYLINE
  5
599
  8
0
  6
CONTINUOUS
 62
     7
 66
     1
 10
0.0
 20
0.0
 30
0.0
 70
   129
  0
VERTEX
  5
59A
  8
0
  6
CONTINUOUS
 62
     7
 10
-148.4445403406753
 20
-46.7860388733643
 30
0.0
  0
VERTEX
  5
59B
  8
0
  6
CONTINUOUS
 62
     7
 10
-82.44454034068258
 20
-46.7860388733643
 30
0.0
  0
VERTEX
  5
59C
  8
0
  6
CONTINUOUS
 62
     7
 10
-82.44454034068258
 20
-66.78603887336794
 30
0.0
  0
VERTEX
  5
59D
  8
0
  6
CONTINUOUS
 62
     7
 10
-148.4445403406753
 20
-66.78603887336794
 30
0.0
  0
SEQEND
  5
59E
  8
0
  6
CONTINUOUS
 62
     7
  0
POLYLINE
  5
59F
  8
0
  6
CONTINUOUS
 62
     7
 66
     1
 10
0.0
 20
0.0
 30
0.0
 70
   129
  0
VERTEX
  5
5A0
  8
0
  6
CONTINUOUS
 62
     7
 10
-140.4445403406826
 20
-51.7860388733643
 30
0.0
  0
VERTEX
  5
5A1
  8
0
  6
CONTINUOUS
 62
     7
 10
-90.4445403406753
 20
-51.7860388733643
 30
0.0
  0
VERTEX
  5
5A2
  8
0
  6
CONTINUOUS
 62
     7
 10
-90.4445403406753
 20
-61.78603887336794
 30
0.0
  0
VERTEX
  5
5A3
  8
0
  6
CONTINUOUS
 62
     7
 10
-140.4445403406826
 20
-61.78603887336794
 30
0.0
  0
SEQEND
  5
5A4
  8
0
  6
CONTINUOUS
 62
     7
  0
ENDBLK
  5
19B
  8
0
  0
BLOCK
  8
0
  2
___-82
 70
     0
 10
0.0
 20
0.0
 30
0.0
  3
___-82
  1

  0
LINE
  5
5A5
  8
0
  6
CONTINUOUS
 62
     0
 10
-168.5070403406753
 20
-153.0591808510217
 30
0.0
 11
-322.4159451858728
 21
-153.0591808510217
 31
0.0
  0
LINE
  5
5A6
  8
0
  6
CONTINUOUS
 62
     0
 10
-168.5070403406753
 20
321.9408191489747
 30
0.0
 11
-322.4159451858729
 21
321.9408191489747
 31
0.0
  0
LINE
  5
5A7
  8
0
  6
CONTINUOUS
 62
     0
 10
-322.2359451858728
 20
-152.8791808510217
 30
0.0
 11
-322.2359451858728
 21
84.26081914897651
 31
0.0
  0
LINE
  5
5A8
  8
0
  6
CONTINUOUS
 62
     0
 10
-322.2359451858729
 20
321.7608191489747
 30
0.0
 11
-322.2359451858729
 21
84.6208191489765
 31
0.0
  0
SOLID
  5
5A9
  8
0
 62
     0
 10
-322.2659451858728
 20
-152.8791808510217
 30
0.0
 11
-322.2059451858728
 21
-152.8791808510217
 31
0.0
 12
-322.2359451858728
 22
-153.0591808510217
 32
0.0
 13
-322.2359451858728
 23
-153.0591808510217
 33
0.0
  0
SOLID
  5
5AA
  8
0
 62
     0
 10
-322.2059451858729
 20
321.7608191489747
 30
0.0
 11
-322.2659451858729
 21
321.7608191489747
 31
0.0
 12
-322.2359451858729
 22
321.9408191489747
 32
0.0
 13
-322.2359451858729
 23
321.9408191489747
 33
0.0
  0
TEXT
  5
603
  8
0
  6
CONTINUOUS
 62
     0
 10
-322.87880232873
 20
84.35081914897651
 30
0.0
 40
0.18
  1
475.0000
  0
POINT
  5
604
  8
DEFPOINTS
 62
     0
 10
-168.4445403406753
 20
-153.0591808510217
 30
0.0
  0
POINT
  5
605
  8
DEFPOINTS
 62
     0
 10
-168.4445403406753
 20
321.9408191489747
 30
0.0
  0
POINT
  5
606
  8
DEFPOINTS
 62
     0
 10
-322.2359451858729
 20
321.9408191489747
 30
0.0
  0
ENDBLK
  5
19E
  8
0
  0
BLOCK
  8
0
  2
___-83
 70
     0
 10
0.0
 20
0.0
 30
0.0
  3
___-83
  1

  0
LINE
  5
5AB
  8
0
  6
CONTINUOUS
 62
     0
 10
181.6179596593247
 20
-143.0591808510253
 30
0.0
 11
352.3559451858707
 21
-143.0591808510253
 31
0.0
  0
LINE
  5
5AC
  8
0
  6
CONTINUOUS
 62
     0
 10
181.6179596593247
 20
326.9408191489747
 30
0.0
 11
352.3559451858707
 21
326.9408191489747
 31
0.0
  0
LINE
  5
5AD
  8
0
  6
CONTINUOUS
 62
     0
 10
352.1759451858707
 20
-142.8791808510253
 30
0.0
 11
352.1759451858707
 21
91.76081914897472
 31
0.0
  0
LINE
  5
5AE
  8
0
  6
CONTINUOUS
 62
     0
 10
352.1759451858707
 20
326.7608191489747
 30
0.0
 11
352.1759451858707
 21
92.12081914897468
 31
0.0
  0
SOLID
  5
5AF
  8
0
 62
     0
 10
352.1459451858707
 20
-142.8791808510253
 30
0.0
 11
352.2059451858707
 21
-142.8791808510253
 31
0.0
 12
352.1759451858707
 22
-143.0591808510253
 32
0.0
 13
352.1759451858707
 23
-143.0591808510253
 33
0.0
  0
SOLID
  5
5B0
  8
0
 62
     0
 10
352.2059451858706
 20
326.7608191489747
 30
0.0
 11
352.1459451858707
 21
326.7608191489747
 31
0.0
 12
352.1759451858707
 22
326.9408191489747
 32
0.0
 13
352.1759451858707
 23
326.9408191489747
 33
0.0
  0
TEXT
  5
608
  8
0
  6
CONTINUOUS
 62
     0
 10
351.5330880430135
 20
91.8508191489747
 30
0.0
 40
0.18
  1
470.0000
  0
POINT
  5
609
  8
DEFPOINTS
 62
     0
 10
181.5554596593247
 20
-143.0591808510253
 30
0.0
  0
POINT
  5
60A
  8
DEFPOINTS
 62
     0
 10
181.5554596593247
 20
326.9408191489747
 30
0.0
  0
POINT
  5
60B
  8
DEFPOINTS
 62
     0
 10
352.1759451858707
 20
326.9408191489747
 30
0.0
  0
ENDBLK
  5
1A1
  8
0
  0
BLOCK
  8
0
  2
___-84
 70
     0
 10
0.0
 20
0.0
 30
0.0
  3
___-84
  1

  0
LINE
  5
5B1
  8
0
  6
CONTINUOUS
 62
     0
 10
-148.4445403406753
 20
-153.1216808510217
 30
0.0
 11
-148.4445403406753
 21
-230.072514184355
 31
0.0
  0
LINE
  5
5B2
  8
0
  6
CONTINUOUS
 62
     0
 10
-168.4445403406753
 20
-153.1216808510217
 30
0.0
 11
-168.4445403406753
 21
-230.072514184355
 31
0.0
  0
LINE
  5
5B3
  8
0
  6
CONTINUOUS
 62
     0
 10
-168.4445403406753
 20
-229.892514184355
 30
0.0
 11
-238.6805117789682
 21
-229.892514184355
 31
0.0
  0
LINE
  5
5B4
  8
0
  6
CONTINUOUS
 62
     0
 10
-148.6245403406753
 20
-229.892514184355
 30
0.0
 11
-168.2645403406753
 21
-229.892514184355
 31
0.0
  0
SOLID
  5
5B5
  8
0
 62
     0
 10
-148.6245403406753
 20
-229.922514184355
 30
0.0
 11
-148.6245403406753
 21
-229.862514184355
 31
0.0
 12
-148.4445403406753
 22
-229.892514184355
 32
0.0
 13
-148.4445403406753
 23
-229.892514184355
 33
0.0
  0
SOLID
  5
5B6
  8
0
 62
     0
 10
-168.2645403406753
 20
-229.862514184355
 30
0.0
 11
-168.2645403406753
 21
-229.922514184355
 31
0.0
 12
-168.4445403406753
 22
-229.892514184355
 32
0.0
 13
-168.4445403406753
 23
-229.892514184355
 33
0.0
  0
TEXT
  5
5B7
  8
0
  6
CONTINUOUS
 62
     0
 10
-239.8590832075396
 20
-229.982514184355
 30
0.0
 40
0.18
  1
20.0000
  0
POINT
  5
5B8
  8
DEFPOINTS
 62
     0
 10
-148.4445403406753
 20
-153.0591808510217
 30
0.0
  0
POINT
  5
60D
  8
DEFPOINTS
 62
     0
 10
-168.4445403406753
 20
-153.0591808510217
 30
0.0
  0
POINT
  5
60E
  8
DEFPOINTS
 62
     0
 10
-168.4445403406753
 20
-253.0591808510217
 30
0.0
  0
ENDBLK
  5
1A4
  8
0
  0
BLOCK
  8
0
  2
___-85
 70
     0
 10
0.0
 20
0.0
 30
0.0
  3
___-85
  1

  0
LINE
  5
5B9
  8
0
  6
CONTINUOUS
 62
     0
 10
-148.4445403406753
 20
-153.1216808510217
 30
0.0
 11
-148.4445403406753
 21
-253.2391808510217
 31
0.0
  0
LINE
  5
5BA
  8
0
  6
CONTINUOUS
 62
     0
 10
-146.4445403406753
 20
-153.1216808510217
 30
0.0
 11
-146.4445403406753
 21
-253.2391808510217
 31
0.0
  0
LINE
  5
5BB
  8
0
  6
CONTINUOUS
 62
     0
 10
-148.2645403406753
 20
-253.0591808510217
 30
0.0
 11
-147.9802546263896
 21
-253.0591808510217
 31
0.0
  0
LINE
  5
5BC
  8
0
  6
CONTINUOUS
 62
     0
 10
-146.6245403406753
 20
-253.0591808510217
 30
0.0
 11
-146.908826054961
 21
-253.0591808510217
 31
0.0
  0
SOLID
  5
5BD
  8
0
 62
     0
 10
-148.2645403406753
 20
-253.0291808510217
 30
0.0
 11
-148.2645403406753
 21
-253.0891808510217
 31
0.0
 12
-148.4445403406753
 22
-253.0591808510217
 32
0.0
 13
-148.4445403406753
 23
-253.0591808510217
 33
0.0
  0
SOLID
  5
5BE
  8
0
 62
     0
 10
-146.6245403406753
 20
-253.0891808510217
 30
0.0
 11
-146.6245403406753
 21
-253.0291808510217
 31
0.0
 12
-146.4445403406753
 22
-253.0591808510217
 32
0.0
 13
-146.4445403406753
 23
-253.0591808510217
 33
0.0
  0
TEXT
  5
610
  8
0
  6
CONTINUOUS
 62
     0
 10
-147.9159689121039
 20
-253.1491808510217
 30
0.0
 40
0.18
  1
2.0000
  0
POINT
  5
611
  8
DEFPOINTS
 62
     0
 10
-148.4445403406753
 20
-153.0591808510217
 30
0.0
  0
POINT
  5
612
  8
DEFPOINTS
 62
     0
 10
-146.4445403406753
 20
-153.0591808510217
 30
0.0
  0
POINT
  5
613
  8
DEFPOINTS
 62
     0
 10
-146.4445403406753
 20
-253.0591808510217
 30
0.0
  0
ENDBLK
  5
1A7
  8
0
  0
BLOCK
  8
0
  2
___-86
 70
     0
 10
0.0
 20
0.0
 30
0.0
  3
___-86
  1

  0
LINE
  5
5BF
  8
0
  6
CONTINUOUS
 62
     0
 10
161.5554596593247
 20
71.0033191489747
 30
0.0
 11
161.5554596593247
 21
116.68
 31
0.0
  0
LINE
  5
5C0
  8
0
  6
CONTINUOUS
 62
     0
 10
-121.4445403406753
 20
71.0033191489747
 30
0.0
 11
-121.4445403406753
 21
116.68
 31
0.0
  0
LINE
  5
5C1
  8
0
  6
CONTINUOUS
 62
     0
 10
161.3754596593247
 20
116.5
 30
0.0
 11
20.76260251646755
 21
116.5
 31
0.0
  0
LINE
  5
5C2
  8
0
  6
CONTINUOUS
 62
     0
 10
-121.2645403406753
 20
116.5
 30
0.0
 11
19.34831680218184
 21
116.5
 31
0.0
  0
SOLID
  5
5C3
  8
0
 62
     0
 10
161.3754596593247
 20
116.47
 30
0.0
 11
161.3754596593247
 21
116.53
 31
0.0
 12
161.5554596593247
 22
116.5
 32
0.0
 13
161.5554596593247
 23
116.5
 33
0.0
  0
SOLID
  5
5C4
  8
0
 62
     0
 10
-121.2645403406753
 20
116.53
 30
0.0
 11
-121.2645403406753
 21
116.47
 31
0.0
 12
-121.4445403406753
 22
116.5
 32
0.0
 13
-121.4445403406753
 23
116.5
 33
0.0
  0
TEXT
  5
616
  8
0
  6
CONTINUOUS
 62
     0
 10
19.41260251646755
 20
116.41
 30
0.0
 40
0.18
  1
283.0000
  0
POINT
  5
617
  8
DEFPOINTS
 62
     0
 10
161.5554596593247
 20
70.9408191489747
 30
0.0
  0
POINT
  5
618
  8
DEFPOINTS
 62
     0
 10
-121.4445403406753
 20
70.9408191489747
 30
0.0
  0
POINT
  5
619
  8
DEFPOINTS
 62
     0
 10
-121.4445403406753
 20
116.5
 30
0.0
  0
ENDBLK
  5
1AA
  8
0
  0
BLOCK
  8
0
  2
____-3-2
 70
     0
 10
0.0
 20
0.0
 30
0.0
  3
____-3-2
  1

  0
POLYLINE
  5
5C5
  8
0
  6
CONTINUOUS
 62
     7
 66
     1
 10
0.0
 20
0.0
 30
0.0
 70
   129
  0
VERTEX
  5
5C6
  8
0
  6
CONTINUOUS
 62
     7
 10
-168.4445403406753
 20
321.9408191489747
 30
0.0
  0
VERTEX
  5
5C7
  8
0
  6
CONTINUOUS
 62
     7
 10
-148.4445403406753
 20
321.9408191489747
 30
0.0
  0
VERTEX
  5
5C8
  8
0
  6
CONTINUOUS
 62
     7
 10
-148.4445403406753
 20
-153.0591808510217
 30
0.0
  0
VERTEX
  5
5C9
  8
0
  6
CONTINUOUS
 62
     7
 10
-168.4445403406753
 20
-153.0591808510217
 30
0.0
  0
SEQEND
  5
5CA
  8
0
  6
CONTINUOUS
 62
     7
  0
POLYLINE
  5
5CB
  8
0
  6
CONTINUOUS
 62
     7
 66
     1
 10
0.0
 20
0.0
 30
0.0
 70
   129
  0
VERTEX
  5
5CC
  8
0
  6
CONTINUOUS
 62
     7
 10
-146.4445403406753
 20
306.9408191489747
 30
0.0
  0
VERTEX
  5
5CD
  8
0
  6
CONTINUOUS
 62
     7
 10
-146.4445403406753
 20
326.9408191489747
 30
0.0
  0
VERTEX
  5
5CE
  8
0
  6
CONTINUOUS
 62
     7
 10
181.5554596593247
 20
326.9408191489747
 30
0.0
  0
VERTEX
  5
5CF
  8
0
  6
CONTINUOUS
 62
     7
 10
181.5554596593247
 20
306.9408191489747
 30
0.0
  0
SEQEND
  5
5D0
  8
0
  6
CONTINUOUS
 62
     7
  0
POLYLINE
  5
5D1
  8
0
  6
CONTINUOUS
 62
     7
 66
     1
 10
0.0
 20
0.0
 30
0.0
 70
   129
  0
VERTEX
  5
5D2
  8
0
  6
CONTINUOUS
 62
     7
 10
-146.4445403406753
 20
-143.0591808510253
 30
0.0
  0
VERTEX
  5
5D3
  8
0
  6
CONTINUOUS
 62
     7
 10
-146.4445403406753
 20
-123.0591808510253
 30
0.0
  0
VERTEX
  5
5D4
  8
0
  6
CONTINUOUS
 62
     7
 10
181.5554596593247
 20
-123.0591808510253
 30
0.0
  0
VERTEX
  5
5D5
  8
0
  6
CONTINUOUS
 62
     7
 10
181.5554596593247
 20
-143.0591808510253
 30
0.0
  0
SEQEND
  5
5D6
  8
0
  6
CONTINUOUS
 62
     7
  0
POLYLINE
  5
5D7
  8
0
  6
CONTINUOUS
 62
     7
 66
     1
 10
0.0
 20
0.0
 30
0.0
 70
   129
  0
VERTEX
  5
5D8
  8
0
  6
CONTINUOUS
 62
     7
 10
181.5554596593247
 20
-123.0591808510253
 30
0.0
  0
VERTEX
  5
5D9
  8
0
  6
CONTINUOUS
 62
     7
 10
161.5554596593247
 20
-123.0591808510253
 30
0.0
  0
VERTEX
  5
5DA
  8
0
  6
CONTINUOUS
 62
     7
 10
161.5554596593247
 20
306.9408191489747
 30
0.0
  0
VERTEX
  5
5DB
  8
0
  6
CONTINUOUS
 62
     7
 10
181.5554596593247
 20
306.9408191489747
 30
0.0
  0
SEQEND
  5
5DC
  8
0
  6
CONTINUOUS
 62
     7
  0
CIRCLE
  5
5DD
  8
0
  6
CONTINUOUS
 62
     7
 10
121.5554596593247
 20
106.9408191489747
 30
0.0
 40
2.5
  0
CIRCLE
  5
5DE
  8
0
  6
CONTINUOUS
 62
     7
 10
-51.4445403406753
 20
106.9408191489747
 30
0.0
 40
2.5
  0
TEXT
  5
5DF
  8
0
 62
     7
 10
-22.22241401467424
 20
178.7459864994243
 30
0.0
 40
21.24016203703704
  1
可動棚
  7
YUGOTHIC_MEDIUM
 11
-22.22241401467424
 21
199.9861485364613
 31
0.0
 73
     3
  0
CIRCLE
  5
5E0
  8
0
  6
CONTINUOUS
 62
     7
 10
121.5554596593247
 20
156.9408191489747
 30
0.0
 40
2.5
  0
CIRCLE
  5
5E1
  8
0
  6
CONTINUOUS
 62
     7
 10
-51.4445403406753
 20
156.9408191489747
 30
0.0
 40
2.5
  0
DIMENSION
  5
5E2
  8
0
  6
CONTINUOUS
 62
     7
  2
___-79
 10
-146.4445403406753
 20
-253.0591808510217
 30
0.0
 11
17.5554596593247
 21
-253.0591808510217
 31
0.0
 70
    32
  3
STANDARD
 13
181.5554596593247
 23
-143.0591808510253
 33
0.0
 14
-146.4445403406753
 24
-153.0591808510217
 34
0.0
  0
DIMENSION
  5
5E8
  8
0
  6
CONTINUOUS
 62
     7
  2
___-80
 10
-99.36737242087513
 20
-153.0591808510217
 30
0.0
 11
-100.1559438494466
 21
-174.3875285013928
 31
0.0
 70
   160
  3
STANDARD
 13
-146.4445403406753
 23
-143.0591808510253
 33
0.0
 14
-148.4445403406753
 24
-153.0591808510217
 34
0.0
 50
-90.0
  0
CIRCLE
  5
5ED
  8
0
  6
CONTINUOUS
 62
     7
 10
121.5554596593247
 20
56.9408191489747
 30
0.0
 40
2.5
  0
CIRCLE
  5
5EE
  8
0
  6
CONTINUOUS
 62
     7
 10
-51.4445403406753
 20
56.9408191489747
 30
0.0
 40
2.5
  0
CIRCLE
  5
5EF
  8
0
  6
CONTINUOUS
 62
     7
 10
121.5554596593247
 20
6.940819148974697
 30
0.0
 40
2.5
  0
CIRCLE
  5
5F0
  8
0
  6
CONTINUOUS
 62
     7
 10
-51.4445403406753
 20
6.940819148974697
 30
0.0
 40
2.5
  0
DIMENSION
  5
5F1
  8
0
  6
CONTINUOUS
 62
     7
  2
___-81
 10
-322.2359451858729
 20
326.9408191489747
 30
0.0
 11
-322.2359451858729
 21
324.4408191489747
 31
0.0
 70
    32
  3
STANDARD
 13
-163.4445403406753
 23
321.9408191489747
 33
0.0
 14
-146.4445403406753
 24
326.9408191489747
 34
0.0
 50
-90.0
  0
INSERT
  5
5F6
  8
0
 62
     7
  2
____-17-1
 10
0.0
 20
0.0
 30
0.0
  0
INSERT
  5
5F7
  8
0
 62
     7
  2
____-18-1
 10
0.0
 20
0.0
 30
0.0
  0
CIRCLE
  5
5F8
  8
0
  6
CONTINUOUS
 62
     7
 10
121.5554596593247
 20
206.9408191489747
 30
0.0
 40
2.5
  0
CIRCLE
  5
5F9
  8
0
  6
CONTINUOUS
 62
     7
 10
-51.4445403406753
 20
206.9408191489747
 30
0.0
 40
2.5
  0
CIRCLE
  5
5FA
  8
0
  6
CONTINUOUS
 62
     7
 10
121.5554596593247
 20
-43.0591808510253
 30
0.0
 40
2.5
  0
CIRCLE
  5
5FB
  8
0
  6
CONTINUOUS
 62
     7
 10
-51.4445403406753
 20
-43.0591808510253
 30
0.0
 40
2.5
  0
POLYLINE
  5
5FC
  8
0
  6
CONTINUOUS
 62
     7
 66
     1
 10
0.0
 20
0.0
 30
0.0
 70
   129
  0
VERTEX
  5
5FD
  8
0
  6
CONTINUOUS
 62
     7
 10
-121.4445403406753
 20
70.9408191489747
 30
0.0
  0
VERTEX
  5
5FE
  8
0
  6
CONTINUOUS
 62
     7
 10
161.5554596593247
 20
70.9408191489747
 30
0.0
  0
VERTEX
  5
5FF
  8
0
  6
CONTINUOUS
 62
     7
 10
161.5554596593247
 20
56.9408191489747
 30
0.0
  0
VERTEX
  5
600
  8
0
  6
CONTINUOUS
 62
     7
 10
-121.4445403406753
 20
56.9408191489747
 30
0.0
  0
SEQEND
  5
601
  8
0
  6
CONTINUOUS
 62
     7
  0
DIMENSION
  5
602
  8
0
  6
CONTINUOUS
 62
     7
  2
___-82
 10
-322.2359451858729
 20
321.9408191489747
 30
0.0
 11
-322.2359451858729
 21
84.44081914897652
 31
0.0
 70
    32
  3
STANDARD
 13
-168.4445403406753
 23
-153.0591808510217
 33
0.0
 14
-168.4445403406753
 24
321.9408191489747
 34
0.0
 50
-90.0
  0
DIMENSION
  5
607
  8
0
  6
CONTINUOUS
 62
    12
  2
___-83
 10
352.1759451858707
 20
326.9408191489747
 30
0.0
 11
352.1759451858707
 21
91.9408191489747
 31
0.0
 70
    32
  3
STANDARD
 13
181.5554596593247
 23
-143.0591808510253
 33
0.0
 14
181.5554596593247
 24
326.9408191489747
 34
0.0
 50
-90.0
  0
DIMENSION
  5
60C
  8
0
  6
CONTINUOUS
 62
     7
  2
___-84
 10
-168.4445403406753
 20
-229.892514184355
 30
0.0
 11
-239.3019403503968
 21
-229.892514184355
 31
0.0
 70
   160
  3
STANDARD
 13
-148.4445403406753
 23
-153.0591808510217
 33
0.0
 14
-168.4445403406753
 24
-153.0591808510217
 34
0.0
  0
DIMENSION
  5
60F
  8
0
  6
CONTINUOUS
 62
     7
  2
___-85
 10
-146.4445403406753
 20
-253.0591808510217
 30
0.0
 11
-147.4445403406753
 21
-253.0591808510217
 31
0.0
 70
    32
  3
STANDARD
 13
-148.4445403406753
 23
-153.0591808510217
 33
0.0
 14
-146.4445403406753
 24
-153.0591808510217
 34
0.0
  0
TEXT
  5
614
  8
0
 62
     7
 10
-325.1629645494977
 20
-328.3919302600826
 30
0.0
 40
21.24016203703704
  1
※お選びいただく面材によって、厚みが異なります。
  7
YUGOTHIC_MEDIUM
 11
-325.1629645494977
 21
-307.1517682230456
 31
0.0
 73
     3
  0
DIMENSION
  5
615
  8
0
  6
CONTINUOUS
 62
     7
  2
___-86
 10
-121.4445403406753
 20
116.5
 30
0.0
 11
20.0554596593247
 21
116.5
 31
0.0
 70
    32
  3
STANDARD
 13
161.5554596593247
 23
70.9408191489747
 33
0.0
 14
-121.4445403406753
 24
70.9408191489747
 34
0.0
  0
ENDBLK
  5
1AD
  8
0
  0
BLOCK
  8
0
  2
___-87
 70
     0
 10
0.0
 20
0.0
 30
0.0
  3
___-87
  1

  0
LINE
  5
61A
  8
0
  6
CONTINUOUS
 62
     0
 10
-75.81679375937357
 20
-142.1321254786963
 30
0.0
 11
-75.63679375937356
 21
-142.1321254786963
 31
0.0
  0
LINE
  5
61B
  8
0
  6
CONTINUOUS
 62
     0
 10
-75.63679375937356
 20
-142.1321254786963
 30
0.0
 11
-75.63679375937356
 21
-120.8037778283251
 31
0.0
  0
LINE
  5
61C
  8
0
  6
CONTINUOUS
 62
     0
 10
-122.6514616791737
 20
-110.8037778283251
 30
0.0
 11
-75.45679375937355
 21
-110.8037778283251
 31
0.0
  0
LINE
  5
61D
  8
0
  6
CONTINUOUS
 62
     0
 10
-124.6514616791737
 20
-120.8037778283251
 30
0.0
 11
-75.45679375937355
 21
-120.8037778283251
 31
0.0
  0
LINE
  5
61E
  8
0
  6
CONTINUOUS
 62
     0
 10
-75.63679375937356
 20
-110.9837778283251
 30
0.0
 11
-75.63679375937356
 21
-120.6237778283251
 31
0.0
  0
SOLID
  5
61F
  8
0
 62
     0
 10
-75.60679375937356
 20
-110.9837778283251
 30
0.0
 11
-75.66679375937356
 21
-110.9837778283251
 31
0.0
 12
-75.63679375937356
 22
-110.8037778283251
 32
0.0
 13
-75.63679375937356
 23
-110.8037778283251
 33
0.0
  0
SOLID
  5
620
  8
0
 62
     0
 10
-75.66679375937356
 20
-120.6237778283251
 30
0.0
 11
-75.60679375937356
 21
-120.6237778283251
 31
0.0
 12
-75.63679375937356
 22
-120.8037778283251
 32
0.0
 13
-75.63679375937356
 23
-120.8037778283251
 33
0.0
  0
TEXT
  5
69B
  8
0
  6
CONTINUOUS
 62
     0
 10
-76.99536518794501
 20
-142.2221254786963
 30
0.0
 40
0.18
  1
10.0000
  0
POINT
  5
69C
  8
DEFPOINTS
 62
     0
 10
-122.7139616791737
 20
-110.8037778283251
 30
0.0
  0
POINT
  5
69D
  8
DEFPOINTS
 62
     0
 10
-124.7139616791737
 20
-120.8037778283251
 30
0.0
  0
POINT
  5
69E
  8
DEFPOINTS
 62
     0
 10
-53.25869852127835
 20
-120.8037778283251
 30
0.0
  0
ENDBLK
  5
1B0
  8
0
  0
BLOCK
  8
0
  2
____-19-1
 70
     0
 10
0.0
 20
0.0
 30
0.0
  3
____-19-1
  1

  0
LINE
  5
621
  8
0
  6
CONTINUOUS
 62
     7
 10
33.15800540698729
 20
195.783564377416
 30
0.0
 11
52.17612395656215
 21
160.7360224931399
 31
0.0
  0
LINE
  5
622
  8
0
  6
CONTINUOUS
 62
     7
 10
22.24558178173356
 20
195.783564377416
 30
0.0
 11
41.26370033130115
 21
160.7360224931399
 31
0.0
  0
LINE
  5
623
  8
0
  6
CONTINUOUS
 62
     7
 10
11.33315815647984
 20
195.783564377416
 30
0.0
 11
30.35127670604743
 21
160.7360224931399
 31
0.0
  0
LINE
  5
624
  8
0
  6
CONTINUOUS
 62
     7
 10
0.4207345312261168
 20
195.783564377416
 30
0.0
 11
19.43885308079371
 21
160.7360224931399
 31
0.0
  0
LINE
  5
625
  8
0
  6
CONTINUOUS
 62
     7
 10
-10.49168909402761
 20
195.783564377416
 30
0.0
 11
8.526429455539983
 21
160.7360224931399
 31
0.0
  0
ENDBLK
  5
1B3
  8
0
  0
BLOCK
  8
0
  2
____-20-1
 70
     0
 10
0.0
 20
0.0
 30
0.0
  3
____-20-1
  1

  0
POLYLINE
  5
626
  8
0
  6
CONTINUOUS
 62
     7
 66
     1
 10
0.0
 20
0.0
 30
0.0
 70
   129
  0
VERTEX
  5
627
  8
0
  6
CONTINUOUS
 62
     7
 10
-99.71396167917374
 20
261.3272234969045
 30
0.0
  0
VERTEX
  5
628
  8
0
  6
CONTINUOUS
 62
     7
 10
-99.71396167917374
 20
224.3272234969045
 30
0.0
  0
VERTEX
  5
629
  8
0
  6
CONTINUOUS
 62
     7
 10
-106.8858642368414
 20
214.6407982318342
 30
0.0
  0
VERTEX
  5
62A
  8
0
  6
CONTINUOUS
 62
     7
 10
-106.8858642368414
 20
119.1962221716749
 30
0.0
  0
VERTEX
  5
62B
  8
0
  6
CONTINUOUS
 62
     7
 10
-124.7139616791737
 20
119.1962221716749
 30
0.0
  0
VERTEX
  5
62C
  8
0
  6
CONTINUOUS
 62
     7
 10
-124.7139616791737
 20
235.7103474918113
 30
0.0
  0
VERTEX
  5
62D
  8
0
  6
CONTINUOUS
 62
     7
 10
-117.5711045363187
 20
245.7103474918113
 30
0.0
  0
VERTEX
  5
62E
  8
0
  6
CONTINUOUS
 62
     7
 10
-117.5711045363187
 20
261.3272234969045
 30
0.0
  0
SEQEND
  5
62F
  8
0
  6
CONTINUOUS
 62
     7
  0
POLYLINE
  5
630
  8
0
  6
CONTINUOUS
 62
     7
 66
     1
 10
0.0
 20
0.0
 30
0.0
 70
   129
  0
VERTEX
  5
631
  8
0
  6
CONTINUOUS
 62
     7
 10
70.28603832082626
 20
188.871738933005
 30
0.0
  0
VERTEX
  5
632
  8
0
  6
CONTINUOUS
 62
     7
 10
46.06339192007908
 20
244.1962221716749
 30
0.0
  0
VERTEX
  5
633
  8
0
  6
CONTINUOUS
 62
     7
 10
46.06339192007908
 20
259.1962221716749
 30
0.0
  0
VERTEX
  5
634
  8
0
  6
CONTINUOUS
 62
     7
 10
-99.71396167917374
 20
259.1962221716749
 30
0.0
  0
VERTEX
  5
635
  8
0
  6
CONTINUOUS
 62
     7
 10
-99.71396167917374
 20
138.3190692304925
 30
0.0
  0
VERTEX
  5
636
  8
0
  6
CONTINUOUS
 62
     7
 10
-80.59111462035617
 20
119.1962221716749
 30
0.0
  0
VERTEX
  5
637
  8
0
  6
CONTINUOUS
 62
     7
 10
70.28603832082626
 20
119.1962221716749
 30
0.0
  0
SEQEND
  5
638
  8
0
  6
CONTINUOUS
 62
     7
  0
LINE
  5
639
  8
0
  6
CONTINUOUS
 62
     7
 10
56.93394951946721
 20
219.3678870776348
 30
0.0
 11
-99.71396167917374
 21
219.3678870776348
 31
0.0
  0
INSERT
  5
63A
  8
0
 62
     7
  2
____-19-1
 10
0.0
 20
0.0
 30
0.0
  0
LINE
  5
63B
  8
0
  6
CONTINUOUS
 62
     7
 10
61.71539139293054
 20
208.4470819596172
 30
0.0
 11
-99.71396167917374
 21
208.4470819596172
 31
0.0
  0
CIRCLE
  5
63C
  8
0
  6
CONTINUOUS
 62
     7
 10
-87.71396167917374
 20
204.1962221716749
 30
0.0
 40
2.5
  0
CIRCLE
  5
63D
  8
0
  6
CONTINUOUS
 62
     7
 10
40.28603832082626
 20
204.1962221716749
 30
0.0
 40
2.5
  0
LINE
  5
63E
  8
0
  6
CONTINUOUS
 62
     7
 10
52.17612395656215
 20
153.3190692304925
 30
0.0
 11
-99.71396167917374
 21
153.3190692304925
 31
0.0
  0
LINE
  5
63F
  8
0
  6
CONTINUOUS
 62
     7
 10
52.17612395656215
 20
141.9834431293057
 30
0.0
 11
-99.71396167917374
 21
141.9834431293057
 31
0.0
  0
ENDBLK
  5
1B6
  8
0
  0
BLOCK
  8
0
  2
___-88
 70
     0
 10
0.0
 20
0.0
 30
0.0
  3
___-88
  1

  0
LINE
  5
640
  8
0
  6
CONTINUOUS
 62
     0
 10
-144.7764616791737
 20
-120.8037778283251
 30
0.0
 11
-336.2567123867408
 21
-120.8037778283251
 31
0.0
  0
LINE
  5
641
  8
0
  6
CONTINUOUS
 62
     0
 10
-144.7764616791737
 20
279.1962221716749
 30
0.0
 11
-336.2567123867408
 21
279.1962221716749
 31
0.0
  0
LINE
  5
642
  8
0
  6
CONTINUOUS
 62
     0
 10
-336.0767123867408
 20
-120.6237778283251
 30
0.0
 11
-336.0767123867408
 21
79.01622217167491
 31
0.0
  0
LINE
  5
643
  8
0
  6
CONTINUOUS
 62
     0
 10
-336.0767123867408
 20
279.0162221716749
 30
0.0
 11
-336.0767123867408
 21
79.37622217167487
 31
0.0
  0
SOLID
  5
644
  8
0
 62
     0
 10
-336.1067123867408
 20
-120.6237778283251
 30
0.0
 11
-336.0467123867409
 21
-120.6237778283251
 31
0.0
 12
-336.0767123867408
 22
-120.8037778283251
 32
0.0
 13
-336.0767123867408
 23
-120.8037778283251
 33
0.0
  0
SOLID
  5
645
  8
0
 62
     0
 10
-336.0467123867409
 20
279.0162221716749
 30
0.0
 11
-336.1067123867408
 21
279.0162221716749
 31
0.0
 12
-336.0767123867408
 22
279.1962221716749
 32
0.0
 13
-336.0767123867408
 23
279.1962221716749
 33
0.0
  0
TEXT
  5
6A1
  8
0
  6
CONTINUOUS
 62
     0
 10
-336.719569529598
 20
79.10622217167489
 30
0.0
 40
0.18
  1
400.0000
  0
POINT
  5
6A2
  8
DEFPOINTS
 62
     0
 10
-144.7139616791737
 20
-120.8037778283251
 30
0.0
  0
POINT
  5
6A3
  8
DEFPOINTS
 62
     0
 10
-144.7139616791737
 20
279.1962221716749
 30
0.0
  0
POINT
  5
6A4
  8
DEFPOINTS
 62
     0
 10
-336.0767123867408
 20
279.1962221716749
 30
0.0
  0
ENDBLK
  5
1B9
  8
0
  0
BLOCK
  8
0
  2
___-89
 70
     0
 10
0.0
 20
0.0
 30
0.0
  3
___-89
  1

  0
LINE
  5
646
  8
0
  6
CONTINUOUS
 62
     0
 10
205.3485383208281
 20
-110.8037778283251
 30
0.0
 11
365.8887890283974
 21
-110.8037778283251
 31
0.0
  0
LINE
  5
647
  8
0
  6
CONTINUOUS
 62
     0
 10
205.3485383208281
 20
279.1962221716749
 30
0.0
 11
365.8887890283974
 21
279.1962221716749
 31
0.0
  0
LINE
  5
648
  8
0
  6
CONTINUOUS
 62
     0
 10
365.7087890283974
 20
-110.6237778283251
 30
0.0
 11
365.7087890283974
 21
84.01622217167491
 31
0.0
  0
LINE
  5
649
  8
0
  6
CONTINUOUS
 62
     0
 10
365.7087890283974
 20
279.0162221716749
 30
0.0
 11
365.7087890283974
 21
84.37622217167487
 31
0.0
  0
SOLID
  5
64A
  8
0
 62
     0
 10
365.6787890283974
 20
-110.6237778283251
 30
0.0
 11
365.7387890283974
 21
-110.6237778283251
 31
0.0
 12
365.7087890283974
 22
-110.8037778283251
 32
0.0
 13
365.7087890283974
 23
-110.8037778283251
 33
0.0
  0
SOLID
  5
64B
  8
0
 62
     0
 10
365.7387890283974
 20
279.0162221716749
 30
0.0
 11
365.6787890283974
 21
279.0162221716749
 31
0.0
 12
365.7087890283974
 22
279.1962221716749
 32
0.0
 13
365.7087890283974
 23
279.1962221716749
 33
0.0
  0
TEXT
  5
6A6
  8
0
  6
CONTINUOUS
 62
     0
 10
365.0659318855402
 20
84.10622217167489
 30
0.0
 40
0.18
  1
390.0000
  0
POINT
  5
6A7
  8
DEFPOINTS
 62
     0
 10
205.2860383208281
 20
-110.8037778283251
 30
0.0
  0
POINT
  5
6A8
  8
DEFPOINTS
 62
     0
 10
205.2860383208281
 20
279.1962221716749
 30
0.0
  0
POINT
  5
6A9
  8
DEFPOINTS
 62
     0
 10
365.7087890283974
 20
279.1962221716749
 30
0.0
  0
ENDBLK
  5
1BC
  8
0
  0
BLOCK
  8
0
  2
___-90
 70
     0
 10
0.0
 20
0.0
 30
0.0
  3
___-90
  1

  0
LINE
  5
64C
  8
0
  6
CONTINUOUS
 62
     0
 10
-144.7764616791737
 20
-120.8037778283251
 30
0.0
 11
-239.2567123867408
 21
-120.8037778283251
 31
0.0
  0
LINE
  5
64D
  8
0
  6
CONTINUOUS
 62
     0
 10
-144.7764616791737
 20
274.1962221716749
 30
0.0
 11
-239.2567123867408
 21
274.1962221716749
 31
0.0
  0
LINE
  5
64E
  8
0
  6
CONTINUOUS
 62
     0
 10
-239.0767123867408
 20
-120.6237778283251
 30
0.0
 11
-239.0767123867408
 21
76.51622217167491
 31
0.0
  0
LINE
  5
64F
  8
0
  6
CONTINUOUS
 62
     0
 10
-239.0767123867408
 20
274.0162221716749
 30
0.0
 11
-239.0767123867408
 21
76.87622217167487
 31
0.0
  0
SOLID
  5
650
  8
0
 62
     0
 10
-239.1067123867408
 20
-120.6237778283251
 30
0.0
 11
-239.0467123867408
 21
-120.6237778283251
 31
0.0
 12
-239.0767123867408
 22
-120.8037778283251
 32
0.0
 13
-239.0767123867408
 23
-120.8037778283251
 33
0.0
  0
SOLID
  5
651
  8
0
 62
     0
 10
-239.0467123867408
 20
274.0162221716749
 30
0.0
 11
-239.1067123867408
 21
274.0162221716749
 31
0.0
 12
-239.0767123867408
 22
274.1962221716749
 32
0.0
 13
-239.0767123867408
 23
274.1962221716749
 33
0.0
  0
TEXT
  5
6AB
  8
0
  6
CONTINUOUS
 62
     0
 10
-239.719569529598
 20
76.60622217167489
 30
0.0
 40
0.18
  1
395.0000
  0
POINT
  5
6AC
  8
DEFPOINTS
 62
     0
 10
-144.7139616791737
 20
-120.8037778283251
 30
0.0
  0
POINT
  5
6AD
  8
DEFPOINTS
 62
     0
 10
-144.7139616791737
 20
274.1962221716749
 30
0.0
  0
POINT
  5
6AE
  8
DEFPOINTS
 62
     0
 10
-239.0767123867408
 20
274.1962221716749
 30
0.0
  0
ENDBLK
  5
1BF
  8
0
  0
BLOCK
  8
0
  2
___-91
 70
     0
 10
0.0
 20
0.0
 30
0.0
  3
___-91
  1

  0
LINE
  5
652
  8
0
  6
CONTINUOUS
 62
     0
 10
-144.7764616791737
 20
279.1962221716749
 30
0.0
 11
-239.2567123867408
 21
279.1962221716749
 31
0.0
  0
LINE
  5
653
  8
0
  6
CONTINUOUS
 62
     0
 10
-144.7764616791737
 20
274.1962221716749
 30
0.0
 11
-239.2567123867408
 21
274.1962221716749
 31
0.0
  0
LINE
  5
654
  8
0
  6
CONTINUOUS
 62
     0
 10
-239.0767123867408
 20
279.0162221716749
 30
0.0
 11
-239.0767123867408
 21
276.8762221716748
 31
0.0
  0
LINE
  5
655
  8
0
  6
CONTINUOUS
 62
     0
 10
-239.0767123867408
 20
274.3762221716749
 30
0.0
 11
-239.0767123867408
 21
276.5162221716749
 31
0.0
  0
SOLID
  5
656
  8
0
 62
     0
 10
-239.0467123867408
 20
279.0162221716749
 30
0.0
 11
-239.1067123867408
 21
279.0162221716749
 31
0.0
 12
-239.0767123867408
 22
279.1962221716749
 32
0.0
 13
-239.0767123867408
 23
279.1962221716749
 33
0.0
  0
SOLID
  5
657
  8
0
 62
     0
 10
-239.1067123867408
 20
274.3762221716749
 30
0.0
 11
-239.0467123867408
 21
274.3762221716749
 31
0.0
 12
-239.0767123867408
 22
274.1962221716749
 32
0.0
 13
-239.0767123867408
 23
274.1962221716749
 33
0.0
  0
TEXT
  5
6B0
  8
0
  6
CONTINUOUS
 62
     0
 10
-239.5481409581694
 20
276.6062221716749
 30
0.0
 40
0.18
  1
5.0000
  0
POINT
  5
6B1
  8
DEFPOINTS
 62
     0
 10
-144.7139616791737
 20
279.1962221716749
 30
0.0
  0
POINT
  5
6B2
  8
DEFPOINTS
 62
     0
 10
-144.7139616791737
 20
274.1962221716749
 30
0.0
  0
POINT
  5
6B3
  8
DEFPOINTS
 62
     0
 10
-239.0767123867408
 20
274.1962221716749
 30
0.0
  0
ENDBLK
  5
1C2
  8
0
  0
BLOCK
  8
0
  2
___-92
 70
     0
 10
0.0
 20
0.0
 30
0.0
  3
___-92
  1

  0
LINE
  5
658
  8
0
  6
CONTINUOUS
 62
     0
 10
205.2860383208281
 20
-113.3844954007072
 30
0.0
 11
205.2860383208281
 21
-223.5019954007
 31
0.0
  0
LINE
  5
659
  8
0
  6
CONTINUOUS
 62
     0
 10
-122.7139616791719
 20
-123.3844954007
 30
0.0
 11
-122.7139616791719
 21
-223.5019954007
 31
0.0
  0
LINE
  5
65A
  8
0
  6
CONTINUOUS
 62
     0
 10
205.1060383208281
 20
-223.3219954007
 30
0.0
 11
41.99318117797094
 21
-223.3219954007
 31
0.0
  0
LINE
  5
65B
  8
0
  6
CONTINUOUS
 62
     0
 10
-122.5339616791719
 20
-223.3219954007
 30
0.0
 11
40.57889546368523
 21
-223.3219954007
 31
0.0
  0
SOLID
  5
65C
  8
0
 62
     0
 10
205.1060383208281
 20
-223.3519954007
 30
0.0
 11
205.1060383208281
 21
-223.2919954007
 31
0.0
 12
205.2860383208281
 22
-223.3219954007
 32
0.0
 13
205.2860383208281
 23
-223.3219954007
 33
0.0
  0
SOLID
  5
65D
  8
0
 62
     0
 10
-122.5339616791719
 20
-223.2919954007
 30
0.0
 11
-122.5339616791719
 21
-223.3519954007
 31
0.0
 12
-122.7139616791719
 22
-223.3219954007
 32
0.0
 13
-122.7139616791719
 23
-223.3219954007
 33
0.0
  0
TEXT
  5
6B5
  8
0
  6
CONTINUOUS
 62
     0
 10
40.64318117797094
 20
-223.4119954007
 30
0.0
 40
0.18
  1
328.0000
  0
POINT
  5
6B6
  8
DEFPOINTS
 62
     0
 10
205.2860383208281
 20
-113.3219954007072
 30
0.0
  0
POINT
  5
6B7
  8
DEFPOINTS
 62
     0
 10
-122.7139616791719
 20
-123.3219954007
 30
0.0
  0
POINT
  5
6B8
  8
DEFPOINTS
 62
     0
 10
-122.7139616791719
 20
-223.3219954007
 30
0.0
  0
ENDBLK
  5
1C5
  8
0
  0
BLOCK
  8
0
  2
___-93
 70
     0
 10
0.0
 20
0.0
 30
0.0
  3
___-93
  1

  0
LINE
  5
65E
  8
0
  6
CONTINUOUS
 62
     0
 10
-124.7139616791719
 20
-123.3844954007
 30
0.0
 11
-124.7139616791719
 21
-200.3353287340333
 31
0.0
  0
LINE
  5
65F
  8
0
  6
CONTINUOUS
 62
     0
 10
-144.7139616791719
 20
-123.3844954007
 30
0.0
 11
-144.7139616791719
 21
-200.3353287340333
 31
0.0
  0
LINE
  5
660
  8
0
  6
CONTINUOUS
 62
     0
 10
-144.7139616791719
 20
-200.1553287340333
 30
0.0
 11
-214.9499331174648
 21
-200.1553287340333
 31
0.0
  0
LINE
  5
661
  8
0
  6
CONTINUOUS
 62
     0
 10
-124.8939616791719
 20
-200.1553287340333
 30
0.0
 11
-144.5339616791719
 21
-200.1553287340333
 31
0.0
  0
SOLID
  5
662
  8
0
 62
     0
 10
-124.8939616791719
 20
-200.1853287340333
 30
0.0
 11
-124.8939616791719
 21
-200.1253287340333
 31
0.0
 12
-124.7139616791719
 22
-200.1553287340333
 32
0.0
 13
-124.7139616791719
 23
-200.1553287340333
 33
0.0
  0
SOLID
  5
663
  8
0
 62
     0
 10
-144.5339616791719
 20
-200.1253287340333
 30
0.0
 11
-144.5339616791719
 21
-200.1853287340333
 31
0.0
 12
-144.7139616791719
 22
-200.1553287340333
 32
0.0
 13
-144.7139616791719
 23
-200.1553287340333
 33
0.0
  0
TEXT
  5
664
  8
0
  6
CONTINUOUS
 62
     0
 10
-216.1285045460362
 20
-200.2453287340333
 30
0.0
 40
0.18
  1
20.0000
  0
POINT
  5
665
  8
DEFPOINTS
 62
     0
 10
-124.7139616791719
 20
-123.3219954007
 30
0.0
  0
POINT
  5
6BA
  8
DEFPOINTS
 62
     0
 10
-144.7139616791719
 20
-123.3219954007
 30
0.0
  0
POINT
  5
6BB
  8
DEFPOINTS
 62
     0
 10
-144.7139616791719
 20
-223.3219954007
 30
0.0
  0
ENDBLK
  5
1C8
  8
0
  0
BLOCK
  8
0
  2
___-94
 70
     0
 10
0.0
 20
0.0
 30
0.0
  3
___-94
  1

  0
LINE
  5
666
  8
0
  6
CONTINUOUS
 62
     0
 10
-124.7139616791719
 20
-123.3844954007
 30
0.0
 11
-124.7139616791719
 21
-223.5019954007
 31
0.0
  0
LINE
  5
667
  8
0
  6
CONTINUOUS
 62
     0
 10
-122.7139616791719
 20
-123.3844954007
 30
0.0
 11
-122.7139616791719
 21
-223.5019954007
 31
0.0
  0
LINE
  5
668
  8
0
  6
CONTINUOUS
 62
     0
 10
-124.5339616791719
 20
-223.3219954007
 30
0.0
 11
-124.2496759648862
 21
-223.3219954007
 31
0.0
  0
LINE
  5
669
  8
0
  6
CONTINUOUS
 62
     0
 10
-122.8939616791719
 20
-223.3219954007
 30
0.0
 11
-123.1782473934576
 21
-223.3219954007
 31
0.0
  0
SOLID
  5
66A
  8
0
 62
     0
 10
-124.5339616791719
 20
-223.2919954007
 30
0.0
 11
-124.5339616791719
 21
-223.3519954007
 31
0.0
 12
-124.7139616791719
 22
-223.3219954007
 32
0.0
 13
-124.7139616791719
 23
-223.3219954007
 33
0.0
  0
SOLID
  5
66B
  8
0
 62
     0
 10
-122.8939616791719
 20
-223.3519954007
 30
0.0
 11
-122.8939616791719
 21
-223.2919954007
 31
0.0
 12
-122.7139616791719
 22
-223.3219954007
 32
0.0
 13
-122.7139616791719
 23
-223.3219954007
 33
0.0
  0
TEXT
  5
6BD
  8
0
  6
CONTINUOUS
 62
     0
 10
-124.1853902506005
 20
-223.4119954007
 30
0.0
 40
0.18
  1
2.0000
  0
POINT
  5
6BE
  8
DEFPOINTS
 62
     0
 10
-124.7139616791719
 20
-123.3219954007
 30
0.0
  0
POINT
  5
6BF
  8
DEFPOINTS
 62
     0
 10
-122.7139616791719
 20
-123.3219954007
 30
0.0
  0
POINT
  5
6C0
  8
DEFPOINTS
 62
     0
 10
-122.7139616791719
 20
-223.3219954007
 30
0.0
  0
ENDBLK
  5
1CB
  8
0
  0
BLOCK
  8
0
  2
___-95
 70
     0
 10
0.0
 20
0.0
 30
0.0
  3
___-95
  1

  0
LINE
  5
66C
  8
0
  6
CONTINUOUS
 62
     0
 10
185.2860383208281
 20
52.14851738443122
 30
0.0
 11
185.2860383208281
 21
97.82519823545653
 31
0.0
  0
LINE
  5
66D
  8
0
  6
CONTINUOUS
 62
     0
 10
-97.71396167917192
 20
52.14851738443122
 30
0.0
 11
-97.71396167917192
 21
97.82519823545653
 31
0.0
  0
LINE
  5
66E
  8
0
  6
CONTINUOUS
 62
     0
 10
185.1060383208281
 20
97.64519823545652
 30
0.0
 11
44.49318117797094
 21
97.64519823545652
 31
0.0
  0
LINE
  5
66F
  8
0
  6
CONTINUOUS
 62
     0
 10
-97.53396167917191
 20
97.64519823545652
 30
0.0
 11
43.07889546368523
 21
97.64519823545652
 31
0.0
  0
SOLID
  5
670
  8
0
 62
     0
 10
185.1060383208281
 20
97.61519823545652
 30
0.0
 11
185.1060383208281
 21
97.67519823545652
 31
0.0
 12
185.2860383208281
 22
97.64519823545652
 32
0.0
 13
185.2860383208281
 23
97.64519823545652
 33
0.0
  0
SOLID
  5
671
  8
0
 62
     0
 10
-97.53396167917191
 20
97.67519823545652
 30
0.0
 11
-97.53396167917191
 21
97.61519823545652
 31
0.0
 12
-97.71396167917192
 22
97.64519823545652
 32
0.0
 13
-97.71396167917192
 23
97.64519823545652
 33
0.0
  0
TEXT
  5
6D1
  8
0
  6
CONTINUOUS
 62
     0
 10
43.14318117797094
 20
97.55519823545652
 30
0.0
 40
0.18
  1
283.0000
  0
POINT
  5
6D2
  8
DEFPOINTS
 62
     0
 10
185.2860383208281
 20
52.08601738443122
 30
0.0
  0
POINT
  5
6D3
  8
DEFPOINTS
 62
     0
 10
-97.71396167917192
 20
52.08601738443122
 30
0.0
  0
POINT
  5
6D4
  8
DEFPOINTS
 62
     0
 10
-97.71396167917192
 20
97.64519823545652
 30
0.0
  0
ENDBLK
  5
1CE
  8
0
  0
BLOCK
  8
0
  2
___-96
 70
     0
 10
0.0
 20
0.0
 30
0.0
  3
___-96
  1

  0
LINE
  5
672
  8
0
  6
CONTINUOUS
 62
     0
 10
-522.3945712373242
 20
389.6647723056136
 30
0.0
 11
-205.7522116992974
 21
292.8574879453719
 31
0.0
  0
LINE
  5
673
  8
0
  6
CONTINUOUS
 62
     0
 10
-144.7139616791737
 20
-120.7412778283251
 30
0.0
 11
-144.7139616791737
 21
210.36902729523
 31
0.0
  0
ARC
  5
674
  8
0
  6
CONTINUOUS
 62
     0
 10
-144.7139616791737
 20
274.1962221716749
 30
0.0
 40
64.00719487644491
 50
163.1611263191668
 51
216.2950568780653
  0
ARC
  5
675
  8
0
  6
CONTINUOUS
 62
     0
 10
-144.7139616791737
 20
274.1962221716749
 30
0.0
 40
64.00719487644491
 50
216.7054870078403
 51
269.8388736808328
  0
SOLID
  5
6D6
  8
0
 62
     0
 10
-205.948029925402
 20
292.7291753651442
 30
0.0
 11
-206.0054328201282
 21
292.7466369709423
 31
0.0
 12
-205.9243465553707
 22
292.910114852222
 32
0.0
 13
-205.9243465553707
 23
292.910114852222
 33
0.0
  0
SOLID
  5
6D7
  8
0
 62
     0
 10
-144.894003683993
 20
210.1592804214333
 30
0.0
 11
-144.8939193184773
 21
210.2192803621204
 31
0.0
 12
-144.7139616791737
 22
210.18902729523
 32
0.0
 13
-144.7139616791737
 23
210.18902729523
 33
0.0
  0
TEXT
  5
6D8
  8
0
  6
CONTINUOUS
 62
     0
 10
-196.470870123753
 20
236.0332841431319
 30
0.0
 40
0.18
  1
107°
  0
POINT
  5
6D9
  8
DEFPOINTS
 62
     0
 10
-144.7139616791737
 20
274.1962221716749
 30
0.0
  0
POINT
  5
6DA
  8
DEFPOINTS
 62
     0
 10
-522.4543402845718
 20
389.6830455371587
 30
0.0
  0
POINT
  5
6DB
  8
DEFPOINTS
 62
     0
 10
-144.7139616791737
 20
-120.8037778283251
 30
0.0
  0
POINT
  5
6DC
  8
DEFPOINTS
 62
     0
 10
-205.3541632018781
 20
253.709959573607
 30
0.0
  0
ENDBLK
  5
1D2
  8
0
  0
BLOCK
  8
0
  2
____-5-2
 70
     0
 10
0.0
 20
0.0
 30
0.0
  3
____-5-2
  1

  0
POLYLINE
  5
676
  8
0
  6
CONTINUOUS
 62
     7
 66
     1
 10
0.0
 20
0.0
 30
0.0
 70
   129
  0
VERTEX
  5
677
  8
0
  6
CONTINUOUS
 62
     7
 10
-144.7139616791737
 20
274.1962221716749
 30
0.0
  0
VERTEX
  5
678
  8
0
  6
CONTINUOUS
 62
     7
 10
-124.7139616791737
 20
274.1962221716749
 30
0.0
  0
VERTEX
  5
679
  8
0
  6
CONTINUOUS
 62
     7
 10
-124.7139616791737
 20
-120.8037778283251
 30
0.0
  0
VERTEX
  5
67A
  8
0
  6
CONTINUOUS
 62
     7
 10
-144.7139616791737
 20
-120.8037778283251
 30
0.0
  0
SEQEND
  5
67B
  8
0
  6
CONTINUOUS
 62
     7
  0
POLYLINE
  5
67C
  8
0
  6
CONTINUOUS
 62
     7
 66
     1
 10
0.0
 20
0.0
 30
0.0
 70
   129
  0
VERTEX
  5
67D
  8
0
  6
CONTINUOUS
 62
     7
 10
-122.7139616791719
 20
259.1962221716749
 30
0.0
  0
VERTEX
  5
67E
  8
0
  6
CONTINUOUS
 62
     7
 10
-122.7139616791719
 20
279.1962221716749
 30
0.0
  0
VERTEX
  5
67F
  8
0
  6
CONTINUOUS
 62
     7
 10
205.2860383208281
 20
279.1962221716749
 30
0.0
  0
VERTEX
  5
680
  8
0
  6
CONTINUOUS
 62
     7
 10
205.2860383208281
 20
259.1962221716749
 30
0.0
  0
SEQEND
  5
681
  8
0
  6
CONTINUOUS
 62
     7
  0
POLYLINE
  5
682
  8
0
  6
CONTINUOUS
 62
     7
 66
     1
 10
0.0
 20
0.0
 30
0.0
 70
   129
  0
VERTEX
  5
683
  8
0
  6
CONTINUOUS
 62
     7
 10
-122.7139616791719
 20
-110.8037778283251
 30
0.0
  0
VERTEX
  5
684
  8
0
  6
CONTINUOUS
 62
     7
 10
-122.7139616791719
 20
-90.80377782832511
 30
0.0
  0
VERTEX
  5
685
  8
0
  6
CONTINUOUS
 62
     7
 10
205.2860383208281
 20
-90.80377782832511
 30
0.0
  0
VERTEX
  5
686
  8
0
  6
CONTINUOUS
 62
     7
 10
205.2860383208281
 20
-110.8037778283251
 30
0.0
  0
SEQEND
  5
687
  8
0
  6
CONTINUOUS
 62
     7
  0
POLYLINE
  5
688
  8
0
  6
CONTINUOUS
 62
     7
 66
     1
 10
0.0
 20
0.0
 30
0.0
 70
   129
  0
VERTEX
  5
689
  8
0
  6
CONTINUOUS
 62
     7
 10
205.2860383208281
 20
-90.80377782832511
 30
0.0
  0
VERTEX
  5
68A
  8
0
  6
CONTINUOUS
 62
     7
 10
185.2860383208281
 20
-90.80377782832511
 30
0.0
  0
VERTEX
  5
68B
  8
0
  6
CONTINUOUS
 62
     7
 10
185.2860383208281
 20
259.1962221716749
 30
0.0
  0
VERTEX
  5
68C
  8
0
  6
CONTINUOUS
 62
     7
 10
205.2860383208281
 20
259.1962221716749
 30
0.0
  0
SEQEND
  5
68D
  8
0
  6
CONTINUOUS
 62
     7
  0
CIRCLE
  5
68E
  8
0
  6
CONTINUOUS
 62
     7
 10
145.2860383208281
 20
-10.80377782832511
 30
0.0
 40
2.5
  0
POLYLINE
  5
68F
  8
0
  6
CONTINUOUS
 62
     7
 66
     1
 10
0.0
 20
0.0
 30
0.0
 70
   129
  0
VERTEX
  5
690
  8
0
  6
CONTINUOUS
 62
     7
 10
-97.71396167917192
 20
53.19622217167489
 30
0.0
  0
VERTEX
  5
691
  8
0
  6
CONTINUOUS
 62
     7
 10
185.2860383208281
 20
53.19622217167489
 30
0.0
  0
VERTEX
  5
692
  8
0
  6
CONTINUOUS
 62
     7
 10
185.2860383208281
 20
39.19622217167489
 30
0.0
  0
VERTEX
  5
693
  8
0
  6
CONTINUOUS
 62
     7
 10
-97.71396167917192
 20
39.19622217167489
 30
0.0
  0
SEQEND
  5
694
  8
0
  6
CONTINUOUS
 62
     7
  0
CIRCLE
  5
695
  8
0
  6
CONTINUOUS
 62
     7
 10
-27.71396167917192
 20
-10.80377782832511
 30
0.0
 40
2.5
  0
CIRCLE
  5
696
  8
0
  6
CONTINUOUS
 62
     7
 10
145.2860383208281
 20
39.19622217167489
 30
0.0
 40
2.5
  0
CIRCLE
  5
697
  8
0
  6
CONTINUOUS
 62
     7
 10
-27.71396167917192
 20
39.19622217167489
 30
0.0
 40
2.5
  0
CIRCLE
  5
698
  8
0
  6
CONTINUOUS
 62
     7
 10
145.2860383208281
 20
89.19622217167489
 30
0.0
 40
2.5
  0
CIRCLE
  5
699
  8
0
  6
CONTINUOUS
 62
     7
 10
-27.71396167917192
 20
89.19622217167489
 30
0.0
 40
2.5
  0
DIMENSION
  5
69A
  8
0
  6
CONTINUOUS
 62
     7
  2
___-87
 10
-75.63679375937356
 20
-120.8037778283251
 30
0.0
 11
-76.425365187945
 21
-142.1321254786963
 31
0.0
 70
   160
  3
STANDARD
 13
-122.7139616791737
 23
-110.8037778283251
 33
0.0
 14
-124.7139616791737
 24
-120.8037778283251
 34
0.0
 50
-90.0
  0
INSERT
  5
69F
  8
0
 62
     7
  2
____-20-1
 10
0.0
 20
0.0
 30
0.0
  0
DIMENSION
  5
6A0
  8
0
  6
CONTINUOUS
 62
     7
  2
___-88
 10
-336.0767123867408
 20
279.1962221716749
 30
0.0
 11
-336.0767123867408
 21
79.19622217167489
 31
0.0
 70
    32
  3
STANDARD
 13
-144.7139616791737
 23
-120.8037778283251
 33
0.0
 14
-144.7139616791737
 24
279.1962221716749
 34
0.0
 50
-90.0
  0
DIMENSION
  5
6A5
  8
0
  6
CONTINUOUS
 62
    12
  2
___-89
 10
365.7087890283974
 20
279.1962221716749
 30
0.0
 11
365.7087890283974
 21
84.19622217167489
 31
0.0
 70
    32
  3
STANDARD
 13
205.2860383208281
 23
-110.8037778283251
 33
0.0
 14
205.2860383208281
 24
279.1962221716749
 34
0.0
 50
-90.0
  0
DIMENSION
  5
6AA
  8
0
  6
CONTINUOUS
 62
     7
  2
___-90
 10
-239.0767123867408
 20
274.1962221716749
 30
0.0
 11
-239.0767123867408
 21
76.69622217167489
 31
0.0
 70
    32
  3
STANDARD
 13
-144.7139616791737
 23
-120.8037778283251
 33
0.0
 14
-144.7139616791737
 24
274.1962221716749
 34
0.0
 50
-90.0
  0
DIMENSION
  5
6AF
  8
0
  6
CONTINUOUS
 62
     7
  2
___-91
 10
-239.0767123867408
 20
274.1962221716749
 30
0.0
 11
-239.0767123867408
 21
276.6962221716749
 31
0.0
 70
    32
  3
STANDARD
 13
-144.7139616791737
 23
279.1962221716749
 33
0.0
 14
-144.7139616791737
 24
274.1962221716749
 34
0.0
 50
-90.0
  0
DIMENSION
  5
6B4
  8
0
  6
CONTINUOUS
 62
     7
  2
___-92
 10
-122.7139616791719
 20
-223.3219954007
 30
0.0
 11
41.28603832082808
 21
-223.3219954007
 31
0.0
 70
    32
  3
STANDARD
 13
205.2860383208281
 23
-113.3219954007072
 33
0.0
 14
-122.7139616791719
 24
-123.3219954007
 34
0.0
  0
DIMENSION
  5
6B9
  8
0
  6
CONTINUOUS
 62
     7
  2
___-93
 10
-144.7139616791719
 20
-200.1553287340333
 30
0.0
 11
-215.5713616888934
 21
-200.1553287340333
 31
0.0
 70
   160
  3
STANDARD
 13
-124.7139616791719
 23
-123.3219954007
 33
0.0
 14
-144.7139616791719
 24
-123.3219954007
 34
0.0
  0
DIMENSION
  5
6BC
  8
0
  6
CONTINUOUS
 62
     7
  2
___-94
 10
-122.7139616791719
 20
-223.3219954007
 30
0.0
 11
-123.7139616791719
 21
-223.3219954007
 31
0.0
 70
    32
  3
STANDARD
 13
-124.7139616791719
 23
-123.3219954007
 33
0.0
 14
-122.7139616791719
 24
-123.3219954007
 34
0.0
  0
TEXT
  5
6C1
  8
0
 62
     7
 10
-311.3166209465908
 20
-280.6473332827828
 30
0.0
 40
21.24016203703704
  1
※お選びいただく面材によって、厚みが異なります。
  7
YUGOTHIC_MEDIUM
 11
-311.3166209465908
 21
-259.4071712457458
 31
0.0
 73
     3
  0
POLYLINE
  5
6C2
  8
0
  6
CONTINUOUS
 62
     7
 66
     1
 10
0.0
 20
0.0
 30
0.0
 70
   129
  0
VERTEX
  5
6C3
  8
0
  6
CONTINUOUS
 62
     7
 10
-144.7139616791737
 20
274.1962221716749
 30
0.0
  0
VERTEX
  5
6C4
  8
0
  6
CONTINUOUS
 62
     7
 10
-124.7139616791737
 20
274.1962221716749
 30
0.0
  0
VERTEX
  5
6C5
  8
0
  6
CONTINUOUS
 62
     7
 10
-124.7139616791737
 20
-120.8037778283251
 30
0.0
  0
VERTEX
  5
6C6
  8
0
  6
CONTINUOUS
 62
     7
 10
-144.7139616791737
 20
-120.8037778283251
 30
0.0
  0
SEQEND
  5
6C7
  8
0
  6
CONTINUOUS
 62
     7
  0
POLYLINE
  5
6C8
  8
0
  6
DASHED-2
 62
     7
 66
     1
 10
0.0
 20
0.0
 30
0.0
 70
   129
  0
VERTEX
  5
6C9
  8
0
  6
DASHED-2
 62
     7
 10
-144.7139616791737
 20
274.1962221716749
 30
0.0
  0
VERTEX
  5
6CA
  8
0
  6
DASHED-2
 62
     7
 10
-150.5613957736286
 20
255.0701270524143
 30
0.0
  0
VERTEX
  5
6CB
  8
0
  6
DASHED-2
 62
     7
 10
-528.3017743790268
 20
370.5569504178981
 30
0.0
  0
VERTEX
  5
6CC
  8
0
  6
DASHED-2
 62
     7
 10
-522.4543402845718
 20
389.6830455371587
 30
0.0
  0
SEQEND
  5
6CD
  8
0
  6
DASHED-2
 62
     7
  0
ARC
  5
6CE
  8
0
  6
DASHED-2
 62
     7
 10
-144.7139616791737
 20
274.1962221716749
 30
0.0
 40
394.9999999999999
 50
165.8985767992813
 51
270.0
  0
TEXT
  5
6CF
  8
0
 62
     7
 10
5.222126326002879
 20
63.5776137570282
 30
0.0
 40
21.24016203703704
  1
可動棚
  7
YUGOTHIC_MEDIUM
 11
5.222126326002879
 21
84.81777579406524
 31
0.0
 73
     3
  0
DIMENSION
  5
6D0
  8
0
  6
CONTINUOUS
 62
     7
  2
___-95
 10
-97.71396167917192
 20
97.64519823545652
 30
0.0
 11
43.78603832082808
 21
97.64519823545652
 31
0.0
 70
    32
  3
STANDARD
 13
185.2860383208281
 23
52.08601738443122
 33
0.0
 14
-97.71396167917192
 24
52.08601738443122
 34
0.0
  0
DIMENSION
  5
6D5
  8
0
  6
CONTINUOUS
 62
     7
  2
___-96
 10
-205.3541632018781
 20
253.709959573607
 30
0.0
 11
-196.1665844094673
 21
236.1232841431319
 31
0.0
 70
   165
  3
STANDARD
 13
-522.4543402845718
 23
389.6830455371587
 33
0.0
 14
-144.7139616791737
 24
-120.8037778283251
 34
0.0
 15
-144.7139616791737
 25
274.1962221716749
 35
0.0
  0
ENDBLK
  5
1D5
  8
0
  0
BLOCK
  8
0
  2
*X120
 70
     1
 10
0.0
 20
0.0
 30
0.0
  3
*X120
  1

  0
LINE
  5
6DD
  8
0
  6
CONTINUOUS
 62
     7
 10
-20817.28078071117
 20
-33120.93877335709
 30
0.0
 11
-20749.63921679079
 21
-33053.29720943671
 31
0.0
  0
LINE
  5
6DE
  8
0
  6
CONTINUOUS
 62
     7
 10
-21149.63921679079
 20
-33029.03314072478
 30
0.0
 11
-21141.5448494231
 21
-33020.93877335709
 31
0.0
  0
LINE
  5
6DF
  8
0
  6
CONTINUOUS
 62
     7
 10
-21149.63921679079
 20
-33099.74381884343
 30
0.0
 11
-21070.83417130445
 21
-33020.93877335709
 31
0.0
  0
LINE
  5
6E0
  8
0
  6
CONTINUOUS
 62
     7
 10
-21100.12349318579
 20
-33120.93877335709
 30
0.0
 11
-21000.12349318579
 21
-33020.93877335709
 31
0.0
  0
LINE
  5
6E1
  8
0
  6
CONTINUOUS
 62
     7
 10
-21029.41281506713
 20
-33120.93877335709
 30
0.0
 11
-20929.41281506714
 21
-33020.93877335709
 31
0.0
  0
LINE
  5
6E2
  8
0
  6
CONTINUOUS
 62
     7
 10
-20958.70213694848
 20
-33120.93877335709
 30
0.0
 11
-20858.70213694848
 21
-33020.93877335709
 31
0.0
  0
LINE
  5
6E3
  8
0
  6
CONTINUOUS
 62
     7
 10
-20887.99145882982
 20
-33120.93877335709
 30
0.0
 11
-20787.99145882983
 21
-33020.93877335709
 31
0.0
  0
ENDBLK
  5
1D8
  8
0
  0
BLOCK
  8
0
  2
*X121
 70
     1
 10
0.0
 20
0.0
 30
0.0
  3
*X121
  1

  0
LINE
  5
6E4
  8
0
  6
CONTINUOUS
 62
     7
 10
-20763.01671199924
 20
-33490.93877335709
 30
0.0
 11
-20749.63921679079
 21
-33477.56127814864
 31
0.0
  0
LINE
  5
6E5
  8
0
  6
CONTINUOUS
 62
     7
 10
-21149.63921679079
 20
-33453.29720943671
 30
0.0
 11
-21087.28078071117
 21
-33390.93877335709
 31
0.0
  0
LINE
  5
6E6
  8
0
  6
CONTINUOUS
 62
     7
 10
-21116.57010259252
 20
-33490.93877335709
 30
0.0
 11
-21016.57010259252
 21
-33390.93877335709
 31
0.0
  0
LINE
  5
6E7
  8
0
  6
CONTINUOUS
 62
     7
 10
-21045.85942447386
 20
-33490.93877335709
 30
0.0
 11
-20945.85942447386
 21
-33390.93877335709
 31
0.0
  0
LINE
  5
6E8
  8
0
  6
CONTINUOUS
 62
     7
 10
-20975.14874635521
 20
-33490.93877335709
 30
0.0
 11
-20875.14874635521
 21
-33390.93877335709
 31
0.0
  0
LINE
  5
6E9
  8
0
  6
CONTINUOUS
 62
     7
 10
-20904.43806823655
 20
-33490.93877335709
 30
0.0
 11
-20804.43806823655
 21
-33390.93877335709
 31
0.0
  0
LINE
  5
6EA
  8
0
  6
CONTINUOUS
 62
     7
 10
-20833.7273901179
 20
-33490.93877335709
 30
0.0
 11
-20749.63921679079
 21
-33406.85060002998
 31
0.0
  0
ENDBLK
  5
1DB
  8
0
  0
BLOCK
  8
0
  2
*X122
 70
     1
 10
0.0
 20
0.0
 30
0.0
  3
*X122
  1

  0
LINE
  5
6EB
  8
0
  6
CONTINUOUS
 62
     7
 10
-20765.1487463552
 20
-33280.93877335709
 30
0.0
 11
-20749.63921679079
 21
-33265.42924379268
 31
0.0
  0
LINE
  5
6EC
  8
0
  6
CONTINUOUS
 62
     7
 10
-21149.63921679079
 20
-33241.16517508074
 30
0.0
 11
-21089.41281506713
 21
-33180.93877335709
 31
0.0
  0
LINE
  5
6ED
  8
0
  6
CONTINUOUS
 62
     7
 10
-21118.70213694848
 20
-33280.93877335709
 30
0.0
 11
-21018.70213694848
 21
-33180.93877335709
 31
0.0
  0
LINE
  5
6EE
  8
0
  6
CONTINUOUS
 62
     7
 10
-21047.99145882982
 20
-33280.93877335709
 30
0.0
 11
-20947.99145882983
 21
-33180.93877335709
 31
0.0
  0
LINE
  5
6EF
  8
0
  6
CONTINUOUS
 62
     7
 10
-20977.28078071117
 20
-33280.93877335709
 30
0.0
 11
-20877.28078071117
 21
-33180.93877335709
 31
0.0
  0
LINE
  5
6F0
  8
0
  6
CONTINUOUS
 62
     7
 10
-20906.57010259251
 20
-33280.93877335709
 30
0.0
 11
-20806.57010259252
 21
-33180.93877335709
 31
0.0
  0
LINE
  5
6F1
  8
0
  6
CONTINUOUS
 62
     7
 10
-20835.85942447386
 20
-33280.93877335709
 30
0.0
 11
-20749.63921679079
 21
-33194.71856567403
 31
0.0
  0
ENDBLK
  5
1DE
  8
0
  0
BLOCK
  8
0
  2
*X123
 70
     1
 10
0.0
 20
0.0
 30
0.0
  3
*X123
  1

  0
LINE
  5
6F2
  8
0
  6
CONTINUOUS
 62
     7
 10
-19968.75264328731
 20
-33120.93877335709
 30
0.0
 11
-19949.63921679079
 21
-33101.82534686057
 31
0.0
  0
LINE
  5
6F3
  8
0
  6
CONTINUOUS
 62
     7
 10
-20349.63921679079
 20
-33077.56127814863
 30
0.0
 11
-20293.01671199925
 21
-33020.93877335709
 31
0.0
  0
LINE
  5
6F4
  8
0
  6
CONTINUOUS
 62
     7
 10
-20322.30603388059
 20
-33120.93877335709
 30
0.0
 11
-20222.30603388059
 21
-33020.93877335709
 31
0.0
  0
LINE
  5
6F5
  8
0
  6
CONTINUOUS
 62
     7
 10
-20251.59535576194
 20
-33120.93877335709
 30
0.0
 11
-20151.59535576193
 21
-33020.93877335709
 31
0.0
  0
LINE
  5
6F6
  8
0
  6
CONTINUOUS
 62
     7
 10
-20180.88467764328
 20
-33120.93877335709
 30
0.0
 11
-20080.88467764328
 21
-33020.93877335709
 31
0.0
  0
LINE
  5
6F7
  8
0
  6
CONTINUOUS
 62
     7
 10
-20110.17399952462
 20
-33120.93877335709
 30
0.0
 11
-20010.17399952462
 21
-33020.93877335709
 31
0.0
  0
LINE
  5
6F8
  8
0
  6
CONTINUOUS
 62
     7
 10
-20039.46332140596
 20
-33120.93877335709
 30
0.0
 11
-19949.63921679079
 21
-33031.11466874192
 31
0.0
  0
ENDBLK
  5
1E1
  8
0
  0
BLOCK
  8
0
  2
*X124
 70
     1
 10
0.0
 20
0.0
 30
0.0
  3
*X124
  1

  0
LINE
  5
6F9
  8
0
  6
CONTINUOUS
 62
     7
 10
-19985.19925269404
 20
-33490.93877335709
 30
0.0
 11
-19949.63921679079
 21
-33455.37873745384
 31
0.0
  0
LINE
  5
6FA
  8
0
  6
CONTINUOUS
 62
     7
 10
-20349.63921679079
 20
-33431.11466874191
 30
0.0
 11
-20309.46332140597
 21
-33390.93877335709
 31
0.0
  0
LINE
  5
6FB
  8
0
  6
CONTINUOUS
 62
     7
 10
-20338.75264328732
 20
-33490.93877335709
 30
0.0
 11
-20238.75264328732
 21
-33390.93877335709
 31
0.0
  0
LINE
  5
6FC
  8
0
  6
CONTINUOUS
 62
     7
 10
-20268.04196516866
 20
-33490.93877335709
 30
0.0
 11
-20168.04196516866
 21
-33390.93877335709
 31
0.0
  0
LINE
  5
6FD
  8
0
  6
CONTINUOUS
 62
     7
 10
-20197.33128705
 20
-33490.93877335709
 30
0.0
 11
-20097.33128705001
 21
-33390.93877335709
 31
0.0
  0
LINE
  5
6FE
  8
0
  6
CONTINUOUS
 62
     7
 10
-20126.62060893135
 20
-33490.93877335709
 30
0.0
 11
-20026.62060893135
 21
-33390.93877335709
 31
0.0
  0
LINE
  5
6FF
  8
0
  6
CONTINUOUS
 62
     7
 10
-20055.9099308127
 20
-33490.93877335709
 30
0.0
 11
-19955.9099308127
 21
-33390.93877335709
 31
0.0
  0
ENDBLK
  5
1E4
  8
0
  0
BLOCK
  8
0
  2
*X125
 70
     1
 10
0.0
 20
0.0
 30
0.0
  3
*X125
  1

  0
LINE
  5
700
  8
0
  6
CONTINUOUS
 62
     7
 10
-19987.33128705
 20
-33280.93877335709
 30
0.0
 11
-19949.63921679079
 21
-33243.24670309788
 31
0.0
  0
LINE
  5
701
  8
0
  6
CONTINUOUS
 62
     7
 10
-20349.63921679079
 20
-33218.98263438595
 30
0.0
 11
-20311.59535576194
 21
-33180.93877335709
 31
0.0
  0
LINE
  5
702
  8
0
  6
CONTINUOUS
 62
     7
 10
-20340.88467764328
 20
-33280.93877335709
 30
0.0
 11
-20240.88467764328
 21
-33180.93877335709
 31
0.0
  0
LINE
  5
703
  8
0
  6
CONTINUOUS
 62
     7
 10
-20270.17399952463
 20
-33280.93877335709
 30
0.0
 11
-20170.17399952462
 21
-33180.93877335709
 31
0.0
  0
LINE
  5
704
  8
0
  6
CONTINUOUS
 62
     7
 10
-20199.46332140597
 20
-33280.93877335709
 30
0.0
 11
-20099.46332140597
 21
-33180.93877335709
 31
0.0
  0
LINE
  5
705
  8
0
  6
CONTINUOUS
 62
     7
 10
-20128.75264328732
 20
-33280.93877335709
 30
0.0
 11
-20028.75264328731
 21
-33180.93877335709
 31
0.0
  0
LINE
  5
706
  8
0
  6
CONTINUOUS
 62
     7
 10
-20058.04196516866
 20
-33280.93877335709
 30
0.0
 11
-19958.04196516866
 21
-33180.93877335709
 31
0.0
  0
ENDBLK
  5
1E7
  8
0
  0
BLOCK
  8
0
  2
*X126
 70
     1
 10
0.0
 20
0.0
 30
0.0
  3
*X126
  1

  0
LINE
  5
707
  8
0
  6
CONTINUOUS
 62
     7
 10
-16150.37602487996
 20
-33120.93877335709
 30
0.0
 11
-16091.4933333334
 21
-33062.05608181054
 31
0.0
  0
LINE
  5
708
  8
0
  6
CONTINUOUS
 62
     7
 10
-16891.4933333334
 20
-33084.23862250532
 30
0.0
 11
-16828.19348418517
 21
-33020.93877335709
 31
0.0
  0
LINE
  5
709
  8
0
  6
CONTINUOUS
 62
     7
 10
-16857.48280606651
 20
-33120.93877335709
 30
0.0
 11
-16757.48280606652
 21
-33020.93877335709
 31
0.0
  0
LINE
  5
70A
  8
0
  6
CONTINUOUS
 62
     7
 10
-16786.77212794786
 20
-33120.93877335709
 30
0.0
 11
-16686.77212794786
 21
-33020.93877335709
 31
0.0
  0
LINE
  5
70B
  8
0
  6
CONTINUOUS
 62
     7
 10
-16716.06144982921
 20
-33120.93877335709
 30
0.0
 11
-16616.06144982921
 21
-33020.93877335709
 31
0.0
  0
LINE
  5
70C
  8
0
  6
CONTINUOUS
 62
     7
 10
-16645.35077171055
 20
-33120.93877335709
 30
0.0
 11
-16545.35077171055
 21
-33020.93877335709
 31
0.0
  0
LINE
  5
70D
  8
0
  6
CONTINUOUS
 62
     7
 10
-16574.64009359189
 20
-33120.93877335709
 30
0.0
 11
-16474.6400935919
 21
-33020.93877335709
 31
0.0
  0
LINE
  5
70E
  8
0
  6
CONTINUOUS
 62
     7
 10
-16503.92941547324
 20
-33120.93877335709
 30
0.0
 11
-16403.92941547324
 21
-33020.93877335709
 31
0.0
  0
LINE
  5
70F
  8
0
  6
CONTINUOUS
 62
     7
 10
-16433.21873735458
 20
-33120.93877335709
 30
0.0
 11
-16333.21873735459
 21
-33020.93877335709
 31
0.0
  0
LINE
  5
710
  8
0
  6
CONTINUOUS
 62
     7
 10
-16362.50805923593
 20
-33120.93877335709
 30
0.0
 11
-16262.50805923593
 21
-33020.93877335709
 31
0.0
  0
LINE
  5
711
  8
0
  6
CONTINUOUS
 62
     7
 10
-16291.79738111727
 20
-33120.93877335709
 30
0.0
 11
-16191.79738111727
 21
-33020.93877335709
 31
0.0
  0
LINE
  5
712
  8
0
  6
CONTINUOUS
 62
     7
 10
-16221.08670299861
 20
-33120.93877335709
 30
0.0
 11
-16121.08670299862
 21
-33020.93877335709
 31
0.0
  0
ENDBLK
  5
1EA
  8
0
  0
BLOCK
  8
0
  2
*X127
 70
     1
 10
0.0
 20
0.0
 30
0.0
  3
*X127
  1

  0
LINE
  5
713
  8
0
  6
CONTINUOUS
 62
     7
 10
-16096.11195616803
 20
-33490.93877335709
 30
0.0
 11
-16091.4933333334
 21
-33486.32015052246
 31
0.0
  0
LINE
  5
714
  8
0
  6
CONTINUOUS
 62
     7
 10
-16891.4933333334
 20
-33437.79201309859
 30
0.0
 11
-16844.6400935919
 21
-33390.93877335709
 31
0.0
  0
LINE
  5
715
  8
0
  6
CONTINUOUS
 62
     7
 10
-16873.92941547324
 20
-33490.93877335709
 30
0.0
 11
-16773.92941547325
 21
-33390.93877335709
 31
0.0
  0
LINE
  5
716
  8
0
  6
CONTINUOUS
 62
     7
 10
-16803.21873735459
 20
-33490.93877335709
 30
0.0
 11
-16703.21873735459
 21
-33390.93877335709
 31
0.0
  0
LINE
  5
717
  8
0
  6
CONTINUOUS
 62
     7
 10
-16732.50805923593
 20
-33490.93877335709
 30
0.0
 11
-16632.50805923594
 21
-33390.93877335709
 31
0.0
  0
LINE
  5
718
  8
0
  6
CONTINUOUS
 62
     7
 10
-16661.79738111728
 20
-33490.93877335709
 30
0.0
 11
-16561.79738111729
 21
-33390.93877335709
 31
0.0
  0
LINE
  5
719
  8
0
  6
CONTINUOUS
 62
     7
 10
-16591.08670299863
 20
-33490.93877335709
 30
0.0
 11
-16491.08670299863
 21
-33390.93877335709
 31
0.0
  0
LINE
  5
71A
  8
0
  6
CONTINUOUS
 62
     7
 10
-16520.37602487997
 20
-33490.93877335709
 30
0.0
 11
-16420.37602487997
 21
-33390.93877335709
 31
0.0
  0
LINE
  5
71B
  8
0
  6
CONTINUOUS
 62
     7
 10
-16449.66534676131
 20
-33490.93877335709
 30
0.0
 11
-16349.66534676132
 21
-33390.93877335709
 31
0.0
  0
LINE
  5
71C
  8
0
  6
CONTINUOUS
 62
     7
 10
-16378.95466864266
 20
-33490.93877335709
 30
0.0
 11
-16278.95466864266
 21
-33390.93877335709
 31
0.0
  0
LINE
  5
71D
  8
0
  6
CONTINUOUS
 62
     7
 10
-16308.243990524
 20
-33490.93877335709
 30
0.0
 11
-16208.243990524
 21
-33390.93877335709
 31
0.0
  0
LINE
  5
71E
  8
0
  6
CONTINUOUS
 62
     7
 10
-16237.53331240534
 20
-33490.93877335709
 30
0.0
 11
-16137.53331240535
 21
-33390.93877335709
 31
0.0
  0
LINE
  5
71F
  8
0
  6
CONTINUOUS
 62
     7
 10
-16166.82263428669
 20
-33490.93877335709
 30
0.0
 11
-16091.4933333334
 21
-33415.6094724038
 31
0.0
  0
ENDBLK
  5
1ED
  8
0
  0
BLOCK
  8
0
  2
*X128
 70
     1
 10
0.0
 20
0.0
 30
0.0
  3
*X128
  1

  0
LINE
  5
720
  8
0
  6
CONTINUOUS
 62
     7
 10
-16123.24399052399
 20
-33305.93877335709
 30
0.0
 11
-16091.4933333334
 21
-33274.1881161665
 31
0.0
  0
LINE
  5
721
  8
0
  6
CONTINUOUS
 62
     7
 10
-16891.4933333334
 20
-33225.65997874263
 30
0.0
 11
-16871.77212794786
 21
-33205.93877335709
 31
0.0
  0
LINE
  5
722
  8
0
  6
CONTINUOUS
 62
     7
 10
-16891.4933333334
 20
-33296.37065686128
 30
0.0
 11
-16801.06144982921
 21
-33205.93877335709
 31
0.0
  0
LINE
  5
723
  8
0
  6
CONTINUOUS
 62
     7
 10
-16830.35077171055
 20
-33305.93877335709
 30
0.0
 11
-16730.35077171055
 21
-33205.93877335709
 31
0.0
  0
LINE
  5
724
  8
0
  6
CONTINUOUS
 62
     7
 10
-16759.6400935919
 20
-33305.93877335709
 30
0.0
 11
-16659.6400935919
 21
-33205.93877335709
 31
0.0
  0
LINE
  5
725
  8
0
  6
CONTINUOUS
 62
     7
 10
-16688.92941547324
 20
-33305.93877335709
 30
0.0
 11
-16588.92941547325
 21
-33205.93877335709
 31
0.0
  0
LINE
  5
726
  8
0
  6
CONTINUOUS
 62
     7
 10
-16618.21873735459
 20
-33305.93877335709
 30
0.0
 11
-16518.21873735459
 21
-33205.93877335709
 31
0.0
  0
LINE
  5
727
  8
0
  6
CONTINUOUS
 62
     7
 10
-16547.50805923593
 20
-33305.93877335709
 30
0.0
 11
-16447.50805923593
 21
-33205.93877335709
 31
0.0
  0
LINE
  5
728
  8
0
  6
CONTINUOUS
 62
     7
 10
-16476.79738111727
 20
-33305.93877335709
 30
0.0
 11
-16376.79738111728
 21
-33205.93877335709
 31
0.0
  0
LINE
  5
729
  8
0
  6
CONTINUOUS
 62
     7
 10
-16406.08670299862
 20
-33305.93877335709
 30
0.0
 11
-16306.08670299862
 21
-33205.93877335709
 31
0.0
  0
LINE
  5
72A
  8
0
  6
CONTINUOUS
 62
     7
 10
-16335.37602487996
 20
-33305.93877335709
 30
0.0
 11
-16235.37602487996
 21
-33205.93877335709
 31
0.0
  0
LINE
  5
72B
  8
0
  6
CONTINUOUS
 62
     7
 10
-16264.66534676131
 20
-33305.93877335709
 30
0.0
 11
-16164.66534676131
 21
-33205.93877335709
 31
0.0
  0
LINE
  5
72C
  8
0
  6
CONTINUOUS
 62
     7
 10
-16193.95466864265
 20
-33305.93877335709
 30
0.0
 11
-16093.95466864265
 21
-33205.93877335709
 31
0.0
  0
ENDBLK
  5
1F0
  8
0
  0
BLOCK
  8
0
  2
*X129
 70
     1
 10
0.0
 20
0.0
 30
0.0
  3
*X129
  1

  0
LINE
  5
72D
  8
0
  6
CONTINUOUS
 62
     7
 10
-11624.89262528606
 20
-33120.93877335709
 30
0.0
 11
-11575.0
 21
-33071.04614807104
 31
0.0
  0
LINE
  5
72E
  8
0
  6
CONTINUOUS
 62
     7
 10
-12775.0
 20
-33068.96462005386
 30
0.0
 11
-12726.97415330323
 21
-33020.93877335709
 31
0.0
  0
LINE
  5
72F
  8
0
  6
CONTINUOUS
 62
     7
 10
-12756.26347518457
 20
-33120.93877335709
 30
0.0
 11
-12656.26347518457
 21
-33020.93877335709
 31
0.0
  0
LINE
  5
730
  8
0
  6
CONTINUOUS
 62
     7
 10
-12685.55279706591
 20
-33120.93877335709
 30
0.0
 11
-12585.55279706591
 21
-33020.93877335709
 31
0.0
  0
LINE
  5
731
  8
0
  6
CONTINUOUS
 62
     7
 10
-12614.84211894726
 20
-33120.93877335709
 30
0.0
 11
-12514.84211894725
 21
-33020.93877335709
 31
0.0
  0
LINE
  5
732
  8
0
  6
CONTINUOUS
 62
     7
 10
-12544.1314408286
 20
-33120.93877335709
 30
0.0
 11
-12444.13144082859
 21
-33020.93877335709
 31
0.0
  0
LINE
  5
733
  8
0
  6
CONTINUOUS
 62
     7
 10
-12473.42076270994
 20
-33120.93877335709
 30
0.0
 11
-12373.42076270994
 21
-33020.93877335709
 31
0.0
  0
LINE
  5
734
  8
0
  6
CONTINUOUS
 62
     7
 10
-12402.71008459128
 20
-33120.93877335709
 30
0.0
 11
-12302.71008459128
 21
-33020.93877335709
 31
0.0
  0
LINE
  5
735
  8
0
  6
CONTINUOUS
 62
     7
 10
-12331.99940647263
 20
-33120.93877335709
 30
0.0
 11
-12231.99940647263
 21
-33020.93877335709
 31
0.0
  0
LINE
  5
736
  8
0
  6
CONTINUOUS
 62
     7
 10
-12261.28872835397
 20
-33120.93877335709
 30
0.0
 11
-12161.28872835397
 21
-33020.93877335709
 31
0.0
  0
LINE
  5
737
  8
0
  6
CONTINUOUS
 62
     7
 10
-12190.57805023531
 20
-33120.93877335709
 30
0.0
 11
-12090.57805023531
 21
-33020.93877335709
 31
0.0
  0
LINE
  5
738
  8
0
  6
CONTINUOUS
 62
     7
 10
-12119.86737211666
 20
-33120.93877335709
 30
0.0
 11
-12019.86737211666
 21
-33020.93877335709
 31
0.0
  0
LINE
  5
739
  8
0
  6
CONTINUOUS
 62
     7
 10
-12049.156693998
 20
-33120.93877335709
 30
0.0
 11
-11949.156693998
 21
-33020.93877335709
 31
0.0
  0
LINE
  5
73A
  8
0
  6
CONTINUOUS
 62
     7
 10
-11978.44601587934
 20
-33120.93877335709
 30
0.0
 11
-11878.44601587934
 21
-33020.93877335709
 31
0.0
  0
LINE
  5
73B
  8
0
  6
CONTINUOUS
 62
     7
 10
-11907.73533776069
 20
-33120.93877335709
 30
0.0
 11
-11807.73533776069
 21
-33020.93877335709
 31
0.0
  0
LINE
  5
73C
  8
0
  6
CONTINUOUS
 62
     7
 10
-11837.02465964203
 20
-33120.93877335709
 30
0.0
 11
-11737.02465964203
 21
-33020.93877335709
 31
0.0
  0
LINE
  5
73D
  8
0
  6
CONTINUOUS
 62
     7
 10
-11766.31398152337
 20
-33120.93877335709
 30
0.0
 11
-11666.31398152337
 21
-33020.93877335709
 31
0.0
  0
LINE
  5
73E
  8
0
  6
CONTINUOUS
 62
     7
 10
-11695.60330340471
 20
-33120.93877335709
 30
0.0
 11
-11595.60330340472
 21
-33020.93877335709
 31
0.0
  0
ENDBLK
  5
1F3
  8
0
  0
BLOCK
  8
0
  2
*X130
 70
     1
 10
0.0
 20
0.0
 30
0.0
  3
*X130
  1

  0
LINE
  5
73F
  8
0
  6
CONTINUOUS
 62
     7
 10
-11641.33923469278
 20
-33490.93877335709
 30
0.0
 11
-11575.0
 21
-33424.59953866431
 31
0.0
  0
LINE
  5
740
  8
0
  6
CONTINUOUS
 62
     7
 10
-12775.0
 20
-33422.51801064714
 30
0.0
 11
-12743.42076270995
 21
-33390.93877335709
 31
0.0
  0
LINE
  5
741
  8
0
  6
CONTINUOUS
 62
     7
 10
-12772.7100845913
 20
-33490.93877335709
 30
0.0
 11
-12672.7100845913
 21
-33390.93877335709
 31
0.0
  0
LINE
  5
742
  8
0
  6
CONTINUOUS
 62
     7
 10
-12701.99940647264
 20
-33490.93877335709
 30
0.0
 11
-12601.99940647264
 21
-33390.93877335709
 31
0.0
  0
LINE
  5
743
  8
0
  6
CONTINUOUS
 62
     7
 10
-12631.28872835398
 20
-33490.93877335709
 30
0.0
 11
-12531.28872835398
 21
-33390.93877335709
 31
0.0
  0
LINE
  5
744
  8
0
  6
CONTINUOUS
 62
     7
 10
-12560.57805023532
 20
-33490.93877335709
 30
0.0
 11
-12460.57805023533
 21
-33390.93877335709
 31
0.0
  0
LINE
  5
745
  8
0
  6
CONTINUOUS
 62
     7
 10
-12489.86737211667
 20
-33490.93877335709
 30
0.0
 11
-12389.86737211667
 21
-33390.93877335709
 31
0.0
  0
LINE
  5
746
  8
0
  6
CONTINUOUS
 62
     7
 10
-12419.15669399801
 20
-33490.93877335709
 30
0.0
 11
-12319.15669399801
 21
-33390.93877335709
 31
0.0
  0
LINE
  5
747
  8
0
  6
CONTINUOUS
 62
     7
 10
-12348.44601587935
 20
-33490.93877335709
 30
0.0
 11
-12248.44601587935
 21
-33390.93877335709
 31
0.0
  0
LINE
  5
748
  8
0
  6
CONTINUOUS
 62
     7
 10
-12277.7353377607
 20
-33490.93877335709
 30
0.0
 11
-12177.7353377607
 21
-33390.93877335709
 31
0.0
  0
LINE
  5
749
  8
0
  6
CONTINUOUS
 62
     7
 10
-12207.02465964204
 20
-33490.93877335709
 30
0.0
 11
-12107.02465964204
 21
-33390.93877335709
 31
0.0
  0
LINE
  5
74A
  8
0
  6
CONTINUOUS
 62
     7
 10
-12136.31398152338
 20
-33490.93877335709
 30
0.0
 11
-12036.31398152338
 21
-33390.93877335709
 31
0.0
  0
LINE
  5
74B
  8
0
  6
CONTINUOUS
 62
     7
 10
-12065.60330340472
 20
-33490.93877335709
 30
0.0
 11
-11965.60330340472
 21
-33390.93877335709
 31
0.0
  0
LINE
  5
74C
  8
0
  6
CONTINUOUS
 62
     7
 10
-11994.89262528607
 20
-33490.93877335709
 30
0.0
 11
-11894.89262528607
 21
-33390.93877335709
 31
0.0
  0
LINE
  5
74D
  8
0
  6
CONTINUOUS
 62
     7
 10
-11924.18194716741
 20
-33490.93877335709
 30
0.0
 11
-11824.18194716741
 21
-33390.93877335709
 31
0.0
  0
LINE
  5
74E
  8
0
  6
CONTINUOUS
 62
     7
 10
-11853.47126904875
 20
-33490.93877335709
 30
0.0
 11
-11753.47126904875
 21
-33390.93877335709
 31
0.0
  0
LINE
  5
74F
  8
0
  6
CONTINUOUS
 62
     7
 10
-11782.76059093009
 20
-33490.93877335709
 30
0.0
 11
-11682.76059093009
 21
-33390.93877335709
 31
0.0
  0
LINE
  5
750
  8
0
  6
CONTINUOUS
 62
     7
 10
-11712.04991281144
 20
-33490.93877335709
 30
0.0
 11
-11612.04991281144
 21
-33390.93877335709
 31
0.0
  0
ENDBLK
  5
1F6
  8
0
  0
BLOCK
  8
0
  2
*X131
 70
     1
 10
0.0
 20
0.0
 30
0.0
  3
*X131
  1

  0
LINE
  5
751
  8
0
  6
CONTINUOUS
 62
     7
 10
-11597.76059093009
 20
-33305.93877335709
 30
0.0
 11
-11575.0
 21
-33283.178182427
 31
0.0
  0
LINE
  5
752
  8
0
  6
CONTINUOUS
 62
     7
 10
-12775.0
 20
-33210.38597629117
 30
0.0
 11
-12770.55279706593
 21
-33205.93877335709
 31
0.0
  0
LINE
  5
753
  8
0
  6
CONTINUOUS
 62
     7
 10
-12775.0
 20
-33281.09665440982
 30
0.0
 11
-12699.84211894727
 21
-33205.93877335709
 31
0.0
  0
LINE
  5
754
  8
0
  6
CONTINUOUS
 62
     7
 10
-12729.13144082861
 20
-33305.93877335709
 30
0.0
 11
-12629.13144082861
 21
-33205.93877335709
 31
0.0
  0
LINE
  5
755
  8
0
  6
CONTINUOUS
 62
     7
 10
-12658.42076270995
 20
-33305.93877335709
 30
0.0
 11
-12558.42076270995
 21
-33205.93877335709
 31
0.0
  0
LINE
  5
756
  8
0
  6
CONTINUOUS
 62
     7
 10
-12587.7100845913
 20
-33305.93877335709
 30
0.0
 11
-12487.7100845913
 21
-33205.93877335709
 31
0.0
  0
LINE
  5
757
  8
0
  6
CONTINUOUS
 62
     7
 10
-12516.99940647264
 20
-33305.93877335709
 30
0.0
 11
-12416.99940647264
 21
-33205.93877335709
 31
0.0
  0
LINE
  5
758
  8
0
  6
CONTINUOUS
 62
     7
 10
-12446.28872835398
 20
-33305.93877335709
 30
0.0
 11
-12346.28872835398
 21
-33205.93877335709
 31
0.0
  0
LINE
  5
759
  8
0
  6
CONTINUOUS
 62
     7
 10
-12375.57805023532
 20
-33305.93877335709
 30
0.0
 11
-12275.57805023532
 21
-33205.93877335709
 31
0.0
  0
LINE
  5
75A
  8
0
  6
CONTINUOUS
 62
     7
 10
-12304.86737211667
 20
-33305.93877335709
 30
0.0
 11
-12204.86737211667
 21
-33205.93877335709
 31
0.0
  0
LINE
  5
75B
  8
0
  6
CONTINUOUS
 62
     7
 10
-12234.15669399801
 20
-33305.93877335709
 30
0.0
 11
-12134.15669399801
 21
-33205.93877335709
 31
0.0
  0
LINE
  5
75C
  8
0
  6
CONTINUOUS
 62
     7
 10
-12163.44601587935
 20
-33305.93877335709
 30
0.0
 11
-12063.44601587935
 21
-33205.93877335709
 31
0.0
  0
LINE
  5
75D
  8
0
  6
CONTINUOUS
 62
     7
 10
-12092.73533776069
 20
-33305.93877335709
 30
0.0
 11
-11992.73533776069
 21
-33205.93877335709
 31
0.0
  0
LINE
  5
75E
  8
0
  6
CONTINUOUS
 62
     7
 10
-12022.02465964204
 20
-33305.93877335709
 30
0.0
 11
-11922.02465964204
 21
-33205.93877335709
 31
0.0
  0
LINE
  5
75F
  8
0
  6
CONTINUOUS
 62
     7
 10
-11951.31398152338
 20
-33305.93877335709
 30
0.0
 11
-11851.31398152338
 21
-33205.93877335709
 31
0.0
  0
LINE
  5
760
  8
0
  6
CONTINUOUS
 62
     7
 10
-11880.60330340472
 20
-33305.93877335709
 30
0.0
 11
-11780.60330340472
 21
-33205.93877335709
 31
0.0
  0
LINE
  5
761
  8
0
  6
CONTINUOUS
 62
     7
 10
-11809.89262528606
 20
-33305.93877335709
 30
0.0
 11
-11709.89262528606
 21
-33205.93877335709
 31
0.0
  0
LINE
  5
762
  8
0
  6
CONTINUOUS
 62
     7
 10
-11739.18194716741
 20
-33305.93877335709
 30
0.0
 11
-11639.18194716741
 21
-33205.93877335709
 31
0.0
  0
LINE
  5
763
  8
0
  6
CONTINUOUS
 62
     7
 10
-11668.47126904875
 20
-33305.93877335709
 30
0.0
 11
-11575.0
 21
-33212.46750430834
 31
0.0
  0
ENDBLK
  5
1F9
  8
0
  0
BLOCK
  8
0
  2
*X132
 70
     1
 10
0.0
 20
0.0
 30
0.0
  3
*X132
  1

  0
LINE
  5
764
  8
0
  6
CONTINUOUS
 62
     7
 10
-7742.96261628542
 20
-33410.93877335709
 30
0.0
 11
-7725.000000000001
 21
-33392.97615707167
 31
0.0
  0
LINE
  5
765
  8
0
  6
CONTINUOUS
 62
     7
 10
-8525.0
 20
-33344.44801964778
 30
0.0
 11
-8491.490753709311
 21
-33310.93877335709
 31
0.0
  0
LINE
  5
766
  8
0
  6
CONTINUOUS
 62
     7
 10
-8520.780075590656
 20
-33410.93877335709
 30
0.0
 11
-8420.780075590652
 21
-33310.93877335709
 31
0.0
  0
LINE
  5
767
  8
0
  6
CONTINUOUS
 62
     7
 10
-8450.069397471996
 20
-33410.93877335709
 30
0.0
 11
-8350.069397471994
 21
-33310.93877335709
 31
0.0
  0
LINE
  5
768
  8
0
  6
CONTINUOUS
 62
     7
 10
-8379.358719353339
 20
-33410.93877335709
 30
0.0
 11
-8279.358719353337
 21
-33310.93877335709
 31
0.0
  0
LINE
  5
769
  8
0
  6
CONTINUOUS
 62
     7
 10
-8308.648041234681
 20
-33410.93877335709
 30
0.0
 11
-8208.64804123468
 21
-33310.93877335709
 31
0.0
  0
LINE
  5
76A
  8
0
  6
CONTINUOUS
 62
     7
 10
-8237.937363116022
 20
-33410.93877335709
 30
0.0
 11
-8137.937363116021
 21
-33310.93877335709
 31
0.0
  0
LINE
  5
76B
  8
0
  6
CONTINUOUS
 62
     7
 10
-8167.226684997364
 20
-33410.93877335709
 30
0.0
 11
-8067.226684997363
 21
-33310.93877335709
 31
0.0
  0
LINE
  5
76C
  8
0
  6
CONTINUOUS
 62
     7
 10
-8096.516006878706
 20
-33410.93877335709
 30
0.0
 11
-7996.516006878705
 21
-33310.93877335709
 31
0.0
  0
LINE
  5
76D
  8
0
  6
CONTINUOUS
 62
     7
 10
-8025.805328760049
 20
-33410.93877335709
 30
0.0
 11
-7925.805328760048
 21
-33310.93877335709
 31
0.0
  0
LINE
  5
76E
  8
0
  6
CONTINUOUS
 62
     7
 10
-7955.094650641391
 20
-33410.93877335709
 30
0.0
 11
-7855.09465064139
 21
-33310.93877335709
 31
0.0
  0
LINE
  5
76F
  8
0
  6
CONTINUOUS
 62
     7
 10
-7884.383972522734
 20
-33410.93877335709
 30
0.0
 11
-7784.383972522734
 21
-33310.93877335709
 31
0.0
  0
LINE
  5
770
  8
0
  6
CONTINUOUS
 62
     7
 10
-7813.673294404077
 20
-33410.93877335709
 30
0.0
 11
-7725.000000000001
 21
-33322.26547895301
 31
0.0
  0
ENDBLK
  5
1FC
  8
0
  0
BLOCK
  8
0
  2
*X133
 70
     1
 10
0.0
 20
0.0
 30
0.0
  3
*X133
  1

  0
LINE
  5
771
  8
0
  6
CONTINUOUS
 62
     7
 10
-7735.805328760038
 20
-33120.93877335709
 30
0.0
 11
-7725.000000000001
 21
-33110.13344459706
 31
0.0
  0
LINE
  5
772
  8
0
  6
CONTINUOUS
 62
     7
 10
-8525.0
 20
-33061.60530717317
 30
0.0
 11
-8484.333466183925
 21
-33020.93877335709
 31
0.0
  0
LINE
  5
773
  8
0
  6
CONTINUOUS
 62
     7
 10
-8513.622788065273
 20
-33120.93877335709
 30
0.0
 11
-8413.622788065266
 21
-33020.93877335709
 31
0.0
  0
LINE
  5
774
  8
0
  6
CONTINUOUS
 62
     7
 10
-8442.912109946614
 20
-33120.93877335709
 30
0.0
 11
-8342.912109946608
 21
-33020.93877335709
 31
0.0
  0
LINE
  5
775
  8
0
  6
CONTINUOUS
 62
     7
 10
-8372.201431827954
 20
-33120.93877335709
 30
0.0
 11
-8272.20143182795
 21
-33020.93877335709
 31
0.0
  0
LINE
  5
776
  8
0
  6
CONTINUOUS
 62
     7
 10
-8301.490753709297
 20
-33120.93877335709
 30
0.0
 11
-8201.490753709295
 21
-33020.93877335709
 31
0.0
  0
LINE
  5
777
  8
0
  6
CONTINUOUS
 62
     7
 10
-8230.78007559064
 20
-33120.93877335709
 30
0.0
 11
-8130.780075590638
 21
-33020.93877335709
 31
0.0
  0
LINE
  5
778
  8
0
  6
CONTINUOUS
 62
     7
 10
-8160.069397471982
 20
-33120.93877335709
 30
0.0
 11
-8060.069397471981
 21
-33020.93877335709
 31
0.0
  0
LINE
  5
779
  8
0
  6
CONTINUOUS
 62
     7
 10
-8089.358719353324
 20
-33120.93877335709
 30
0.0
 11
-7989.358719353322
 21
-33020.93877335709
 31
0.0
  0
LINE
  5
77A
  8
0
  6
CONTINUOUS
 62
     7
 10
-8018.648041234666
 20
-33120.93877335709
 30
0.0
 11
-7918.648041234665
 21
-33020.93877335709
 31
0.0
  0
LINE
  5
77B
  8
0
  6
CONTINUOUS
 62
     7
 10
-7947.937363116009
 20
-33120.93877335709
 30
0.0
 11
-7847.937363116008
 21
-33020.93877335709
 31
0.0
  0
LINE
  5
77C
  8
0
  6
CONTINUOUS
 62
     7
 10
-7877.226684997351
 20
-33120.93877335709
 30
0.0
 11
-7777.226684997351
 21
-33020.93877335709
 31
0.0
  0
LINE
  5
77D
  8
0
  6
CONTINUOUS
 62
     7
 10
-7806.516006878694
 20
-33120.93877335709
 30
0.0
 11
-7725.000000000001
 21
-33039.4227664784
 31
0.0
  0
ENDBLK
  5
1FF
  8
0
  0
BLOCK
  8
0
  2
*X134
 70
     1
 10
0.0
 20
0.0
 30
0.0
  3
*X134
  1

  0
LINE
  5
77E
  8
0
  6
CONTINUOUS
 62
     7
 10
-3429.611251047485
 20
-33410.93877335709
 30
0.0
 11
-3421.990857031971
 21
-33403.31837934158
 31
0.0
  0
LINE
  5
77F
  8
0
  6
CONTINUOUS
 62
     7
 10
-4471.990857031971
 20
-33321.94752944307
 30
0.0
 11
-4460.982100945993
 21
-33310.93877335709
 31
0.0
  0
LINE
  5
780
  8
0
  6
CONTINUOUS
 62
     7
 10
-4471.990857031971
 20
-33392.65820756173
 30
0.0
 11
-4390.271422827337
 21
-33310.93877335709
 31
0.0
  0
LINE
  5
781
  8
0
  6
CONTINUOUS
 62
     7
 10
-4419.56074470868
 20
-33410.93877335709
 30
0.0
 11
-4319.56074470868
 21
-33310.93877335709
 31
0.0
  0
LINE
  5
782
  8
0
  6
CONTINUOUS
 62
     7
 10
-4348.850066590023
 20
-33410.93877335709
 30
0.0
 11
-4248.850066590024
 21
-33310.93877335709
 31
0.0
  0
LINE
  5
783
  8
0
  6
CONTINUOUS
 62
     7
 10
-4278.139388471367
 20
-33410.93877335709
 30
0.0
 11
-4178.139388471367
 21
-33310.93877335709
 31
0.0
  0
LINE
  5
784
  8
0
  6
CONTINUOUS
 62
     7
 10
-4207.42871035271
 20
-33410.93877335709
 30
0.0
 11
-4107.428710352711
 21
-33310.93877335709
 31
0.0
  0
LINE
  5
785
  8
0
  6
CONTINUOUS
 62
     7
 10
-4136.718032234054
 20
-33410.93877335709
 30
0.0
 11
-4036.718032234054
 21
-33310.93877335709
 31
0.0
  0
LINE
  5
786
  8
0
  6
CONTINUOUS
 62
     7
 10
-4066.007354115397
 20
-33410.93877335709
 30
0.0
 11
-3966.007354115397
 21
-33310.93877335709
 31
0.0
  0
LINE
  5
787
  8
0
  6
CONTINUOUS
 62
     7
 10
-3995.29667599674
 20
-33410.93877335709
 30
0.0
 11
-3895.296675996741
 21
-33310.93877335709
 31
0.0
  0
LINE
  5
788
  8
0
  6
CONTINUOUS
 62
     7
 10
-3924.585997878084
 20
-33410.93877335709
 30
0.0
 11
-3824.585997878084
 21
-33310.93877335709
 31
0.0
  0
LINE
  5
789
  8
0
  6
CONTINUOUS
 62
     7
 10
-3853.875319759427
 20
-33410.93877335709
 30
0.0
 11
-3753.875319759427
 21
-33310.93877335709
 31
0.0
  0
LINE
  5
78A
  8
0
  6
CONTINUOUS
 62
     7
 10
-3783.16464164077
 20
-33410.93877335709
 30
0.0
 11
-3683.16464164077
 21
-33310.93877335709
 31
0.0
  0
LINE
  5
78B
  8
0
  6
CONTINUOUS
 62
     7
 10
-3712.453963522113
 20
-33410.93877335709
 30
0.0
 11
-3612.453963522113
 21
-33310.93877335709
 31
0.0
  0
LINE
  5
78C
  8
0
  6
CONTINUOUS
 62
     7
 10
-3641.743285403456
 20
-33410.93877335709
 30
0.0
 11
-3541.743285403456
 21
-33310.93877335709
 31
0.0
  0
LINE
  5
78D
  8
0
  6
CONTINUOUS
 62
     7
 10
-3571.032607284799
 20
-33410.93877335709
 30
0.0
 11
-3471.032607284799
 21
-33310.93877335709
 31
0.0
  0
LINE
  5
78E
  8
0
  6
CONTINUOUS
 62
     7
 10
-3500.321929166142
 20
-33410.93877335709
 30
0.0
 11
-3421.990857031971
 21
-33332.60770122292
 31
0.0
  0
ENDBLK
  5
202
  8
0
  0
BLOCK
  8
0
  2
*X135
 70
     1
 10
0.0
 20
0.0
 30
0.0
  3
*X135
  1

  0
LINE
  5
78F
  8
0
  6
CONTINUOUS
 62
     7
 10
-3422.4539635221
 20
-33120.93877335709
 30
0.0
 11
-3421.990857031971
 21
-33120.47566686697
 31
0.0
  0
LINE
  5
790
  8
0
  6
CONTINUOUS
 62
     7
 10
-4471.990857031971
 20
-33039.10481696846
 30
0.0
 11
-4453.824813420602
 21
-33020.93877335709
 31
0.0
  0
LINE
  5
791
  8
0
  6
CONTINUOUS
 62
     7
 10
-4471.990857031971
 20
-33109.81549508712
 30
0.0
 11
-4383.114135301945
 21
-33020.93877335709
 31
0.0
  0
LINE
  5
792
  8
0
  6
CONTINUOUS
 62
     7
 10
-4412.403457183291
 20
-33120.93877335709
 30
0.0
 11
-4312.403457183288
 21
-33020.93877335709
 31
0.0
  0
LINE
  5
793
  8
0
  6
CONTINUOUS
 62
     7
 10
-4341.692779064633
 20
-33120.93877335709
 30
0.0
 11
-4241.692779064631
 21
-33020.93877335709
 31
0.0
  0
LINE
  5
794
  8
0
  6
CONTINUOUS
 62
     7
 10
-4270.982100945977
 20
-33120.93877335709
 30
0.0
 11
-4170.982100945975
 21
-33020.93877335709
 31
0.0
  0
LINE
  5
795
  8
0
  6
CONTINUOUS
 62
     7
 10
-4200.27142282732
 20
-33120.93877335709
 30
0.0
 11
-4100.271422827319
 21
-33020.93877335709
 31
0.0
  0
LINE
  5
796
  8
0
  6
CONTINUOUS
 62
     7
 10
-4129.560744708664
 20
-33120.93877335709
 30
0.0
 11
-4029.560744708663
 21
-33020.93877335709
 31
0.0
  0
LINE
  5
797
  8
0
  6
CONTINUOUS
 62
     7
 10
-4058.850066590008
 20
-33120.93877335709
 30
0.0
 11
-3958.850066590008
 21
-33020.93877335709
 31
0.0
  0
LINE
  5
798
  8
0
  6
CONTINUOUS
 62
     7
 10
-3988.139388471353
 20
-33120.93877335709
 30
0.0
 11
-3888.139388471353
 21
-33020.93877335709
 31
0.0
  0
LINE
  5
799
  8
0
  6
CONTINUOUS
 62
     7
 10
-3917.428710352698
 20
-33120.93877335709
 30
0.0
 11
-3817.428710352699
 21
-33020.93877335709
 31
0.0
  0
LINE
  5
79A
  8
0
  6
CONTINUOUS
 62
     7
 10
-3846.718032234041
 20
-33120.93877335709
 30
0.0
 11
-3746.718032234042
 21
-33020.93877335709
 31
0.0
  0
LINE
  5
79B
  8
0
  6
CONTINUOUS
 62
     7
 10
-3776.007354115384
 20
-33120.93877335709
 30
0.0
 11
-3676.007354115385
 21
-33020.93877335709
 31
0.0
  0
LINE
  5
79C
  8
0
  6
CONTINUOUS
 62
     7
 10
-3705.296675996728
 20
-33120.93877335709
 30
0.0
 11
-3605.296675996728
 21
-33020.93877335709
 31
0.0
  0
LINE
  5
79D
  8
0
  6
CONTINUOUS
 62
     7
 10
-3634.585997878071
 20
-33120.93877335709
 30
0.0
 11
-3534.585997878071
 21
-33020.93877335709
 31
0.0
  0
LINE
  5
79E
  8
0
  6
CONTINUOUS
 62
     7
 10
-3563.875319759414
 20
-33120.93877335709
 30
0.0
 11
-3463.875319759414
 21
-33020.93877335709
 31
0.0
  0
LINE
  5
79F
  8
0
  6
CONTINUOUS
 62
     7
 10
-3493.164641640757
 20
-33120.93877335709
 30
0.0
 11
-3421.990857031971
 21
-33049.76498874831
 31
0.0
  0
ENDBLK
  5
205
  8
0
  0
BLOCK
  8
0
  2
*X136
 70
     1
 10
0.0
 20
0.0
 30
0.0
  3
*X136
  1

  0
LINE
  5
7A0
  8
0
  6
CONTINUOUS
 62
     7
 10
-505.2243454793041
 20
-363.8029892419945
 30
0.0
 11
-461.3631188363923
 21
-319.9417625990827
 31
0.0
  0
LINE
  5
7A1
  8
0
  6
CONTINUOUS
 62
     7
 10
-575.935023597959
 20
-363.8029892419945
 30
0.0
 11
-532.0737969550471
 21
-319.9417625990827
 31
0.0
  0
ENDBLK
  5
208
  8
0
  0
BLOCK
  8
0
  2
____-6-2
 70
     0
 10
0.0
 20
0.0
 30
0.0
  3
____-6-2
  1

  0
POLYLINE
  5
7A2
  8
0
  6
CONTINUOUS
 62
     7
 66
     1
 10
0.0
 20
0.0
 30
0.0
 70
   129
  0
VERTEX
  5
7A3
  8
0
  6
CONTINUOUS
 62
     7
 10
-650.9256199433694
 20
420.1855798245233
 30
0.0
  0
VERTEX
  5
7A4
  8
0
  6
CONTINUOUS
 62
     7
 10
650.925619943373
 20
420.1855798245233
 30
0.0
  0
VERTEX
  5
7A5
  8
0
  6
CONTINUOUS
 62
     7
 10
650.925619943373
 20
-179.8144201754767
 30
0.0
  0
VERTEX
  5
7A6
  8
0
  6
CONTINUOUS
 62
     7
 10
-650.9256199433694
 20
-179.8144201754767
 30
0.0
  0
SEQEND
  5
7A7
  8
0
  6
CONTINUOUS
 62
     7
  0
LINE
  5
7A8
  8
0
  6
CONTINUOUS
 62
     7
 10
-549.9978019463233
 20
420.1855798245233
 30
0.0
 11
-549.9978019463233
 21
-179.8144201754767
 31
0.0
  0
LINE
  5
7A9
  8
0
  6
CONTINUOUS
 62
     7
 10
-315.5814116632428
 20
420.1855798245233
 30
0.0
 11
-315.5814116632428
 21
-179.8144201754767
 31
0.0
  0
TEXT
  5
7AA
  8
0
 62
     7
 10
-626.2533362755323
 20
351.5479505412583
 30
0.0
 40
21.24016203703704
  1
No.
  7
YUGOTHIC_MEDIUM
 72
     1
 11
-600.4617109448445
 21
362.1680315597769
 31
0.0
 73
     2
  0
TEXT
  5
7AB
  8
0
 62
     7
 10
-461.6155409979065
 20
351.5479505412583
 30
0.0
 40
21.24016203703704
  1
名 称
  7
YUGOTHIC_MEDIUM
 72
     1
 11
-432.7896068047849
 21
362.1680315597769
 31
0.0
 73
     2
  0
TEXT
  5
7AC
  8
0
 62
     7
 10
138.8461699469416
 20
351.5479505412583
 30
0.0
 40
21.24016203703704
  1
仕 様
  7
YUGOTHIC_MEDIUM-B
 72
     1
 11
167.6721041400633
 21
362.1680315597769
 31
0.0
 73
     2
  0
TEXT
  5
7AD
  8
0
 62
     7
 10
-609.0589193884072
 20
159.820247682255
 30
0.0
 40
21.24016203703704
  1
1
  7
YUGOTHIC_MEDIUM
 72
     1
 11
-600.4617109448445
 21
170.4403287007735
 31
0.0
 73
     2
  0
TEXT
  5
7AE
  8
0
 62
     7
 10
-450.9954599793844
 20
159.820247682255
 30
0.0
 40
21.24016203703704
  1
面材
  7
YUGOTHIC_MEDIUM
 72
     1
 11
-432.7896068047812
 21
170.4403287007735
 31
0.0
 73
     2
  0
TEXT
  5
7AF
  8
0
 62
     7
 10
-157.8993539426374
 20
265.9002345136732
 30
0.0
 40
21.24016203703704
  1
・ラワン合板  
  7
YUGOTHIC_MEDIUM
 11
-157.8993539426374
 21
276.5203155321918
 31
0.0
 73
     2
  0
TEXT
  5
7B0
  8
0
 62
     7
 10
-157.8993539426374
 20
223.5669011803399
 30
0.0
 40
21.24016203703704
  1
・シナ合板 
  7
YUGOTHIC_MEDIUM
 11
-157.8993539426374
 21
234.1869821988585
 31
0.0
 73
     2
  0
TEXT
  5
7B1
  8
0
 62
     7
 10
-157.8993539426374
 20
181.2335678470066
 30
0.0
 40
21.24016203703704
  1
・バーチ合板
  7
YUGOTHIC_MEDIUM
 11
-157.8993539426374
 21
191.8536488655251
 31
0.0
 73
     2
  0
LINE
  5
7B2
  8
0
  6
CONTINUOUS
 62
     7
 10
-650.9256199433694
 20
320.1855798245233
 30
0.0
 11
650.925619943373
 21
320.1855798245233
 31
0.0
  0
TEXT
  5
7B3
  8
0
 62
     7
 10
-648.4751033518223
 20
442.5341498308532
 30
0.0
 40
26.5502025462963
  1
■仕様表
  7
YUGOTHIC_MEDIUM
 11
-648.4751033518223
 21
455.8092511040013
 31
0.0
 73
     2
  0
LINE
  5
7B4
  8
0
  6
CONTINUOUS
 62
     7
 10
-650.9256199433694
 20
20.1855798245233
 30
0.0
 11
650.925619943373
 21
20.1855798245233
 31
0.0
  0
TEXT
  5
7B5
  8
0
 62
     7
 10
-610.5760738196241
 20
-90.41533091909541
 30
0.0
 40
21.24016203703704
  1
2
  7
YUGOTHIC_MEDIUM
 72
     1
 11
-600.4617109448445
 21
-79.79524990057689
 31
0.0
 73
     2
  0
TEXT
  5
7B6
  8
0
 62
     7
 10
-498.0272473471093
 20
-69.24866425242874
 30
0.0
 40
21.24016203703704
  1
キャビネット 
  7
YUGOTHIC_MEDIUM
 72
     1
 11
-432.7896068047812
 21
-58.62858323391023
 31
0.0
 73
     2
  0
TEXT
  5
7B7
  8
0
 62
     7
 10
-450.9954599793844
 20
-111.5819975857621
 30
0.0
 40
21.24016203703704
  1
棚板
  7
YUGOTHIC_MEDIUM
 72
     1
 11
-432.7896068047812
 21
-100.9619165672435
 31
0.0
 73
     2
  0
LINE
  5
7B8
  8
0
  6
CONTINUOUS
 62
     7
 10
-650.9256199433694
 20
-179.8144201754767
 30
0.0
 11
650.925619943373
 21
-179.8144201754767
 31
0.0
  0
LINE
  5
7B9
  8
0
  6
CONTINUOUS
 62
     7
 10
-650.9256199433694
 20
320.1855798245233
 30
0.0
 11
-650.9256199433694
 21
20.1855798245233
 31
0.0
  0
LINE
  5
7BA
  8
0
  6
CONTINUOUS
 62
     7
 10
650.925619943373
 20
320.1855798245233
 30
0.0
 11
650.925619943373
 21
20.1855798245233
 31
0.0
  0
LINE
  5
7BB
  8
0
  6
______-1
 62
     7
 10
650.9256199433694
 20
170.4403287007735
 30
0.0
 11
-315.5814116632428
 21
170.4403287007735
 31
0.0
  0
TEXT
  5
7BC
  8
0
 62
     7
 10
-279.2862910701345
 20
226.1564352882994
 30
0.0
 40
21.24016203703704
  1
t20
  7
YUGOTHIC_MEDIUM
 72
     1
 11
-253.4946657394466
 21
236.7765163068179
 31
0.0
 73
     2
  0
TEXT
  5
7BD
  8
0
 62
     7
 10
-279.2862910701345
 20
84.10989654197301
 30
0.0
 40
21.24016203703704
  1
t18
  7
YUGOTHIC_MEDIUM
 72
     1
 11
-253.4946657394466
 21
94.72997756049153
 31
0.0
 73
     2
  0
TEXT
  5
7BE
  8
0
 62
     7
 10
279.8451948786605
 20
248.3988321393357
 30
0.0
 40
21.24016203703704
  1
オイル塗装+ウレタン塗装 
  7
YUGOTHIC_MEDIUM
 11
279.8451948786605
 21
259.0189131578542
 31
0.0
 73
     2
  0
TEXT
  5
7BF
  8
0
 62
     7
 10
279.8451948786605
 20
206.0654988060024
 30
0.0
 40
21.24016203703704
  1
小口テープ仕上げ
  7
YUGOTHIC_MEDIUM
 11
279.8451948786605
 21
216.6855798245209
 31
0.0
 73
     2
  0
TEXT
  5
7C0
  8
0
 62
     7
 10
-157.8993539426374
 20
93.58254723654169
 30
0.0
 40
21.24016203703704
  1
・ホワイトパーチクルボード 
  7
YUGOTHIC_MEDIUM
 11
-157.8993539426374
 21
104.2026282550602
 31
0.0
 73
     2
  0
TEXT
  5
7C1
  8
0
 62
     7
 10
-157.8993539426374
 20
51.24921390320836
 30
0.0
 40
21.24016203703704
  1
・ブラックパーチクルボー
  7
YUGOTHIC_MEDIUM
 11
-157.8993539426374
 21
61.86929492172688
 31
0.0
 73
     2
  0
LINE
  5
7C2
  8
0
  6
______-1
 62
     7
 10
-187.3161552467536
 20
320.1855798245233
 30
0.0
 11
-187.3161552467536
 21
-179.8144201754767
 31
0.0
  0
TEXT
  5
7C3
  8
0
 62
     7
 10
-157.8993539426374
 20
-22.25198044616288
 30
0.0
 40
21.24016203703704
  1
・ホワイトパーチクルボード 
  7
YUGOTHIC_MEDIUM
 11
-157.8993539426374
 21
-11.63189942764436
 31
0.0
 73
     2
  0
TEXT
  5
7C4
  8
0
 62
     7
 10
-157.8993539426374
 20
-58.23531377949621
 30
0.0
 40
21.24016203703704
  1
・ブラックパーチクルボード 
  7
YUGOTHIC_MEDIUM
 11
-157.8993539426374
 21
-47.61523276097769
 31
0.0
 73
     2
  0
TEXT
  5
7C5
  8
0
 62
     7
 10
-157.8993539426374
 20
-94.21864711282954
 30
0.0
 40
21.24016203703704
  1
オプションの不燃仕様は、キャビネッ
  7
YUGOTHIC_MEDIUM
 11
-157.8993539426374
 21
-83.59856609431102
 31
0.0
 73
     2
  0
TEXT
  5
7C6
  8
0
 62
     7
 10
-157.8993539426374
 20
-130.2019804461629
 30
0.0
 40
21.24016203703704
  1
トの左右側板T14.5／底板T17.5が不燃
  7
YUGOTHIC_MEDIUM
 11
-157.8993539426374
 21
-119.5818994276444
 31
0.0
 73
     2
  0
TEXT
  5
7C7
  8
0
 62
     7
 10
-157.8993539426374
 20
-166.1853137794962
 30
0.0
 40
21.24016203703704
  1
板仕上げになります※ホワイト色のみ
  7
YUGOTHIC_MEDIUM
 11
-157.8993539426374
 21
-155.5652327609777
 31
0.0
 73
     2
  0
TEXT
  5
7C8
  8
0
 62
     7
 10
279.8451948786605
 20
76.39883213934054
 30
0.0
 40
21.24016203703704
  1
小口テープ仕上げ
  7
YUGOTHIC_MEDIUM
 11
279.8451948786605
 21
87.01891315785906
 31
0.0
 73
     2
  0
TEXT
  5
7C9
  8
0
 62
     7
 10
279.8451948786605
 20
-95.60116786065946
 30
0.0
 40
21.24016203703704
  1
小口テープ仕上げ
  7
YUGOTHIC_MEDIUM
 11
279.8451948786605
 21
-84.98108684214094
 31
0.0
 73
     2
  0
TEXT
  5
7CA
  8
0
 62
     7
 10
-648.0634498647014
 20
-248.728695548453
 30
0.0
 40
26.5502025462963
  1
※棚板及び底板の耐荷重目安は8kgです。 
  7
YUGOTHIC_MEDIUM
 11
-648.0634498647014
 21
-222.1784930021567
 31
0.0
 73
     3
  0
TEXT
  5
7CB
  8
0
 62
     7
 10
-648.0634498647014
 20
-301.6453622151197
 30
0.0
 40
26.5502025462963
  1
※下地は厚さ30mm以上幅90mm以上の十分な強度をもつ木下地をご用意ください。 
  7
YUGOTHIC_MEDIUM
 11
-648.0634498647014
 21
-275.0951596688234
 31
0.0
 73
     3
  0
TEXT
  5
7CC
  8
0
 62
     7
 10
-648.0634498647014
 20
-354.5620288817864
 30
0.0
 40
26.5502025462963
  1
※　　　　　は取り付け下地の位置を示しています。 
  7
YUGOTHIC_MEDIUM
 11
-648.0634498647014
 21
-328.0118263354901
 31
0.0
 73
     3
  0
TEXT
  5
7CD
  8
0
 62
     7
 10
-648.0634498647014
 20
-407.4786955484531
 30
0.0
 40
26.5502025462963
  1
※製品の外径寸法は概略表記です。 
  7
YUGOTHIC_MEDIUM
 11
-648.0634498647014
 21
-380.9284930021568
 31
0.0
 73
     3
  0
TEXT
  5
7CE
  8
0
 62
     7
 10
-648.0634498647014
 20
-460.3953622151198
 30
0.0
 40
26.5502025462963
  1
※設置位置は、消防法、火災予防条例に基づいて取り付けを行ってください。 
  7
YUGOTHIC_MEDIUM
 11
-648.0634498647014
 21
-433.8451596688235
 31
0.0
 73
     3
  0
TEXT
  5
7CF
  8
0
 62
     7
 10
-648.0634498647014
 20
-513.3120288817864
 30
0.0
 40
26.5502025462963
  1
※（ ）は不燃仕上げの場合の寸法です。 
  7
YUGOTHIC_MEDIUM
 11
-648.0634498647014
 21
-486.7618263354901
 31
0.0
 73
     3
  0
TEXT
  5
7D0
  8
0
 62
     7
 10
-648.0634498647014
 20
-566.2286955484531
 30
0.0
 40
26.5502025462963
  1
 
  7
YUGOTHIC_MEDIUM
 11
-648.0634498647014
 21
-539.6784930021568
 31
0.0
 73
     3
  0
TEXT
  5
7D1
  8
0
 62
     7
 10
-648.0634498647014
 20
-619.1453622151198
 30
0.0
 40
26.5502025462963
  1
※ご注文はキャビネットの幅（W）・高さ（H）を10mm単位で入力ください。
  7
YUGOTHIC_MEDIUM
 11
-648.0634498647014
 21
-592.5951596688235
 31
0.0
 73
     3
  0
TEXT
  5
7D2
  8
0
 62
     7
 10
-279.2862910701345
 20
-89.83507794408824
 30
0.0
 40
21.24016203703704
  1
t15
  7
YUGOTHIC_MEDIUM
 72
     1
 11
-253.4946657394466
 21
-79.21499692556972
 31
0.0
 73
     2
  0
INSERT
  5
7D3
  8
0
 62
     5
  2
*X136
 10
0.0
 20
0.0
 30
0.0
  0
POLYLINE
  5
7D4
  8
0
  6
DASHDOT
 62
     5
 66
     1
 10
0.0
 20
0.0
 30
0.0
 70
   129
  0
VERTEX
  5
7D5
  8
0
  6
DASHDOT
 62
     5
 10
-601.6322923090484
 20
-319.9417625990827
 30
0.0
  0
VERTEX
  5
7D6
  8
0
  6
DASHDOT
 62
     5
 10
-439.5028797159539
 20
-319.9417625990827
 30
0.0
  0
VERTEX
  5
7D7
  8
0
  6
DASHDOT
 62
     5
 10
-439.5028797159539
 20
-363.8029892419945
 30
0.0
  0
VERTEX
  5
7D8
  8
0
  6
DASHDOT
 62
     5
 10
-601.6322923090484
 20
-363.8029892419945
 30
0.0
  0
SEQEND
  5
7D9
  8
0
  6
DASHDOT
 62
     5
  0
LINE
  5
7DA
  8
0
  6
______-1
 62
     7
 10
236.9711971607794
 20
320.1855798245233
 30
0.0
 11
236.9711971607794
 21
-179.8144201754767
 31
0.0
  0
ENDBLK
  5
20B
  8
0
  0
BLOCK
  8
0
  2
___-97
 70
     0
 10
0.0
 20
0.0
 30
0.0
  3
___-97
  1

  0
LINE
  5
7DB
  8
0
  6
CONTINUOUS
 62
     0
 10
-5897.986285547957
 20
-50146.40816003564
 30
0.0
 11
-5897.986285547957
 21
-50281.40816003564
 31
0.0
  0
LINE
  5
7DC
  8
0
  6
CONTINUOUS
 62
     0
 10
-5942.986285547957
 20
-50146.40816003564
 30
0.0
 11
-5942.986285547957
 21
-50281.40816003564
 31
0.0
  0
LINE
  5
7DD
  8
0
  6
CONTINUOUS
 62
     0
 10
-5897.986285547957
 20
-50281.40816003564
 30
0.0
 11
-5942.986285547957
 21
-50281.40816003564
 31
0.0
  0
CIRCLE
  5
7DE
  8
0
  6
CONTINUOUS
 62
     0
 10
-5897.986285547957
 20
-50281.40816003564
 30
0.0
 40
4.499725341796875
  0
CIRCLE
  5
7DF
  8
0
  6
CONTINUOUS
 62
     0
 10
-5942.986285547957
 20
-50281.40816003564
 30
0.0
 40
4.499725341796875
  0
TEXT
  5
7E0
  8
0
 62
     0
 10
-5943.981285850748
 20
-50252.16149336896
 30
0.0
 40
31.86024305555556
  1
30
  7
YUGOTHIC_MEDIUM
 11
-5943.981285850748
 21
-50220.30125031341
 31
0.0
 73
     3
  0
ENDBLK
  5
20E
  8
0
  0
BLOCK
  8
0
  2
___-98
 70
     0
 10
0.0
 20
0.0
 30
0.0
  3
___-98
  1

  0
LINE
  5
7E1
  8
0
  6
CONTINUOUS
 62
     0
 10
-6720.747302774045
 20
-48153.36927949861
 30
0.0
 11
-7014.913604142088
 21
-48153.36927949861
 31
0.0
  0
LINE
  5
7E2
  8
0
  6
CONTINUOUS
 62
     0
 10
-6720.747302774045
 20
-48753.36927949861
 30
0.0
 11
-7014.913604142088
 21
-48753.36927949861
 31
0.0
  0
LINE
  5
7E3
  8
0
  6
CONTINUOUS
 62
     0
 10
-7014.913604142088
 20
-48153.36927949861
 30
0.0
 11
-7014.913604142088
 21
-48753.36927949861
 31
0.0
  0
CIRCLE
  5
7E4
  8
0
  6
CONTINUOUS
 62
     0
 10
-7014.913604142088
 20
-48153.36927949861
 30
0.0
 40
4.499725341796875
  0
CIRCLE
  5
7E5
  8
0
  6
CONTINUOUS
 62
     0
 10
-7014.913604142088
 20
-48753.36927949861
 30
0.0
 40
4.499725341796875
  0
TEXT
  5
7E6
  8
0
 62
     0
 10
-7044.160270808753
 20
-48488.61177869116
 30
0.0
 40
31.86024305555556
  1
400
 50
90.0
  7
YUGOTHIC_MEDIUM
 11
-7076.020513864309
 21
-48488.61177869116
 31
0.0
 73
     3
  0
ENDBLK
  5
211
  8
0
  0
BLOCK
  8
0
  2
___-99
 70
     0
 10
0.0
 20
0.0
 30
0.0
  3
___-99
  1

  0
LINE
  5
7E7
  8
0
  6
CONTINUOUS
 62
     0
 10
-6720.747302774045
 20
-48160.86927949861
 30
0.0
 11
-6910.497302774045
 21
-48160.86927949861
 31
0.0
  0
LINE
  5
7E8
  8
0
  6
CONTINUOUS
 62
     0
 10
-6720.747302774045
 20
-48753.36927949861
 30
0.0
 11
-6910.497302774045
 21
-48753.36927949861
 31
0.0
  0
LINE
  5
7E9
  8
0
  6
CONTINUOUS
 62
     0
 10
-6910.497302774045
 20
-48160.86927949861
 30
0.0
 11
-6910.497302774045
 21
-48753.36927949861
 31
0.0
  0
CIRCLE
  5
7EA
  8
0
  6
CONTINUOUS
 62
     0
 10
-6910.497302774045
 20
-48160.86927949861
 30
0.0
 40
4.499725341796875
  0
CIRCLE
  5
7EB
  8
0
  6
CONTINUOUS
 62
     0
 10
-6910.497302774045
 20
-48753.36927949861
 30
0.0
 40
4.499725341796875
  0
TEXT
  5
7EC
  8
0
 62
     0
 10
-6939.743969440712
 20
-48535.35127655144
 30
0.0
 40
31.86024305555556
  1
扉H 395
 50
90.0
  7
YUGOTHIC_MEDIUM
 11
-6971.604212496268
 21
-48535.35127655144
 31
0.0
 73
     3
  0
ENDBLK
  5
214
  8
0
  0
BLOCK
  8
0
  2
___-100
 70
     0
 10
0.0
 20
0.0
 30
0.0
  3
___-100
  1

  0
LINE
  5
7ED
  8
0
  6
CONTINUOUS
 62
     0
 10
-6720.747302774045
 20
-48160.86927949861
 30
0.0
 11
-6910.497302774045
 21
-48160.86927949861
 31
0.0
  0
LINE
  5
7EE
  8
0
  6
CONTINUOUS
 62
     0
 10
-6720.747302774045
 20
-48153.36927949861
 30
0.0
 11
-6910.497302774045
 21
-48153.36927949861
 31
0.0
  0
LINE
  5
7EF
  8
0
  6
CONTINUOUS
 62
     0
 10
-6910.497302774045
 20
-48160.86927949861
 30
0.0
 11
-6910.497302774045
 21
-48153.36927949861
 31
0.0
  0
CIRCLE
  5
7F0
  8
0
  6
CONTINUOUS
 62
     0
 10
-6910.497302774045
 20
-48160.86927949861
 30
0.0
 40
4.499725341796875
  0
CIRCLE
  5
7F1
  8
0
  6
CONTINUOUS
 62
     0
 10
-6910.497302774045
 20
-48153.36927949861
 30
0.0
 40
4.499725341796875
  0
TEXT
  5
7F2
  8
0
 62
     0
 10
-6939.743969440712
 20
-48168.86677965001
 30
0.0
 40
31.86024305555556
  1
5
 50
90.0
  7
YUGOTHIC_MEDIUM
 11
-6971.604212496268
 21
-48168.86677965001
 31
0.0
 73
     3
  0
ENDBLK
  5
217
  8
0
  0
BLOCK
  8
0
  2
____-21-1
 70
     0
 10
0.0
 20
0.0
 30
0.0
  3
____-21-1
  1

  0
ENDBLK
  5
21A
  8
0
  0
BLOCK
  8
0
  2
____-1-1
 70
     0
 10
0.0
 20
0.0
 30
0.0
  3
____-1-1
  1

  0
LINE
  5
7F3
  8
0
  6
CONTINUOUS
 62
     7
 10
10286.11447639097
 20
152.364711353257
 30
0.0
 11
-10291.23333333334
 21
152.364711353257
 31
0.0
  0
TEXT
  5
7F4
  8
0
 62
     7
 10
7782.568190081045
 20
-73.8607713634704
 30
0.0
 40
92.92570891203705
  1
2022.06.08
  7
YUGOTHIC_MEDIUM
 11
7782.568190081045
 21
-27.39791690745187
 31
0.0
 73
     2
  0
TEXT
  5
7F5
  8
0
 62
     7
 10
9418.182723506296
 20
-68.83052003014774
 30
0.0
 40
92.92570891203705
  1
1:10(A3)
  7
YUGOTHIC_MEDIUM
 11
9418.182723506296
 21
-22.36766557412921
 31
0.0
 73
     2
  0
INSERT
  5
7F6
  8
0
 62
     7
  2
____-21-1
 10
0.0
 20
0.0
 30
0.0
  0
TEXT
  5
7F7
  8
0
 62
     7
 10
8943.584079810476
 20
-16.7489585722161
 30
0.0
 40
79.65060763888889
  1
SCALE:
  7
YUGOTHIC_MEDIUM
 11
8943.584079810476
 21
62.90164906667279
 31
0.0
 73
     3
  0
TEXT
  5
7F8
  8
0
 62
     7
 10
-1596.184727690183
 20
-23.69362198009377
 30
0.0
 40
79.65060763888889
  1
NAME:
  7
YUGOTHIC_MEDIUM
 11
-1596.184727690183
 21
55.95698565879512
 31
0.0
 73
     3
  0
TEXT
  5
7F9
  8
0
 62
     7
 10
7369.947110744426
 20
-18.7686219800763
 30
0.0
 40
79.65060763888889
  1
DATE:
  7
YUGOTHIC_MEDIUM
 11
7369.947110744426
 21
60.88198565881258
 31
0.0
 73
     3
  0
TEXT
  5
7FA
  8
0
 62
     7
 10
5675.38006993715
 20
-15.84116374801134
 30
0.0
 40
79.65060763888889
  1
ID:
  7
YUGOTHIC_MEDIUM
 11
5675.38006993715
 21
63.80944389087755
 31
0.0
 73
     3
  0
TEXT
  5
7FB
  8
0
 62
     7
 10
-1152.120833333291
 20
-80.73569373933559
 30
0.0
 40
106.2008101851852
  1
オーダー吊り戸棚
  7
YUGOTHIC_MEDIUM
 11
-1152.120833333291
 21
-27.63528864674299
 31
0.0
 73
     2
  0
TEXT
  5
7FC
  8
0
 62
     7
 10
5850.820143206045
 20
-73.8607713634704
 30
0.0
 40
92.92570891203705
  1
KB-KC022-05-G183
  7
YUGOTHIC_MEDIUM
 11
5850.820143206045
 21
-27.39791690745187
 31
0.0
 73
     2
  0
ENDBLK
  5
21D
  8
0
  0
ENDSEC
  0
SECTION
  2
ENTITIES
  0
POLYLINE
  5
7FD
  8
1_10
  6
CONTINUOUS
 62
     7
 66
     1
 10
0.0
 20
0.0
 30
0.0
 70
   129
  0
VERTEX
  5
7FE
  8
1_10
  6
CONTINUOUS
 62
     7
 10
-6707.986285547957
 20
-48738.36927949861
 30
0.0
  0
VERTEX
  5
7FF
  8
1_10
  6
CONTINUOUS
 62
     7
 10
-6677.986285547957
 20
-48738.36927949861
 30
0.0
  0
VERTEX
  5
800
  8
1_10
  6
CONTINUOUS
 62
     7
 10
-6677.986285547957
 20
-48153.36927949861
 30
0.0
  0
VERTEX
  5
801
  8
1_10
  6
CONTINUOUS
 62
     7
 10
-6707.986285547957
 20
-48153.36927949861
 30
0.0
  0
SEQEND
  5
802
  8
1_10
  6
CONTINUOUS
 62
     7
  0
POLYLINE
  5
803
  8
1_10
  6
CONTINUOUS
 62
     7
 66
     1
 10
0.0
 20
0.0
 30
0.0
 70
   129
  0
VERTEX
  5
804
  8
1_10
  6
CONTINUOUS
 62
     7
 10
-6677.986285547957
 20
-48183.36927949861
 30
0.0
  0
VERTEX
  5
805
  8
1_10
  6
CONTINUOUS
 62
     7
 10
-6677.986285547957
 20
-48153.36927949861
 30
0.0
  0
VERTEX
  5
806
  8
1_10
  6
CONTINUOUS
 62
     7
 10
-5162.986285547957
 20
-48153.36927949861
 30
0.0
  0
VERTEX
  5
807
  8
1_10
  6
CONTINUOUS
 62
     7
 10
-5162.986285547957
 20
-48183.36927949861
 30
0.0
  0
SEQEND
  5
808
  8
1_10
  6
CONTINUOUS
 62
     7
  0
POLYLINE
  5
809
  8
1_10
  6
CONTINUOUS
 62
     7
 66
     1
 10
0.0
 20
0.0
 30
0.0
 70
   129
  0
VERTEX
  5
80A
  8
1_10
  6
CONTINUOUS
 62
     7
 10
-5132.986285547957
 20
-48738.36927949861
 30
0.0
  0
VERTEX
  5
80B
  8
1_10
  6
CONTINUOUS
 62
     7
 10
-5162.986285547957
 20
-48738.36927949861
 30
0.0
  0
VERTEX
  5
80C
  8
1_10
  6
CONTINUOUS
 62
     7
 10
-5162.986285547957
 20
-48153.36927949861
 30
0.0
  0
VERTEX
  5
80D
  8
1_10
  6
CONTINUOUS
 62
     7
 10
-5132.986285547957
 20
-48153.36927949861
 30
0.0
  0
SEQEND
  5
80E
  8
1_10
  6
CONTINUOUS
 62
     7
  0
POLYLINE
  5
80F
  8
1_10
  6
CONTINUOUS
 62
     7
 66
     1
 10
0.0
 20
0.0
 30
0.0
 70
   129
  0
VERTEX
  5
810
  8
1_10
  6
CONTINUOUS
 62
     7
 10
-12787.5
 20
-48738.36927949861
 30
0.0
  0
VERTEX
  5
811
  8
1_10
  6
CONTINUOUS
 62
     7
 10
-12757.5
 20
-48738.36927949861
 30
0.0
  0
VERTEX
  5
812
  8
1_10
  6
CONTINUOUS
 62
     7
 10
-12757.5
 20
-48153.36927949861
 30
0.0
  0
VERTEX
  5
813
  8
1_10
  6
CONTINUOUS
 62
     7
 10
-12787.5
 20
-48153.36927949861
 30
0.0
  0
SEQEND
  5
814
  8
1_10
  6
CONTINUOUS
 62
     7
  0
POLYLINE
  5
815
  8
1_10
  6
CONTINUOUS
 62
     7
 66
     1
 10
0.0
 20
0.0
 30
0.0
 70
   129
  0
VERTEX
  5
816
  8
1_10
  6
CONTINUOUS
 62
     7
 10
-11587.5
 20
-48738.36927949861
 30
0.0
  0
VERTEX
  5
817
  8
1_10
  6
CONTINUOUS
 62
     7
 10
-11617.5
 20
-48738.36927949861
 30
0.0
  0
VERTEX
  5
818
  8
1_10
  6
CONTINUOUS
 62
     7
 10
-11617.5
 20
-48153.36927949861
 30
0.0
  0
VERTEX
  5
819
  8
1_10
  6
CONTINUOUS
 62
     7
 10
-11587.5
 20
-48153.36927949861
 30
0.0
  0
SEQEND
  5
81A
  8
1_10
  6
CONTINUOUS
 62
     7
  0
POLYLINE
  5
81B
  8
1_10
  6
CONTINUOUS
 62
     7
 66
     1
 10
0.0
 20
0.0
 30
0.0
 70
   129
  0
VERTEX
  5
81C
  8
1_10
  6
CONTINUOUS
 62
     7
 10
-12757.5
 20
-48183.36927949861
 30
0.0
  0
VERTEX
  5
81D
  8
1_10
  6
CONTINUOUS
 62
     7
 10
-12757.5
 20
-48153.36927949861
 30
0.0
  0
VERTEX
  5
81E
  8
1_10
  6
CONTINUOUS
 62
     7
 10
-11617.5
 20
-48153.36927949861
 30
0.0
  0
VERTEX
  5
81F
  8
1_10
  6
CONTINUOUS
 62
     7
 10
-11617.5
 20
-48183.36927949861
 30
0.0
  0
SEQEND
  5
820
  8
1_10
  6
CONTINUOUS
 62
     7
  0
POLYLINE
  5
821
  8
1_10
  6
CONTINUOUS
 62
     7
 66
     1
 10
0.0
 20
0.0
 30
0.0
 70
   129
  0
VERTEX
  5
822
  8
1_10
  6
CONTINUOUS
 62
     7
 10
-29954.45882518619
 20
-48153.36927949861
 30
0.0
  0
VERTEX
  5
823
  8
1_10
  6
CONTINUOUS
 62
     7
 10
-29954.45882518619
 20
-48183.36927949861
 30
0.0
  0
VERTEX
  5
824
  8
1_10
  6
CONTINUOUS
 62
     7
 10
-30494.45882518619
 20
-48183.36927949861
 30
0.0
  0
VERTEX
  5
825
  8
1_10
  6
CONTINUOUS
 62
     7
 10
-30494.45882518619
 20
-48153.36927949861
 30
0.0
  0
SEQEND
  5
826
  8
1_10
  6
CONTINUOUS
 62
     7
  0
POLYLINE
  5
827
  8
1_10
  6
CONTINUOUS
 62
     7
 66
     1
 10
0.0
 20
0.0
 30
0.0
 70
   129
  0
VERTEX
  5
828
  8
1_10
  6
CONTINUOUS
 62
     7
 10
-30494.45882518619
 20
-48858.36927949861
 30
0.0
  0
VERTEX
  5
829
  8
1_10
  6
CONTINUOUS
 62
     7
 10
-30524.45882518619
 20
-48858.36927949861
 30
0.0
  0
VERTEX
  5
82A
  8
1_10
  6
CONTINUOUS
 62
     7
 10
-30524.45882518619
 20
-48153.36927949861
 30
0.0
  0
VERTEX
  5
82B
  8
1_10
  6
CONTINUOUS
 62
     7
 10
-30494.45882518619
 20
-48153.36927949861
 30
0.0
  0
SEQEND
  5
82C
  8
1_10
  6
CONTINUOUS
 62
     7
  0
POLYLINE
  5
82D
  8
1_10
  6
CONTINUOUS
 62
     7
 66
     1
 10
0.0
 20
0.0
 30
0.0
 70
   129
  0
VERTEX
  5
82E
  8
1_10
  6
CONTINUOUS
 62
     7
 10
-31154.45882518619
 20
-48858.36927949861
 30
0.0
  0
VERTEX
  5
82F
  8
1_10
  6
CONTINUOUS
 62
     7
 10
-31124.45882518619
 20
-48858.36927949861
 30
0.0
  0
VERTEX
  5
830
  8
1_10
  6
CONTINUOUS
 62
     7
 10
-31124.45882518619
 20
-48153.36927949861
 30
0.0
  0
VERTEX
  5
831
  8
1_10
  6
CONTINUOUS
 62
     7
 10
-31154.45882518619
 20
-48153.36927949861
 30
0.0
  0
SEQEND
  5
832
  8
1_10
  6
CONTINUOUS
 62
     7
  0
POLYLINE
  5
833
  8
1_10
  6
CONTINUOUS
 62
     7
 66
     1
 10
0.0
 20
0.0
 30
0.0
 70
   129
  0
VERTEX
  5
834
  8
1_10
  6
CONTINUOUS
 62
     7
 10
-17392.5
 20
-48153.36927949861
 30
0.0
  0
VERTEX
  5
835
  8
1_10
  6
CONTINUOUS
 62
     7
 10
-17392.5
 20
-48183.36927949861
 30
0.0
  0
VERTEX
  5
836
  8
1_10
  6
CONTINUOUS
 62
     7
 10
-19132.5
 20
-48183.36927949861
 30
0.0
  0
VERTEX
  5
837
  8
1_10
  6
CONTINUOUS
 62
     7
 10
-19132.5
 20
-48153.36927949861
 30
0.0
  0
SEQEND
  5
838
  8
1_10
  6
CONTINUOUS
 62
     7
  0
POLYLINE
  5
839
  8
1_10
  6
CONTINUOUS
 62
     7
 66
     1
 10
0.0
 20
0.0
 30
0.0
 70
   129
  0
VERTEX
  5
83A
  8
1_10
  6
CONTINUOUS
 62
     7
 10
-17392.5
 20
-48828.36927949861
 30
0.0
  0
VERTEX
  5
83B
  8
1_10
  6
CONTINUOUS
 62
     7
 10
-17392.5
 20
-48858.36927949861
 30
0.0
  0
VERTEX
  5
83C
  8
1_10
  6
CONTINUOUS
 62
     7
 10
-19132.5
 20
-48858.36927949861
 30
0.0
  0
VERTEX
  5
83D
  8
1_10
  6
CONTINUOUS
 62
     7
 10
-19132.5
 20
-48828.36927949861
 30
0.0
  0
SEQEND
  5
83E
  8
1_10
  6
CONTINUOUS
 62
     7
  0
POLYLINE
  5
83F
  8
1_10
  6
CONTINUOUS
 62
     7
 66
     1
 10
0.0
 20
0.0
 30
0.0
 70
   129
  0
VERTEX
  5
840
  8
1_10
  6
CONTINUOUS
 62
     7
 10
-19132.5
 20
-48858.36927949861
 30
0.0
  0
VERTEX
  5
841
  8
1_10
  6
CONTINUOUS
 62
     7
 10
-19162.5
 20
-48858.36927949861
 30
0.0
  0
VERTEX
  5
842
  8
1_10
  6
CONTINUOUS
 62
     7
 10
-19162.5
 20
-48153.36927949861
 30
0.0
  0
VERTEX
  5
843
  8
1_10
  6
CONTINUOUS
 62
     7
 10
-19132.5
 20
-48153.36927949861
 30
0.0
  0
SEQEND
  5
844
  8
1_10
  6
CONTINUOUS
 62
     7
  0
INSERT
  5
845
  8
1_10
 62
     7
  2
___
 10
0.0
 20
0.0
 30
0.0
  0
INSERT
  5
846
  8
1_10
 62
     7
  2
___-1
 10
0.0
 20
0.0
 30
0.0
  0
INSERT
  5
847
  8
1_10
 62
    12
  2
___-2
 10
0.0
 20
0.0
 30
0.0
  0
INSERT
  5
848
  8
1_10
 62
     7
  2
___-3
 10
0.0
 20
0.0
 30
0.0
  0
INSERT
  5
849
  8
1_10
 62
     7
  2
___-4
 10
0.0
 20
0.0
 30
0.0
  0
POLYLINE
  5
84A
  8
1_10
  6
CONTINUOUS
 62
     7
 66
     1
 10
0.0
 20
0.0
 30
0.0
 70
   129
  0
VERTEX
  5
84B
  8
1_10
  6
CONTINUOUS
 62
     7
 10
-17392.5
 20
-48858.36927949861
 30
0.0
  0
VERTEX
  5
84C
  8
1_10
  6
CONTINUOUS
 62
     7
 10
-17362.5
 20
-48858.36927949861
 30
0.0
  0
VERTEX
  5
84D
  8
1_10
  6
CONTINUOUS
 62
     7
 10
-17362.5
 20
-48153.36927949861
 30
0.0
  0
VERTEX
  5
84E
  8
1_10
  6
CONTINUOUS
 62
     7
 10
-17392.5
 20
-48153.36927949861
 30
0.0
  0
SEQEND
  5
84F
  8
1_10
  6
CONTINUOUS
 62
     7
  0
INSERT
  5
850
  8
1_10
 62
     7
  2
___-5
 10
0.0
 20
0.0
 30
0.0
  0
POLYLINE
  5
851
  8
1_10
  6
CONTINUOUS
 62
     7
 66
     1
 10
0.0
 20
0.0
 30
0.0
 70
   129
  0
VERTEX
  5
852
  8
1_10
  6
CONTINUOUS
 62
     7
 10
-19158.75
 20
-48160.86927949861
 30
0.0
  0
VERTEX
  5
853
  8
1_10
  6
CONTINUOUS
 62
     7
 10
-18566.25
 20
-48160.86927949861
 30
0.0
  0
VERTEX
  5
854
  8
1_10
  6
CONTINUOUS
 62
     7
 10
-18566.25
 20
-48873.36927949861
 30
0.0
  0
VERTEX
  5
855
  8
1_10
  6
CONTINUOUS
 62
     7
 10
-19158.75
 20
-48873.36927949861
 30
0.0
  0
SEQEND
  5
856
  8
1_10
  6
CONTINUOUS
 62
     7
  0
LINE
  5
857
  8
1_10
  6
CENTER-3
 62
     7
 10
-19158.75
 20
-48513.36927949861
 30
0.0
 11
-18566.25
 21
-48153.36927949861
 31
0.0
  0
LINE
  5
858
  8
1_10
  6
CENTER-3
 62
     7
 10
-19158.75
 20
-48513.36927949861
 30
0.0
 11
-18566.25
 21
-48873.36927949861
 31
0.0
  0
POLYLINE
  5
859
  8
1_10
  6
CONTINUOUS
 62
     7
 66
     1
 10
0.0
 20
0.0
 30
0.0
 70
   129
  0
VERTEX
  5
85A
  8
1_10
  6
CONTINUOUS
 62
     7
 10
-18558.75
 20
-48160.86927949861
 30
0.0
  0
VERTEX
  5
85B
  8
1_10
  6
CONTINUOUS
 62
     7
 10
-17966.25
 20
-48160.86927949861
 30
0.0
  0
VERTEX
  5
85C
  8
1_10
  6
CONTINUOUS
 62
     7
 10
-17966.25
 20
-48873.36927949861
 30
0.0
  0
VERTEX
  5
85D
  8
1_10
  6
CONTINUOUS
 62
     7
 10
-18558.75
 20
-48873.36927949861
 30
0.0
  0
SEQEND
  5
85E
  8
1_10
  6
CONTINUOUS
 62
     7
  0
LINE
  5
85F
  8
1_10
  6
CENTER-3
 62
     7
 10
-18558.75
 20
-48513.36927949861
 30
0.0
 11
-17966.25
 21
-48153.36927949861
 31
0.0
  0
LINE
  5
860
  8
1_10
  6
CENTER-3
 62
     7
 10
-18558.75
 20
-48513.36927949861
 30
0.0
 11
-17966.25
 21
-48873.36927949861
 31
0.0
  0
POLYLINE
  5
861
  8
1_10
  6
CONTINUOUS
 62
     7
 66
     1
 10
0.0
 20
0.0
 30
0.0
 70
   129
  0
VERTEX
  5
862
  8
1_10
  6
CONTINUOUS
 62
     7
 10
-17366.25
 20
-48160.86927949861
 30
0.0
  0
VERTEX
  5
863
  8
1_10
  6
CONTINUOUS
 62
     7
 10
-17958.75
 20
-48160.86927949861
 30
0.0
  0
VERTEX
  5
864
  8
1_10
  6
CONTINUOUS
 62
     7
 10
-17958.75
 20
-48873.36927949861
 30
0.0
  0
VERTEX
  5
865
  8
1_10
  6
CONTINUOUS
 62
     7
 10
-17366.25
 20
-48873.36927949861
 30
0.0
  0
SEQEND
  5
866
  8
1_10
  6
CONTINUOUS
 62
     7
  0
LINE
  5
867
  8
1_10
  6
CENTER-3
 62
     7
 10
-17366.25
 20
-48513.36927949861
 30
0.0
 11
-17958.75
 21
-48153.36927949861
 31
0.0
  0
LINE
  5
868
  8
1_10
  6
CENTER-3
 62
     7
 10
-17366.25
 20
-48513.36927949861
 30
0.0
 11
-17958.75
 21
-48873.36927949861
 31
0.0
  0
INSERT
  5
869
  8
1_10
 62
     7
  2
___-6
 10
0.0
 20
0.0
 30
0.0
  0
INSERT
  5
86A
  8
1_10
 62
     7
  2
___-7
 10
0.0
 20
0.0
 30
0.0
  0
INSERT
  5
86B
  8
1_10
 62
     7
  2
___-8
 10
0.0
 20
0.0
 30
0.0
  0
POLYLINE
  5
86C
  8
1_10
  6
CONTINUOUS
 62
     7
 66
     1
 10
0.0
 20
0.0
 30
0.0
 70
   129
  0
VERTEX
  5
86D
  8
1_10
  6
CONTINUOUS
 62
     7
 10
-12783.75
 20
-48160.86927949861
 30
0.0
  0
VERTEX
  5
86E
  8
1_10
  6
CONTINUOUS
 62
     7
 10
-11591.25
 20
-48160.86927949861
 30
0.0
  0
VERTEX
  5
86F
  8
1_10
  6
CONTINUOUS
 62
     7
 10
-11591.25
 20
-48753.36927949861
 30
0.0
  0
VERTEX
  5
870
  8
1_10
  6
CONTINUOUS
 62
     7
 10
-12783.75
 20
-48753.36927949861
 30
0.0
  0
SEQEND
  5
871
  8
1_10
  6
CONTINUOUS
 62
     7
  0
INSERT
  5
872
  8
1_10
 62
     7
  2
___-9
 10
0.0
 20
0.0
 30
0.0
  0
LINE
  5
873
  8
1_10
  6
CENTER-3
 62
     7
 10
-12187.5
 20
-48160.86927949861
 30
0.0
 11
-12783.75
 21
-48753.36927949861
 31
0.0
  0
LINE
  5
874
  8
1_10
  6
CENTER-3
 62
     7
 10
-12187.5
 20
-48160.86927949861
 30
0.0
 11
-11591.25
 21
-48753.36927949861
 31
0.0
  0
INSERT
  5
875
  8
1_10
 62
     7
  2
___-10
 10
0.0
 20
0.0
 30
0.0
  0
INSERT
  5
876
  8
1_10
 62
    12
  2
___-11
 10
0.0
 20
0.0
 30
0.0
  0
INSERT
  5
877
  8
1_10
 62
     7
  2
___-12
 10
0.0
 20
0.0
 30
0.0
  0
INSERT
  5
878
  8
1_10
 62
     7
  2
___-13
 10
0.0
 20
0.0
 30
0.0
  0
INSERT
  5
879
  8
1_10
 62
     7
  2
___-14
 10
0.0
 20
0.0
 30
0.0
  0
INSERT
  5
87A
  8
1_10
 62
     7
  2
___-15
 10
0.0
 20
0.0
 30
0.0
  0
POLYLINE
  5
87B
  8
1_10
  6
CONTINUOUS
 62
     7
 66
     1
 10
0.0
 20
0.0
 30
0.0
 70
   129
  0
VERTEX
  5
87C
  8
1_10
  6
CONTINUOUS
 62
     7
 10
-17385.0
 20
-49531.40816003564
 30
0.0
  0
VERTEX
  5
87D
  8
1_10
  6
CONTINUOUS
 62
     7
 10
-17385.0
 20
-49553.90816003564
 30
0.0
  0
VERTEX
  5
87E
  8
1_10
  6
CONTINUOUS
 62
     7
 10
-19140.0
 20
-49553.90816003564
 30
0.0
  0
VERTEX
  5
87F
  8
1_10
  6
CONTINUOUS
 62
     7
 10
-19140.0
 20
-49531.40816003564
 30
0.0
  0
SEQEND
  5
880
  8
1_10
  6
CONTINUOUS
 62
     7
  0
POLYLINE
  5
881
  8
1_10
  6
CONTINUOUS
 62
     7
 66
     1
 10
0.0
 20
0.0
 30
0.0
 70
   129
  0
VERTEX
  5
882
  8
1_10
  6
CONTINUOUS
 62
     7
 10
-17385.0
 20
-50213.90816003564
 30
0.0
  0
VERTEX
  5
883
  8
1_10
  6
CONTINUOUS
 62
     7
 10
-17385.0
 20
-50236.40816003564
 30
0.0
  0
VERTEX
  5
884
  8
1_10
  6
CONTINUOUS
 62
     7
 10
-19140.0
 20
-50236.40816003564
 30
0.0
  0
VERTEX
  5
885
  8
1_10
  6
CONTINUOUS
 62
     7
 10
-19140.0
 20
-50213.90816003564
 30
0.0
  0
SEQEND
  5
886
  8
1_10
  6
CONTINUOUS
 62
     7
  0
POLYLINE
  5
887
  8
1_10
  6
CONTINUOUS
 62
     7
 66
     1
 10
0.0
 20
0.0
 30
0.0
 70
   129
  0
VERTEX
  5
888
  8
1_10
  6
CONTINUOUS
 62
     7
 10
-19140.0
 20
-50236.40816003564
 30
0.0
  0
VERTEX
  5
889
  8
1_10
  6
CONTINUOUS
 62
     7
 10
-19162.5
 20
-50236.40816003564
 30
0.0
  0
VERTEX
  5
88A
  8
1_10
  6
CONTINUOUS
 62
     7
 10
-19162.5
 20
-49531.40816003564
 30
0.0
  0
VERTEX
  5
88B
  8
1_10
  6
CONTINUOUS
 62
     7
 10
-19140.0
 20
-49531.40816003564
 30
0.0
  0
SEQEND
  5
88C
  8
1_10
  6
CONTINUOUS
 62
     7
  0
INSERT
  5
88D
  8
1_10
 62
     7
  2
___-16
 10
0.0
 20
0.0
 30
0.0
  0
INSERT
  5
88E
  8
1_10
 62
    12
  2
___-17
 10
0.0
 20
0.0
 30
0.0
  0
POLYLINE
  5
88F
  8
1_10
  6
CONTINUOUS
 62
     7
 66
     1
 10
0.0
 20
0.0
 30
0.0
 70
   129
  0
VERTEX
  5
890
  8
1_10
  6
CONTINUOUS
 62
     7
 10
-17385.0
 20
-50236.40816003564
 30
0.0
  0
VERTEX
  5
891
  8
1_10
  6
CONTINUOUS
 62
     7
 10
-17362.5
 20
-50236.40816003564
 30
0.0
  0
VERTEX
  5
892
  8
1_10
  6
CONTINUOUS
 62
     7
 10
-17362.5
 20
-49531.40816003564
 30
0.0
  0
VERTEX
  5
893
  8
1_10
  6
CONTINUOUS
 62
     7
 10
-17385.0
 20
-49531.40816003564
 30
0.0
  0
SEQEND
  5
894
  8
1_10
  6
CONTINUOUS
 62
     7
  0
INSERT
  5
895
  8
1_10
 62
     7
  2
___-18
 10
0.0
 20
0.0
 30
0.0
  0
INSERT
  5
896
  8
1_10
 62
     7
  2
___-19
 10
0.0
 20
0.0
 30
0.0
  0
INSERT
  5
897
  8
1_10
 62
     7
  2
___-20
 10
0.0
 20
0.0
 30
0.0
  0
INSERT
  5
898
  8
1_10
 62
     7
  2
___-21
 10
0.0
 20
0.0
 30
0.0
  0
POLYLINE
  5
899
  8
1_10
  6
CONTINUOUS
 62
     7
 66
     1
 10
0.0
 20
0.0
 30
0.0
 70
   129
  0
VERTEX
  5
89A
  8
1_10
  6
CONTINUOUS
 62
     7
 10
-18585.0
 20
-50213.90816003564
 30
0.0
  0
VERTEX
  5
89B
  8
1_10
  6
CONTINUOUS
 62
     7
 10
-18540.0
 20
-50213.90816003564
 30
0.0
  0
VERTEX
  5
89C
  8
1_10
  6
CONTINUOUS
 62
     7
 10
-18540.0
 20
-49553.90816003564
 30
0.0
  0
VERTEX
  5
89D
  8
1_10
  6
CONTINUOUS
 62
     7
 10
-18585.0
 20
-49553.90816003564
 30
0.0
  0
SEQEND
  5
89E
  8
1_10
  6
CONTINUOUS
 62
     7
  0
INSERT
  5
89F
  8
1_10
 62
     7
  2
___-22
 10
0.0
 20
0.0
 30
0.0
  0
INSERT
  5
8A0
  8
1_10
 62
     7
  2
___-23
 10
0.0
 20
0.0
 30
0.0
  0
LINE
  5
8A1
  8
1_10
  6
DASHDOT
 62
     7
 10
-19162.5
 20
-48070.44254476373
 30
0.0
 11
-19162.5
 21
-50309.50637097763
 31
0.0
  0
LINE
  5
8A2
  8
1_10
  6
DASHDOT
 62
     7
 10
-18562.5
 20
-48070.44254476373
 30
0.0
 11
-18562.5
 21
-50309.50637097763
 31
0.0
  0
LINE
  5
8A3
  8
1_10
  6
DASHDOT
 62
     7
 10
-17962.5
 20
-48070.44254476373
 30
0.0
 11
-17962.5
 21
-50309.50637097763
 31
0.0
  0
LINE
  5
8A4
  8
1_10
  6
DASHDOT
 62
     7
 10
-17362.5
 20
-48070.44254476373
 30
0.0
 11
-17362.5
 21
-50309.50637097763
 31
0.0
  0
POLYLINE
  5
8A5
  8
1_10
  6
CONTINUOUS
 62
     7
 66
     1
 10
0.0
 20
0.0
 30
0.0
 70
   129
  0
VERTEX
  5
8A6
  8
1_10
  6
CONTINUOUS
 62
     7
 10
-18540.0
 20
-49894.66569809934
 30
0.0
  0
VERTEX
  5
8A7
  8
1_10
  6
CONTINUOUS
 62
     7
 10
-17385.0
 20
-49894.66569809934
 30
0.0
  0
VERTEX
  5
8A8
  8
1_10
  6
CONTINUOUS
 62
     7
 10
-17385.0
 20
-49915.66569809934
 30
0.0
  0
VERTEX
  5
8A9
  8
1_10
  6
CONTINUOUS
 62
     7
 10
-18540.0
 20
-49915.66569809934
 30
0.0
  0
SEQEND
  5
8AA
  8
1_10
  6
CONTINUOUS
 62
     7
  0
POLYLINE
  5
8AB
  8
1_10
  6
CONTINUOUS
 62
     7
 66
     1
 10
0.0
 20
0.0
 30
0.0
 70
   129
  0
VERTEX
  5
8AC
  8
1_10
  6
CONTINUOUS
 62
     7
 10
-19140.0
 20
-49894.66569809934
 30
0.0
  0
VERTEX
  5
8AD
  8
1_10
  6
CONTINUOUS
 62
     7
 10
-18585.0
 20
-49894.66569809934
 30
0.0
  0
VERTEX
  5
8AE
  8
1_10
  6
CONTINUOUS
 62
     7
 10
-18585.0
 20
-49915.66569809934
 30
0.0
  0
VERTEX
  5
8AF
  8
1_10
  6
CONTINUOUS
 62
     7
 10
-19140.0
 20
-49915.66569809934
 30
0.0
  0
SEQEND
  5
8B0
  8
1_10
  6
CONTINUOUS
 62
     7
  0
INSERT
  5
8B1
  8
1_10
 62
     7
  2
____-1
 10
0.0
 20
0.0
 30
0.0
 41
1.5
 42
1.5
 43
1.5
  0
INSERT
  5
8B2
  8
1_10
 62
     7
  2
____-2-1
 10
0.0
 20
0.0
 30
0.0
 41
1.5
 42
1.5
 43
1.5
  0
INSERT
  5
8B3
  8
1_10
 62
     7
  2
____-3-1
 10
0.0
 20
0.0
 30
0.0
 41
1.5
 42
1.5
 43
1.5
  0
INSERT
  5
8B4
  8
1_10
 62
     7
  2
____-4-1
 10
0.0
 20
0.0
 30
0.0
 41
1.5
 42
1.5
 43
1.5
  0
INSERT
  5
8B5
  8
1_10
 62
     7
  2
____-5-1
 10
0.0
 20
0.0
 30
0.0
 41
1.5
 42
1.5
 43
1.5
  0
INSERT
  5
8B6
  8
1_10
 62
     7
  2
____-6-1
 10
0.0
 20
0.0
 30
0.0
 41
1.5
 42
1.5
 43
1.5
  0
INSERT
  5
8B7
  8
1_10
 62
     7
  2
____-7-1
 10
0.0
 20
0.0
 30
0.0
 41
1.5
 42
1.5
 43
1.5
  0
INSERT
  5
8B8
  8
1_10
 62
     7
  2
____-8-1
 10
0.0
 20
0.0
 30
0.0
 41
1.5
 42
1.5
 43
1.5
  0
POLYLINE
  5
8B9
  8
1_10
  6
CONTINUOUS
 62
     7
 66
     1
 10
0.0
 20
0.0
 30
0.0
 70
   129
  0
VERTEX
  5
8BA
  8
1_10
  6
CONTINUOUS
 62
     7
 10
-18022.5
 20
-49553.90816003564
 30
0.0
  0
VERTEX
  5
8BB
  8
1_10
  6
CONTINUOUS
 62
     7
 10
-17902.5
 20
-49553.90816003564
 30
0.0
  0
VERTEX
  5
8BC
  8
1_10
  6
CONTINUOUS
 62
     7
 10
-17902.5
 20
-49613.90816003564
 30
0.0
  0
VERTEX
  5
8BD
  8
1_10
  6
CONTINUOUS
 62
     7
 10
-18022.5
 20
-49613.90816003564
 30
0.0
  0
SEQEND
  5
8BE
  8
1_10
  6
CONTINUOUS
 62
     7
  0
TEXT
  5
8BF
  8
1_10
 62
     7
 10
-18064.2
 20
-49661.84258893223
 30
0.0
 40
31.86024305555556
  1
耐震ラッチ
  7
YUGOTHIC_MEDIUM
 11
-18064.2
 21
-49629.98234587668
 31
0.0
 73
     3
  0
POLYLINE
  5
8C0
  8
1_10
  6
CONTINUOUS
 62
     7
 66
     1
 10
0.0
 20
0.0
 30
0.0
 70
   129
  0
VERTEX
  5
8C1
  8
1_10
  6
CONTINUOUS
 62
     7
 10
-18671.43725905345
 20
-49553.90816003564
 30
0.0
  0
VERTEX
  5
8C2
  8
1_10
  6
CONTINUOUS
 62
     7
 10
-18611.43725905345
 20
-49553.90816003564
 30
0.0
  0
VERTEX
  5
8C3
  8
1_10
  6
CONTINUOUS
 62
     7
 10
-18611.43725905345
 20
-49613.90816003564
 30
0.0
  0
VERTEX
  5
8C4
  8
1_10
  6
CONTINUOUS
 62
     7
 10
-18671.43725905345
 20
-49613.90816003564
 30
0.0
  0
SEQEND
  5
8C5
  8
1_10
  6
CONTINUOUS
 62
     7
  0
TEXT
  5
8C6
  8
1_10
 62
     7
 10
-18825.75
 20
-49661.84258893223
 30
0.0
 40
31.86024305555556
  1
耐震ラッチ
  7
YUGOTHIC_MEDIUM
 11
-18825.75
 21
-49629.98234587668
 31
0.0
 73
     3
  0
LINE
  5
8C7
  8
1_10
  6
DASHDOT
 62
     7
 10
-12787.5
 20
-48040.44254476373
 30
0.0
 11
-12787.5
 21
-50189.50637097761
 31
0.0
  0
LINE
  5
8C8
  8
1_10
  6
DASHDOT
 62
     7
 10
-11587.5
 20
-48040.44254476373
 30
0.0
 11
-11587.5
 21
-50189.50637097761
 31
0.0
  0
POLYLINE
  5
8C9
  8
1_10
  6
CONTINUOUS
 62
     7
 66
     1
 10
0.0
 20
0.0
 30
0.0
 70
   129
  0
VERTEX
  5
8CA
  8
1_10
  6
CONTINUOUS
 62
     7
 10
-11610.0
 20
-49531.40816003564
 30
0.0
  0
VERTEX
  5
8CB
  8
1_10
  6
CONTINUOUS
 62
     7
 10
-11610.0
 20
-49553.90816003564
 30
0.0
  0
VERTEX
  5
8CC
  8
1_10
  6
CONTINUOUS
 62
     7
 10
-12765.0
 20
-49553.90816003564
 30
0.0
  0
VERTEX
  5
8CD
  8
1_10
  6
CONTINUOUS
 62
     7
 10
-12765.0
 20
-49531.40816003564
 30
0.0
  0
SEQEND
  5
8CE
  8
1_10
  6
CONTINUOUS
 62
     7
  0
POLYLINE
  5
8CF
  8
1_10
  6
CONTINUOUS
 62
     7
 66
     1
 10
0.0
 20
0.0
 30
0.0
 70
   129
  0
VERTEX
  5
8D0
  8
1_10
  6
CONTINUOUS
 62
     7
 10
-11610.0
 20
-50093.90816003564
 30
0.0
  0
VERTEX
  5
8D1
  8
1_10
  6
CONTINUOUS
 62
     7
 10
-11610.0
 20
-50116.40816003564
 30
0.0
  0
VERTEX
  5
8D2
  8
1_10
  6
CONTINUOUS
 62
     7
 10
-12765.0
 20
-50116.40816003564
 30
0.0
  0
VERTEX
  5
8D3
  8
1_10
  6
CONTINUOUS
 62
     7
 10
-12765.0
 20
-50093.90816003564
 30
0.0
  0
SEQEND
  5
8D4
  8
1_10
  6
CONTINUOUS
 62
     7
  0
POLYLINE
  5
8D5
  8
1_10
  6
CONTINUOUS
 62
     7
 66
     1
 10
0.0
 20
0.0
 30
0.0
 70
   129
  0
VERTEX
  5
8D6
  8
1_10
  6
CONTINUOUS
 62
     7
 10
-12765.0
 20
-50116.40816003564
 30
0.0
  0
VERTEX
  5
8D7
  8
1_10
  6
CONTINUOUS
 62
     7
 10
-12787.5
 20
-50116.40816003564
 30
0.0
  0
VERTEX
  5
8D8
  8
1_10
  6
CONTINUOUS
 62
     7
 10
-12787.5
 20
-49531.40816003564
 30
0.0
  0
VERTEX
  5
8D9
  8
1_10
  6
CONTINUOUS
 62
     7
 10
-12765.0
 20
-49531.40816003564
 30
0.0
  0
SEQEND
  5
8DA
  8
1_10
  6
CONTINUOUS
 62
     7
  0
INSERT
  5
8DB
  8
1_10
 62
     7
  2
___-24
 10
0.0
 20
0.0
 30
0.0
  0
INSERT
  5
8DC
  8
1_10
 62
    12
  2
___-25
 10
0.0
 20
0.0
 30
0.0
  0
POLYLINE
  5
8DD
  8
1_10
  6
CONTINUOUS
 62
     7
 66
     1
 10
0.0
 20
0.0
 30
0.0
 70
   129
  0
VERTEX
  5
8DE
  8
1_10
  6
CONTINUOUS
 62
     7
 10
-11610.0
 20
-50116.40816003564
 30
0.0
  0
VERTEX
  5
8DF
  8
1_10
  6
CONTINUOUS
 62
     7
 10
-11587.5
 20
-50116.40816003564
 30
0.0
  0
VERTEX
  5
8E0
  8
1_10
  6
CONTINUOUS
 62
     7
 10
-11587.5
 20
-49531.40816003564
 30
0.0
  0
VERTEX
  5
8E1
  8
1_10
  6
CONTINUOUS
 62
     7
 10
-11610.0
 20
-49531.40816003564
 30
0.0
  0
SEQEND
  5
8E2
  8
1_10
  6
CONTINUOUS
 62
     7
  0
INSERT
  5
8E3
  8
1_10
 62
     7
  2
___-26
 10
0.0
 20
0.0
 30
0.0
  0
INSERT
  5
8E4
  8
1_10
 62
     7
  2
___-27
 10
0.0
 20
0.0
 30
0.0
  0
INSERT
  5
8E5
  8
1_10
 62
     7
  2
___-28
 10
0.0
 20
0.0
 30
0.0
  0
INSERT
  5
8E6
  8
1_10
 62
     7
  2
___-29
 10
0.0
 20
0.0
 30
0.0
  0
INSERT
  5
8E7
  8
1_10
 62
     7
  2
___-30
 10
0.0
 20
0.0
 30
0.0
  0
POLYLINE
  5
8E8
  8
1_10
  6
CONTINUOUS
 62
     7
 66
     1
 10
0.0
 20
0.0
 30
0.0
 70
   129
  0
VERTEX
  5
8E9
  8
1_10
  6
CONTINUOUS
 62
     7
 10
-12765.0
 20
-49804.39264754692
 30
0.0
  0
VERTEX
  5
8EA
  8
1_10
  6
CONTINUOUS
 62
     7
 10
-11610.0
 20
-49804.39264754692
 30
0.0
  0
VERTEX
  5
8EB
  8
1_10
  6
CONTINUOUS
 62
     7
 10
-11610.0
 20
-49825.39264754692
 30
0.0
  0
VERTEX
  5
8EC
  8
1_10
  6
CONTINUOUS
 62
     7
 10
-12765.0
 20
-49825.39264754692
 30
0.0
  0
SEQEND
  5
8ED
  8
1_10
  6
CONTINUOUS
 62
     7
  0
POLYLINE
  5
8EE
  8
1_10
  6
______-6
 62
     7
 66
     1
 10
0.0
 20
0.0
 30
0.0
 70
   129
  0
VERTEX
  5
8EF
  8
1_10
  6
______-6
 62
     7
 10
-11646.33396960112
 20
-49553.90816003564
 30
0.0
  0
VERTEX
  5
8F0
  8
1_10
  6
______-6
 62
     7
 10
-11610.0
 20
-49553.90816003564
 30
0.0
  0
VERTEX
  5
8F1
  8
1_10
  6
______-6
 62
     7
 10
-11610.0
 20
-49763.90816003564
 30
0.0
  0
VERTEX
  5
8F2
  8
1_10
  6
______-6
 62
     7
 10
-11646.33396960112
 20
-49763.90816003564
 30
0.0
  0
SEQEND
  5
8F3
  8
1_10
  6
______-6
 62
     7
  0
POLYLINE
  5
8F4
  8
1_10
  6
______-6
 62
     7
 66
     1
 10
0.0
 20
0.0
 30
0.0
 70
   129
  0
VERTEX
  5
8F5
  8
1_10
  6
______-6
 62
     7
 10
-12765.0
 20
-49553.90816003564
 30
0.0
  0
VERTEX
  5
8F6
  8
1_10
  6
______-6
 62
     7
 10
-12728.66603039888
 20
-49553.90816003564
 30
0.0
  0
VERTEX
  5
8F7
  8
1_10
  6
______-6
 62
     7
 10
-12728.66603039888
 20
-49763.90816003564
 30
0.0
  0
VERTEX
  5
8F8
  8
1_10
  6
______-6
 62
     7
 10
-12765.0
 20
-49763.90816003564
 30
0.0
  0
SEQEND
  5
8F9
  8
1_10
  6
______-6
 62
     7
  0
POLYLINE
  5
8FA
  8
1_10
  6
CONTINUOUS
 62
   255
 66
     1
 10
0.0
 20
0.0
 30
0.0
 70
   129
  0
VERTEX
  5
8FB
  8
1_10
  6
CONTINUOUS
 62
   255
 10
-33000.0
 20
-47335.92000000001
 30
0.0
  0
VERTEX
  5
8FC
  8
1_10
  6
CONTINUOUS
 62
   255
 10
-26825.2599999999
 20
-47335.92000000001
 30
0.0
  0
VERTEX
  5
8FD
  8
1_10
  6
CONTINUOUS
 62
   255
 10
-26825.2599999999
 20
-51664.08000000002
 30
0.0
  0
VERTEX
  5
8FE
  8
1_10
  6
CONTINUOUS
 62
   255
 10
-33000.0
 20
-51664.08000000002
 30
0.0
  0
SEQEND
  5
8FF
  8
1_10
  6
CONTINUOUS
 62
   255
  0
POLYLINE
  5
900
  8
1_10
  6
CONTINUOUS
 62
   255
 66
     1
 10
0.0
 20
0.0
 30
0.0
 70
   129
  0
VERTEX
  5
901
  8
1_10
  6
CONTINUOUS
 62
   255
 10
-26825.2599999999
 20
-47335.92000000001
 30
0.0
  0
VERTEX
  5
902
  8
1_10
  6
CONTINUOUS
 62
   255
 10
-20650.5199999998
 20
-47335.92000000001
 30
0.0
  0
VERTEX
  5
903
  8
1_10
  6
CONTINUOUS
 62
   255
 10
-20650.5199999998
 20
-51664.08000000002
 30
0.0
  0
VERTEX
  5
904
  8
1_10
  6
CONTINUOUS
 62
   255
 10
-26825.2599999999
 20
-51664.08000000002
 30
0.0
  0
SEQEND
  5
905
  8
1_10
  6
CONTINUOUS
 62
   255
  0
POLYLINE
  5
906
  8
1_10
  6
CONTINUOUS
 62
   255
 66
     1
 10
0.0
 20
0.0
 30
0.0
 70
   129
  0
VERTEX
  5
907
  8
1_10
  6
CONTINUOUS
 62
   255
 10
-20650.5199999998
 20
-47335.92000000001
 30
0.0
  0
VERTEX
  5
908
  8
1_10
  6
CONTINUOUS
 62
   255
 10
-14475.7799999997
 20
-47335.92000000001
 30
0.0
  0
VERTEX
  5
909
  8
1_10
  6
CONTINUOUS
 62
   255
 10
-14475.7799999997
 20
-51664.08000000002
 30
0.0
  0
VERTEX
  5
90A
  8
1_10
  6
CONTINUOUS
 62
   255
 10
-20650.5199999998
 20
-51664.08000000002
 30
0.0
  0
SEQEND
  5
90B
  8
1_10
  6
CONTINUOUS
 62
   255
  0
POLYLINE
  5
90C
  8
1_10
  6
CONTINUOUS
 62
   255
 66
     1
 10
0.0
 20
0.0
 30
0.0
 70
   129
  0
VERTEX
  5
90D
  8
1_10
  6
CONTINUOUS
 62
   255
 10
-14475.7799999997
 20
-47335.92000000001
 30
0.0
  0
VERTEX
  5
90E
  8
1_10
  6
CONTINUOUS
 62
   255
 10
-8301.039999999595
 20
-47335.92000000001
 30
0.0
  0
VERTEX
  5
90F
  8
1_10
  6
CONTINUOUS
 62
   255
 10
-8301.039999999595
 20
-51664.08000000002
 30
0.0
  0
VERTEX
  5
910
  8
1_10
  6
CONTINUOUS
 62
   255
 10
-14475.7799999997
 20
-51664.08000000002
 30
0.0
  0
SEQEND
  5
911
  8
1_10
  6
CONTINUOUS
 62
   255
  0
POLYLINE
  5
912
  8
1_10
  6
CONTINUOUS
 62
   255
 66
     1
 10
0.0
 20
0.0
 30
0.0
 70
   129
  0
VERTEX
  5
913
  8
1_10
  6
CONTINUOUS
 62
   255
 10
-8301.039999999595
 20
-47335.92000000001
 30
0.0
  0
VERTEX
  5
914
  8
1_10
  6
CONTINUOUS
 62
   255
 10
-2126.299999999495
 20
-47335.92000000001
 30
0.0
  0
VERTEX
  5
915
  8
1_10
  6
CONTINUOUS
 62
   255
 10
-2126.299999999495
 20
-51664.08000000002
 30
0.0
  0
VERTEX
  5
916
  8
1_10
  6
CONTINUOUS
 62
   255
 10
-8301.039999999595
 20
-51664.08000000002
 30
0.0
  0
SEQEND
  5
917
  8
1_10
  6
CONTINUOUS
 62
   255
  0
POLYLINE
  5
918
  8
1_10
  6
CONTINUOUS
 62
     7
 66
     1
 10
0.0
 20
0.0
 30
0.0
 70
   129
  0
VERTEX
  5
919
  8
1_10
  6
CONTINUOUS
 62
     7
 10
-31154.45882518619
 20
-48153.36927949861
 30
0.0
  0
VERTEX
  5
91A
  8
1_10
  6
CONTINUOUS
 62
     7
 10
-31154.45882518619
 20
-48183.36927949861
 30
0.0
  0
VERTEX
  5
91B
  8
1_10
  6
CONTINUOUS
 62
     7
 10
-31694.45882518619
 20
-48183.36927949861
 30
0.0
  0
VERTEX
  5
91C
  8
1_10
  6
CONTINUOUS
 62
     7
 10
-31694.45882518619
 20
-48153.36927949861
 30
0.0
  0
SEQEND
  5
91D
  8
1_10
  6
CONTINUOUS
 62
     7
  0
POLYLINE
  5
91E
  8
1_10
  6
CONTINUOUS
 62
     7
 66
     1
 10
0.0
 20
0.0
 30
0.0
 70
   129
  0
VERTEX
  5
91F
  8
1_10
  6
CONTINUOUS
 62
     7
 10
-31154.45882518619
 20
-48828.36927949861
 30
0.0
  0
VERTEX
  5
920
  8
1_10
  6
CONTINUOUS
 62
     7
 10
-31154.45882518619
 20
-48858.36927949861
 30
0.0
  0
VERTEX
  5
921
  8
1_10
  6
CONTINUOUS
 62
     7
 10
-31694.45882518619
 20
-48858.36927949861
 30
0.0
  0
VERTEX
  5
922
  8
1_10
  6
CONTINUOUS
 62
     7
 10
-31694.45882518619
 20
-48828.36927949861
 30
0.0
  0
SEQEND
  5
923
  8
1_10
  6
CONTINUOUS
 62
     7
  0
POLYLINE
  5
924
  8
1_10
  6
CONTINUOUS
 62
     7
 66
     1
 10
0.0
 20
0.0
 30
0.0
 70
   129
  0
VERTEX
  5
925
  8
1_10
  6
CONTINUOUS
 62
     7
 10
-31694.45882518619
 20
-48858.36927949861
 30
0.0
  0
VERTEX
  5
926
  8
1_10
  6
CONTINUOUS
 62
     7
 10
-31724.45882518619
 20
-48858.36927949861
 30
0.0
  0
VERTEX
  5
927
  8
1_10
  6
CONTINUOUS
 62
     7
 10
-31724.45882518619
 20
-48153.36927949861
 30
0.0
  0
VERTEX
  5
928
  8
1_10
  6
CONTINUOUS
 62
     7
 10
-31694.45882518619
 20
-48153.36927949861
 30
0.0
  0
SEQEND
  5
929
  8
1_10
  6
CONTINUOUS
 62
     7
  0
INSERT
  5
92A
  8
1_10
 62
     7
  2
___-31
 10
0.0
 20
0.0
 30
0.0
  0
INSERT
  5
92B
  8
1_10
 62
     7
  2
___-32
 10
0.0
 20
0.0
 30
0.0
  0
INSERT
  5
92C
  8
1_10
 62
    12
  2
___-33
 10
0.0
 20
0.0
 30
0.0
  0
INSERT
  5
92D
  8
1_10
 62
     7
  2
___-34
 10
0.0
 20
0.0
 30
0.0
  0
INSERT
  5
92E
  8
1_10
 62
     7
  2
___-35
 10
0.0
 20
0.0
 30
0.0
  0
POLYLINE
  5
92F
  8
1_10
  6
CONTINUOUS
 62
     7
 66
     1
 10
0.0
 20
0.0
 30
0.0
 70
   129
  0
VERTEX
  5
930
  8
1_10
  6
CONTINUOUS
 62
     7
 10
-29954.45882518619
 20
-48858.36927949861
 30
0.0
  0
VERTEX
  5
931
  8
1_10
  6
CONTINUOUS
 62
     7
 10
-29924.45882518619
 20
-48858.36927949861
 30
0.0
  0
VERTEX
  5
932
  8
1_10
  6
CONTINUOUS
 62
     7
 10
-29924.45882518619
 20
-48153.36927949861
 30
0.0
  0
VERTEX
  5
933
  8
1_10
  6
CONTINUOUS
 62
     7
 10
-29954.45882518619
 20
-48153.36927949861
 30
0.0
  0
SEQEND
  5
934
  8
1_10
  6
CONTINUOUS
 62
     7
  0
INSERT
  5
935
  8
1_10
 62
     7
  2
___-36
 10
0.0
 20
0.0
 30
0.0
  0
POLYLINE
  5
936
  8
1_10
  6
CONTINUOUS
 62
     7
 66
     1
 10
0.0
 20
0.0
 30
0.0
 70
   129
  0
VERTEX
  5
937
  8
1_10
  6
CONTINUOUS
 62
     7
 10
-31720.70882518619
 20
-48160.86927949861
 30
0.0
  0
VERTEX
  5
938
  8
1_10
  6
CONTINUOUS
 62
     7
 10
-31128.20882518619
 20
-48160.86927949861
 30
0.0
  0
VERTEX
  5
939
  8
1_10
  6
CONTINUOUS
 62
     7
 10
-31128.20882518619
 20
-48873.36927949861
 30
0.0
  0
VERTEX
  5
93A
  8
1_10
  6
CONTINUOUS
 62
     7
 10
-31720.70882518619
 20
-48873.36927949861
 30
0.0
  0
SEQEND
  5
93B
  8
1_10
  6
CONTINUOUS
 62
     7
  0
LINE
  5
93C
  8
1_10
  6
CENTER-3
 62
     7
 10
-31720.70882518619
 20
-48513.36927949861
 30
0.0
 11
-31128.20882518619
 21
-48153.36927949861
 31
0.0
  0
LINE
  5
93D
  8
1_10
  6
CENTER-3
 62
     7
 10
-31720.70882518619
 20
-48513.36927949861
 30
0.0
 11
-31128.20882518619
 21
-48873.36927949861
 31
0.0
  0
POLYLINE
  5
93E
  8
1_10
  6
CONTINUOUS
 62
     7
 66
     1
 10
0.0
 20
0.0
 30
0.0
 70
   129
  0
VERTEX
  5
93F
  8
1_10
  6
CONTINUOUS
 62
     7
 10
-29928.20882518619
 20
-48160.86927949861
 30
0.0
  0
VERTEX
  5
940
  8
1_10
  6
CONTINUOUS
 62
     7
 10
-30520.70882518619
 20
-48160.86927949861
 30
0.0
  0
VERTEX
  5
941
  8
1_10
  6
CONTINUOUS
 62
     7
 10
-30520.70882518619
 20
-48873.36927949861
 30
0.0
  0
VERTEX
  5
942
  8
1_10
  6
CONTINUOUS
 62
     7
 10
-29928.20882518619
 20
-48873.36927949861
 30
0.0
  0
SEQEND
  5
943
  8
1_10
  6
CONTINUOUS
 62
     7
  0
LINE
  5
944
  8
1_10
  6
CENTER-3
 62
     7
 10
-29928.20882518619
 20
-48513.36927949861
 30
0.0
 11
-30520.70882518619
 21
-48153.36927949861
 31
0.0
  0
LINE
  5
945
  8
1_10
  6
CENTER-3
 62
     7
 10
-29928.20882518619
 20
-48513.36927949861
 30
0.0
 11
-30520.70882518619
 21
-48873.36927949861
 31
0.0
  0
INSERT
  5
946
  8
1_10
 62
     7
  2
___-37
 10
0.0
 20
0.0
 30
0.0
  0
INSERT
  5
947
  8
1_10
 62
     7
  2
___-38
 10
0.0
 20
0.0
 30
0.0
  0
INSERT
  5
948
  8
1_10
 62
     7
  2
___-39
 10
0.0
 20
0.0
 30
0.0
  0
POLYLINE
  5
949
  8
1_10
  6
CONTINUOUS
 62
     7
 66
     1
 10
0.0
 20
0.0
 30
0.0
 70
   129
  0
VERTEX
  5
94A
  8
1_10
  6
CONTINUOUS
 62
     7
 10
-31146.95882518619
 20
-49531.40816003564
 30
0.0
  0
VERTEX
  5
94B
  8
1_10
  6
CONTINUOUS
 62
     7
 10
-31146.95882518619
 20
-49553.90816003564
 30
0.0
  0
VERTEX
  5
94C
  8
1_10
  6
CONTINUOUS
 62
     7
 10
-31701.95882518619
 20
-49553.90816003564
 30
0.0
  0
VERTEX
  5
94D
  8
1_10
  6
CONTINUOUS
 62
     7
 10
-31701.95882518619
 20
-49531.40816003564
 30
0.0
  0
SEQEND
  5
94E
  8
1_10
  6
CONTINUOUS
 62
     7
  0
POLYLINE
  5
94F
  8
1_10
  6
CONTINUOUS
 62
     7
 66
     1
 10
0.0
 20
0.0
 30
0.0
 70
   129
  0
VERTEX
  5
950
  8
1_10
  6
CONTINUOUS
 62
     7
 10
-31146.95882518619
 20
-50213.90816003564
 30
0.0
  0
VERTEX
  5
951
  8
1_10
  6
CONTINUOUS
 62
     7
 10
-31146.95882518619
 20
-50236.40816003564
 30
0.0
  0
VERTEX
  5
952
  8
1_10
  6
CONTINUOUS
 62
     7
 10
-31701.95882518619
 20
-50236.40816003564
 30
0.0
  0
VERTEX
  5
953
  8
1_10
  6
CONTINUOUS
 62
     7
 10
-31701.95882518619
 20
-50213.90816003564
 30
0.0
  0
SEQEND
  5
954
  8
1_10
  6
CONTINUOUS
 62
     7
  0
POLYLINE
  5
955
  8
1_10
  6
CONTINUOUS
 62
     7
 66
     1
 10
0.0
 20
0.0
 30
0.0
 70
   129
  0
VERTEX
  5
956
  8
1_10
  6
CONTINUOUS
 62
     7
 10
-31701.95882518619
 20
-50236.40816003564
 30
0.0
  0
VERTEX
  5
957
  8
1_10
  6
CONTINUOUS
 62
     7
 10
-31724.45882518619
 20
-50236.40816003564
 30
0.0
  0
VERTEX
  5
958
  8
1_10
  6
CONTINUOUS
 62
     7
 10
-31724.45882518619
 20
-49531.40816003564
 30
0.0
  0
VERTEX
  5
959
  8
1_10
  6
CONTINUOUS
 62
     7
 10
-31701.95882518619
 20
-49531.40816003564
 30
0.0
  0
SEQEND
  5
95A
  8
1_10
  6
CONTINUOUS
 62
     7
  0
INSERT
  5
95B
  8
1_10
 62
     7
  2
___-40
 10
0.0
 20
0.0
 30
0.0
  0
INSERT
  5
95C
  8
1_10
 62
    12
  2
___-41
 10
0.0
 20
0.0
 30
0.0
  0
INSERT
  5
95D
  8
1_10
 62
     7
  2
___-42
 10
0.0
 20
0.0
 30
0.0
  0
INSERT
  5
95E
  8
1_10
 62
     7
  2
___-43
 10
0.0
 20
0.0
 30
0.0
  0
INSERT
  5
95F
  8
1_10
 62
     7
  2
___-44
 10
0.0
 20
0.0
 30
0.0
  0
POLYLINE
  5
960
  8
1_10
  6
CONTINUOUS
 62
     7
 66
     1
 10
0.0
 20
0.0
 30
0.0
 70
   129
  0
VERTEX
  5
961
  8
1_10
  6
CONTINUOUS
 62
     7
 10
-31146.95882518619
 20
-50236.40816003564
 30
0.0
  0
VERTEX
  5
962
  8
1_10
  6
CONTINUOUS
 62
     7
 10
-31124.45882518619
 20
-50236.40816003564
 30
0.0
  0
VERTEX
  5
963
  8
1_10
  6
CONTINUOUS
 62
     7
 10
-31124.45882518619
 20
-49531.40816003564
 30
0.0
  0
VERTEX
  5
964
  8
1_10
  6
CONTINUOUS
 62
     7
 10
-31146.95882518619
 20
-49531.40816003564
 30
0.0
  0
SEQEND
  5
965
  8
1_10
  6
CONTINUOUS
 62
     7
  0
INSERT
  5
966
  8
1_10
 62
     7
  2
___-45
 10
0.0
 20
0.0
 30
0.0
  0
LINE
  5
967
  8
1_10
  6
DASHDOT
 62
     7
 10
-31724.45882518619
 20
-48070.44254476373
 30
0.0
 11
-31724.45882518619
 21
-50309.50637097763
 31
0.0
  0
LINE
  5
968
  8
1_10
  6
DASHDOT
 62
     7
 10
-31124.45882518619
 20
-48070.44254476373
 30
0.0
 11
-31124.45882518619
 21
-50309.50637097763
 31
0.0
  0
POLYLINE
  5
969
  8
1_10
  6
CONTINUOUS
 62
     7
 66
     1
 10
0.0
 20
0.0
 30
0.0
 70
   129
  0
VERTEX
  5
96A
  8
1_10
  6
CONTINUOUS
 62
     7
 10
-31701.95882518619
 20
-49875.96454242696
 30
0.0
  0
VERTEX
  5
96B
  8
1_10
  6
CONTINUOUS
 62
     7
 10
-31146.95882518619
 20
-49875.96454242696
 30
0.0
  0
VERTEX
  5
96C
  8
1_10
  6
CONTINUOUS
 62
     7
 10
-31146.95882518619
 20
-49896.96454242696
 30
0.0
  0
VERTEX
  5
96D
  8
1_10
  6
CONTINUOUS
 62
     7
 10
-31701.95882518619
 20
-49896.96454242696
 30
0.0
  0
SEQEND
  5
96E
  8
1_10
  6
CONTINUOUS
 62
     7
  0
INSERT
  5
96F
  8
1_10
 62
     7
  2
____-9-1
 10
0.0
 20
0.0
 30
0.0
 41
1.5
 42
1.5
 43
1.5
  0
INSERT
  5
970
  8
1_10
 62
     7
  2
____-10-1
 10
0.0
 20
0.0
 30
0.0
 41
1.5
 42
1.5
 43
1.5
  0
POLYLINE
  5
971
  8
1_10
  6
CONTINUOUS
 62
     7
 66
     1
 10
0.0
 20
0.0
 30
0.0
 70
   129
  0
VERTEX
  5
972
  8
1_10
  6
CONTINUOUS
 62
     7
 10
-31233.39608423963
 20
-49553.90816003564
 30
0.0
  0
VERTEX
  5
973
  8
1_10
  6
CONTINUOUS
 62
     7
 10
-31173.39608423963
 20
-49553.90816003564
 30
0.0
  0
VERTEX
  5
974
  8
1_10
  6
CONTINUOUS
 62
     7
 10
-31173.39608423963
 20
-49613.90816003564
 30
0.0
  0
VERTEX
  5
975
  8
1_10
  6
CONTINUOUS
 62
     7
 10
-31233.39608423963
 20
-49613.90816003564
 30
0.0
  0
SEQEND
  5
976
  8
1_10
  6
CONTINUOUS
 62
     7
  0
TEXT
  5
977
  8
1_10
 62
     7
 10
-31387.70882518619
 20
-49661.84258893223
 30
0.0
 40
31.86024305555556
  1
耐震ラッチ
  7
YUGOTHIC_MEDIUM
 11
-31387.70882518619
 21
-49629.98234587668
 31
0.0
 73
     3
  0
POLYLINE
  5
978
  8
1_10
  6
CONTINUOUS
 62
   255
 66
     1
 10
0.0
 20
0.0
 30
0.0
 70
   129
  0
VERTEX
  5
979
  8
1_10
  6
CONTINUOUS
 62
   255
 10
-33000.0
 20
-47335.92000000001
 30
0.0
  0
VERTEX
  5
97A
  8
1_10
  6
CONTINUOUS
 62
   255
 10
-26825.2599999999
 20
-47335.92000000001
 30
0.0
  0
VERTEX
  5
97B
  8
1_10
  6
CONTINUOUS
 62
   255
 10
-26825.2599999999
 20
-51664.08000000002
 30
0.0
  0
VERTEX
  5
97C
  8
1_10
  6
CONTINUOUS
 62
   255
 10
-33000.0
 20
-51664.08000000002
 30
0.0
  0
SEQEND
  5
97D
  8
1_10
  6
CONTINUOUS
 62
   255
  0
POLYLINE
  5
97E
  8
1_10
  6
CONTINUOUS
 62
     7
 66
     1
 10
0.0
 20
0.0
 30
0.0
 70
   129
  0
VERTEX
  5
97F
  8
1_10
  6
CONTINUOUS
 62
     7
 10
-24167.2400000001
 20
-48153.36927949861
 30
0.0
  0
VERTEX
  5
980
  8
1_10
  6
CONTINUOUS
 62
     7
 10
-24167.2400000001
 20
-48183.36927949861
 30
0.0
  0
VERTEX
  5
981
  8
1_10
  6
CONTINUOUS
 62
     7
 10
-25307.2400000001
 20
-48183.36927949861
 30
0.0
  0
VERTEX
  5
982
  8
1_10
  6
CONTINUOUS
 62
     7
 10
-25307.2400000001
 20
-48153.36927949861
 30
0.0
  0
SEQEND
  5
983
  8
1_10
  6
CONTINUOUS
 62
     7
  0
POLYLINE
  5
984
  8
1_10
  6
CONTINUOUS
 62
     7
 66
     1
 10
0.0
 20
0.0
 30
0.0
 70
   129
  0
VERTEX
  5
985
  8
1_10
  6
CONTINUOUS
 62
     7
 10
-24167.2400000001
 20
-48828.36927949861
 30
0.0
  0
VERTEX
  5
986
  8
1_10
  6
CONTINUOUS
 62
     7
 10
-24167.2400000001
 20
-48858.36927949861
 30
0.0
  0
VERTEX
  5
987
  8
1_10
  6
CONTINUOUS
 62
     7
 10
-25307.2400000001
 20
-48858.36927949861
 30
0.0
  0
VERTEX
  5
988
  8
1_10
  6
CONTINUOUS
 62
     7
 10
-25307.2400000001
 20
-48828.36927949861
 30
0.0
  0
SEQEND
  5
989
  8
1_10
  6
CONTINUOUS
 62
     7
  0
POLYLINE
  5
98A
  8
1_10
  6
CONTINUOUS
 62
     7
 66
     1
 10
0.0
 20
0.0
 30
0.0
 70
   129
  0
VERTEX
  5
98B
  8
1_10
  6
CONTINUOUS
 62
     7
 10
-25307.2400000001
 20
-48858.36927949861
 30
0.0
  0
VERTEX
  5
98C
  8
1_10
  6
CONTINUOUS
 62
     7
 10
-25337.2400000001
 20
-48858.36927949861
 30
0.0
  0
VERTEX
  5
98D
  8
1_10
  6
CONTINUOUS
 62
     7
 10
-25337.2400000001
 20
-48153.36927949861
 30
0.0
  0
VERTEX
  5
98E
  8
1_10
  6
CONTINUOUS
 62
     7
 10
-25307.2400000001
 20
-48153.36927949861
 30
0.0
  0
SEQEND
  5
98F
  8
1_10
  6
CONTINUOUS
 62
     7
  0
INSERT
  5
990
  8
1_10
 62
     7
  2
___-46
 10
0.0
 20
0.0
 30
0.0
  0
INSERT
  5
991
  8
1_10
 62
     7
  2
___-47
 10
0.0
 20
0.0
 30
0.0
  0
INSERT
  5
992
  8
1_10
 62
    12
  2
___-48
 10
0.0
 20
0.0
 30
0.0
  0
INSERT
  5
993
  8
1_10
 62
     7
  2
___-49
 10
0.0
 20
0.0
 30
0.0
  0
POLYLINE
  5
994
  8
1_10
  6
CONTINUOUS
 62
     7
 66
     1
 10
0.0
 20
0.0
 30
0.0
 70
   129
  0
VERTEX
  5
995
  8
1_10
  6
CONTINUOUS
 62
     7
 10
-24167.2400000001
 20
-48858.36927949861
 30
0.0
  0
VERTEX
  5
996
  8
1_10
  6
CONTINUOUS
 62
     7
 10
-24137.2400000001
 20
-48858.36927949861
 30
0.0
  0
VERTEX
  5
997
  8
1_10
  6
CONTINUOUS
 62
     7
 10
-24137.2400000001
 20
-48153.36927949861
 30
0.0
  0
VERTEX
  5
998
  8
1_10
  6
CONTINUOUS
 62
     7
 10
-24167.2400000001
 20
-48153.36927949861
 30
0.0
  0
SEQEND
  5
999
  8
1_10
  6
CONTINUOUS
 62
     7
  0
POLYLINE
  5
99A
  8
1_10
  6
CONTINUOUS
 62
     7
 66
     1
 10
0.0
 20
0.0
 30
0.0
 70
   129
  0
VERTEX
  5
99B
  8
1_10
  6
CONTINUOUS
 62
     7
 10
-25333.4900000001
 20
-48160.86927949861
 30
0.0
  0
VERTEX
  5
99C
  8
1_10
  6
CONTINUOUS
 62
     7
 10
-24740.9900000001
 20
-48160.86927949861
 30
0.0
  0
VERTEX
  5
99D
  8
1_10
  6
CONTINUOUS
 62
     7
 10
-24740.9900000001
 20
-48873.36927949861
 30
0.0
  0
VERTEX
  5
99E
  8
1_10
  6
CONTINUOUS
 62
     7
 10
-25333.4900000001
 20
-48873.36927949861
 30
0.0
  0
SEQEND
  5
99F
  8
1_10
  6
CONTINUOUS
 62
     7
  0
LINE
  5
9A0
  8
1_10
  6
CENTER-3
 62
     7
 10
-25333.4900000001
 20
-48513.36927949861
 30
0.0
 11
-24740.9900000001
 21
-48153.36927949861
 31
0.0
  0
LINE
  5
9A1
  8
1_10
  6
CENTER-3
 62
     7
 10
-25333.4900000001
 20
-48513.36927949861
 30
0.0
 11
-24740.9900000001
 21
-48873.36927949861
 31
0.0
  0
POLYLINE
  5
9A2
  8
1_10
  6
CONTINUOUS
 62
     7
 66
     1
 10
0.0
 20
0.0
 30
0.0
 70
   129
  0
VERTEX
  5
9A3
  8
1_10
  6
CONTINUOUS
 62
     7
 10
-24733.4900000001
 20
-48160.86927949861
 30
0.0
  0
VERTEX
  5
9A4
  8
1_10
  6
CONTINUOUS
 62
     7
 10
-24140.9900000001
 20
-48160.86927949861
 30
0.0
  0
VERTEX
  5
9A5
  8
1_10
  6
CONTINUOUS
 62
     7
 10
-24140.9900000001
 20
-48873.36927949861
 30
0.0
  0
VERTEX
  5
9A6
  8
1_10
  6
CONTINUOUS
 62
     7
 10
-24733.4900000001
 20
-48873.36927949861
 30
0.0
  0
SEQEND
  5
9A7
  8
1_10
  6
CONTINUOUS
 62
     7
  0
LINE
  5
9A8
  8
1_10
  6
CENTER-3
 62
     7
 10
-24140.9900000001
 20
-48513.36927949861
 30
0.0
 11
-24733.4900000001
 21
-48153.36927949861
 31
0.0
  0
LINE
  5
9A9
  8
1_10
  6
CENTER-3
 62
     7
 10
-24140.9900000001
 20
-48513.36927949861
 30
0.0
 11
-24733.4900000001
 21
-48873.36927949861
 31
0.0
  0
INSERT
  5
9AA
  8
1_10
 62
     7
  2
___-50
 10
0.0
 20
0.0
 30
0.0
  0
INSERT
  5
9AB
  8
1_10
 62
     7
  2
___-51
 10
0.0
 20
0.0
 30
0.0
  0
INSERT
  5
9AC
  8
1_10
 62
     7
  2
___-52
 10
0.0
 20
0.0
 30
0.0
  0
INSERT
  5
9AD
  8
1_10
 62
     7
  2
___-53
 10
0.0
 20
0.0
 30
0.0
  0
INSERT
  5
9AE
  8
1_10
 62
     7
  2
___-54
 10
0.0
 20
0.0
 30
0.0
  0
POLYLINE
  5
9AF
  8
1_10
  6
CONTINUOUS
 62
     7
 66
     1
 10
0.0
 20
0.0
 30
0.0
 70
   129
  0
VERTEX
  5
9B0
  8
1_10
  6
CONTINUOUS
 62
     7
 10
-24159.7400000001
 20
-49531.40816003564
 30
0.0
  0
VERTEX
  5
9B1
  8
1_10
  6
CONTINUOUS
 62
     7
 10
-24159.7400000001
 20
-49553.90816003564
 30
0.0
  0
VERTEX
  5
9B2
  8
1_10
  6
CONTINUOUS
 62
     7
 10
-25314.7400000001
 20
-49553.90816003564
 30
0.0
  0
VERTEX
  5
9B3
  8
1_10
  6
CONTINUOUS
 62
     7
 10
-25314.7400000001
 20
-49531.40816003564
 30
0.0
  0
SEQEND
  5
9B4
  8
1_10
  6
CONTINUOUS
 62
     7
  0
POLYLINE
  5
9B5
  8
1_10
  6
CONTINUOUS
 62
     7
 66
     1
 10
0.0
 20
0.0
 30
0.0
 70
   129
  0
VERTEX
  5
9B6
  8
1_10
  6
CONTINUOUS
 62
     7
 10
-24159.7400000001
 20
-50213.90816003564
 30
0.0
  0
VERTEX
  5
9B7
  8
1_10
  6
CONTINUOUS
 62
     7
 10
-24159.7400000001
 20
-50236.40816003564
 30
0.0
  0
VERTEX
  5
9B8
  8
1_10
  6
CONTINUOUS
 62
     7
 10
-25314.7400000001
 20
-50236.40816003564
 30
0.0
  0
VERTEX
  5
9B9
  8
1_10
  6
CONTINUOUS
 62
     7
 10
-25314.7400000001
 20
-50213.90816003564
 30
0.0
  0
SEQEND
  5
9BA
  8
1_10
  6
CONTINUOUS
 62
     7
  0
POLYLINE
  5
9BB
  8
1_10
  6
CONTINUOUS
 62
     7
 66
     1
 10
0.0
 20
0.0
 30
0.0
 70
   129
  0
VERTEX
  5
9BC
  8
1_10
  6
CONTINUOUS
 62
     7
 10
-25314.7400000001
 20
-50236.40816003564
 30
0.0
  0
VERTEX
  5
9BD
  8
1_10
  6
CONTINUOUS
 62
     7
 10
-25337.2400000001
 20
-50236.40816003564
 30
0.0
  0
VERTEX
  5
9BE
  8
1_10
  6
CONTINUOUS
 62
     7
 10
-25337.2400000001
 20
-49531.40816003564
 30
0.0
  0
VERTEX
  5
9BF
  8
1_10
  6
CONTINUOUS
 62
     7
 10
-25314.7400000001
 20
-49531.40816003564
 30
0.0
  0
SEQEND
  5
9C0
  8
1_10
  6
CONTINUOUS
 62
     7
  0
INSERT
  5
9C1
  8
1_10
 62
     7
  2
___-55
 10
0.0
 20
0.0
 30
0.0
  0
INSERT
  5
9C2
  8
1_10
 62
    12
  2
___-56
 10
0.0
 20
0.0
 30
0.0
  0
POLYLINE
  5
9C3
  8
1_10
  6
CONTINUOUS
 62
     7
 66
     1
 10
0.0
 20
0.0
 30
0.0
 70
   129
  0
VERTEX
  5
9C4
  8
1_10
  6
CONTINUOUS
 62
     7
 10
-24159.7400000001
 20
-50236.40816003564
 30
0.0
  0
VERTEX
  5
9C5
  8
1_10
  6
CONTINUOUS
 62
     7
 10
-24137.2400000001
 20
-50236.40816003564
 30
0.0
  0
VERTEX
  5
9C6
  8
1_10
  6
CONTINUOUS
 62
     7
 10
-24137.2400000001
 20
-49531.40816003564
 30
0.0
  0
VERTEX
  5
9C7
  8
1_10
  6
CONTINUOUS
 62
     7
 10
-24159.7400000001
 20
-49531.40816003564
 30
0.0
  0
SEQEND
  5
9C8
  8
1_10
  6
CONTINUOUS
 62
     7
  0
INSERT
  5
9C9
  8
1_10
 62
     7
  2
___-57
 10
0.0
 20
0.0
 30
0.0
  0
INSERT
  5
9CA
  8
1_10
 62
     7
  2
___-58
 10
0.0
 20
0.0
 30
0.0
  0
INSERT
  5
9CB
  8
1_10
 62
     7
  2
___-59
 10
0.0
 20
0.0
 30
0.0
  0
INSERT
  5
9CC
  8
1_10
 62
     7
  2
___-60
 10
0.0
 20
0.0
 30
0.0
  0
LINE
  5
9CD
  8
1_10
  6
DASHDOT
 62
     7
 10
-25337.2400000001
 20
-48070.44254476373
 30
0.0
 11
-25337.2400000001
 21
-50309.50637097763
 31
0.0
  0
LINE
  5
9CE
  8
1_10
  6
DASHDOT
 62
     7
 10
-24737.2400000001
 20
-48070.44254476373
 30
0.0
 11
-24737.2400000001
 21
-50309.50637097763
 31
0.0
  0
LINE
  5
9CF
  8
1_10
  6
DASHDOT
 62
     7
 10
-24137.2400000001
 20
-48070.44254476373
 30
0.0
 11
-24137.2400000001
 21
-50309.50637097763
 31
0.0
  0
POLYLINE
  5
9D0
  8
1_10
  6
CONTINUOUS
 62
     7
 66
     1
 10
0.0
 20
0.0
 30
0.0
 70
   129
  0
VERTEX
  5
9D1
  8
1_10
  6
CONTINUOUS
 62
     7
 10
-25314.7400000001
 20
-49894.66569809934
 30
0.0
  0
VERTEX
  5
9D2
  8
1_10
  6
CONTINUOUS
 62
     7
 10
-24159.7400000001
 20
-49894.66569809934
 30
0.0
  0
VERTEX
  5
9D3
  8
1_10
  6
CONTINUOUS
 62
     7
 10
-24159.7400000001
 20
-49915.66569809934
 30
0.0
  0
VERTEX
  5
9D4
  8
1_10
  6
CONTINUOUS
 62
     7
 10
-25314.7400000001
 20
-49915.66569809934
 30
0.0
  0
SEQEND
  5
9D5
  8
1_10
  6
CONTINUOUS
 62
     7
  0
INSERT
  5
9D6
  8
1_10
 62
     7
  2
____-11-1
 10
0.0
 20
0.0
 30
0.0
 41
1.5
 42
1.5
 43
1.5
  0
INSERT
  5
9D7
  8
1_10
 62
     7
  2
____-12-1
 10
0.0
 20
0.0
 30
0.0
 41
1.5
 42
1.5
 43
1.5
  0
INSERT
  5
9D8
  8
1_10
 62
     7
  2
____-13-1
 10
0.0
 20
0.0
 30
0.0
 41
1.5
 42
1.5
 43
1.5
  0
INSERT
  5
9D9
  8
1_10
 62
     7
  2
____-14-1
 10
0.0
 20
0.0
 30
0.0
 41
1.5
 42
1.5
 43
1.5
  0
POLYLINE
  5
9DA
  8
1_10
  6
CONTINUOUS
 62
     7
 66
     1
 10
0.0
 20
0.0
 30
0.0
 70
   129
  0
VERTEX
  5
9DB
  8
1_10
  6
CONTINUOUS
 62
     7
 10
-24797.2400000001
 20
-49553.90816003564
 30
0.0
  0
VERTEX
  5
9DC
  8
1_10
  6
CONTINUOUS
 62
     7
 10
-24677.2400000001
 20
-49553.90816003564
 30
0.0
  0
VERTEX
  5
9DD
  8
1_10
  6
CONTINUOUS
 62
     7
 10
-24677.2400000001
 20
-49613.90816003564
 30
0.0
  0
VERTEX
  5
9DE
  8
1_10
  6
CONTINUOUS
 62
     7
 10
-24797.2400000001
 20
-49613.90816003564
 30
0.0
  0
SEQEND
  5
9DF
  8
1_10
  6
CONTINUOUS
 62
     7
  0
TEXT
  5
9E0
  8
1_10
 62
     7
 10
-24838.9400000001
 20
-49661.84258893223
 30
0.0
 40
31.86024305555556
  1
耐震ラッチ
  7
YUGOTHIC_MEDIUM
 11
-24838.9400000001
 21
-49629.98234587668
 31
0.0
 73
     3
  0
POLYLINE
  5
9E1
  8
1_10
  6
CONTINUOUS
 62
   255
 66
     1
 10
0.0
 20
0.0
 30
0.0
 70
   129
  0
VERTEX
  5
9E2
  8
1_10
  6
CONTINUOUS
 62
   255
 10
-26825.2599999999
 20
-47335.92000000001
 30
0.0
  0
VERTEX
  5
9E3
  8
1_10
  6
CONTINUOUS
 62
   255
 10
-20650.5199999998
 20
-47335.92000000001
 30
0.0
  0
VERTEX
  5
9E4
  8
1_10
  6
CONTINUOUS
 62
   255
 10
-20650.5199999998
 20
-51664.08000000002
 30
0.0
  0
VERTEX
  5
9E5
  8
1_10
  6
CONTINUOUS
 62
   255
 10
-26825.2599999999
 20
-51664.08000000002
 30
0.0
  0
SEQEND
  5
9E6
  8
1_10
  6
CONTINUOUS
 62
   255
  0
POLYLINE
  5
9E7
  8
1_10
  6
CONTINUOUS
 62
     7
 66
     1
 10
0.0
 20
0.0
 30
0.0
 70
   129
  0
VERTEX
  5
9E8
  8
1_10
  6
CONTINUOUS
 62
     7
 10
-6704.236285547957
 20
-48160.86927949861
 30
0.0
  0
VERTEX
  5
9E9
  8
1_10
  6
CONTINUOUS
 62
     7
 10
-5136.736285547957
 20
-48160.86927949861
 30
0.0
  0
VERTEX
  5
9EA
  8
1_10
  6
CONTINUOUS
 62
     7
 10
-5136.736285547957
 20
-48753.36927949861
 30
0.0
  0
VERTEX
  5
9EB
  8
1_10
  6
CONTINUOUS
 62
     7
 10
-6704.236285547957
 20
-48753.36927949861
 30
0.0
  0
SEQEND
  5
9EC
  8
1_10
  6
CONTINUOUS
 62
     7
  0
LINE
  5
9ED
  8
1_10
  6
CENTER-3
 62
     7
 10
-5920.486285547957
 20
-48160.86927949861
 30
0.0
 11
-6704.236285547957
 21
-48753.36927949861
 31
0.0
  0
LINE
  5
9EE
  8
1_10
  6
CENTER-3
 62
     7
 10
-5920.486285547957
 20
-48160.86927949861
 30
0.0
 11
-5136.736285547957
 21
-48753.36927949861
 31
0.0
  0
INSERT
  5
9EF
  8
1_10
 62
     7
  2
___-61
 10
0.0
 20
0.0
 30
0.0
  0
INSERT
  5
9F0
  8
1_10
 62
    12
  2
___-62
 10
0.0
 20
0.0
 30
0.0
  0
INSERT
  5
9F1
  8
1_10
 62
     7
  2
___-63
 10
0.0
 20
0.0
 30
0.0
  0
LINE
  5
9F2
  8
1_10
  6
DASHDOT
 62
     7
 10
-6707.986285547957
 20
-48040.44254476373
 30
0.0
 11
-6707.986285547957
 21
-50189.50637097761
 31
0.0
  0
LINE
  5
9F3
  8
1_10
  6
DASHDOT
 62
     7
 10
-5132.986285547957
 20
-48040.44254476373
 30
0.0
 11
-5132.986285547957
 21
-50189.50637097761
 31
0.0
  0
POLYLINE
  5
9F4
  8
1_10
  6
CONTINUOUS
 62
     7
 66
     1
 10
0.0
 20
0.0
 30
0.0
 70
   129
  0
VERTEX
  5
9F5
  8
1_10
  6
CONTINUOUS
 62
     7
 10
-5155.486285547957
 20
-49531.40816003564
 30
0.0
  0
VERTEX
  5
9F6
  8
1_10
  6
CONTINUOUS
 62
     7
 10
-5155.486285547957
 20
-49553.90816003564
 30
0.0
  0
VERTEX
  5
9F7
  8
1_10
  6
CONTINUOUS
 62
     7
 10
-6685.486285547957
 20
-49553.90816003564
 30
0.0
  0
VERTEX
  5
9F8
  8
1_10
  6
CONTINUOUS
 62
     7
 10
-6685.486285547957
 20
-49531.40816003564
 30
0.0
  0
SEQEND
  5
9F9
  8
1_10
  6
CONTINUOUS
 62
     7
  0
POLYLINE
  5
9FA
  8
1_10
  6
CONTINUOUS
 62
     7
 66
     1
 10
0.0
 20
0.0
 30
0.0
 70
   129
  0
VERTEX
  5
9FB
  8
1_10
  6
CONTINUOUS
 62
     7
 10
-5155.486285547957
 20
-50093.90816003564
 30
0.0
  0
VERTEX
  5
9FC
  8
1_10
  6
CONTINUOUS
 62
     7
 10
-5155.486285547957
 20
-50116.40816003564
 30
0.0
  0
VERTEX
  5
9FD
  8
1_10
  6
CONTINUOUS
 62
     7
 10
-6685.486285547957
 20
-50116.40816003564
 30
0.0
  0
VERTEX
  5
9FE
  8
1_10
  6
CONTINUOUS
 62
     7
 10
-6685.486285547957
 20
-50093.90816003564
 30
0.0
  0
SEQEND
  5
9FF
  8
1_10
  6
CONTINUOUS
 62
     7
  0
POLYLINE
  5
A00
  8
1_10
  6
CONTINUOUS
 62
     7
 66
     1
 10
0.0
 20
0.0
 30
0.0
 70
   129
  0
VERTEX
  5
A01
  8
1_10
  6
CONTINUOUS
 62
     7
 10
-6685.486285547957
 20
-50116.40816003564
 30
0.0
  0
VERTEX
  5
A02
  8
1_10
  6
CONTINUOUS
 62
     7
 10
-6707.986285547957
 20
-50116.40816003564
 30
0.0
  0
VERTEX
  5
A03
  8
1_10
  6
CONTINUOUS
 62
     7
 10
-6707.986285547957
 20
-49531.40816003564
 30
0.0
  0
VERTEX
  5
A04
  8
1_10
  6
CONTINUOUS
 62
     7
 10
-6685.486285547957
 20
-49531.40816003564
 30
0.0
  0
SEQEND
  5
A05
  8
1_10
  6
CONTINUOUS
 62
     7
  0
INSERT
  5
A06
  8
1_10
 62
     7
  2
___-64
 10
0.0
 20
0.0
 30
0.0
  0
INSERT
  5
A07
  8
1_10
 62
    12
  2
___-65
 10
0.0
 20
0.0
 30
0.0
  0
POLYLINE
  5
A08
  8
1_10
  6
CONTINUOUS
 62
     7
 66
     1
 10
0.0
 20
0.0
 30
0.0
 70
   129
  0
VERTEX
  5
A09
  8
1_10
  6
CONTINUOUS
 62
     7
 10
-5155.486285547957
 20
-50116.40816003564
 30
0.0
  0
VERTEX
  5
A0A
  8
1_10
  6
CONTINUOUS
 62
     7
 10
-5132.986285547957
 20
-50116.40816003564
 30
0.0
  0
VERTEX
  5
A0B
  8
1_10
  6
CONTINUOUS
 62
     7
 10
-5132.986285547957
 20
-49531.40816003564
 30
0.0
  0
VERTEX
  5
A0C
  8
1_10
  6
CONTINUOUS
 62
     7
 10
-5155.486285547957
 20
-49531.40816003564
 30
0.0
  0
SEQEND
  5
A0D
  8
1_10
  6
CONTINUOUS
 62
     7
  0
INSERT
  5
A0E
  8
1_10
 62
     7
  2
___-66
 10
0.0
 20
0.0
 30
0.0
  0
INSERT
  5
A0F
  8
1_10
 62
     7
  2
___-67
 10
0.0
 20
0.0
 30
0.0
  0
INSERT
  5
A10
  8
1_10
 62
     7
  2
___-68
 10
0.0
 20
0.0
 30
0.0
  0
INSERT
  5
A11
  8
1_10
 62
     7
  2
___-69
 10
0.0
 20
0.0
 30
0.0
  0
INSERT
  5
A12
  8
1_10
 62
     7
  2
___-70
 10
0.0
 20
0.0
 30
0.0
  0
POLYLINE
  5
A13
  8
1_10
  6
CONTINUOUS
 62
     7
 66
     1
 10
0.0
 20
0.0
 30
0.0
 70
   129
  0
VERTEX
  5
A14
  8
1_10
  6
CONTINUOUS
 62
     7
 10
-6685.486285547957
 20
-49804.39264754692
 30
0.0
  0
VERTEX
  5
A15
  8
1_10
  6
CONTINUOUS
 62
     7
 10
-5942.986285547957
 20
-49804.39264754692
 30
0.0
  0
VERTEX
  5
A16
  8
1_10
  6
CONTINUOUS
 62
     7
 10
-5942.986285547957
 20
-49825.39264754692
 30
0.0
  0
VERTEX
  5
A17
  8
1_10
  6
CONTINUOUS
 62
     7
 10
-6685.486285547957
 20
-49825.39264754692
 30
0.0
  0
SEQEND
  5
A18
  8
1_10
  6
CONTINUOUS
 62
     7
  0
LINE
  5
A19
  8
1_10
  6
DASHDOT
 62
     7
 10
-5920.486285547957
 20
-48040.44254476373
 30
0.0
 11
-5920.486285547957
 21
-50189.50637097761
 31
0.0
  0
POLYLINE
  5
A1A
  8
1_10
  6
CONTINUOUS
 62
     7
 66
     1
 10
0.0
 20
0.0
 30
0.0
 70
   129
  0
VERTEX
  5
A1B
  8
1_10
  6
CONTINUOUS
 62
     7
 10
-5897.986285547957
 20
-50093.90816003564
 30
0.0
  0
VERTEX
  5
A1C
  8
1_10
  6
CONTINUOUS
 62
     7
 10
-5942.986285547957
 20
-50093.90816003564
 30
0.0
  0
VERTEX
  5
A1D
  8
1_10
  6
CONTINUOUS
 62
     7
 10
-5942.986285547957
 20
-49553.90816003564
 30
0.0
  0
VERTEX
  5
A1E
  8
1_10
  6
CONTINUOUS
 62
     7
 10
-5897.986285547957
 20
-49553.90816003564
 30
0.0
  0
SEQEND
  5
A1F
  8
1_10
  6
CONTINUOUS
 62
     7
  0
POLYLINE
  5
A20
  8
1_10
  6
CONTINUOUS
 62
     7
 66
     1
 10
0.0
 20
0.0
 30
0.0
 70
   129
  0
VERTEX
  5
A21
  8
1_10
  6
CONTINUOUS
 62
     7
 10
-5155.486285547957
 20
-49804.39264754692
 30
0.0
  0
VERTEX
  5
A22
  8
1_10
  6
CONTINUOUS
 62
     7
 10
-5897.986285547957
 20
-49804.39264754692
 30
0.0
  0
VERTEX
  5
A23
  8
1_10
  6
CONTINUOUS
 62
     7
 10
-5897.986285547957
 20
-49825.39264754692
 30
0.0
  0
VERTEX
  5
A24
  8
1_10
  6
CONTINUOUS
 62
     7
 10
-5155.486285547957
 20
-49825.39264754692
 30
0.0
  0
SEQEND
  5
A25
  8
1_10
  6
CONTINUOUS
 62
     7
  0
POLYLINE
  5
A26
  8
1_10
  6
______-6
 62
     7
 66
     1
 10
0.0
 20
0.0
 30
0.0
 70
   129
  0
VERTEX
  5
A27
  8
1_10
  6
______-6
 62
     7
 10
-5191.820255149078
 20
-49553.90816003564
 30
0.0
  0
VERTEX
  5
A28
  8
1_10
  6
______-6
 62
     7
 10
-5155.486285547957
 20
-49553.90816003564
 30
0.0
  0
VERTEX
  5
A29
  8
1_10
  6
______-6
 62
     7
 10
-5155.486285547957
 20
-49763.90816003564
 30
0.0
  0
VERTEX
  5
A2A
  8
1_10
  6
______-6
 62
     7
 10
-5191.820255149078
 20
-49763.90816003564
 30
0.0
  0
SEQEND
  5
A2B
  8
1_10
  6
______-6
 62
     7
  0
POLYLINE
  5
A2C
  8
1_10
  6
______-6
 62
     7
 66
     1
 10
0.0
 20
0.0
 30
0.0
 70
   129
  0
VERTEX
  5
A2D
  8
1_10
  6
______-6
 62
     7
 10
-6685.486285547957
 20
-49553.90816003564
 30
0.0
  0
VERTEX
  5
A2E
  8
1_10
  6
______-6
 62
     7
 10
-6649.152315946836
 20
-49553.90816003564
 30
0.0
  0
VERTEX
  5
A2F
  8
1_10
  6
______-6
 62
     7
 10
-6649.152315946836
 20
-49763.90816003564
 30
0.0
  0
VERTEX
  5
A30
  8
1_10
  6
______-6
 62
     7
 10
-6685.486285547957
 20
-49763.90816003564
 30
0.0
  0
SEQEND
  5
A31
  8
1_10
  6
______-6
 62
     7
  0
POLYLINE
  5
A32
  8
1_10
  6
CONTINUOUS
 62
   255
 66
     1
 10
0.0
 20
0.0
 30
0.0
 70
   129
  0
VERTEX
  5
A33
  8
1_10
  6
CONTINUOUS
 62
   255
 10
-8301.039999999595
 20
-47335.92000000001
 30
0.0
  0
VERTEX
  5
A34
  8
1_10
  6
CONTINUOUS
 62
   255
 10
-2126.299999999495
 20
-47335.92000000001
 30
0.0
  0
VERTEX
  5
A35
  8
1_10
  6
CONTINUOUS
 62
   255
 10
-2126.299999999495
 20
-51664.08000000002
 30
0.0
  0
VERTEX
  5
A36
  8
1_10
  6
CONTINUOUS
 62
   255
 10
-8301.039999999595
 20
-51664.08000000002
 30
0.0
  0
SEQEND
  5
A37
  8
1_10
  6
CONTINUOUS
 62
   255
  0
INSERT
  5
A38
  8
1_10
 62
    12
  2
___-71
 10
0.0
 20
0.0
 30
0.0
  0
INSERT
  5
A39
  8
1_10
 62
     7
  2
___-72
 10
0.0
 20
0.0
 30
0.0
  0
POLYLINE
  5
A3A
  8
1_10
  6
CONTINUOUS
 62
     7
 66
     1
 10
0.0
 20
0.0
 30
0.0
 70
   129
  0
VERTEX
  5
A3B
  8
1_10
  6
CONTINUOUS
 62
     7
 10
-30501.95882518619
 20
-49531.40816003564
 30
0.0
  0
VERTEX
  5
A3C
  8
1_10
  6
CONTINUOUS
 62
     7
 10
-30501.95882518619
 20
-49553.90816003564
 30
0.0
  0
VERTEX
  5
A3D
  8
1_10
  6
CONTINUOUS
 62
     7
 10
-29946.95882518619
 20
-49553.90816003564
 30
0.0
  0
VERTEX
  5
A3E
  8
1_10
  6
CONTINUOUS
 62
     7
 10
-29946.95882518619
 20
-49531.40816003564
 30
0.0
  0
SEQEND
  5
A3F
  8
1_10
  6
CONTINUOUS
 62
     7
  0
POLYLINE
  5
A40
  8
1_10
  6
CONTINUOUS
 62
     7
 66
     1
 10
0.0
 20
0.0
 30
0.0
 70
   129
  0
VERTEX
  5
A41
  8
1_10
  6
CONTINUOUS
 62
     7
 10
-30501.95882518619
 20
-50213.90816003564
 30
0.0
  0
VERTEX
  5
A42
  8
1_10
  6
CONTINUOUS
 62
     7
 10
-30501.95882518619
 20
-50236.40816003564
 30
0.0
  0
VERTEX
  5
A43
  8
1_10
  6
CONTINUOUS
 62
     7
 10
-29946.95882518619
 20
-50236.40816003564
 30
0.0
  0
VERTEX
  5
A44
  8
1_10
  6
CONTINUOUS
 62
     7
 10
-29946.95882518619
 20
-50213.90816003564
 30
0.0
  0
SEQEND
  5
A45
  8
1_10
  6
CONTINUOUS
 62
     7
  0
POLYLINE
  5
A46
  8
1_10
  6
CONTINUOUS
 62
     7
 66
     1
 10
0.0
 20
0.0
 30
0.0
 70
   129
  0
VERTEX
  5
A47
  8
1_10
  6
CONTINUOUS
 62
     7
 10
-29946.95882518619
 20
-50236.40816003564
 30
0.0
  0
VERTEX
  5
A48
  8
1_10
  6
CONTINUOUS
 62
     7
 10
-29924.45882518619
 20
-50236.40816003564
 30
0.0
  0
VERTEX
  5
A49
  8
1_10
  6
CONTINUOUS
 62
     7
 10
-29924.45882518619
 20
-49531.40816003564
 30
0.0
  0
VERTEX
  5
A4A
  8
1_10
  6
CONTINUOUS
 62
     7
 10
-29946.95882518619
 20
-49531.40816003564
 30
0.0
  0
SEQEND
  5
A4B
  8
1_10
  6
CONTINUOUS
 62
     7
  0
INSERT
  5
A4C
  8
1_10
 62
    12
  2
___-73
 10
0.0
 20
0.0
 30
0.0
  0
INSERT
  5
A4D
  8
1_10
 62
     7
  2
___-74
 10
0.0
 20
0.0
 30
0.0
  0
POLYLINE
  5
A4E
  8
1_10
  6
CONTINUOUS
 62
     7
 66
     1
 10
0.0
 20
0.0
 30
0.0
 70
   129
  0
VERTEX
  5
A4F
  8
1_10
  6
CONTINUOUS
 62
     7
 10
-30501.95882518619
 20
-50236.40816003564
 30
0.0
  0
VERTEX
  5
A50
  8
1_10
  6
CONTINUOUS
 62
     7
 10
-30524.45882518619
 20
-50236.40816003564
 30
0.0
  0
VERTEX
  5
A51
  8
1_10
  6
CONTINUOUS
 62
     7
 10
-30524.45882518619
 20
-49531.40816003564
 30
0.0
  0
VERTEX
  5
A52
  8
1_10
  6
CONTINUOUS
 62
     7
 10
-30501.95882518619
 20
-49531.40816003564
 30
0.0
  0
SEQEND
  5
A53
  8
1_10
  6
CONTINUOUS
 62
     7
  0
INSERT
  5
A54
  8
1_10
 62
     7
  2
___-75
 10
0.0
 20
0.0
 30
0.0
  0
LINE
  5
A55
  8
1_10
  6
DASHDOT
 62
     7
 10
-29924.45882518619
 20
-48070.44254476373
 30
0.0
 11
-29924.45882518619
 21
-50309.50637097763
 31
0.0
  0
LINE
  5
A56
  8
1_10
  6
DASHDOT
 62
     7
 10
-30524.45882518619
 20
-48070.44254476373
 30
0.0
 11
-30524.45882518619
 21
-50309.50637097763
 31
0.0
  0
POLYLINE
  5
A57
  8
1_10
  6
CONTINUOUS
 62
     7
 66
     1
 10
0.0
 20
0.0
 30
0.0
 70
   129
  0
VERTEX
  5
A58
  8
1_10
  6
CONTINUOUS
 62
     7
 10
-29946.95882518619
 20
-49875.96454242696
 30
0.0
  0
VERTEX
  5
A59
  8
1_10
  6
CONTINUOUS
 62
     7
 10
-30501.95882518619
 20
-49875.96454242696
 30
0.0
  0
VERTEX
  5
A5A
  8
1_10
  6
CONTINUOUS
 62
     7
 10
-30501.95882518619
 20
-49896.96454242696
 30
0.0
  0
VERTEX
  5
A5B
  8
1_10
  6
CONTINUOUS
 62
     7
 10
-29946.95882518619
 20
-49896.96454242696
 30
0.0
  0
SEQEND
  5
A5C
  8
1_10
  6
CONTINUOUS
 62
     7
  0
INSERT
  5
A5D
  8
1_10
 62
     7
  2
____-15-1
 10
0.0
 20
0.0
 30
0.0
 41
1.5
 42
1.5
 43
1.5
  0
INSERT
  5
A5E
  8
1_10
 62
     7
  2
____-16-1
 10
0.0
 20
0.0
 30
0.0
 41
1.5
 42
1.5
 43
1.5
  0
POLYLINE
  5
A5F
  8
1_10
  6
CONTINUOUS
 62
     7
 66
     1
 10
0.0
 20
0.0
 30
0.0
 70
   129
  0
VERTEX
  5
A60
  8
1_10
  6
CONTINUOUS
 62
     7
 10
-30475.52156613274
 20
-49553.90816003564
 30
0.0
  0
VERTEX
  5
A61
  8
1_10
  6
CONTINUOUS
 62
     7
 10
-30415.52156613274
 20
-49553.90816003564
 30
0.0
  0
VERTEX
  5
A62
  8
1_10
  6
CONTINUOUS
 62
     7
 10
-30415.52156613274
 20
-49613.90816003564
 30
0.0
  0
VERTEX
  5
A63
  8
1_10
  6
CONTINUOUS
 62
     7
 10
-30475.52156613274
 20
-49613.90816003564
 30
0.0
  0
SEQEND
  5
A64
  8
1_10
  6
CONTINUOUS
 62
     7
  0
TEXT
  5
A65
  8
1_10
 62
     7
 10
-30472.87549185285
 20
-49661.84258893223
 30
0.0
 40
31.86024305555556
  1
耐震ラッチ
  7
YUGOTHIC_MEDIUM
 11
-30472.87549185285
 21
-49629.98234587668
 31
0.0
 73
     3
  0
TEXT
  5
A66
  8
1_10
 62
     7
 10
-31640.6263216935
 20
-50714.40592226559
 30
0.0
 40
39.82530381944444
  1
%%u左吊り元の場合
  7
YUGOTHIC_MEDIUM
 11
-31640.6263216935
 21
-50674.58061844614
 31
0.0
 73
     3
  0
TEXT
  5
A67
  8
1_10
 62
     7
 10
-30404.01077541245
 20
-50714.40592226559
 30
0.0
 40
39.82530381944444
  1
%%u右吊り元の場合
  7
YUGOTHIC_MEDIUM
 11
-30404.01077541245
 21
-50674.58061844614
 31
0.0
 73
     3
  0
TEXT
  5
A68
  8
1_10
 62
     7
 10
-31481.23683712044
 20
-49810.2458468999
 30
0.0
 40
31.86024305555556
  1
可動棚
  7
YUGOTHIC_MEDIUM
 11
-31481.23683712044
 21
-49778.38560384435
 31
0.0
 73
     3
  0
TEXT
  5
A69
  8
1_10
 62
     7
 10
-30278.74269238305
 20
-49806.92145715956
 30
0.0
 40
31.86024305555556
  1
可動棚
  7
YUGOTHIC_MEDIUM
 11
-30278.74269238305
 21
-49775.061214104
 31
0.0
 73
     3
  0
INSERT
  5
A6A
  8
1_10
 62
     7
  2
___-76
 10
0.0
 20
0.0
 30
0.0
  0
INSERT
  5
A6B
  8
1_10
 62
     7
  2
___-77
 10
0.0
 20
0.0
 30
0.0
  0
INSERT
  5
A6C
  8
1_10
 62
     7
  2
___-78
 10
0.0
 20
0.0
 30
0.0
  0
INSERT
  5
A6D
  8
1_10
 62
     7
  2
____-3-2
 10
-28741.49848805266
 20
-48643.78050822207
 30
0.0
 41
1.5
 42
1.5
 43
1.5
  0
INSERT
  5
A6E
  8
1_10
 62
     7
  2
____-3-2
 10
-22566.75848805256
 20
-48643.78050822207
 30
0.0
 41
1.5
 42
1.5
 43
1.5
  0
INSERT
  5
A6F
  8
1_10
 62
     7
  2
____-3-2
 10
-16392.01848805246
 20
-48643.78050822207
 30
0.0
 41
1.5
 42
1.5
 43
1.5
  0
INSERT
  5
A70
  8
1_10
 62
     7
  2
____-5-2
 10
-10160.42709394508
 20
-48572.16361275612
 30
0.0
 41
1.5
 42
1.5
 43
1.5
  0
POLYLINE
  5
A71
  8
1_10
  6
CONTINUOUS
 62
   255
 66
     1
 10
0.0
 20
0.0
 30
0.0
 70
   129
  0
VERTEX
  5
A72
  8
1_10
  6
CONTINUOUS
 62
   255
 10
-8301.0400000001
 20
-47335.92000000001
 30
0.0
  0
VERTEX
  5
A73
  8
1_10
  6
CONTINUOUS
 62
   255
 10
-2126.299999999999
 20
-47335.92000000001
 30
0.0
  0
VERTEX
  5
A74
  8
1_10
  6
CONTINUOUS
 62
   255
 10
-2126.299999999999
 20
-51664.08000000002
 30
0.0
  0
VERTEX
  5
A75
  8
1_10
  6
CONTINUOUS
 62
   255
 10
-8301.0400000001
 20
-51664.08000000002
 30
0.0
  0
SEQEND
  5
A76
  8
1_10
  6
CONTINUOUS
 62
   255
  0
INSERT
  5
A77
  8
1_10
 62
     7
  2
____-5-2
 10
-3985.687093945483
 20
-48572.16361275612
 30
0.0
 41
1.5
 42
1.5
 43
1.5
  0
INSERT
  5
A78
  8
1_10
 62
     5
  2
*X120
 10
0.0
 20
0.0
 30
0.0
 41
1.5
 42
1.5
 43
1.5
  0
POLYLINE
  5
A79
  8
1_10
  6
DASHDOT
 62
     5
 66
     1
 10
0.0
 20
0.0
 30
0.0
 70
   129
  0
VERTEX
  5
A7A
  8
1_10
  6
DASHDOT
 62
     5
 10
-31724.45882518619
 20
-49531.40816003564
 30
0.0
  0
VERTEX
  5
A7B
  8
1_10
  6
DASHDOT
 62
     5
 10
-31124.45882518619
 20
-49531.40816003564
 30
0.0
  0
VERTEX
  5
A7C
  8
1_10
  6
DASHDOT
 62
     5
 10
-31124.45882518619
 20
-49681.40816003564
 30
0.0
  0
VERTEX
  5
A7D
  8
1_10
  6
DASHDOT
 62
     5
 10
-31724.45882518619
 20
-49681.40816003564
 30
0.0
  0
SEQEND
  5
A7E
  8
1_10
  6
DASHDOT
 62
     5
  0
INSERT
  5
A7F
  8
1_10
 62
     5
  2
*X121
 10
0.0
 20
0.0
 30
0.0
 41
1.5
 42
1.5
 43
1.5
  0
POLYLINE
  5
A80
  8
1_10
  6
DASHDOT
 62
     5
 66
     1
 10
0.0
 20
0.0
 30
0.0
 70
   129
  0
VERTEX
  5
A81
  8
1_10
  6
DASHDOT
 62
     5
 10
-31724.45882518619
 20
-50086.40816003564
 30
0.0
  0
VERTEX
  5
A82
  8
1_10
  6
DASHDOT
 62
     5
 10
-31124.45882518619
 20
-50086.40816003564
 30
0.0
  0
VERTEX
  5
A83
  8
1_10
  6
DASHDOT
 62
     5
 10
-31124.45882518619
 20
-50236.40816003564
 30
0.0
  0
VERTEX
  5
A84
  8
1_10
  6
DASHDOT
 62
     5
 10
-31724.45882518619
 20
-50236.40816003564
 30
0.0
  0
SEQEND
  5
A85
  8
1_10
  6
DASHDOT
 62
     5
  0
INSERT
  5
A86
  8
1_10
 62
     5
  2
*X122
 10
0.0
 20
0.0
 30
0.0
 41
1.5
 42
1.5
 43
1.5
  0
POLYLINE
  5
A87
  8
1_10
  6
DASHDOT
 62
     5
 66
     1
 10
0.0
 20
0.0
 30
0.0
 70
   129
  0
VERTEX
  5
A88
  8
1_10
  6
DASHDOT
 62
     5
 10
-31724.45882518619
 20
-49771.40816003564
 30
0.0
  0
VERTEX
  5
A89
  8
1_10
  6
DASHDOT
 62
     5
 10
-31124.45882518619
 20
-49771.40816003564
 30
0.0
  0
VERTEX
  5
A8A
  8
1_10
  6
DASHDOT
 62
     5
 10
-31124.45882518619
 20
-49921.40816003564
 30
0.0
  0
VERTEX
  5
A8B
  8
1_10
  6
DASHDOT
 62
     5
 10
-31724.45882518619
 20
-49921.40816003564
 30
0.0
  0
SEQEND
  5
A8C
  8
1_10
  6
DASHDOT
 62
     5
  0
INSERT
  5
A8D
  8
1_10
 62
     5
  2
*X123
 10
0.0
 20
0.0
 30
0.0
 41
1.5
 42
1.5
 43
1.5
  0
POLYLINE
  5
A8E
  8
1_10
  6
DASHDOT
 62
     5
 66
     1
 10
0.0
 20
0.0
 30
0.0
 70
   129
  0
VERTEX
  5
A8F
  8
1_10
  6
DASHDOT
 62
     5
 10
-30524.45882518619
 20
-49531.40816003564
 30
0.0
  0
VERTEX
  5
A90
  8
1_10
  6
DASHDOT
 62
     5
 10
-29924.45882518619
 20
-49531.40816003564
 30
0.0
  0
VERTEX
  5
A91
  8
1_10
  6
DASHDOT
 62
     5
 10
-29924.45882518619
 20
-49681.40816003564
 30
0.0
  0
VERTEX
  5
A92
  8
1_10
  6
DASHDOT
 62
     5
 10
-30524.45882518619
 20
-49681.40816003564
 30
0.0
  0
SEQEND
  5
A93
  8
1_10
  6
DASHDOT
 62
     5
  0
INSERT
  5
A94
  8
1_10
 62
     5
  2
*X124
 10
0.0
 20
0.0
 30
0.0
 41
1.5
 42
1.5
 43
1.5
  0
POLYLINE
  5
A95
  8
1_10
  6
DASHDOT
 62
     5
 66
     1
 10
0.0
 20
0.0
 30
0.0
 70
   129
  0
VERTEX
  5
A96
  8
1_10
  6
DASHDOT
 62
     5
 10
-30524.45882518619
 20
-50086.40816003564
 30
0.0
  0
VERTEX
  5
A97
  8
1_10
  6
DASHDOT
 62
     5
 10
-29924.45882518619
 20
-50086.40816003564
 30
0.0
  0
VERTEX
  5
A98
  8
1_10
  6
DASHDOT
 62
     5
 10
-29924.45882518619
 20
-50236.40816003564
 30
0.0
  0
VERTEX
  5
A99
  8
1_10
  6
DASHDOT
 62
     5
 10
-30524.45882518619
 20
-50236.40816003564
 30
0.0
  0
SEQEND
  5
A9A
  8
1_10
  6
DASHDOT
 62
     5
  0
INSERT
  5
A9B
  8
1_10
 62
     5
  2
*X125
 10
0.0
 20
0.0
 30
0.0
 41
1.5
 42
1.5
 43
1.5
  0
POLYLINE
  5
A9C
  8
1_10
  6
DASHDOT
 62
     5
 66
     1
 10
0.0
 20
0.0
 30
0.0
 70
   129
  0
VERTEX
  5
A9D
  8
1_10
  6
DASHDOT
 62
     5
 10
-30524.45882518619
 20
-49771.40816003564
 30
0.0
  0
VERTEX
  5
A9E
  8
1_10
  6
DASHDOT
 62
     5
 10
-29924.45882518619
 20
-49771.40816003564
 30
0.0
  0
VERTEX
  5
A9F
  8
1_10
  6
DASHDOT
 62
     5
 10
-29924.45882518619
 20
-49921.40816003564
 30
0.0
  0
VERTEX
  5
AA0
  8
1_10
  6
DASHDOT
 62
     5
 10
-30524.45882518619
 20
-49921.40816003564
 30
0.0
  0
SEQEND
  5
AA1
  8
1_10
  6
DASHDOT
 62
     5
  0
TEXT
  5
AA2
  8
1_10
 62
     7
 10
-29875.25
 20
-49326.87046966384
 30
0.0
 40
31.86024305555556
  1
斜線部：取り付け下地 
  7
YUGOTHIC_MEDIUM
 11
-29875.25
 21
-49295.01022660828
 31
0.0
 73
     3
  0
TEXT
  5
AA3
  8
1_10
 62
     7
 10
-29875.25
 20
-49390.37046966384
 30
0.0
 40
31.86024305555556
  1
(建築工事にてご用意ください)
  7
YUGOTHIC_MEDIUM
 11
-29875.25
 21
-49358.51022660828
 31
0.0
 73
     3
  0
LINE
  5
AA4
  8
1_10
  6
CONTINUOUS
 62
     7
 10
-30021.75
 20
-49600.5
 30
0.0
 11
-29878.5
 21
-49419.0
 31
0.0
  0
LINE
  5
AA5
  8
1_10
  6
CONTINUOUS
 62
     7
 10
-29878.5
 20
-49419.0
 30
0.0
 11
-29302.35737013984
 21
-49419.0
 31
0.0
  0
INSERT
  5
AA6
  8
1_10
 62
     5
  2
*X126
 10
0.0
 20
0.0
 30
0.0
 41
1.5
 42
1.5
 43
1.5
  0
POLYLINE
  5
AA7
  8
1_10
  6
DASHDOT
 62
     5
 66
     1
 10
0.0
 20
0.0
 30
0.0
 70
   129
  0
VERTEX
  5
AA8
  8
1_10
  6
DASHDOT
 62
     5
 10
-25337.2400000001
 20
-49531.40816003564
 30
0.0
  0
VERTEX
  5
AA9
  8
1_10
  6
DASHDOT
 62
     5
 10
-24137.2400000001
 20
-49531.40816003564
 30
0.0
  0
VERTEX
  5
AAA
  8
1_10
  6
DASHDOT
 62
     5
 10
-24137.2400000001
 20
-49681.40816003564
 30
0.0
  0
VERTEX
  5
AAB
  8
1_10
  6
DASHDOT
 62
     5
 10
-25337.2400000001
 20
-49681.40816003564
 30
0.0
  0
SEQEND
  5
AAC
  8
1_10
  6
DASHDOT
 62
     5
  0
INSERT
  5
AAD
  8
1_10
 62
     5
  2
*X127
 10
0.0
 20
0.0
 30
0.0
 41
1.5
 42
1.5
 43
1.5
  0
POLYLINE
  5
AAE
  8
1_10
  6
DASHDOT
 62
     5
 66
     1
 10
0.0
 20
0.0
 30
0.0
 70
   129
  0
VERTEX
  5
AAF
  8
1_10
  6
DASHDOT
 62
     5
 10
-25337.2400000001
 20
-50086.40816003564
 30
0.0
  0
VERTEX
  5
AB0
  8
1_10
  6
DASHDOT
 62
     5
 10
-24137.2400000001
 20
-50086.40816003564
 30
0.0
  0
VERTEX
  5
AB1
  8
1_10
  6
DASHDOT
 62
     5
 10
-24137.2400000001
 20
-50236.40816003564
 30
0.0
  0
VERTEX
  5
AB2
  8
1_10
  6
DASHDOT
 62
     5
 10
-25337.2400000001
 20
-50236.40816003564
 30
0.0
  0
SEQEND
  5
AB3
  8
1_10
  6
DASHDOT
 62
     5
  0
INSERT
  5
AB4
  8
1_10
 62
     5
  2
*X128
 10
0.0
 20
0.0
 30
0.0
 41
1.5
 42
1.5
 43
1.5
  0
POLYLINE
  5
AB5
  8
1_10
  6
DASHDOT
 62
     5
 66
     1
 10
0.0
 20
0.0
 30
0.0
 70
   129
  0
VERTEX
  5
AB6
  8
1_10
  6
DASHDOT
 62
     5
 10
-25337.2400000001
 20
-49808.90816003564
 30
0.0
  0
VERTEX
  5
AB7
  8
1_10
  6
DASHDOT
 62
     5
 10
-24137.2400000001
 20
-49808.90816003564
 30
0.0
  0
VERTEX
  5
AB8
  8
1_10
  6
DASHDOT
 62
     5
 10
-24137.2400000001
 20
-49958.90816003564
 30
0.0
  0
VERTEX
  5
AB9
  8
1_10
  6
DASHDOT
 62
     5
 10
-25337.2400000001
 20
-49958.90816003564
 30
0.0
  0
SEQEND
  5
ABA
  8
1_10
  6
DASHDOT
 62
     5
  0
INSERT
  5
ABB
  8
1_10
 62
     5
  2
*X129
 10
0.0
 20
0.0
 30
0.0
 41
1.5
 42
1.5
 43
1.5
  0
POLYLINE
  5
ABC
  8
1_10
  6
DASHDOT
 62
     5
 66
     1
 10
0.0
 20
0.0
 30
0.0
 70
   129
  0
VERTEX
  5
ABD
  8
1_10
  6
DASHDOT
 62
     5
 10
-19162.5
 20
-49531.40816003564
 30
0.0
  0
VERTEX
  5
ABE
  8
1_10
  6
DASHDOT
 62
     5
 10
-17362.5
 20
-49531.40816003564
 30
0.0
  0
VERTEX
  5
ABF
  8
1_10
  6
DASHDOT
 62
     5
 10
-17362.5
 20
-49681.40816003564
 30
0.0
  0
VERTEX
  5
AC0
  8
1_10
  6
DASHDOT
 62
     5
 10
-19162.5
 20
-49681.40816003564
 30
0.0
  0
SEQEND
  5
AC1
  8
1_10
  6
DASHDOT
 62
     5
  0
INSERT
  5
AC2
  8
1_10
 62
     5
  2
*X130
 10
0.0
 20
0.0
 30
0.0
 41
1.5
 42
1.5
 43
1.5
  0
POLYLINE
  5
AC3
  8
1_10
  6
DASHDOT
 62
     5
 66
     1
 10
0.0
 20
0.0
 30
0.0
 70
   129
  0
VERTEX
  5
AC4
  8
1_10
  6
DASHDOT
 62
     5
 10
-19162.5
 20
-50086.40816003564
 30
0.0
  0
VERTEX
  5
AC5
  8
1_10
  6
DASHDOT
 62
     5
 10
-17362.5
 20
-50086.40816003564
 30
0.0
  0
VERTEX
  5
AC6
  8
1_10
  6
DASHDOT
 62
     5
 10
-17362.5
 20
-50236.40816003564
 30
0.0
  0
VERTEX
  5
AC7
  8
1_10
  6
DASHDOT
 62
     5
 10
-19162.5
 20
-50236.40816003564
 30
0.0
  0
SEQEND
  5
AC8
  8
1_10
  6
DASHDOT
 62
     5
  0
INSERT
  5
AC9
  8
1_10
 62
     5
  2
*X131
 10
0.0
 20
0.0
 30
0.0
 41
1.5
 42
1.5
 43
1.5
  0
POLYLINE
  5
ACA
  8
1_10
  6
DASHDOT
 62
     5
 66
     1
 10
0.0
 20
0.0
 30
0.0
 70
   129
  0
VERTEX
  5
ACB
  8
1_10
  6
DASHDOT
 62
     5
 10
-19162.5
 20
-49808.90816003564
 30
0.0
  0
VERTEX
  5
ACC
  8
1_10
  6
DASHDOT
 62
     5
 10
-17362.5
 20
-49808.90816003564
 30
0.0
  0
VERTEX
  5
ACD
  8
1_10
  6
DASHDOT
 62
     5
 10
-17362.5
 20
-49958.90816003564
 30
0.0
  0
VERTEX
  5
ACE
  8
1_10
  6
DASHDOT
 62
     5
 10
-19162.5
 20
-49958.90816003564
 30
0.0
  0
SEQEND
  5
ACF
  8
1_10
  6
DASHDOT
 62
     5
  0
INSERT
  5
AD0
  8
1_10
 62
     5
  2
*X132
 10
0.0
 20
0.0
 30
0.0
 41
1.5
 42
1.5
 43
1.5
  0
POLYLINE
  5
AD1
  8
1_10
  6
DASHDOT
 62
     5
 66
     1
 10
0.0
 20
0.0
 30
0.0
 70
   129
  0
VERTEX
  5
AD2
  8
1_10
  6
DASHDOT
 62
     5
 10
-12787.5
 20
-49966.40816003564
 30
0.0
  0
VERTEX
  5
AD3
  8
1_10
  6
DASHDOT
 62
     5
 10
-11587.5
 20
-49966.40816003564
 30
0.0
  0
VERTEX
  5
AD4
  8
1_10
  6
DASHDOT
 62
     5
 10
-11587.5
 20
-50116.40816003564
 30
0.0
  0
VERTEX
  5
AD5
  8
1_10
  6
DASHDOT
 62
     5
 10
-12787.5
 20
-50116.40816003564
 30
0.0
  0
SEQEND
  5
AD6
  8
1_10
  6
DASHDOT
 62
     5
  0
INSERT
  5
AD7
  8
1_10
 62
     5
  2
*X133
 10
0.0
 20
0.0
 30
0.0
 41
1.5
 42
1.5
 43
1.5
  0
POLYLINE
  5
AD8
  8
1_10
  6
DASHDOT
 62
     5
 66
     1
 10
0.0
 20
0.0
 30
0.0
 70
   129
  0
VERTEX
  5
AD9
  8
1_10
  6
DASHDOT
 62
     5
 10
-12787.5
 20
-49531.40816003564
 30
0.0
  0
VERTEX
  5
ADA
  8
1_10
  6
DASHDOT
 62
     5
 10
-11587.5
 20
-49531.40816003564
 30
0.0
  0
VERTEX
  5
ADB
  8
1_10
  6
DASHDOT
 62
     5
 10
-11587.5
 20
-49681.40816003564
 30
0.0
  0
VERTEX
  5
ADC
  8
1_10
  6
DASHDOT
 62
     5
 10
-12787.5
 20
-49681.40816003564
 30
0.0
  0
SEQEND
  5
ADD
  8
1_10
  6
DASHDOT
 62
     5
  0
INSERT
  5
ADE
  8
1_10
 62
     5
  2
*X134
 10
0.0
 20
0.0
 30
0.0
 41
1.5
 42
1.5
 43
1.5
  0
POLYLINE
  5
ADF
  8
1_10
  6
DASHDOT
 62
     5
 66
     1
 10
0.0
 20
0.0
 30
0.0
 70
   129
  0
VERTEX
  5
AE0
  8
1_10
  6
DASHDOT
 62
     5
 10
-6707.986285547957
 20
-49966.40816003564
 30
0.0
  0
VERTEX
  5
AE1
  8
1_10
  6
DASHDOT
 62
     5
 10
-5132.986285547957
 20
-49966.40816003564
 30
0.0
  0
VERTEX
  5
AE2
  8
1_10
  6
DASHDOT
 62
     5
 10
-5132.986285547957
 20
-50116.40816003564
 30
0.0
  0
VERTEX
  5
AE3
  8
1_10
  6
DASHDOT
 62
     5
 10
-6707.986285547957
 20
-50116.40816003564
 30
0.0
  0
SEQEND
  5
AE4
  8
1_10
  6
DASHDOT
 62
     5
  0
INSERT
  5
AE5
  8
1_10
 62
     5
  2
*X135
 10
0.0
 20
0.0
 30
0.0
 41
1.5
 42
1.5
 43
1.5
  0
POLYLINE
  5
AE6
  8
1_10
  6
DASHDOT
 62
     5
 66
     1
 10
0.0
 20
0.0
 30
0.0
 70
   129
  0
VERTEX
  5
AE7
  8
1_10
  6
DASHDOT
 62
     5
 10
-6707.986285547957
 20
-49531.40816003564
 30
0.0
  0
VERTEX
  5
AE8
  8
1_10
  6
DASHDOT
 62
     5
 10
-5132.986285547957
 20
-49531.40816003564
 30
0.0
  0
VERTEX
  5
AE9
  8
1_10
  6
DASHDOT
 62
     5
 10
-5132.986285547957
 20
-49681.40816003564
 30
0.0
  0
VERTEX
  5
AEA
  8
1_10
  6
DASHDOT
 62
     5
 10
-6707.986285547957
 20
-49681.40816003564
 30
0.0
  0
SEQEND
  5
AEB
  8
1_10
  6
DASHDOT
 62
     5
  0
TEXT
  5
AEC
  8
1_10
 62
     7
 10
-24800.7400000001
 20
-49825.20649336896
 30
0.0
 40
31.86024305555556
  1
可動棚
  7
YUGOTHIC_MEDIUM
 11
-24800.7400000001
 21
-49793.34625031341
 31
0.0
 73
     3
  0
TEXT
  5
AED
  8
1_10
 62
     7
 10
-18918.9415403966
 20
-49817.75333333333
 30
0.0
 40
31.86024305555556
  1
可動棚 
  7
YUGOTHIC_MEDIUM
 72
     1
 11
-18862.04824922596
 21
-49785.89309027778
 31
0.0
 73
     3
  0
TEXT
  5
AEE
  8
1_10
 62
     7
 10
-18924.25158090586
 20
-49881.25333333333
 30
0.0
 40
31.86024305555556
  1
(棚板小)
  7
YUGOTHIC_MEDIUM
 72
     1
 11
-18862.04824922596
 21
-49849.39309027778
 31
0.0
 73
     3
  0
TEXT
  5
AEF
  8
1_10
 62
     7
 10
-18029.19154039659
 20
-49817.75333333333
 30
0.0
 40
31.86024305555556
  1
可動棚 
  7
YUGOTHIC_MEDIUM
 72
     1
 11
-17972.29824922596
 21
-49785.89309027778
 31
0.0
 73
     3
  0
TEXT
  5
AF0
  8
1_10
 62
     7
 10
-18034.50158090585
 20
-49881.25333333333
 30
0.0
 40
31.86024305555556
  1
(棚板大)
  7
YUGOTHIC_MEDIUM
 72
     1
 11
-17972.29824922596
 21
-49849.39309027778
 31
0.0
 73
     3
  0
TEXT
  5
AF1
  8
1_10
 62
     7
 10
-12261.75
 20
-49784.00333333333
 30
0.0
 40
31.86024305555556
  1
可動棚
  7
YUGOTHIC_MEDIUM
 11
-12261.75
 21
-49752.14309027778
 31
0.0
 73
     3
  0
TEXT
  5
AF2
  8
1_10
 62
     7
 10
-6365.0
 20
-49784.00333333333
 30
0.0
 40
31.86024305555556
  1
可動棚
  7
YUGOTHIC_MEDIUM
 11
-6365.0
 21
-49752.14309027778
 31
0.0
 73
     3
  0
TEXT
  5
AF3
  8
1_10
 62
     7
 10
-5602.625375410822
 20
-49784.00333333333
 30
0.0
 40
31.86024305555556
  1
可動棚
  7
YUGOTHIC_MEDIUM
 11
-5602.625375410822
 21
-49752.14309027778
 31
0.0
 73
     3
  0
INSERT
  5
AF4
  8
1_10
 62
     7
  2
____-6-2
 10
-28266.74568042607
 20
-50472.27836973678
 30
0.0
 41
1.5
 42
1.5
 43
1.5
  0
INSERT
  5
AF5
  8
1_10
 62
     7
  2
____-6-2
 10
-22092.01068042607
 20
-50472.27836973678
 30
0.0
 41
1.5
 42
1.5
 43
1.5
  0
INSERT
  5
AF6
  8
1_10
 62
     7
  2
____-6-2
 10
-15917.27568042607
 20
-50472.27836973678
 30
0.0
 41
1.5
 42
1.5
 43
1.5
  0
INSERT
  5
AF7
  8
1_10
 62
     7
  2
____-6-2
 10
-9742.540680426071
 20
-50472.27836973678
 30
0.0
 41
1.5
 42
1.5
 43
1.5
  0
INSERT
  5
AF8
  8
1_10
 62
     7
  2
____-6-2
 10
-3567.80568042607
 20
-50472.27836973678
 30
0.0
 41
1.5
 42
1.5
 43
1.5
  0
INSERT
  5
AF9
  8
1_10
 62
     7
  2
___-97
 10
0.0
 20
0.0
 30
0.0
  0
INSERT
  5
AFA
  8
1_10
 62
     7
  2
___-98
 10
0.0
 20
0.0
 30
0.0
  0
INSERT
  5
AFB
  8
1_10
 62
     7
  2
___-99
 10
0.0
 20
0.0
 30
0.0
  0
INSERT
  5
AFC
  8
1_10
 62
     7
  2
___-100
 10
0.0
 20
0.0
 30
0.0
  0
INSERT
  5
AFD
  8
_
 62
     7
  2
____-1-1
 10
-29912.63
 20
-51590.90579702498
 30
0.0
 41
0.3
 42
0.3
 43
0.3
  0
TEXT
  5
AFE
  8
_
 62
     7
 10
-29922.98626695632
 20
-51615.12650514678
 30
0.0
 40
31.86024305555556
  1
　開き扉　W250~400
  7
YUGOTHIC_MEDIUM
 11
-29922.98626695632
 21
-51599.196383619
 31
0.0
 73
     2
  0
INSERT
  5
AFF
  8
_
 62
     7
  2
____-1-1
 10
-23739.42565708271
 20
-51590.90579702498
 30
0.0
 41
0.3
 42
0.3
 43
0.3
  0
INSERT
  5
B00
  8
_
 62
     7
  2
____-1-1
 10
-17566.22131416541
 20
-51590.90579702498
 30
0.0
 41
0.3
 42
0.3
 43
0.3
  0
INSERT
  5
B01
  8
_
 62
     7
  2
____-1-1
 10
-11393.01697124812
 20
-51590.90579702498
 30
0.0
 41
0.3
 42
0.3
 43
0.3
  0
INSERT
  5
B02
  8
_
 62
     7
  2
____-1-1
 10
-5219.812628330831
 20
-51590.90579702498
 30
0.0
 41
0.3
 42
0.3
 43
0.3
  0
TEXT
  5
B03
  8
_
 62
     7
 10
-23749.78188770403
 20
-51615.12650514678
 30
0.0
 40
31.86024305555556
  1
　開き扉　W410~800
  7
YUGOTHIC_MEDIUM
 11
-23749.78188770403
 21
-51599.196383619
 31
0.0
 73
     2
  0
TEXT
  5
B04
  8
_
 62
     7
 10
-17576.57754478674
 20
-51615.12650514678
 30
0.0
 40
31.86024305555556
  1
　開き扉　W810~1200
  7
YUGOTHIC_MEDIUM
 11
-17576.57754478674
 21
-51599.196383619
 31
0.0
 73
     2
  0
TEXT
  5
B05
  8
_
 62
     7
 10
-11393.01697124812
 20
-51615.12650514678
 30
0.0
 40
31.86024305555556
  1
　フラップアップ　W600~800
  7
YUGOTHIC_MEDIUM
 11
-11393.01697124812
 21
-51599.196383619
 31
0.0
 73
     2
  0
TEXT
  5
B06
  8
_
 62
     7
 10
-5230.168858952157
 20
-51615.12650514678
 30
0.0
 40
31.86024305555556
  1
　フラップアップ　W810~1200
  7
YUGOTHIC_MEDIUM
 11
-5230.168858952157
 21
-51599.196383619
 31
0.0
 73
     2
  0
POLYLINE
  5
B07
  8
_
  6
CONTINUOUS
 62
   255
 66
     1
 10
0.0
 20
0.0
 30
0.0
 70
   129
  0
VERTEX
  5
B08
  8
_
  6
CONTINUOUS
 62
   255
 10
-8301.039999999488
 20
-47335.92000000001
 30
0.0
  0
VERTEX
  5
B09
  8
_
  6
CONTINUOUS
 62
   255
 10
-2126.29999999949
 20
-47335.92000000001
 30
0.0
  0
VERTEX
  5
B0A
  8
_
  6
CONTINUOUS
 62
   255
 10
-2126.29999999949
 20
-51664.08000000001
 30
0.0
  0
VERTEX
  5
B0B
  8
_
  6
CONTINUOUS
 62
   255
 10
-8301.039999999488
 20
-51664.08000000001
 30
0.0
  0
SEQEND
  5
B0C
  8
_
  6
CONTINUOUS
 62
   255
  0
VIEWPORT
  5
B0D
 67
     1
  8
0
 10
128.5
 20
97.5
 30
0.0
 40
314.226
 41
222.18
 68
     1
 69
     1
1001
ACAD
1000
MVIEW
1002
{
1070
    16
1010
0.0
1020
0.0
1030
0.0
1010
0.0
1020
0.0
1030
1.0
1040
0.0
1040
222.18
1040
128.5
1040
97.5
1040
50.0
1040
0.0
1040
0.0
1070
     0
1070
   100
1070
     0
1070
     3
1070
     0
1070
     0
1070
     0
1070
     0
1040
0.0
1040
0.0
1040
0.0
1040
10.0
1040
10.0
1040
10.0
1040
10.0
1070
     0
1002
{
1002
}
1002
}
  0
ENDSEC
  0
EOF
