  0
SECTION
  2
HEADER
  9
$ACADVER
  1
AC1009
  9
$DWGCODEPAGE
  3
dos932
  9
$INSBASE
 10
0.0
 20
0.0
 30
0.0
  9
$EXTMIN
 10
-253.6717069056318
 20
94.67287801567599
 30
-11.37242666666667
  9
$EXTMAX
 10
450.151869786672
 20
529.8719325027325
 30
11.37242666666667
  9
$LIMMIN
 10
0.0
 20
0.0
  9
$LIMMAX
 10
12.0
 20
9.0
  9
$ORTHOMODE
 70
     0
  9
$REGENMODE
 70
     1
  9
$FILLMODE
 70
     1
  9
$QTEXTMODE
 70
     0
  9
$MIRRTEXT
 70
     1
  9
$DRAGMODE
 70
     2
  9
$LTSCALE
 40
2.54
  9
$OSMODE
 70
    37
  9
$ATTMODE
 70
     1
  9
$TEXTSIZE
 40
0.2
  9
$TRACEWID
 40
1.0
  9
$TEXTSTYLE
  7
STANDARD
  9
$CLAYER
  8
_0-0_0
  9
$CELTYPE
  6
BYLAYER
  9
$CECOLOR
 62
   256
  9
$DIMSCALE
 40
1.0
  9
$DIMASZ
 40
0.00775146484375
  9
$DIMEXO
 40
0.003125
  9
$DIMDLI
 40
0.019
  9
$DIMRND
 40
0.0
  9
$DIMDLE
 40
0.0
  9
$DIMEXE
 40
0.009
  9
$DIMTP
 40
0.0
  9
$DIMTM
 40
0.0
  9
$DIMTXT
 40
3.813491030092584
  9
$DIMCEN
 40
0.0
  9
$DIMTSZ
 40
0.0
  9
$DIMTOL
 70
     0
  9
$DIMLIM
 70
     0
  9
$DIMTIH
 70
     0
  9
$DIMTOH
 70
     0
  9
$DIMSE1
 70
     0
  9
$DIMSE2
 70
     0
  9
$DIMTAD
 70
     0
  9
$DIMZIN
 70
     8
  9
$DIMBLK
  1
VW_FILLEDARROW
  9
$DIMASO
 70
     1
  9
$DIMSHO
 70
     1
  9
$DIMPOST
  1
<>
  9
$DIMAPOST
  1
[]
  9
$DIMALT
 70
     0
  9
$DIMALTD
 70
     3
  9
$DIMALTF
 40
0.0393700787401575
  9
$DIMLFAC
 40
1.0
  9
$DIMTOFL
 70
     1
  9
$DIMTVP
 40
0.0
  9
$DIMTIX
 70
     1
  9
$DIMSOXD
 70
     0
  9
$DIMSAH
 70
     0
  9
$DIMBLK1
  1
VW_FILLEDARROW
  9
$DIMBLK2
  1
VW_FILLEDARROW
  9
$DIMSTYLE
  2
STANDARD-1
  9
$DIMCLRD
 70
     0
  9
$DIMCLRE
 70
     0
  9
$DIMCLRT
 70
     0
  9
$DIMTFAC
 40
1.0
  9
$DIMGAP
 40
0.0
  9
$LUNITS
 70
     2
  9
$LUPREC
 70
     2
  9
$SKETCHINC
 40
0.1
  9
$FILLETRAD
 40
0.5
  9
$AUNITS
 70
     0
  9
$AUPREC
 70
     2
  9
$MENU
  1
.
  9
$ELEVATION
 40
0.0
  9
$PELEVATION
 40
0.0
  9
$THICKNESS
 40
0.0
  9
$LIMCHECK
 70
     0
  9
$CHAMFERA
 40
0.0
  9
$CHAMFERB
 40
0.0
  9
$SKPOLY
 70
     0
  9
$TDCREATE
 40
2459967.052649514
  9
$TDUPDATE
 40
2459967.052682037
  9
$TDINDWG
 40
0.0000000116
  9
$TDUSRTIMER
 40
0.0000000116
  9
$USRTIMER
 70
     1
  9
$ANGBASE
 50
0.0
  9
$ANGDIR
 70
     0
  9
$PDMODE
 70
     1
  9
$PDSIZE
 40
-2.0
  9
$PLINEWID
 40
0.0
  9
$COORDS
 70
     1
  9
$SPLFRAME
 70
     0
  9
$SPLINETYPE
 70
     6
  9
$SPLINESEGS
 70
     8
  9
$ATTDIA
 70
     0
  9
$ATTREQ
 70
     1
  9
$HANDLING
 70
     1
  9
$HANDSEED
  5
19E
  9
$SURFTAB1
 70
     6
  9
$SURFTAB2
 70
     6
  9
$SURFTYPE
 70
     6
  9
$SURFU
 70
     6
  9
$SURFV
 70
     6
  9
$UCSNAME
  2

  9
$UCSORG
 10
0.0
 20
0.0
 30
0.0
  9
$UCSXDIR
 10
1.0
 20
0.0
 30
0.0
  9
$UCSYDIR
 10
0.0
 20
1.0
 30
0.0
  9
$PUCSNAME
  2

  9
$PUCSORG
 10
0.0
 20
0.0
 30
0.0
  9
$PUCSXDIR
 10
1.0
 20
0.0
 30
0.0
  9
$PUCSYDIR
 10
0.0
 20
1.0
 30
0.0
  9
$USERI1
 70
     0
  9
$USERI2
 70
     0
  9
$USERI3
 70
     0
  9
$USERI4
 70
     0
  9
$USERI5
 70
     0
  9
$USERR1
 40
0.0
  9
$USERR2
 40
0.0
  9
$USERR3
 40
0.0
  9
$USERR4
 40
0.0
  9
$USERR5
 40
0.0
  9
$WORLDVIEW
 70
     1
  9
$SHADEDGE
 70
     3
  9
$SHADEDIF
 70
    70
  9
$TILEMODE
 70
     1
  9
$MAXACTVP
 70
    64
  9
$PLIMCHECK
 70
     0
  9
$PEXTMIN
 10
1.000000000000000E+20
 20
1.000000000000000E+20
 30
1.000000000000000E+20
  9
$PEXTMAX
 10
-1.000000000000000E+20
 20
-1.000000000000000E+20
 30
-1.000000000000000E+20
  9
$PLIMMIN
 10
-20.0
 20
-7.5
  9
$PLIMMAX
 10
277.0
 20
202.5
  9
$UNITMODE
 70
     0
  9
$VISRETAIN
 70
     1
  9
$PLINEGEN
 70
     0
  9
$PSLTSCALE
 70
     1
  0
ENDSEC
  0
SECTION
  2
TABLES
  0
TABLE
  2
VPORT
 70
     1
  0
VPORT
  2
*ACTIVE
 70
     0
 10
0.0
 20
0.0
 11
1.0
 21
1.0
 12
98.2400814405201
 22
312.2724052592042
 13
0.0
 23
0.0
 14
0.5
 24
0.5
 15
0.5
 25
0.5
 16
0.0
 26
0.0
 36
1.0
 17
0.0
 27
0.0
 37
0.0
 40
435.1990544870565
 41
1.61724518800221
 42
2000.0
 43
0.0
 44
0.0
 50
0.0
 51
0.0
 71
     0
 72
   100
 73
     1
 74
     3
 75
     0
 76
     0
 77
     0
 78
     0
  0
ENDTAB
  0
TABLE
  2
LTYPE
 70
     3
  0
LTYPE
  2
CONTINUOUS
 70
     0
  3
Solid line
 72
    65
 73
     0
 40
0.0
  0
LTYPE
  2
HIDDEN
 70
     0
  3

 72
    65
 73
     2
 40
0.6561679790026248
 49
0.6561679790026248
 49
-0.3280839895013124
  0
LTYPE
  2
CENTER
 70
     0
  3

 72
    65
 73
     4
 40
0.4921259842519687
 49
0.4921259842519687
 49
-0.0984251968503937
 49
0.0984251968503937
 49
-0.0984251968503938
  0
ENDTAB
  0
TABLE
  2
LAYER
 70
    11
  0
LAYER
  2
0
 70
     0
 62
     7
  6
CONTINUOUS
  0
LAYER
  2
__
 70
     0
 62
     7
  6
CONTINUOUS
  0
LAYER
  2
__-1
 70
     0
 62
     7
  6
CONTINUOUS
  0
LAYER
  2
_0-0_0
 70
     0
 62
     7
  6
CONTINUOUS
  0
LAYER
  2
_0-1_250
 70
     0
 62
     7
  6
CONTINUOUS
  0
LAYER
  2
_0-2_255
 70
     0
 62
     7
  6
CONTINUOUS
  0
LAYER
  2
__-2
 70
     0
 62
     7
  6
CONTINUOUS
  0
LAYER
  2
__-3
 70
     0
 62
     7
  6
CONTINUOUS
  0
LAYER
  2
DEFPOINTS
 70
     0
 62
     7
  6
CONTINUOUS
  0
ENDTAB
  0
TABLE
  2
STYLE
 70
     4
  0
STYLE
  2
STANDARD
 70
     0
 40
0.0
 41
1.0
 50
0.0
 71
     0
 42
0.2
  3
txt
  4
BIGFONT.SHX
  0
STYLE
  2
YUGOTHIC_MEDIUM
 70
     0
 40
0.0
 41
1.0
 50
0.0
 71
     0
 42
0.2
  3

  4
YuGothic Medium
  0
STYLE
  2
YUGOTHIC_BOLD
 70
     0
 40
0.0
 41
1.0
 50
0.0
 71
     0
 42
0.2
  3

  4
YuGothic Bold
  0
STYLE
  2
YUGOTHIC_MEDIUM-B
 70
     0
 40
0.0
 41
1.0
 50
0.0
 71
     0
 42
0.2
  3

  4
YuGothic Medium
  0
ENDTAB
  0
TABLE
  2
VIEW
 70
     0
  0
ENDTAB
  0
TABLE
  2
UCS
 70
     0
  0
ENDTAB
  0
TABLE
  2
APPID
 70
     3
  0
APPID
  2
ACAD
 70
     0
  0
APPID
  2
ACCMTRANSPARENCY
 70
     0
  0
APPID
  2
ACAECLAYERSTANDARD
 70
     0
  0
ENDTAB
  0
TABLE
  2
DIMSTYLE
 70
     2
  0
DIMSTYLE
  2
STANDARD
 70
     0
  3

  4

  5

  6

  7

 40
1.0
 41
0.18
 42
0.0625
 43
0.38
 44
0.18
 45
0.0
 46
0.0
 47
0.0
 48
0.0
140
0.18
141
0.09
142
0.0
143
25.4
144
1.0
145
0.0
146
1.0
147
0.09
 71
     0
 72
     0
 73
     1
 74
     1
 75
     0
 76
     0
 77
     0
 78
     0
170
     0
171
     2
172
     0
173
     0
174
     0
175
     0
176
     0
177
     0
178
     0
  0
DIMSTYLE
  2
STANDARD-1
 70
     0
  3
<>
  4
[]
  5
VW_FILLEDARROW
  6
VW_FILLEDARROW
  7
VW_FILLEDARROW
 40
1.0
 41
0.00775146484375
 42
0.003125
 43
0.019
 44
0.009
 45
0.0
 46
0.0
 47
0.0
 48
0.0
140
3.813491030092584
141
0.0
142
0.0
143
0.0393700787401575
144
1.0
145
0.0
146
1.0
147
0.0
 71
     0
 72
     0
 73
     0
 74
     0
 75
     0
 76
     0
 77
     0
 78
     8
170
     0
171
     3
172
     1
173
     0
174
     1
175
     0
176
     0
177
     0
178
     0
  0
ENDTAB
  0
ENDSEC
  0
SECTION
  2
BLOCKS
  0
BLOCK
  8
0
  2
$MODEL_SPACE
 70
     0
 10
0.0
 20
0.0
 30
0.0
  3
$MODEL_SPACE
  1

  0
ENDBLK
  5
21
  8
0
  0
BLOCK
 67
     1
  8
0
  2
$PAPER_SPACE
 70
     0
 10
0.0
 20
0.0
 30
0.0
  3
$PAPER_SPACE
  1

  0
ENDBLK
  5
1D
 67
     1
  8
0
  0
BLOCK
  8
0
  2
____-1
 70
     0
 10
0.0
 20
0.0
 30
0.0
  3
____-1
  1

  0
ENDBLK
  5
71
  8
0
  0
BLOCK
  8
0
  2
*D2
 70
     1
 10
0.0
 20
0.0
 30
0.0
  3
*D2
  1

  0
LINE
  5
9B
  8
__-1
  6
CONTINUOUS
 62
     0
 10
345.1171794053833
 20
135.347408582844
 30
0.0
 11
345.1171794053833
 21
115.0232420026855
 31
0.0
  0
LINE
  5
9C
  8
__-1
  6
CONTINUOUS
 62
     0
 10
285.1171794053831
 20
129.0261623134613
 30
0.0
 11
285.1171794053831
 21
115.0232420026855
 31
0.0
  0
LINE
  5
9D
  8
__-1
  6
CONTINUOUS
 62
     0
 10
345.1094279405395
 20
115.0322420026855
 30
0.0
 11
318.1134937861703
 21
115.0322420026855
 31
0.0
  0
LINE
  5
9E
  8
__-1
  6
CONTINUOUS
 62
     0
 10
285.1249308702269
 20
115.0322420026855
 30
0.0
 11
312.1208650245962
 21
115.0322420026855
 31
0.0
  0
INSERT
  5
A3
  8
__-1
 62
     0
  2
VW_FILLEDARROW
 10
345.1171794053833
 20
115.0322420026855
 30
0.0
 41
0.00775146484375
 42
0.00775146484375
 43
0.00775146484375
  0
INSERT
  5
A8
  8
__-1
 62
     0
  2
VW_FILLEDARROW
 10
285.1171794053831
 20
115.0322420026855
 30
0.0
 41
0.00775146484375
 42
0.00775146484375
 43
0.00775146484375
 50
180.0
  0
TEXT
  5
A9
  8
__-1
  6
CONTINUOUS
 62
     0
 10
311.394485780769
 20
113.1254964876393
 30
0.0
 40
3.813491030092584
  1
60
  7
YUGOTHIC_BOLD
  0
POINT
  5
AA
  8
DEFPOINTS
 62
     0
 10
345.1171794053833
 20
135.350533582844
 30
0.0
  0
POINT
  5
AB
  8
DEFPOINTS
 62
     0
 10
285.1171794053831
 20
129.0292873134613
 30
0.0
  0
POINT
  5
173
  8
DEFPOINTS
 62
     0
 10
285.1171794053831
 20
115.0322420026855
 30
0.0
  0
ENDBLK
  5
75
  8
0
  0
BLOCK
  8
0
  2
*D3
 70
     1
 10
0.0
 20
0.0
 30
0.0
  3
*D3
  1

  0
LINE
  5
AC
  8
__-1
  6
CONTINUOUS
 62
     0
 10
-115.0059907078843
 20
130.9053788273325
 30
0.0
 11
-115.0059907078843
 21
115.0232420026855
 31
0.0
  0
LINE
  5
AD
  8
__-1
  6
CONTINUOUS
 62
     0
 10
-180.0059907078841
 20
132.4389284584946
 30
0.0
 11
-180.0059907078841
 21
115.0232420026855
 31
0.0
  0
LINE
  5
AE
  8
__-1
  6
CONTINUOUS
 62
     0
 10
-115.013742172728
 20
115.0322420026855
 30
0.0
 11
-144.5096763270971
 21
115.0322420026855
 31
0.0
  0
LINE
  5
AF
  8
__-1
  6
CONTINUOUS
 62
     0
 10
-179.9982392430403
 20
115.0322420026855
 30
0.0
 11
-150.5023050886712
 21
115.0322420026855
 31
0.0
  0
INSERT
  5
B4
  8
__-1
 62
     0
  2
VW_FILLEDARROW
 10
-115.0059907078843
 20
115.0322420026855
 30
0.0
 41
0.00775146484375
 42
0.00775146484375
 43
0.00775146484375
  0
INSERT
  5
B9
  8
__-1
 62
     0
  2
VW_FILLEDARROW
 10
-180.0059907078841
 20
115.0322420026855
 30
0.0
 41
0.00775146484375
 42
0.00775146484375
 43
0.00775146484375
 50
180.0
  0
TEXT
  5
BA
  8
__-1
  6
CONTINUOUS
 62
     0
 10
-151.2286843324983
 20
113.1254964876393
 30
0.0
 40
3.813491030092584
  1
65
  7
YUGOTHIC_BOLD
  0
POINT
  5
BB
  8
DEFPOINTS
 62
     0
 10
-115.0059907078843
 20
130.9085038273325
 30
0.0
  0
POINT
  5
BC
  8
DEFPOINTS
 62
     0
 10
-180.0059907078841
 20
132.4420534584946
 30
0.0
  0
POINT
  5
176
  8
DEFPOINTS
 62
     0
 10
-180.0059907078841
 20
115.0322420026855
 30
0.0
  0
ENDBLK
  5
78
  8
0
  0
BLOCK
  8
0
  2
*D4
 70
     1
 10
0.0
 20
0.0
 30
0.0
  3
*D4
  1

  0
LINE
  5
BD
  8
__-1
  6
CONTINUOUS
 62
     0
 10
109.0052372205066
 20
173.0008185430986
 30
0.0
 11
89.6537673295354
 21
173.0008185430986
 31
0.0
  0
LINE
  5
BE
  8
__-1
  6
CONTINUOUS
 62
     0
 10
107.3657800263565
 20
318.4813552924297
 30
0.0
 11
89.65376732953538
 21
318.4813552924297
 31
0.0
  0
LINE
  5
BF
  8
__-1
  6
CONTINUOUS
 62
     0
 10
89.6627673295354
 20
173.0085700079424
 30
0.0
 11
89.6627673295354
 21
232.9386527453104
 31
0.0
  0
LINE
  5
C0
  8
__-1
  6
CONTINUOUS
 62
     0
 10
89.66276732953538
 20
318.4736038275859
 30
0.0
 11
89.66276732953538
 21
258.5435210902178
 31
0.0
  0
INSERT
  5
C5
  8
__-1
 62
     0
  2
VW_FILLEDARROW
 10
89.6627673295354
 20
173.0008185430986
 30
0.0
 41
0.00775146484375
 42
0.00775146484375
 43
0.00775146484375
 50
270.0
  0
INSERT
  5
CA
  8
__-1
 62
     0
  2
VW_FILLEDARROW
 10
89.66276732953538
 20
318.4813552924297
 30
0.0
 41
0.00775146484375
 42
0.00775146484375
 43
0.00775146484375
 50
90.0
  0
TEXT
  5
CB
  8
__-1
  6
CONTINUOUS
 62
     0
 10
91.56951284458171
 20
231.8490838795697
 30
0.0
 40
3.813491030092584
  1
145.4805
 50
90.0
  7
YUGOTHIC_BOLD
  0
POINT
  5
CC
  8
DEFPOINTS
 62
     0
 10
109.0083622205066
 20
173.0008185430986
 30
0.0
  0
POINT
  5
CD
  8
DEFPOINTS
 62
     0
 10
107.3689050263565
 20
318.4813552924297
 30
0.0
  0
POINT
  5
183
  8
DEFPOINTS
 62
     0
 10
89.66276732953538
 20
318.4813552924297
 30
0.0
  0
ENDBLK
  5
7B
  8
0
  0
BLOCK
  8
0
  2
*D5
 70
     1
 10
0.0
 20
0.0
 30
0.0
  3
*D5
  1

  0
LINE
  5
CE
  8
__-1
  6
CONTINUOUS
 62
     0
 10
285.1171794053831
 20
330.3304490806028
 30
0.0
 11
285.1171794053831
 21
343.1576480943033
 31
0.0
  0
LINE
  5
CF
  8
__-1
  6
CONTINUOUS
 62
     0
 10
127.9171794053832
 20
327.3388068107394
 30
0.0
 11
127.9171794053832
 21
343.1576480943033
 31
0.0
  0
LINE
  5
D0
  8
__-1
  6
CONTINUOUS
 62
     0
 10
285.1094279405394
 20
343.1486480943033
 30
0.0
 11
213.8717692491331
 21
343.1486480943033
 31
0.0
  0
LINE
  5
D1
  8
__-1
  6
CONTINUOUS
 62
     0
 10
127.9249308702269
 20
343.1486480943033
 30
0.0
 11
199.1625895616332
 21
343.1486480943033
 31
0.0
  0
INSERT
  5
D6
  8
__-1
 62
     0
  2
VW_FILLEDARROW
 10
285.1171794053831
 20
343.1486480943033
 30
0.0
 41
0.00775146484375
 42
0.00775146484375
 43
0.00775146484375
  0
INSERT
  5
DB
  8
__-1
 62
     0
  2
VW_FILLEDARROW
 10
127.9171794053832
 20
343.1486480943033
 30
0.0
 41
0.00775146484375
 42
0.00775146484375
 43
0.00775146484375
 50
180.0
  0
TEXT
  5
DC
  8
__-1
  6
CONTINUOUS
 62
     0
 10
198.0730206958924
 20
341.241902579257
 30
0.0
 40
3.813491030092584
  1
157.2
  7
YUGOTHIC_BOLD
  0
POINT
  5
DD
  8
DEFPOINTS
 62
     0
 10
285.1171794053831
 20
330.3273240806028
 30
0.0
  0
POINT
  5
DE
  8
DEFPOINTS
 62
     0
 10
127.9171794053832
 20
327.3356818107394
 30
0.0
  0
POINT
  5
186
  8
DEFPOINTS
 62
     0
 10
127.9171794053832
 20
343.1486480943033
 30
0.0
  0
ENDBLK
  5
7E
  8
0
  0
BLOCK
  8
0
  2
____-2-1
 70
     0
 10
0.0
 20
0.0
 30
0.0
  3
____-2-1
  1

  0
POLYLINE
  5
DF
  8
__-3
 62
     1
 66
     1
 10
0.0
 20
0.0
 30
0.0
 70
   129
  0
VERTEX
  5
E0
  8
__-3
 62
     1
 10
44.73288581853694
 20
262.724631362171
 30
0.0
  0
VERTEX
  5
E1
  8
__-3
 62
     1
 10
387.2328858185369
 20
262.724631362171
 30
0.0
  0
VERTEX
  5
E2
  8
__-3
 62
     1
 10
387.2328858185369
 20
201.0200272168042
 30
0.0
  0
VERTEX
  5
E3
  8
__-3
 62
     1
 10
44.73288581853694
 20
201.0200272168042
 30
0.0
  0
SEQEND
  5
E4
  8
__-3
 62
     1
  0
LINE
  5
E5
  8
__-3
 62
     2
 10
84.23692272741823
 20
262.724631362171
 30
0.0
 11
84.23692272741823
 21
201.0200272168042
 31
0.0
  0
LINE
  5
E6
  8
__-3
 62
     2
 10
180.2317324159994
 20
262.724631362171
 30
0.0
 11
180.2317324159994
 21
201.0200272168042
 31
0.0
  0
TEXT
  5
E7
  8
__-3
 62
     2
 10
57.01610441076151
 20
244.6293927678838
 30
0.0
 40
6.372048611111111
  1
No.
  7
YUGOTHIC_MEDIUM-B
 72
     1
 11
64.75359200996786
 21
247.8154170734393
 31
0.0
 73
     2
  0
TEXT
  5
E8
  8
__-3
 62
     2
 10
119.9218127372172
 20
244.6293927678838
 30
0.0
 40
6.372048611111111
  1
名 称
  7
YUGOTHIC_MEDIUM-B
 72
     1
 11
128.5695929951537
 21
247.8154170734393
 31
0.0
 73
     2
  0
TEXT
  5
E9
  8
__-3
 62
     2
 10
250.3692265157584
 20
244.6293927678838
 30
0.0
 40
6.372048611111111
  1
仕 様
  7
YUGOTHIC_MEDIUM-B
 72
     1
 11
259.0170067736949
 21
247.8154170734393
 31
0.0
 73
     2
  0
TEXT
  5
EA
  8
__-3
 62
     2
 10
61.42365299472037
 20
214.8003779624522
 30
0.0
 40
6.372048611111111
  1
1
  7
YUGOTHIC_MEDIUM
 72
     1
 11
64.00281552778915
 21
217.9864022680077
 31
0.0
 73
     2
  0
TEXT
  5
EB
  8
__-3
 62
     2
 10
118.1058077634277
 20
214.8003779624522
 30
0.0
 40
6.372048611111111
  1
水栓本体
  7
YUGOTHIC_MEDIUM
 72
     1
 11
129.0293196681896
 21
217.9864022680077
 31
0.0
 73
     2
  0
TEXT
  5
EC
  8
__-3
 62
     2
 10
250.173279961256
 20
214.8003779624522
 30
0.0
 40
6.372048611111111
  1
クロームメッキ仕上げ
  7
YUGOTHIC_MEDIUM
 72
     1
 11
277.4820597231608
 21
217.9864022680077
 31
0.0
 73
     2
  0
LINE
  5
ED
  8
__-3
 62
     1
 10
44.73288581853694
 20
231.8723292894876
 30
0.0
 11
387.2328858185369
 21
231.8723292894876
 31
0.0
  0
TEXT
  5
EE
  8
__
 62
    17
 10
48.33728352374578
 20
179.8171466720484
 30
0.0
 40
6.372048611111111
  1
※スパウト150mm。
  7
YUGOTHIC_MEDIUM
 11
48.33728352374578
 21
186.1891952831595
 31
0.0
 73
     3
  0
TEXT
  5
EF
  8
__
 62
    17
 10
48.33728352374578
 20
163.9436290803621
 30
0.0
 40
6.372048611111111
  1
※水 (CLOD BLUE)、湯 (HOT RED) のマークは、各1個付属されています。
  7
YUGOTHIC_MEDIUM
 11
48.33728352374578
 21
170.3156776914732
 31
0.0
 73
     3
  0
ENDBLK
  5
82
  8
0
  0
BLOCK
  8
0
  2
VW_FILLEDARROW
 70
     0
 10
0.0
 20
0.0
 30
0.0
  3
VW_FILLEDARROW
  1

  0
POLYLINE
  5
96
  8
0
  6
CONTINUOUS
 62
     0
 66
     1
 10
0.0
 20
0.0
 30
0.0
 70
   129
  0
VERTEX
  5
97
  8
0
  6
CONTINUOUS
 62
     0
 10
-1.0
 20
0.1227845609029044
 30
0.0
  0
VERTEX
  5
98
  8
0
  6
CONTINUOUS
 62
     0
 10
0.0
 20
0.0
 30
0.0
  0
VERTEX
  5
99
  8
0
  6
CONTINUOUS
 62
     0
 10
-1.0
 20
-0.1227845609029047
 30
0.0
  0
SEQEND
  5
9A
  8
0
  6
CONTINUOUS
 62
     0
  0
ENDBLK
  5
95
  8
0
  0
ENDSEC
  0
SECTION
  2
ENTITIES
  0
LINE
  5
F0
  8
__-2
  6
CONTINUOUS
 62
     7
 10
266.6269839681351
 20
132.8653797451838
 30
0.0
 11
-140.7890160318649
 21
132.8653797451838
 31
0.0
  0
TEXT
  5
F1
  8
__-2
 62
     3
 10
211.6923540546792
 20
128.980953257065
 30
0.0
 40
2.124016203703704
  1
2021.07.05
  7
YUGOTHIC_MEDIUM
 11
211.6923540546792
 21
130.0429613589169
 31
0.0
 73
     2
  0
TEXT
  5
F2
  8
__-2
 62
     3
 10
253.0950665878036
 20
128.980953257065
 30
0.0
 40
2.124016203703704
  1
1:2(A3)
  7
YUGOTHIC_MEDIUM
 11
253.0950665878036
 21
130.0429613589169
 31
0.0
 73
     2
  0
INSERT
  5
F3
  8
__-2
 62
    17
  2
____-1
 10
62.91898396813508
 20
267.1473011405615
 30
0.0
  0
TEXT
  5
F4
  8
__-2
 62
     3
 10
241.077432422481
 20
129.6760724700279
 30
0.0
 40
2.124016203703704
  1
SCALE:
  7
YUGOTHIC_MEDIUM
 11
241.077432422481
 21
131.8000886737316
 31
0.0
 73
     3
  0
TEXT
  5
F5
  8
__-2
 62
     3
 10
50.89522490557448
 20
129.6760724700279
 30
0.0
 40
2.124016203703704
  1
NAME:
  7
YUGOTHIC_MEDIUM
 11
50.89522490557448
 21
131.8000886737316
 31
0.0
 73
     3
  0
TEXT
  5
F6
  8
__-2
 62
     3
 10
201.8189135686399
 20
129.6760724700279
 30
0.0
 40
2.124016203703704
  1
DATE:
  7
YUGOTHIC_MEDIUM
 11
201.8189135686399
 21
131.8000886737316
 31
0.0
 73
     3
  0
TEXT
  5
F7
  8
__-2
 62
     3
 10
148.4203851491925
 20
129.6760724700279
 30
0.0
 40
2.124016203703704
  1
ID:
  7
YUGOTHIC_MEDIUM
 11
148.4203851491925
 21
131.8000886737316
 31
0.0
 73
     3
  0
TEXT
  5
F8
  8
__-2
 62
     3
 10
154.5111165065862
 20
128.980953257065
 30
0.0
 40
2.124016203703704
  1
KB-TP009-03
  7
YUGOTHIC_MEDIUM
 11
154.5111165065862
 21
130.0429613589169
 31
0.0
 73
     2
  0
TEXT
  5
F9
  8
__-2
 62
     3
 10
62.22882833899752
 20
128.980953257065
 30
0.0
 40
2.124016203703704
  1
ワーカーズ水栓　壁付けシングルレバー単水栓　スパウト150mm
  7
YUGOTHIC_MEDIUM
 11
62.22882833899752
 21
130.0429613589169
 31
0.0
 73
     2
  0
POLYLINE
  5
FA
  8
__
  6
CONTINUOUS
 62
     1
 66
     1
 10
0.0
 20
0.0
 30
0.0
 70
   129
  0
VERTEX
  5
FB
  8
__
  6
CONTINUOUS
 62
     1
 10
285.1171794053831
 20
189.0008185430984
 30
0.0
  0
VERTEX
  5
FC
  8
__
  6
CONTINUOUS
 62
     1
 10
271.2607729448318
 20
181.0008185430984
 30
0.0
  0
VERTEX
  5
FD
  8
__
  6
CONTINUOUS
 62
     1
 10
271.2607729448318
 20
165.0008185430984
 30
0.0
  0
VERTEX
  5
FE
  8
__
  6
CONTINUOUS
 62
     1
 10
285.1171794053831
 20
157.0008185430984
 30
0.0
  0
VERTEX
  5
FF
  8
__
  6
CONTINUOUS
 62
     1
 10
298.9735858659338
 20
165.0008185430984
 30
0.0
  0
VERTEX
  5
100
  8
__
  6
CONTINUOUS
 62
     1
 10
298.9735858659338
 20
181.0008185430984
 30
0.0
  0
SEQEND
  5
101
  8
__
  6
CONTINUOUS
 62
     1
  0
LINE
  5
102
  8
_0-2_255
  6
CENTER
 62
     1
 10
-180.0059907078841
 20
94.67287801567599
 30
0.0
 11
-180.0059907078841
 21
342.7630082717102
 31
0.0
  0
LINE
  5
103
  8
_0-2_255
  6
CENTER
 62
     1
 10
383.2923468218627
 20
173.0008185430986
 30
0.0
 11
-253.6717069056318
 21
173.0008185430986
 31
0.0
  0
LINE
  5
104
  8
_0-1_250
  6
CONTINUOUS
 62
     1
 10
-136.2559907078843
 20
180.4393615533889
 30
0.0
 11
-120.2559907078843
 21
183.9986330549534
 31
0.0
  0
LINE
  5
105
  8
_0-1_250
  6
CONTINUOUS
 62
     1
 10
-147.2559904637202
 20
189.0008185430986
 30
0.0
 11
-158.2559904637201
 21
189.0008185430986
 31
0.0
  0
LINE
  5
106
  8
_0-1_250
  6
CONTINUOUS
 62
     1
 10
-158.2559904637201
 20
160.0008185430986
 30
0.0
 11
-163.5282369654767
 21
160.0008185430986
 31
0.0
  0
LINE
  5
107
  8
_0-1_250
  6
CONTINUOUS
 62
     1
 10
-143.2560428657833
 20
161.0007800148407
 30
0.0
 11
-143.2559577036323
 21
185.0007800146896
 31
0.0
  0
LINE
  5
108
  8
_0-1_250
  6
CONTINUOUS
 62
     1
 10
-147.2559904637202
 20
189.0008185430986
 30
0.0
 11
-147.2559904637202
 21
157.0008185430986
 31
0.0
  0
LINE
  5
109
  8
_0-1_250
  6
CONTINUOUS
 62
     1
 10
-136.2559907078843
 20
178.8817987854668
 30
0.0
 11
-143.2559794163656
 21
178.8817987854668
 31
0.0
  0
ARC
  5
10A
  8
_0-1_250
  6
CONTINUOUS
 62
     1
 10
-180.0059907078841
 20
173.0008185430986
 30
0.0
 40
24.99999999999986
 50
30.86680916788703
 51
55.66818145341217
  0
ARC
  5
10B
  8
_0-1_250
  6
CONTINUOUS
 62
     1
 10
-180.0059907078841
 20
173.0008185430986
 30
0.0
 40
25.0
 50
124.3321577638663
 51
324.5844899999998
  0
ARC
  5
10C
  8
_0-1_250
  6
CONTINUOUS
 62
     1
 10
-180.0059907078841
 20
173.0008185430986
 30
0.0
 40
21.24999999999986
 50
140.8439373023928
 51
320.8862221848361
  0
ARC
  5
10D
  8
_0-0_0
  6
CONTINUOUS
 62
     1
 10
-180.0059907078841
 20
308.9813552924297
 30
0.0
 40
9.499999999999943
 50
0.0
 51
180.0
  0
LINE
  5
10E
  8
_0-0_0
  6
CONTINUOUS
 62
     1
 10
-189.505990707884
 20
308.9813552924297
 30
0.0
 11
-189.505990707884
 21
243.2768387880986
 31
0.0
  0
LINE
  5
10F
  8
_0-0_0
  6
CONTINUOUS
 62
     1
 10
-170.5059907078841
 20
219.0008185430986
 30
0.0
 11
-170.5059907078841
 21
222.2768387880986
 31
0.0
  0
LINE
  5
110
  8
_0-0_0
  6
CONTINUOUS
 62
     1
 10
-170.5059907078841
 20
309.0384219290114
 30
0.0
 11
-170.5059907078841
 21
243.1013840165689
 31
0.0
  0
LINE
  5
111
  8
_0-1_250
  6
CONTINUOUS
 62
     1
 10
-136.2559907078843
 20
165.4393615533889
 30
0.0
 11
-120.2559907078843
 21
161.9986330549534
 31
0.0
  0
LINE
  5
112
  8
_0-1_250
  6
CONTINUOUS
 62
     1
 10
-136.2559907078843
 20
180.4393615533889
 30
0.0
 11
-136.2559907078843
 21
165.4393615533889
 31
0.0
  0
LINE
  5
113
  8
_0-1_250
  6
CONTINUOUS
 62
     1
 10
-120.2559907078843
 20
183.8828234610628
 30
0.0
 11
-118.8379729796398
 21
177.7508185430986
 31
0.0
  0
LINE
  5
114
  8
_0-1_250
  6
CONTINUOUS
 62
     1
 10
-118.8379729796398
 20
177.7508185430986
 30
0.0
 11
-118.8379729796398
 21
168.2508185430986
 31
0.0
  0
LINE
  5
115
  8
_0-1_250
  6
CONTINUOUS
 62
     1
 10
-136.2559907078843
 20
167.1198383007304
 30
0.0
 11
-143.2560211527762
 21
167.1198383007304
 31
0.0
  0
LINE
  5
116
  8
_0-1_250
  6
CONTINUOUS
 62
     1
 10
-144.7967356348246
 20
186.2433535949684
 30
0.0
 11
-147.2559904637202
 21
186.2433535949684
 31
0.0
  0
LINE
  5
117
  8
_0-1_250
  6
CONTINUOUS
 62
     1
 10
-147.2559904637202
 20
181.4262951694412
 30
0.0
 11
-158.2559904637201
 21
181.4262951694412
 31
0.0
  0
LINE
  5
118
  8
_0-0_0
  6
CONTINUOUS
 62
     1
 10
281.8382495047391
 20
208.0008185430986
 30
0.0
 11
269.719884253883
 21
208.0008185430986
 31
0.0
  0
LINE
  5
119
  8
_0-0_0
  6
CONTINUOUS
 62
     1
 10
301.1171794053831
 20
219.0008185430986
 30
0.0
 11
269.117179405383
 21
219.0008185430986
 31
0.0
  0
LINE
  5
11A
  8
_0-0_0
 62
     1
 10
285.1171794053831
 20
100.0
 30
0.0
 11
285.1171794053831
 21
355.8437639875656
 31
0.0
  0
LINE
  5
11B
  8
_0-0_0
  6
CENTER
 62
     1
 10
285.1171794053831
 20
94.67287801567602
 30
0.0
 11
285.1171794053831
 21
251.328759070521
 31
0.0
  0
LINE
  5
11C
  8
_0-0_0
  6
CONTINUOUS
 62
     1
 10
307.0847083684804
 20
158.5008185430986
 30
0.0
 11
327.0847083684804
 21
158.5008185430986
 31
0.0
  0
LINE
  5
11D
  8
_0-0_0
  6
CONTINUOUS
 62
     1
 10
334.6818490439625
 20
169.7243994437858
 30
0.0
 11
294.2471963805019
 21
169.7247248273994
 31
0.0
  0
LINE
  5
11E
  8
_0-0_0
  6
CONTINUOUS
 62
     1
 10
334.681901775618
 20
176.2772376424115
 30
0.0
 11
294.2448562371913
 21
176.2834265998149
 31
0.0
  0
LINE
  5
11F
  8
_0-0_0
  6
CONTINUOUS
 62
     1
 10
334.681901775618
 20
176.2772376424115
 30
0.0
 11
334.6818490439625
 21
169.7243994437858
 31
0.0
  0
LINE
  5
120
  8
_0-0_0
  6
CONTINUOUS
 62
     1
 10
297.2384543118829
 20
204.4239045843486
 30
0.0
 11
297.2384543118829
 21
208.0008185430986
 31
0.0
  0
LINE
  5
121
  8
_0-0_0
  6
CONTINUOUS
 62
     1
 10
269.117179405383
 20
219.0008185430986
 30
0.0
 11
269.117179405383
 21
208.0008185430986
 31
0.0
  0
LINE
  5
122
  8
_0-0_0
  6
CONTINUOUS
 62
     1
 10
320.1171793985159
 20
172.9998243363029
 30
0.0
 11
320.11717940425
 21
173.0005368929365
 31
0.0
  0
LINE
  5
123
  8
_0-0_0
  6
CONTINUOUS
 62
     1
 10
281.8382495047391
 20
208.0008185430986
 30
0.0
 11
271.3578943763832
 21
208.0008185430986
 31
0.0
  0
LINE
  5
124
  8
_0-0_0
  6
CONTINUOUS
 62
     1
 10
269.719884253883
 20
208.0008185430986
 30
0.0
 11
281.8411591603832
 21
208.0008185430986
 31
0.0
  0
LINE
  5
125
  8
_0-0_0
  6
CONTINUOUS
 62
     1
 10
301.1171794053831
 20
208.0008185430986
 30
0.0
 11
269.117179405383
 21
208.0008185430986
 31
0.0
  0
LINE
  5
126
  8
_0-0_0
  6
CONTINUOUS
 62
     1
 10
-189.505990707884
 20
219.0008185430986
 30
0.0
 11
-189.505990707884
 21
222.2768387880986
 31
0.0
  0
ARC
  5
127
  8
_0-0_0
  6
CONTINUOUS
 62
     1
 10
292.3772294192569
 20
174.3534179192252
 30
0.0
 40
29.79077209305884
 50
149.0311829190294
 51
182.7830652114893
  0
ARC
  5
128
  8
_0-0_0
  6
CONTINUOUS
 62
     1
 10
285.1295847911093
 20
174.3311536427951
 30
0.0
 40
22.55300438448837
 50
183.6206150430349
 51
306.3270831725706
  0
LINE
  5
129
  8
_0-0_0
  6
CONTINUOUS
 62
     1
 10
306.9558039955974
 20
187.5008185430986
 30
0.0
 11
327.0847083684804
 21
187.5008185430986
 31
0.0
  0
CIRCLE
  5
12A
  8
_0-0_0
  6
CONTINUOUS
 62
     1
 10
285.1171794053831
 20
173.0008185430985
 30
0.0
 40
3.999999999999893
  0
LINE
  5
12B
  8
_0-0_0
  6
CONTINUOUS
 62
     1
 10
293.2703316831559
 20
219.0006496283106
 30
0.0
 11
293.2719267329181
 21
208.0006496283106
 31
0.0
  0
ARC
  5
12C
  8
_0-0_0
  6
CONTINUOUS
 62
     1
 10
285.1171794053832
 20
173.0008185430985
 30
0.0
 40
11.00000000000012
 50
17.36197995947497
 51
342.6732844436722
  0
ARC
  5
12D
  8
_0-0_0
  6
CONTINUOUS
 62
     1
 10
285.1171794053832
 20
173.0008185430985
 30
0.0
 40
9.70000000000011
 50
19.73777123446296
 51
340.2611201062941
  0
LINE
  5
12E
  8
_0-0_0
  6
CONTINUOUS
 62
     1
 10
341.6171794053833
 20
196.931904942393
 30
0.0
 11
341.6171794053833
 21
149.0697321438042
 31
0.0
  0
LINE
  5
12F
  8
_0-0_0
  6
CONTINUOUS
 62
     1
 10
332.6171794053832
 20
189.0008185430986
 30
0.0
 11
332.6171794053832
 21
176.2775536516211
 31
0.0
  0
LINE
  5
130
  8
_0-0_0
  6
CONTINUOUS
 62
     1
 10
332.6171794053832
 20
169.7244160584868
 30
0.0
 11
332.6171794053832
 21
157.0008185430986
 31
0.0
  0
LINE
  5
131
  8
_0-0_0
  6
CONTINUOUS
 62
     1
 10
337.6171794053832
 20
157.0008185430986
 30
0.0
 11
337.6171794053832
 21
189.0008185430986
 31
0.0
  0
LINE
  5
132
  8
_0-0_0
  6
CONTINUOUS
 62
     1
 10
345.1171794053833
 20
198.0132432036987
 30
0.0
 11
345.1171794053833
 21
148.0132432036987
 31
0.0
  0
LINE
  5
133
  8
_0-0_0
  6
CONTINUOUS
 62
     1
 10
327.0847083684804
 20
187.5008185430986
 30
0.0
 11
327.0847083684804
 21
176.2784004055599
 31
0.0
  0
LINE
  5
134
  8
_0-0_0
  6
CONTINUOUS
 62
     1
 10
327.0847083684804
 20
169.7244605790973
 30
0.0
 11
327.0847083684804
 21
158.5008185430986
 31
0.0
  0
LINE
  5
135
  8
_0-0_0
  6
CONTINUOUS
 62
     1
 10
342.2599697196927
 20
198.0705892226814
 30
0.0
 11
345.1171794053833
 21
198.0705892226814
 31
0.0
  0
LINE
  5
136
  8
_0-0_0
  6
CONTINUOUS
 62
     1
 10
342.2599697196927
 20
147.9310478635158
 30
0.0
 11
337.6171794053832
 21
157.0008185430986
 31
0.0
  0
LINE
  5
137
  8
_0-0_0
  6
CONTINUOUS
 62
     1
 10
342.2599697196927
 20
147.9310478635158
 30
0.0
 11
345.1169655902971
 21
147.9310478635158
 31
0.0
  0
LINE
  5
138
  8
_0-0_0
  6
CONTINUOUS
 62
     1
 10
337.6171794053832
 20
157.0008185430986
 30
0.0
 11
328.6171794053832
 21
157.0008185430986
 31
0.0
  0
LINE
  5
139
  8
_0-0_0
  6
CONTINUOUS
 62
     1
 10
139.9615105173701
 20
240.2768387880986
 30
0.0
 11
115.9615105173701
 21
240.2768387880986
 31
0.0
  0
LINE
  5
13A
  8
_0-0_0
  6
CONTINUOUS
 62
     1
 10
138.8782227663317
 20
222.2768387880986
 30
0.0
 11
139.9615105173701
 21
240.2768387880986
 31
0.0
  0
LINE
  5
13B
  8
_0-2_255
  6
CENTER
 62
     1
 10
383.2923468218627
 20
318.4813552924297
 30
0.0
 11
-253.6717069056318
 21
318.4813552924297
 31
0.0
  0
LINE
  5
13C
  8
_0-0_0
  6
CONTINUOUS
 62
     1
 10
117.0447982684085
 20
222.2768387880986
 30
0.0
 11
115.9615105173701
 21
240.2768387880986
 31
0.0
  0
LINE
  5
13D
  8
_0-0_0
  6
CONTINUOUS
 62
     1
 10
138.9615105173701
 20
240.2768387880986
 30
0.0
 11
137.4615105173701
 21
243.2768387880986
 31
0.0
  0
LINE
  5
13E
  8
_0-0_0
  6
CONTINUOUS
 62
     1
 10
116.9615105173701
 20
240.2768387880986
 30
0.0
 11
118.4615105173701
 21
243.2768387880986
 31
0.0
  0
LINE
  5
13F
  8
_0-0_0
  6
CONTINUOUS
 62
     1
 10
276.9640271276101
 20
219.0006496283106
 30
0.0
 11
276.9624320778478
 21
208.0006496283106
 31
0.0
  0
ARC
  5
140
  8
__
  6
CONTINUOUS
 62
     1
 10
245.761184372172
 20
205.8949351865539
 30
0.0
 40
26.58684305208061
 50
322.426647135092
 51
4.543027215327186
  0
ARC
  5
141
  8
__
  6
CONTINUOUS
 62
     1
 10
314.0083723200174
 20
201.9943278146313
 30
0.0
 40
16.11832903791863
 50
187.5453028411067
 51
244.0523601971091
  0
LINE
  5
142
  8
_0-0_0
  6
CONTINUOUS
 62
     1
 10
297.2384543118829
 20
204.4239045843486
 30
0.0
 11
298.0296063077391
 21
199.8778288896448
 31
0.0
  0
LINE
  5
143
  8
_0-0_0
  6
CONTINUOUS
 62
     1
 10
342.2599697196927
 20
198.0705892226814
 30
0.0
 11
337.6171794053832
 21
189.0008185430986
 31
0.0
  0
LINE
  5
144
  8
_0-0_0
  6
CONTINUOUS
 62
     1
 10
328.6171794053832
 20
189.0008185430986
 30
0.0
 11
328.6171794053832
 21
176.2781658583064
 31
0.0
  0
LINE
  5
145
  8
_0-0_0
  6
CONTINUOUS
 62
     1
 10
328.6171794053832
 20
169.7244482470768
 30
0.0
 11
328.6171794053832
 21
157.0008185430986
 31
0.0
  0
LINE
  5
146
  8
_0-0_0
  6
CONTINUOUS
 62
     1
 10
337.6171794053832
 20
189.0008185430986
 30
0.0
 11
328.6171794053832
 21
189.0008185430986
 31
0.0
  0
LINE
  5
147
  8
_0-0_0
  6
CONTINUOUS
 62
     1
 10
328.6171794053832
 20
186.4511942502648
 30
0.0
 11
327.0847083684804
 21
186.4511942502648
 31
0.0
  0
LINE
  5
148
  8
_0-0_0
  6
CONTINUOUS
 62
     1
 10
328.6171794053832
 20
159.5504428359324
 30
0.0
 11
327.0847083684804
 21
159.5504428359324
 31
0.0
  0
ARC
  5
149
  8
_0-0_0
  6
CONTINUOUS
 62
     1
 10
285.1171794053832
 20
173.0008185430985
 30
0.0
 40
13.50000000000001
 50
14.2908622532267
 51
346.1797684681665
  0
LINE
  5
14A
  8
_0-0_0
  6
CONTINUOUS
 62
     1
 10
-164.6080385400167
 20
208.0008185430986
 30
0.0
 11
-195.4026288430164
 21
208.0008185430986
 31
0.0
  0
LINE
  5
14B
  8
_0-0_0
  6
CONTINUOUS
 62
     1
 10
-164.0053336915167
 20
219.0008185430986
 30
0.0
 11
-196.0053336915165
 21
219.0008185430986
 31
0.0
  0
LINE
  5
14C
  8
_0-0_0
  6
CONTINUOUS
 62
     1
 10
-164.0053336915167
 20
219.0008185430986
 30
0.0
 11
-164.0053336915167
 21
208.0008185430986
 31
0.0
  0
LINE
  5
14D
  8
_0-0_0
  6
CONTINUOUS
 62
     1
 10
-196.0053336915165
 20
219.0008185430986
 30
0.0
 11
-196.0053336915165
 21
208.0008185430986
 31
0.0
  0
LINE
  5
14E
  8
_0-0_0
  6
CONTINUOUS
 62
     1
 10
-166.2460486625166
 20
208.0008185430986
 30
0.0
 11
-178.7825001444679
 21
208.0008185430986
 31
0.0
  0
LINE
  5
14F
  8
_0-0_0
  6
CONTINUOUS
 62
     1
 10
-178.7825001444679
 20
208.0008185430986
 30
0.0
 11
-193.7646187205162
 21
208.0008185430986
 31
0.0
  0
LINE
  5
150
  8
_0-0_0
  6
CONTINUOUS
 62
     1
 10
-176.7293134465164
 20
208.0008185430986
 30
0.0
 11
-164.6080385400167
 21
208.0008185430986
 31
0.0
  0
LINE
  5
151
  8
_0-0_0
  6
CONTINUOUS
 62
     1
 10
-195.4026288430164
 20
208.0008185430986
 30
0.0
 11
-183.2813539365165
 21
208.0008185430986
 31
0.0
  0
LINE
  5
152
  8
_0-0_0
  6
CONTINUOUS
 62
     1
 10
-164.0053336915167
 20
208.0008185430986
 30
0.0
 11
-181.3003828677046
 21
208.0008185430986
 31
0.0
  0
LINE
  5
153
  8
_0-0_0
  6
CONTINUOUS
 62
     1
 10
-181.3003828677046
 20
208.0008185430986
 30
0.0
 11
-196.0053336915165
 21
208.0008185430986
 31
0.0
  0
LINE
  5
154
  8
_0-0_0
  6
CONTINUOUS
 62
     1
 10
-171.8521814137436
 20
219.0006496283106
 30
0.0
 11
-171.8505863639814
 21
208.0006496283106
 31
0.0
  0
LINE
  5
155
  8
_0-0_0
  6
CONTINUOUS
 62
     1
 10
-180.0060462481503
 20
217.8288792780986
 30
0.0
 11
-180.004621134883
 21
208.0008185430986
 31
0.0
  0
LINE
  5
156
  8
_0-0_0
  6
CONTINUOUS
 62
     1
 10
-188.1584859692895
 20
219.0006496283106
 30
0.0
 11
-188.1600810190517
 21
208.0006496283106
 31
0.0
  0
LINE
  5
157
  8
_0-0_0
  6
CONTINUOUS
 62
     1
 10
-194.005990707884
 20
198.2174807467408
 30
0.0
 11
-194.005990707884
 21
208.0008185430986
 31
0.0
  0
LINE
  5
158
  8
_0-0_0
  6
CONTINUOUS
 62
     1
 10
-169.0892784589225
 20
222.2768387880986
 30
0.0
 11
-190.9227029568457
 21
222.2768387880986
 31
0.0
  0
LINE
  5
159
  8
_0-0_0
  6
CONTINUOUS
 62
     1
 10
-168.0059907078842
 20
240.2768387880986
 30
0.0
 11
-192.005990707884
 21
240.2768387880986
 31
0.0
  0
LINE
  5
15A
  8
_0-0_0
  6
CONTINUOUS
 62
     1
 10
-169.0892784589225
 20
222.2768387880986
 30
0.0
 11
-168.0059907078842
 21
240.2768387880986
 31
0.0
  0
LINE
  5
15B
  8
_0-0_0
  6
CONTINUOUS
 62
     1
 10
-190.9227029568457
 20
222.2768387880986
 30
0.0
 11
-192.005990707884
 21
240.2768387880986
 31
0.0
  0
LINE
  5
15C
  8
_0-0_0
  6
CONTINUOUS
 62
     1
 10
-169.0059907078842
 20
240.2768387880986
 30
0.0
 11
-170.5059907078841
 21
243.1013840165689
 31
0.0
  0
LINE
  5
15D
  8
_0-0_0
  6
CONTINUOUS
 62
     1
 10
-191.005990707884
 20
240.2768387880986
 30
0.0
 11
-189.505990707884
 21
243.2768387880986
 31
0.0
  0
LINE
  5
15E
  8
_0-1_250
  6
CONTINUOUS
 62
     1
 10
-120.2559907078843
 20
183.9986330549534
 30
0.0
 11
-120.2559907078843
 21
161.9986330549534
 31
0.0
  0
LINE
  5
15F
  8
_0-1_250
  6
CONTINUOUS
 62
     1
 10
-118.3379729796398
 20
177.7508185430986
 30
0.0
 11
-118.8379729796398
 21
177.7508185430986
 31
0.0
  0
LINE
  5
160
  8
_0-1_250
  6
CONTINUOUS
 62
     1
 10
-118.3379729796398
 20
168.2508185430986
 30
0.0
 11
-118.8379729796398
 21
168.2508185430986
 31
0.0
  0
LINE
  5
161
  8
_0-1_250
  6
CONTINUOUS
 62
     1
 10
-120.2559907078843
 20
183.9986330549534
 30
0.0
 11
-120.2559907078843
 21
161.9986330549534
 31
0.0
  0
ARC
  5
162
  8
__
  6
CONTINUOUS
 62
     1
 10
-128.2234465784341
 20
173.0008185430986
 30
0.0
 40
10.96745587054989
 50
334.3355743611285
 51
25.66442563887153
  0
LINE
  5
163
  8
_0-1_250
  6
CONTINUOUS
 62
     1
 10
-120.2559907078843
 20
162.1188136251344
 30
0.0
 11
-118.8379729796398
 21
168.2508185430986
 31
0.0
  0
ARC
  5
164
  8
__
  6
CONTINUOUS
 62
     1
 10
-144.7190707029475
 20
184.7630964223095
 30
0.0
 40
1.482293202727366
 50
9.227128924952885
 51
93.00339455454713
  0
LINE
  5
165
  8
_0-1_250
  6
CONTINUOUS
 62
     1
 10
-144.7967356348246
 20
159.7582834912288
 30
0.0
 11
-147.2559904637202
 21
159.7582834912288
 31
0.0
  0
ARC
  5
166
  8
__
  6
CONTINUOUS
 62
     1
 10
-144.7190707029475
 20
161.2385406638877
 30
0.0
 40
1.482293202727277
 50
266.9966054454529
 51
350.7728710750471
  0
LINE
  5
167
  8
_0-1_250
  6
CONTINUOUS
 62
     1
 10
-158.2559904637201
 20
189.0008185430986
 30
0.0
 11
-158.2559904637201
 21
157.0008185430986
 31
0.0
  0
LINE
  5
168
  8
_0-1_250
  6
CONTINUOUS
 62
     1
 10
-147.2559904637202
 20
157.0008185430986
 30
0.0
 11
-158.2559904637201
 21
157.0008185430986
 31
0.0
  0
LINE
  5
169
  8
_0-1_250
  6
CONTINUOUS
 62
     1
 10
-147.2559904637202
 20
164.575341916756
 30
0.0
 11
-158.2559904637201
 21
164.575341916756
 31
0.0
  0
ARC
  5
16A
  8
__
  6
CONTINUOUS
 62
     1
 10
-214.5821740002814
 20
196.3792032588452
 30
0.0
 40
20.6581360002504
 50
331.1738498260654
 51
5.10525449593041
  0
LINE
  5
16B
  8
_0-0_0
  6
CONTINUOUS
 62
     1
 10
-166.0059907078842
 20
198.2174807467408
 30
0.0
 11
-166.0059907078842
 21
208.0008185430986
 31
0.0
  0
ARC
  5
16C
  8
__
  6
CONTINUOUS
 62
     1
 10
-145.4299184960192
 20
196.3792032588452
 30
0.0
 40
20.65813600025027
 50
174.8947455040696
 51
208.8261501739347
  0
LINE
  5
16D
  8
_0-0_0
  6
CONTINUOUS
 62
     1
 10
-163.5282369654767
 20
159.5826915648436
 30
0.0
 11
-163.5282369654767
 21
186.4188091108743
 31
0.0
  0
LINE
  5
16E
  8
_0-1_250
  6
CONTINUOUS
 62
     1
 10
-158.2559904637201
 20
186.0008185430986
 30
0.0
 11
-163.5282369654767
 21
186.0008185430986
 31
0.0
  0
ARC
  5
16F
  8
__
  6
CONTINUOUS
 62
     1
 10
306.4487887422403
 20
145.836200463025
 30
0.0
 40
12.68057352351089
 50
87.12546123497056
 51
125.1507067577722
  0
LINE
  5
170
  8
_0-0_0
 62
     1
 10
345.1171794053833
 20
100.0
 30
0.0
 11
345.1171794053833
 21
355.8437639875656
 31
0.0
  0
LINE
  5
171
  8
_0-0_0
  6
CONTINUOUS
 62
     1
 10
301.1171794053831
 20
219.0008185430986
 30
0.0
 11
301.1171794053831
 21
208.0008185430986
 31
0.0
  0
DIMENSION
  5
172
  8
__-1
  6
CONTINUOUS
 62
    17
  2
*D2
 10
285.1171794053831
 20
115.0322420026855
 30
0.0
 11
315.1171794053832
 21
115.0322420026855
 31
0.0
 70
    32
  3
STANDARD-1
 13
345.1171794053833
 23
135.350533582844
 33
0.0
 14
285.1171794053831
 24
129.0292873134613
 34
0.0
  0
LINE
  5
174
  8
_0-2_255
  6
CENTER
 62
     1
 10
-115.0059907078843
 20
94.67287801567599
 30
0.0
 11
-115.0059907078843
 21
342.7630082717102
 31
0.0
  0
DIMENSION
  5
175
  8
__-1
  6
CONTINUOUS
 62
    17
  2
*D3
 10
-180.0059907078841
 20
115.0322420026855
 30
0.0
 11
-147.5059907078842
 21
115.0322420026855
 31
0.0
 70
    32
  3
STANDARD-1
 13
-115.0059907078843
 23
130.9085038273325
 33
0.0
 14
-180.0059907078841
 24
132.4420534584946
 34
0.0
  0
LINE
  5
177
  8
_0-0_0
  6
CONTINUOUS
 62
     1
 10
138.6890895748318
 20
222.2768387880986
 30
0.0
 11
117.0447982684085
 21
222.2768387880986
 31
0.0
  0
ARC
  5
178
  8
_0-0_0
  6
CONTINUOUS
 62
     1
 10
172.0932172291199
 20
264.8651019730985
 30
0.0
 40
53.6317067117499
 50
74.05479200000005
 51
180.0
  0
LINE
  5
179
  8
_0-0_0
  6
CONTINUOUS
 62
     1
 10
118.4615105173701
 20
264.8651019730985
 30
0.0
 11
118.4615105173701
 21
243.2768387880986
 31
0.0
  0
ARC
  5
17A
  8
_0-0_0
  6
CONTINUOUS
 62
     1
 10
240.8905072434643
 20
245.2089805030986
 30
0.0
 40
53.56937199507922
 50
0.0
 51
74.05479200000002
  0
LINE
  5
17B
  8
_0-0_0
  6
CONTINUOUS
 62
     1
 10
256.5663693754902
 20
296.4334371850867
 30
0.0
 11
187.082420639271
 21
316.2857443950016
 31
0.0
  0
LINE
  5
17C
  8
_0-0_0
  6
CONTINUOUS
 62
     1
 10
250.4044499920762
 20
278.5082223031521
 30
0.0
 11
181.6071861858935
 21
298.1643437731522
 31
0.0
  0
LINE
  5
17D
  8
_0-0_0
  6
CONTINUOUS
 62
     1
 10
137.4615105173701
 20
264.8651019730985
 30
0.0
 11
137.4615105173701
 21
243.2768387880986
 31
0.0
  0
ARC
  5
17E
  8
_0-0_0
  6
CONTINUOUS
 62
     1
 10
172.0932172291199
 20
264.8651019730985
 30
0.0
 40
34.6317067117499
 50
74.05479199999996
 51
180.0
  0
ARC
  5
17F
  8
_0-0_0
  6
CONTINUOUS
 62
     1
 10
240.8905072434643
 20
245.2089805030986
 30
0.0
 40
34.62784746314344
 50
0.0
 51
74.05479199999996
  0
LINE
  5
180
  8
_0-0_0
  6
CONTINUOUS
 62
     1
 10
275.5183547066077
 20
245.2089805030986
 30
0.0
 11
275.5183547066077
 21
219.0008185430986
 31
0.0
  0
LINE
  5
181
  8
_0-0_0
  6
CONTINUOUS
 62
     1
 10
294.4598792385435
 20
245.2089805030986
 30
0.0
 11
294.4598792385435
 21
219.0008185430986
 31
0.0
  0
DIMENSION
  5
182
  8
__-1
  6
CONTINUOUS
 62
    17
  2
*D4
 10
89.66276732953538
 20
318.4813552924297
 30
0.0
 11
89.6627673295354
 21
245.7410869177641
 31
0.0
 70
    32
  3
STANDARD-1
 13
109.0083622205066
 23
173.0008185430986
 33
0.0
 14
107.3689050263565
 24
318.4813552924297
 34
0.0
 50
-90.0
  0
LINE
  5
184
  8
_0-0_0
 62
     1
 10
127.8669439216202
 20
100.0
 30
0.0
 11
127.8669439216202
 21
355.8437639875656
 31
0.0
  0
DIMENSION
  5
185
  8
__-1
  6
CONTINUOUS
 62
    17
  2
*D5
 10
127.9171794053832
 20
343.1486480943033
 30
0.0
 11
206.5171794053832
 21
343.1486480943033
 31
0.0
 70
    32
  3
STANDARD-1
 13
285.1171794053831
 23
330.3273240806028
 33
0.0
 14
127.9171794053832
 24
327.3356818107394
 34
0.0
  0
LINE
  5
187
  8
_0-0_0
  6
HIDDEN
 62
     1
 10
375.1171794053833
 20
183.5
 30
0.0
 11
375.1171794053833
 21
163.5
 31
0.0
  0
LINE
  5
188
  8
_0-0_0
  6
HIDDEN
 62
     1
 10
345.1171794053833
 20
163.5
 30
0.0
 11
375.1171794053833
 21
163.5
 31
0.0
  0
LINE
  5
189
  8
_0-0_0
  6
HIDDEN
 62
     1
 10
345.1171794053833
 20
183.5
 30
0.0
 11
375.1171794053833
 21
183.5
 31
0.0
  0
TEXT
  5
18A
  8
__-3
 62
     2
 10
389.0467786191608
 20
130.8275851729022
 30
0.0
 40
5.31004050925926
  1
ネジ：R1/2
  7
YUGOTHIC_MEDIUM
 11
389.0467786191608
 21
129.3104307416853
 31
0.0
 73
     1
  0
LINE
  5
18B
  8
__-3
 62
     2
 10
370.5381403423267
 20
163.5
 30
0.0
 11
382.1029108082276
 21
127.4387034668106
 31
0.0
  0
LINE
  5
18C
  8
__-3
 62
     2
 10
382.1029108082276
 20
127.4387034668106
 30
0.0
 11
426.1731138903604
 21
127.4387034668106
 31
0.0
  0
LINE
  5
18D
  8
_0-1_250
  6
HIDDEN
 62
     4
 10
-115.7088171270123
 20
222.5400206703189
 30
0.0
 11
-136.255850948423
 21
218.2259873885137
 31
0.0
  0
LINE
  5
18E
  8
_0-1_250
  6
HIDDEN
 62
     1
 10
-136.2559907078843
 20
180.4393615533889
 30
0.0
 11
-136.255850948423
 21
218.2259873885137
 31
0.0
  0
LINE
  5
18F
  8
_0-1_250
  6
HIDDEN
 62
     1
 10
-120.1059907078842
 20
192.0486330549534
 30
0.0
 11
-115.0059907078843
 21
220.9144239638454
 31
0.0
  0
LINE
  5
190
  8
_0-1_250
  6
HIDDEN
 62
     1
 10
-120.1059907078842
 20
192.0486330549534
 30
0.0
 11
-120.2559907078843
 21
183.9986330549534
 31
0.0
  0
LINE
  5
191
  8
_0-1_250
  6
HIDDEN
 62
     4
 10
-115.7088171270123
 20
222.5400206703189
 30
0.0
 11
-115.0059907078843
 21
220.9144239638454
 31
0.0
  0
INSERT
  5
192
  8
__
 62
    17
  2
____-2-1
 10
62.91898396813508
 20
267.1473011405615
 30
0.0
  0
VIEWPORT
  5
193
 67
     1
  8
0
 10
128.5
 20
97.5
 30
0.0
 40
314.226
 41
222.18
 68
     1
 69
     1
1001
ACAD
1000
MVIEW
1002
{
1070
    16
1010
0.0
1020
0.0
1030
0.0
1010
0.0
1020
0.0
1030
1.0
1040
0.0
1040
222.18
1040
128.5
1040
97.5
1040
50.0
1040
0.0
1040
0.0
1070
     0
1070
   100
1070
     0
1070
     3
1070
     0
1070
     0
1070
     0
1070
     0
1040
0.0
1040
0.0
1040
0.0
1040
10.0
1040
10.0
1040
10.0
1040
10.0
1070
     0
1002
{
1002
}
1002
}
  0
ENDSEC
  0
EOF
