  0
SECTION
  2
HEADER
  9
$ACADVER
  1
AC1009
  9
$DWGCODEPAGE
  3
dos932
  9
$INSBASE
 10
0.0
 20
0.0
 30
0.0
  9
$EXTMIN
 10
-327.8946047271925
 20
-1054.095146357615
 30
-11.37242666666667
  9
$EXTMAX
 10
462.4703154519558
 20
529.8719325027325
 30
11.37242666666667
  9
$LIMMIN
 10
0.0
 20
0.0
  9
$LIMMAX
 10
12.0
 20
9.0
  9
$ORTHOMODE
 70
     0
  9
$REGENMODE
 70
     1
  9
$FILLMODE
 70
     1
  9
$QTEXTMODE
 70
     0
  9
$MIRRTEXT
 70
     1
  9
$DRAGMODE
 70
     2
  9
$LTSCALE
 40
2.54
  9
$OSMODE
 70
    37
  9
$ATTMODE
 70
     1
  9
$TEXTSIZE
 40
0.2
  9
$TRACEWID
 40
1.0
  9
$TEXTSTYLE
  7
STANDARD
  9
$CLAYER
  8
__
  9
$CELTYPE
  6
BYLAYER
  9
$CECOLOR
 62
   256
  9
$DIMSCALE
 40
1.0
  9
$DIMASZ
 40
0.00775146484375
  9
$DIMEXO
 40
0.003125
  9
$DIMDLI
 40
0.019
  9
$DIMRND
 40
0.0
  9
$DIMDLE
 40
0.0
  9
$DIMEXE
 40
0.009
  9
$DIMTP
 40
0.0
  9
$DIMTM
 40
0.0
  9
$DIMTXT
 40
3.813491030092584
  9
$DIMCEN
 40
0.0
  9
$DIMTSZ
 40
0.0
  9
$DIMTOL
 70
     0
  9
$DIMLIM
 70
     0
  9
$DIMTIH
 70
     0
  9
$DIMTOH
 70
     0
  9
$DIMSE1
 70
     0
  9
$DIMSE2
 70
     0
  9
$DIMTAD
 70
     0
  9
$DIMZIN
 70
     8
  9
$DIMBLK
  1
VW_FILLEDARROW
  9
$DIMASO
 70
     1
  9
$DIMSHO
 70
     1
  9
$DIMPOST
  1
<>
  9
$DIMAPOST
  1
[]
  9
$DIMALT
 70
     0
  9
$DIMALTD
 70
     3
  9
$DIMALTF
 40
0.0393700787401575
  9
$DIMLFAC
 40
1.0
  9
$DIMTOFL
 70
     1
  9
$DIMTVP
 40
0.0
  9
$DIMTIX
 70
     1
  9
$DIMSOXD
 70
     0
  9
$DIMSAH
 70
     0
  9
$DIMBLK1
  1
VW_FILLEDARROW
  9
$DIMBLK2
  1
VW_FILLEDARROW
  9
$DIMSTYLE
  2
STANDARD-1
  9
$DIMCLRD
 70
     0
  9
$DIMCLRE
 70
     0
  9
$DIMCLRT
 70
     0
  9
$DIMTFAC
 40
1.0
  9
$DIMGAP
 40
0.0
  9
$LUNITS
 70
     2
  9
$LUPREC
 70
     2
  9
$SKETCHINC
 40
0.1
  9
$FILLETRAD
 40
0.5
  9
$AUNITS
 70
     0
  9
$AUPREC
 70
     2
  9
$MENU
  1
.
  9
$ELEVATION
 40
0.0
  9
$PELEVATION
 40
0.0
  9
$THICKNESS
 40
0.0
  9
$LIMCHECK
 70
     0
  9
$CHAMFERA
 40
0.0
  9
$CHAMFERB
 40
0.0
  9
$SKPOLY
 70
     0
  9
$TDCREATE
 40
2459967.046968079
  9
$TDUPDATE
 40
2459967.046993114
  9
$TDINDWG
 40
0.0000000116
  9
$TDUSRTIMER
 40
0.0000000116
  9
$USRTIMER
 70
     1
  9
$ANGBASE
 50
0.0
  9
$ANGDIR
 70
     0
  9
$PDMODE
 70
     1
  9
$PDSIZE
 40
-2.0
  9
$PLINEWID
 40
0.0
  9
$COORDS
 70
     1
  9
$SPLFRAME
 70
     0
  9
$SPLINETYPE
 70
     6
  9
$SPLINESEGS
 70
     8
  9
$ATTDIA
 70
     0
  9
$ATTREQ
 70
     1
  9
$HANDLING
 70
     1
  9
$HANDSEED
  5
430
  9
$SURFTAB1
 70
     6
  9
$SURFTAB2
 70
     6
  9
$SURFTYPE
 70
     6
  9
$SURFU
 70
     6
  9
$SURFV
 70
     6
  9
$UCSNAME
  2

  9
$UCSORG
 10
0.0
 20
0.0
 30
0.0
  9
$UCSXDIR
 10
1.0
 20
0.0
 30
0.0
  9
$UCSYDIR
 10
0.0
 20
1.0
 30
0.0
  9
$PUCSNAME
  2

  9
$PUCSORG
 10
0.0
 20
0.0
 30
0.0
  9
$PUCSXDIR
 10
1.0
 20
0.0
 30
0.0
  9
$PUCSYDIR
 10
0.0
 20
1.0
 30
0.0
  9
$USERI1
 70
     0
  9
$USERI2
 70
     0
  9
$USERI3
 70
     0
  9
$USERI4
 70
     0
  9
$USERI5
 70
     0
  9
$USERR1
 40
0.0
  9
$USERR2
 40
0.0
  9
$USERR3
 40
0.0
  9
$USERR4
 40
0.0
  9
$USERR5
 40
0.0
  9
$WORLDVIEW
 70
     1
  9
$SHADEDGE
 70
     3
  9
$SHADEDIF
 70
    70
  9
$TILEMODE
 70
     1
  9
$MAXACTVP
 70
    64
  9
$PLIMCHECK
 70
     0
  9
$PEXTMIN
 10
1.000000000000000E+20
 20
1.000000000000000E+20
 30
1.000000000000000E+20
  9
$PEXTMAX
 10
-1.000000000000000E+20
 20
-1.000000000000000E+20
 30
-1.000000000000000E+20
  9
$PLIMMIN
 10
-20.0
 20
-7.5
  9
$PLIMMAX
 10
277.0
 20
202.5
  9
$UNITMODE
 70
     0
  9
$VISRETAIN
 70
     1
  9
$PLINEGEN
 70
     0
  9
$PSLTSCALE
 70
     1
  0
ENDSEC
  0
SECTION
  2
TABLES
  0
TABLE
  2
VPORT
 70
     1
  0
VPORT
  2
*ACTIVE
 70
     0
 10
0.0
 20
0.0
 11
1.0
 21
1.0
 12
67.28785536238166
 22
-262.1116069274411
 13
0.0
 23
0.0
 14
0.5
 24
0.5
 15
0.5
 25
0.5
 16
0.0
 26
0.0
 36
1.0
 17
0.0
 27
0.0
 37
0.0
 40
1583.967078860347
 41
0.4989781231740056
 42
2000.0
 43
0.0
 44
0.0
 50
0.0
 51
0.0
 71
     0
 72
   100
 73
     1
 74
     3
 75
     0
 76
     0
 77
     0
 78
     0
  0
ENDTAB
  0
TABLE
  2
LTYPE
 70
     4
  0
LTYPE
  2
CONTINUOUS
 70
     0
  3
Solid line
 72
    65
 73
     0
 40
0.0
  0
LTYPE
  2
HIDDEN
 70
     0
  3

 72
    65
 73
     2
 40
0.6561679790026248
 49
0.6561679790026248
 49
-0.3280839895013124
  0
LTYPE
  2
CENTER-4
 70
     0
  3

 72
    65
 73
     4
 40
3.280839895013124
 49
3.280839895013124
 49
-0.6561679790026248
 49
0.6561679790026248
 49
-0.6561679790026248
  0
LTYPE
  2
CENTER
 70
     0
  3

 72
    65
 73
     4
 40
0.4921259842519687
 49
0.4921259842519687
 49
-0.0984251968503937
 49
0.0984251968503937
 49
-0.0984251968503938
  0
ENDTAB
  0
TABLE
  2
LAYER
 70
    13
  0
LAYER
  2
0
 70
     0
 62
     7
  6
CONTINUOUS
  0
LAYER
  2
__
 70
     0
 62
     7
  6
CONTINUOUS
  0
LAYER
  2
__-1
 70
     0
 62
     7
  6
CONTINUOUS
  0
LAYER
  2
_0-0_0
 70
     0
 62
     7
  6
CONTINUOUS
  0
LAYER
  2
_0-1_250
 70
     0
 62
     7
  6
CONTINUOUS
  0
LAYER
  2
__-2
 70
     0
 62
     7
  6
CONTINUOUS
  0
LAYER
  2
__-3
 70
     0
 62
     7
  6
CONTINUOUS
  0
LAYER
  2
DEFPOINTS
 70
     0
 62
     7
  6
CONTINUOUS
  0
ENDTAB
  0
TABLE
  2
STYLE
 70
     4
  0
STYLE
  2
STANDARD
 70
     0
 40
0.0
 41
1.0
 50
0.0
 71
     0
 42
0.2
  3
txt
  4
BIGFONT.SHX
  0
STYLE
  2
YUGOTHIC_MEDIUM
 70
     0
 40
0.0
 41
1.0
 50
0.0
 71
     0
 42
0.2
  3

  4
YuGothic Medium
  0
STYLE
  2
YUGOTHIC_BOLD
 70
     0
 40
0.0
 41
1.0
 50
0.0
 71
     0
 42
0.2
  3

  4
YuGothic Bold
  0
STYLE
  2
YUGOTHIC_MEDIUM-B
 70
     0
 40
0.0
 41
1.0
 50
0.0
 71
     0
 42
0.2
  3

  4
YuGothic Medium
  0
ENDTAB
  0
TABLE
  2
VIEW
 70
     0
  0
ENDTAB
  0
TABLE
  2
UCS
 70
     0
  0
ENDTAB
  0
TABLE
  2
APPID
 70
     3
  0
APPID
  2
ACAD
 70
     0
  0
APPID
  2
ACCMTRANSPARENCY
 70
     0
  0
APPID
  2
ACAECLAYERSTANDARD
 70
     0
  0
ENDTAB
  0
TABLE
  2
DIMSTYLE
 70
     2
  0
DIMSTYLE
  2
STANDARD
 70
     0
  3

  4

  5

  6

  7

 40
1.0
 41
0.18
 42
0.0625
 43
0.38
 44
0.18
 45
0.0
 46
0.0
 47
0.0
 48
0.0
140
0.18
141
0.09
142
0.0
143
25.4
144
1.0
145
0.0
146
1.0
147
0.09
 71
     0
 72
     0
 73
     1
 74
     1
 75
     0
 76
     0
 77
     0
 78
     0
170
     0
171
     2
172
     0
173
     0
174
     0
175
     0
176
     0
177
     0
178
     0
  0
DIMSTYLE
  2
STANDARD-1
 70
     0
  3
<>
  4
[]
  5
VW_FILLEDARROW
  6
VW_FILLEDARROW
  7
VW_FILLEDARROW
 40
1.0
 41
0.00775146484375
 42
0.003125
 43
0.019
 44
0.009
 45
0.0
 46
0.0
 47
0.0
 48
0.0
140
3.813491030092584
141
0.0
142
0.0
143
0.0393700787401575
144
1.0
145
0.0
146
1.0
147
0.0
 71
     0
 72
     0
 73
     0
 74
     0
 75
     0
 76
     0
 77
     0
 78
     8
170
     0
171
     3
172
     1
173
     0
174
     1
175
     0
176
     0
177
     0
178
     0
  0
ENDTAB
  0
ENDSEC
  0
SECTION
  2
BLOCKS
  0
BLOCK
  8
0
  2
$MODEL_SPACE
 70
     0
 10
0.0
 20
0.0
 30
0.0
  3
$MODEL_SPACE
  1

  0
ENDBLK
  5
21
  8
0
  0
BLOCK
 67
     1
  8
0
  2
$PAPER_SPACE
 70
     0
 10
0.0
 20
0.0
 30
0.0
  3
$PAPER_SPACE
  1

  0
ENDBLK
  5
1D
 67
     1
  8
0
  0
BLOCK
  8
0
  2
____-1
 70
     0
 10
0.0
 20
0.0
 30
0.0
  3
____-1
  1

  0
ENDBLK
  5
71
  8
0
  0
BLOCK
  8
0
  2
____-2-1
 70
     0
 10
0.0
 20
0.0
 30
0.0
  3
____-2-1
  1

  0
ENDBLK
  5
74
  8
0
  0
BLOCK
  8
0
  2
____-3-1
 70
     0
 10
0.0
 20
0.0
 30
0.0
  3
____-3-1
  1

  0
ENDBLK
  5
77
  8
0
  0
BLOCK
  8
0
  2
*D4
 70
     1
 10
0.0
 20
0.0
 30
0.0
  3
*D4
  1

  0
LINE
  5
CB
  8
__-1
  6
CONTINUOUS
 62
     0
 10
-58.0698301752268
 20
309.8647671556764
 30
0.0
 11
-58.0698301752268
 21
333.4871850032241
 31
0.0
  0
LINE
  5
CC
  8
__-1
  6
CONTINUOUS
 62
     0
 10
-261.5698301752268
 20
309.8647671556764
 30
0.0
 11
-261.5698301752268
 21
333.4871850032241
 31
0.0
  0
LINE
  5
CD
  8
__-1
  6
CONTINUOUS
 62
     0
 10
-58.07758164007055
 20
333.4781850032241
 30
0.0
 11
-152.1928481150416
 21
333.4781850032241
 31
0.0
  0
LINE
  5
CE
  8
__-1
  6
CONTINUOUS
 62
     0
 10
-261.562078710383
 20
333.4781850032241
 30
0.0
 11
-167.446812235412
 21
333.4781850032241
 31
0.0
  0
INSERT
  5
D3
  8
__-1
 62
     0
  2
VW_FILLEDARROW
 10
-58.0698301752268
 20
333.4781850032241
 30
0.0
 41
0.00775146484375
 42
0.00775146484375
 43
0.00775146484375
  0
INSERT
  5
D8
  8
__-1
 62
     0
  2
VW_FILLEDARROW
 10
-261.5698301752268
 20
333.4781850032241
 30
0.0
 41
0.00775146484375
 42
0.00775146484375
 43
0.00775146484375
 50
180.0
  0
TEXT
  5
D9
  8
__-1
  6
CONTINUOUS
 62
     0
 10
-167.9915966682823
 20
331.5714394881778
 30
0.0
 40
3.813491030092584
  1
203.5
  7
YUGOTHIC_BOLD
  0
POINT
  5
DA
  8
DEFPOINTS
 62
     0
 10
-58.0698301752268
 20
309.8616421556763
 30
0.0
  0
POINT
  5
DB
  8
DEFPOINTS
 62
     0
 10
-261.5698301752268
 20
309.8616421556763
 30
0.0
  0
POINT
  5
3D5
  8
DEFPOINTS
 62
     0
 10
-261.5698301752268
 20
333.4781850032241
 30
0.0
  0
ENDBLK
  5
7B
  8
0
  0
BLOCK
  8
0
  2
*D5
 70
     1
 10
0.0
 20
0.0
 30
0.0
  3
*D5
  1

  0
LINE
  5
DC
  8
__-1
  6
CONTINUOUS
 62
     0
 10
250.7470383706558
 20
160.3666830036153
 30
0.0
 11
199.2645070229266
 21
160.3666830036153
 31
0.0
  0
LINE
  5
DD
  8
__-1
  6
CONTINUOUS
 62
     0
 10
250.7470383706558
 20
309.8616421556763
 30
0.0
 11
199.2645070229266
 21
309.8616421556763
 31
0.0
  0
LINE
  5
DE
  8
__-1
  6
CONTINUOUS
 62
     0
 10
199.2735070229265
 20
160.3744344684591
 30
0.0
 11
199.2735070229265
 21
224.1276765167601
 31
0.0
  0
LINE
  5
DF
  8
__-1
  6
CONTINUOUS
 62
     0
 10
199.2735070229265
 20
309.8538906908326
 30
0.0
 11
199.2735070229265
 21
246.1006486425316
 31
0.0
  0
INSERT
  5
E4
  8
__-1
 62
     0
  2
VW_FILLEDARROW
 10
199.2735070229265
 20
160.3666830036153
 30
0.0
 41
0.00775146484375
 42
0.00775146484375
 43
0.00775146484375
 50
270.0
  0
INSERT
  5
E9
  8
__-1
 62
     0
  2
VW_FILLEDARROW
 10
199.2735070229265
 20
309.8616421556763
 30
0.0
 41
0.00775146484375
 42
0.00775146484375
 43
0.00775146484375
 50
90.0
  0
TEXT
  5
EA
  8
__-1
  6
CONTINUOUS
 62
     0
 10
201.1802525379728
 20
223.0381076510193
 30
0.0
 40
3.813491030092584
  1
149.495
 50
90.0
  7
YUGOTHIC_BOLD
  0
POINT
  5
EB
  8
DEFPOINTS
 62
     0
 10
250.7501633706559
 20
160.3666830036153
 30
0.0
  0
POINT
  5
EC
  8
DEFPOINTS
 62
     0
 10
250.7501633706559
 20
309.8616421556763
 30
0.0
  0
POINT
  5
3D7
  8
DEFPOINTS
 62
     0
 10
199.2735070229265
 20
309.8616421556763
 30
0.0
  0
ENDBLK
  5
7E
  8
0
  0
BLOCK
  8
0
  2
*D6
 70
     1
 10
0.0
 20
0.0
 30
0.0
  3
*D6
  1

  0
LINE
  5
ED
  8
__-1
  6
CONTINUOUS
 62
     0
 10
408.0
 20
309.8647671556764
 30
0.0
 11
408.0
 21
326.325737119951
 31
0.0
  0
LINE
  5
EE
  8
__-1
  6
CONTINUOUS
 62
     0
 10
250.7501633706559
 20
309.8647671556764
 30
0.0
 11
250.7501633706559
 21
326.325737119951
 31
0.0
  0
LINE
  5
EF
  8
__-1
  6
CONTINUOUS
 62
     0
 10
407.9922485351562
 20
326.316737119951
 30
0.0
 11
342.1775158577816
 21
326.316737119951
 31
0.0
  0
LINE
  5
F0
  8
__-1
  6
CONTINUOUS
 62
     0
 10
250.7579148354996
 20
326.316737119951
 30
0.0
 11
316.5726475128743
 21
326.316737119951
 31
0.0
  0
INSERT
  5
F5
  8
__-1
 62
     0
  2
VW_FILLEDARROW
 10
408.0
 20
326.316737119951
 30
0.0
 41
0.00775146484375
 42
0.00775146484375
 43
0.00775146484375
  0
INSERT
  5
FA
  8
__-1
 62
     0
  2
VW_FILLEDARROW
 10
250.7501633706559
 20
326.316737119951
 30
0.0
 41
0.00775146484375
 42
0.00775146484375
 43
0.00775146484375
 50
180.0
  0
TEXT
  5
FB
  8
__-1
  6
CONTINUOUS
 62
     0
 10
315.4830786471335
 20
324.4099916049047
 30
0.0
 40
3.813491030092584
  1
157.2498
  7
YUGOTHIC_BOLD
  0
POINT
  5
FC
  8
DEFPOINTS
 62
     0
 10
408.0
 20
309.8616421556763
 30
0.0
  0
POINT
  5
FD
  8
DEFPOINTS
 62
     0
 10
250.7501633706559
 20
309.8616421556763
 30
0.0
  0
POINT
  5
3D9
  8
DEFPOINTS
 62
     0
 10
250.7501633706559
 20
326.316737119951
 30
0.0
  0
ENDBLK
  5
81
  8
0
  0
BLOCK
  8
0
  2
*D7
 70
     1
 10
0.0
 20
0.0
 30
0.0
  3
*D7
  1

  0
LINE
  5
FE
  8
__-1
  6
CONTINUOUS
 62
     0
 10
-58.0698301752268
 20
-239.2064404370175
 30
0.0
 11
-58.0698301752268
 21
-207.991
 31
0.0
  0
LINE
  5
FF
  8
__-1
  6
CONTINUOUS
 62
     0
 10
-261.5698301752268
 20
-239.2064404370175
 30
0.0
 11
-261.5698301752268
 21
-207.991
 31
0.0
  0
LINE
  5
100
  8
__-1
  6
CONTINUOUS
 62
     0
 10
-58.07758164007055
 20
-208.0
 30
0.0
 11
-152.1928481150416
 21
-208.0
 31
0.0
  0
LINE
  5
101
  8
__-1
  6
CONTINUOUS
 62
     0
 10
-261.562078710383
 20
-208.0
 30
0.0
 11
-167.446812235412
 21
-208.0
 31
0.0
  0
INSERT
  5
106
  8
__-1
 62
     0
  2
VW_FILLEDARROW
 10
-58.0698301752268
 20
-208.0
 30
0.0
 41
0.00775146484375
 42
0.00775146484375
 43
0.00775146484375
  0
INSERT
  5
10B
  8
__-1
 62
     0
  2
VW_FILLEDARROW
 10
-261.5698301752268
 20
-208.0
 30
0.0
 41
0.00775146484375
 42
0.00775146484375
 43
0.00775146484375
 50
180.0
  0
TEXT
  5
10C
  8
__-1
  6
CONTINUOUS
 62
     0
 10
-167.9915966682823
 20
-209.9067455150463
 30
0.0
 40
3.813491030092584
  1
203.5
  7
YUGOTHIC_BOLD
  0
POINT
  5
10D
  8
DEFPOINTS
 62
     0
 10
-58.0698301752268
 20
-239.2095654370175
 30
0.0
  0
POINT
  5
10E
  8
DEFPOINTS
 62
     0
 10
-261.5698301752268
 20
-239.2095654370175
 30
0.0
  0
POINT
  5
3DB
  8
DEFPOINTS
 62
     0
 10
-261.5698301752268
 20
-208.0
 30
0.0
  0
ENDBLK
  5
84
  8
0
  0
BLOCK
  8
0
  2
*D8
 70
     1
 10
0.0
 20
0.0
 30
0.0
  3
*D8
  1

  0
LINE
  5
10F
  8
__-1
  6
CONTINUOUS
 62
     0
 10
204.8158870991211
 20
-408.0338498244256
 30
0.0
 11
166.991
 21
-408.0338498244256
 31
0.0
  0
LINE
  5
110
  8
__-1
  6
CONTINUOUS
 62
     0
 10
204.8158870991211
 20
-239.2095654370175
 30
0.0
 11
166.991
 21
-239.2095654370175
 31
0.0
  0
LINE
  5
111
  8
__-1
  6
CONTINUOUS
 62
     0
 10
167.0
 20
-408.0260983595819
 30
0.0
 11
167.0
 21
-336.4241418031753
 31
0.0
  0
LINE
  5
112
  8
__-1
  6
CONTINUOUS
 62
     0
 10
167.0
 20
-239.2173169018613
 30
0.0
 11
167.0
 21
-310.819273458268
 31
0.0
  0
INSERT
  5
117
  8
__-1
 62
     0
  2
VW_FILLEDARROW
 10
167.0
 20
-408.0338498244256
 30
0.0
 41
0.00775146484375
 42
0.00775146484375
 43
0.00775146484375
 50
270.0
  0
INSERT
  5
11C
  8
__-1
 62
     0
  2
VW_FILLEDARROW
 10
167.0
 20
-239.2095654370175
 30
0.0
 41
0.00775146484375
 42
0.00775146484375
 43
0.00775146484375
 50
90.0
  0
TEXT
  5
11D
  8
__-1
  6
CONTINUOUS
 62
     0
 10
168.9067455150463
 20
-337.513710668916
 30
0.0
 40
3.813491030092584
  1
168.8243
 50
90.0
  7
YUGOTHIC_BOLD
  0
POINT
  5
11E
  8
DEFPOINTS
 62
     0
 10
204.8190120991211
 20
-408.0338498244256
 30
0.0
  0
POINT
  5
11F
  8
DEFPOINTS
 62
     0
 10
204.8190120991211
 20
-239.2095654370175
 30
0.0
  0
POINT
  5
3DD
  8
DEFPOINTS
 62
     0
 10
167.0
 20
-239.2095654370175
 30
0.0
  0
ENDBLK
  5
87
  8
0
  0
BLOCK
  8
0
  2
*D9
 70
     1
 10
0.0
 20
0.0
 30
0.0
  3
*D9
  1

  0
LINE
  5
120
  8
__-1
  6
CONTINUOUS
 62
     0
 10
408.0
 20
-239.2064404370175
 30
0.0
 11
408.0
 21
-207.991
 31
0.0
  0
LINE
  5
121
  8
__-1
  6
CONTINUOUS
 62
     0
 10
204.8190120991211
 20
-239.2064404370175
 30
0.0
 11
204.8190120991211
 21
-207.991
 31
0.0
  0
LINE
  5
122
  8
__-1
  6
CONTINUOUS
 62
     0
 10
407.9922485351562
 20
-208.0
 30
0.0
 11
317.1235998960111
 21
-208.0
 31
0.0
  0
LINE
  5
123
  8
__-1
  6
CONTINUOUS
 62
     0
 10
204.8267635639649
 20
-208.0
 30
0.0
 11
295.69541220311
 21
-208.0
 31
0.0
  0
INSERT
  5
128
  8
__-1
 62
     0
  2
VW_FILLEDARROW
 10
408.0
 20
-208.0
 30
0.0
 41
0.00775146484375
 42
0.00775146484375
 43
0.00775146484375
  0
INSERT
  5
12D
  8
__-1
 62
     0
  2
VW_FILLEDARROW
 10
204.8190120991211
 20
-208.0
 30
0.0
 41
0.00775146484375
 42
0.00775146484375
 43
0.00775146484375
 50
180.0
  0
TEXT
  5
12E
  8
__-1
  6
CONTINUOUS
 62
     0
 10
295.1506277702396
 20
-209.9067455150463
 30
0.0
 40
3.813491030092584
  1
203.181
  7
YUGOTHIC_BOLD
  0
POINT
  5
12F
  8
DEFPOINTS
 62
     0
 10
408.0
 20
-239.2095654370175
 30
0.0
  0
POINT
  5
130
  8
DEFPOINTS
 62
     0
 10
204.8190120991211
 20
-239.2095654370175
 30
0.0
  0
POINT
  5
3DF
  8
DEFPOINTS
 62
     0
 10
204.8190120991211
 20
-208.0
 30
0.0
  0
ENDBLK
  5
8A
  8
0
  0
BLOCK
  8
0
  2
*D10
 70
     1
 10
0.0
 20
0.0
 30
0.0
  3
*D10
  1

  0
LINE
  5
131
  8
__-1
  6
CONTINUOUS
 62
     0
 10
-58.0698301752268
 20
-784.7765804725875
 30
0.0
 11
-58.0698301752268
 21
-762.146661508574
 31
0.0
  0
LINE
  5
132
  8
__-1
  6
CONTINUOUS
 62
     0
 10
-261.5698301752268
 20
-784.7765804725875
 30
0.0
 11
-261.5698301752268
 21
-762.146661508574
 31
0.0
  0
LINE
  5
133
  8
__-1
  6
CONTINUOUS
 62
     0
 10
-58.07758164007055
 20
-762.155661508574
 30
0.0
 11
-152.1928481150416
 21
-762.155661508574
 31
0.0
  0
LINE
  5
134
  8
__-1
  6
CONTINUOUS
 62
     0
 10
-261.562078710383
 20
-762.155661508574
 30
0.0
 11
-167.446812235412
 21
-762.155661508574
 31
0.0
  0
INSERT
  5
139
  8
__-1
 62
     0
  2
VW_FILLEDARROW
 10
-58.0698301752268
 20
-762.155661508574
 30
0.0
 41
0.00775146484375
 42
0.00775146484375
 43
0.00775146484375
  0
INSERT
  5
13E
  8
__-1
 62
     0
  2
VW_FILLEDARROW
 10
-261.5698301752268
 20
-762.155661508574
 30
0.0
 41
0.00775146484375
 42
0.00775146484375
 43
0.00775146484375
 50
180.0
  0
TEXT
  5
13F
  8
__-1
  6
CONTINUOUS
 62
     0
 10
-167.9915966682823
 20
-764.0624070236203
 30
0.0
 40
3.813491030092584
  1
203.5
  7
YUGOTHIC_BOLD
  0
POINT
  5
140
  8
DEFPOINTS
 62
     0
 10
-58.0698301752268
 20
-784.7797054725875
 30
0.0
  0
POINT
  5
141
  8
DEFPOINTS
 62
     0
 10
-261.5698301752268
 20
-784.7797054725875
 30
0.0
  0
POINT
  5
3E1
  8
DEFPOINTS
 62
     0
 10
-261.5698301752268
 20
-762.155661508574
 30
0.0
  0
ENDBLK
  5
8D
  8
0
  0
BLOCK
  8
0
  2
*D11
 70
     1
 10
0.0
 20
0.0
 30
0.0
  3
*D11
  1

  0
LINE
  5
142
  8
__-1
  6
CONTINUOUS
 62
     0
 10
153.9974550250533
 20
-973.0338498244255
 30
0.0
 11
117.991
 21
-973.0338498244255
 31
0.0
  0
LINE
  5
143
  8
__-1
  6
CONTINUOUS
 62
     0
 10
153.9974550250533
 20
-784.7797054725875
 30
0.0
 11
117.991
 21
-784.7797054725875
 31
0.0
  0
LINE
  5
144
  8
__-1
  6
CONTINUOUS
 62
     0
 10
118.0
 20
-973.0260983595817
 30
0.0
 11
118.0
 21
-891.1644273880898
 31
0.0
  0
LINE
  5
145
  8
__-1
  6
CONTINUOUS
 62
     0
 10
118.0
 20
-784.7874569374312
 30
0.0
 11
118.0
 21
-866.6491279089232
 31
0.0
  0
INSERT
  5
14A
  8
__-1
 62
     0
  2
VW_FILLEDARROW
 10
118.0
 20
-973.0338498244255
 30
0.0
 41
0.00775146484375
 42
0.00775146484375
 43
0.00775146484375
 50
270.0
  0
INSERT
  5
14F
  8
__-1
 62
     0
  2
VW_FILLEDARROW
 10
118.0
 20
-784.7797054725875
 30
0.0
 41
0.00775146484375
 42
0.00775146484375
 43
0.00775146484375
 50
90.0
  0
TEXT
  5
150
  8
__-1
  6
CONTINUOUS
 62
     0
 10
119.9067455150463
 20
-892.2539962538306
 30
0.0
 40
3.813491030092584
  1
188.2541
 50
90.0
  7
YUGOTHIC_BOLD
  0
POINT
  5
151
  8
DEFPOINTS
 62
     0
 10
154.0005800250533
 20
-973.0338498244255
 30
0.0
  0
POINT
  5
152
  8
DEFPOINTS
 62
     0
 10
154.0005800250533
 20
-784.7797054725875
 30
0.0
  0
POINT
  5
3E3
  8
DEFPOINTS
 62
     0
 10
118.0
 20
-784.7797054725875
 30
0.0
  0
ENDBLK
  5
90
  8
0
  0
BLOCK
  8
0
  2
*D12
 70
     1
 10
0.0
 20
0.0
 30
0.0
  3
*D12
  1

  0
LINE
  5
153
  8
__-1
  6
CONTINUOUS
 62
     0
 10
408.0
 20
-784.7765804725875
 30
0.0
 11
408.0
 21
-762.146661508574
 31
0.0
  0
LINE
  5
154
  8
__-1
  6
CONTINUOUS
 62
     0
 10
154.0005800250533
 20
-784.7765804725875
 30
0.0
 11
154.0005800250533
 21
-762.146661508574
 31
0.0
  0
LINE
  5
155
  8
__-1
  6
CONTINUOUS
 62
     0
 10
407.9922485351562
 20
-762.155661508574
 30
0.0
 11
294.1659138068939
 21
-762.155661508574
 31
0.0
  0
LINE
  5
156
  8
__-1
  6
CONTINUOUS
 62
     0
 10
154.008331489897
 20
-762.155661508574
 30
0.0
 11
267.8346662181594
 21
-762.155661508574
 31
0.0
  0
INSERT
  5
15B
  8
__-1
 62
     0
  2
VW_FILLEDARROW
 10
408.0
 20
-762.155661508574
 30
0.0
 41
0.00775146484375
 42
0.00775146484375
 43
0.00775146484375
  0
INSERT
  5
160
  8
__-1
 62
     0
  2
VW_FILLEDARROW
 10
154.0005800250533
 20
-762.155661508574
 30
0.0
 41
0.00775146484375
 42
0.00775146484375
 43
0.00775146484375
 50
180.0
  0
TEXT
  5
161
  8
__-1
  6
CONTINUOUS
 62
     0
 10
267.289881785289
 20
-764.0624070236203
 30
0.0
 40
3.813491030092584
  1
253.9994
  7
YUGOTHIC_BOLD
  0
POINT
  5
162
  8
DEFPOINTS
 62
     0
 10
408.0
 20
-784.7797054725875
 30
0.0
  0
POINT
  5
163
  8
DEFPOINTS
 62
     0
 10
154.0005800250533
 20
-784.7797054725875
 30
0.0
  0
POINT
  5
3E5
  8
DEFPOINTS
 62
     0
 10
154.0005800250533
 20
-762.155661508574
 30
0.0
  0
ENDBLK
  5
93
  8
0
  0
BLOCK
  8
0
  2
*D13
 70
     1
 10
0.0
 20
0.0
 30
0.0
  3
*D13
  1

  0
LINE
  5
164
  8
__-1
  6
CONTINUOUS
 62
     0
 10
431.4041325095901
 20
-408.0369748244256
 30
0.0
 11
431.4041325095901
 21
-430.509
 31
0.0
  0
LINE
  5
165
  8
__-1
  6
CONTINUOUS
 62
     0
 10
384.4041325095901
 20
-408.0369748244256
 30
0.0
 11
384.4041325095901
 21
-430.509
 31
0.0
  0
LINE
  5
166
  8
__-1
  6
CONTINUOUS
 62
     0
 10
431.3963810447464
 20
-430.5
 30
0.0
 11
410.9912442958556
 21
-430.5
 31
0.0
  0
LINE
  5
167
  8
__-1
  6
CONTINUOUS
 62
     0
 10
384.4118839744339
 20
-430.5
 30
0.0
 11
404.8170207233247
 21
-430.5
 31
0.0
  0
INSERT
  5
16C
  8
__-1
 62
     0
  2
VW_FILLEDARROW
 10
431.4041325095901
 20
-430.5
 30
0.0
 41
0.00775146484375
 42
0.00775146484375
 43
0.00775146484375
  0
INSERT
  5
171
  8
__-1
 62
     0
  2
VW_FILLEDARROW
 10
384.4041325095901
 20
-430.5
 30
0.0
 41
0.00775146484375
 42
0.00775146484375
 43
0.00775146484375
 50
180.0
  0
TEXT
  5
172
  8
__-1
  6
CONTINUOUS
 62
     0
 10
404.2722362904543
 20
-432.4067455150463
 30
0.0
 40
3.813491030092584
  1
47
  7
YUGOTHIC_BOLD
  0
POINT
  5
173
  8
DEFPOINTS
 62
     0
 10
431.4041325095901
 20
-408.0338498244256
 30
0.0
  0
POINT
  5
174
  8
DEFPOINTS
 62
     0
 10
384.4041325095901
 20
-408.0338498244256
 30
0.0
  0
POINT
  5
3E7
  8
DEFPOINTS
 62
     0
 10
384.4041325095901
 20
-430.5
 30
0.0
  0
ENDBLK
  5
96
  8
0
  0
BLOCK
  8
0
  2
*D14
 70
     1
 10
0.0
 20
0.0
 30
0.0
  3
*D14
  1

  0
LINE
  5
175
  8
__-1
  6
CONTINUOUS
 62
     0
 10
431.4041325095901
 20
-973.0369748244254
 30
0.0
 11
431.4041325095901
 21
-997.009
 31
0.0
  0
LINE
  5
176
  8
__-1
  6
CONTINUOUS
 62
     0
 10
384.4041325095901
 20
-973.0369748244254
 30
0.0
 11
384.4041325095901
 21
-997.009
 31
0.0
  0
LINE
  5
177
  8
__-1
  6
CONTINUOUS
 62
     0
 10
431.3963810447464
 20
-997.0
 30
0.0
 11
410.9912442958556
 21
-997.0
 31
0.0
  0
LINE
  5
178
  8
__-1
  6
CONTINUOUS
 62
     0
 10
384.4118839744339
 20
-997.0
 30
0.0
 11
404.8170207233247
 21
-997.0
 31
0.0
  0
INSERT
  5
17D
  8
__-1
 62
     0
  2
VW_FILLEDARROW
 10
431.4041325095901
 20
-997.0
 30
0.0
 41
0.00775146484375
 42
0.00775146484375
 43
0.00775146484375
  0
INSERT
  5
182
  8
__-1
 62
     0
  2
VW_FILLEDARROW
 10
384.4041325095901
 20
-997.0
 30
0.0
 41
0.00775146484375
 42
0.00775146484375
 43
0.00775146484375
 50
180.0
  0
TEXT
  5
183
  8
__-1
  6
CONTINUOUS
 62
     0
 10
404.2722362904543
 20
-998.9067455150463
 30
0.0
 40
3.813491030092584
  1
47
  7
YUGOTHIC_BOLD
  0
POINT
  5
184
  8
DEFPOINTS
 62
     0
 10
431.4041325095901
 20
-973.0338498244255
 30
0.0
  0
POINT
  5
185
  8
DEFPOINTS
 62
     0
 10
384.4041325095901
 20
-973.0338498244255
 30
0.0
  0
POINT
  5
3E9
  8
DEFPOINTS
 62
     0
 10
384.4041325095901
 20
-997.0
 30
0.0
  0
ENDBLK
  5
99
  8
0
  0
BLOCK
  8
0
  2
*D15
 70
     1
 10
0.0
 20
0.0
 30
0.0
  3
*D15
  1

  0
LINE
  5
186
  8
__-1
  6
CONTINUOUS
 62
     0
 10
431.4041325095901
 20
160.3635580036153
 30
0.0
 11
431.4041325095901
 21
131.991
 31
0.0
  0
LINE
  5
187
  8
__-1
  6
CONTINUOUS
 62
     0
 10
384.4041325095901
 20
160.3635580036153
 30
0.0
 11
384.4041325095901
 21
131.991
 31
0.0
  0
LINE
  5
188
  8
__-1
  6
CONTINUOUS
 62
     0
 10
431.3963810447464
 20
132.0
 30
0.0
 11
410.9912442958556
 21
132.0
 31
0.0
  0
LINE
  5
189
  8
__-1
  6
CONTINUOUS
 62
     0
 10
384.4118839744339
 20
132.0
 30
0.0
 11
404.8170207233247
 21
132.0
 31
0.0
  0
INSERT
  5
18E
  8
__-1
 62
     0
  2
VW_FILLEDARROW
 10
431.4041325095901
 20
132.0
 30
0.0
 41
0.00775146484375
 42
0.00775146484375
 43
0.00775146484375
  0
INSERT
  5
193
  8
__-1
 62
     0
  2
VW_FILLEDARROW
 10
384.4041325095901
 20
132.0
 30
0.0
 41
0.00775146484375
 42
0.00775146484375
 43
0.00775146484375
 50
180.0
  0
TEXT
  5
194
  8
__-1
  6
CONTINUOUS
 62
     0
 10
404.2722362904543
 20
130.0932544849537
 30
0.0
 40
3.813491030092584
  1
47
  7
YUGOTHIC_BOLD
  0
POINT
  5
195
  8
DEFPOINTS
 62
     0
 10
431.4041325095901
 20
160.3666830036153
 30
0.0
  0
POINT
  5
196
  8
DEFPOINTS
 62
     0
 10
384.4041325095901
 20
160.3666830036153
 30
0.0
  0
POINT
  5
3EB
  8
DEFPOINTS
 62
     0
 10
384.4041325095901
 20
132.0
 30
0.0
  0
ENDBLK
  5
9C
  8
0
  0
BLOCK
  8
0
  2
*D16
 70
     1
 10
0.0
 20
0.0
 30
0.0
  3
*D16
  1

  0
LINE
  5
197
  8
__-1
  6
CONTINUOUS
 62
     0
 10
-33.77118510315188
 20
-408.0369748244256
 30
0.0
 11
-33.77118510315188
 21
-433.009
 31
0.0
  0
LINE
  5
198
  8
__-1
  6
CONTINUOUS
 62
     0
 10
-285.7711851031519
 20
-408.0369748244256
 30
0.0
 11
-285.7711851031519
 21
-433.009
 31
0.0
  0
LINE
  5
199
  8
__-1
  6
CONTINUOUS
 62
     0
 10
-33.77893656799563
 20
-433.0
 30
0.0
 11
-154.8681252073186
 21
-433.0
 31
0.0
  0
LINE
  5
19A
  8
__-1
  6
CONTINUOUS
 62
     0
 10
-285.7634336383081
 20
-433.0
 30
0.0
 11
-164.6742449989852
 21
-433.0
 31
0.0
  0
INSERT
  5
19F
  8
__-1
 62
     0
  2
VW_FILLEDARROW
 10
-33.77118510315188
 20
-433.0
 30
0.0
 41
0.00775146484375
 42
0.00775146484375
 43
0.00775146484375
  0
INSERT
  5
1A4
  8
__-1
 62
     0
  2
VW_FILLEDARROW
 10
-285.7711851031519
 20
-433.0
 30
0.0
 41
0.00775146484375
 42
0.00775146484375
 43
0.00775146484375
 50
180.0
  0
TEXT
  5
1A5
  8
__-1
  6
CONTINUOUS
 62
     0
 10
-165.2190294318555
 20
-434.9067455150463
 30
0.0
 40
3.813491030092584
  1
252
  7
YUGOTHIC_BOLD
  0
POINT
  5
1A6
  8
DEFPOINTS
 62
     0
 10
-33.77118510315188
 20
-408.0338498244256
 30
0.0
  0
POINT
  5
1A7
  8
DEFPOINTS
 62
     0
 10
-285.7711851031519
 20
-408.0338498244256
 30
0.0
  0
POINT
  5
3F9
  8
DEFPOINTS
 62
     0
 10
-285.7711851031519
 20
-433.0
 30
0.0
  0
ENDBLK
  5
9F
  8
0
  0
BLOCK
  8
0
  2
*D17
 70
     1
 10
0.0
 20
0.0
 30
0.0
  3
*D17
  1

  0
LINE
  5
1A8
  8
__-1
  6
CONTINUOUS
 62
     0
 10
-33.77118510315185
 20
-973.0369748244254
 30
0.0
 11
-33.77118510315185
 21
-998.009
 31
0.0
  0
LINE
  5
1A9
  8
__-1
  6
CONTINUOUS
 62
     0
 10
-285.7711851031519
 20
-973.0369748244254
 30
0.0
 11
-285.7711851031519
 21
-998.009
 31
0.0
  0
LINE
  5
1AA
  8
__-1
  6
CONTINUOUS
 62
     0
 10
-33.7789365679956
 20
-998.0
 30
0.0
 11
-154.8681252073186
 21
-998.0
 31
0.0
  0
LINE
  5
1AB
  8
__-1
  6
CONTINUOUS
 62
     0
 10
-285.7634336383081
 20
-998.0
 30
0.0
 11
-164.6742449989852
 21
-998.0
 31
0.0
  0
INSERT
  5
1B0
  8
__-1
 62
     0
  2
VW_FILLEDARROW
 10
-33.77118510315185
 20
-998.0
 30
0.0
 41
0.00775146484375
 42
0.00775146484375
 43
0.00775146484375
  0
INSERT
  5
1B5
  8
__-1
 62
     0
  2
VW_FILLEDARROW
 10
-285.7711851031519
 20
-998.0
 30
0.0
 41
0.00775146484375
 42
0.00775146484375
 43
0.00775146484375
 50
180.0
  0
TEXT
  5
1B6
  8
__-1
  6
CONTINUOUS
 62
     0
 10
-165.2190294318555
 20
-999.9067455150463
 30
0.0
 40
3.813491030092584
  1
252
  7
YUGOTHIC_BOLD
  0
POINT
  5
1B7
  8
DEFPOINTS
 62
     0
 10
-33.77118510315185
 20
-973.0338498244255
 30
0.0
  0
POINT
  5
1B8
  8
DEFPOINTS
 62
     0
 10
-285.7711851031519
 20
-973.0338498244255
 30
0.0
  0
POINT
  5
3FB
  8
DEFPOINTS
 62
     0
 10
-285.7711851031519
 20
-998.0
 30
0.0
  0
ENDBLK
  5
A2
  8
0
  0
BLOCK
  8
0
  2
*D18
 70
     1
 10
0.0
 20
0.0
 30
0.0
  3
*D18
  1

  0
LINE
  5
1B9
  8
__-1
  6
CONTINUOUS
 62
     0
 10
-33.77118510315185
 20
160.3635580036153
 30
0.0
 11
-33.77118510315185
 21
135.391532828041
 31
0.0
  0
LINE
  5
1BA
  8
__-1
  6
CONTINUOUS
 62
     0
 10
-285.7711851031519
 20
160.3635580036153
 30
0.0
 11
-285.7711851031519
 21
135.391532828041
 31
0.0
  0
LINE
  5
1BB
  8
__-1
  6
CONTINUOUS
 62
     0
 10
-33.7789365679956
 20
135.400532828041
 30
0.0
 11
-154.8681252073186
 21
135.400532828041
 31
0.0
  0
LINE
  5
1BC
  8
__-1
  6
CONTINUOUS
 62
     0
 10
-285.7634336383081
 20
135.400532828041
 30
0.0
 11
-164.6742449989852
 21
135.400532828041
 31
0.0
  0
INSERT
  5
1C1
  8
__-1
 62
     0
  2
VW_FILLEDARROW
 10
-33.77118510315185
 20
135.400532828041
 30
0.0
 41
0.00775146484375
 42
0.00775146484375
 43
0.00775146484375
  0
INSERT
  5
1C6
  8
__-1
 62
     0
  2
VW_FILLEDARROW
 10
-285.7711851031519
 20
135.400532828041
 30
0.0
 41
0.00775146484375
 42
0.00775146484375
 43
0.00775146484375
 50
180.0
  0
TEXT
  5
1C7
  8
__-1
  6
CONTINUOUS
 62
     0
 10
-165.2190294318555
 20
133.4937873129946
 30
0.0
 40
3.813491030092584
  1
252
  7
YUGOTHIC_BOLD
  0
POINT
  5
1C8
  8
DEFPOINTS
 62
     0
 10
-33.77118510315185
 20
160.3666830036153
 30
0.0
  0
POINT
  5
1C9
  8
DEFPOINTS
 62
     0
 10
-285.7711851031519
 20
160.3666830036153
 30
0.0
  0
POINT
  5
3FD
  8
DEFPOINTS
 62
     0
 10
-285.7711851031519
 20
135.400532828041
 30
0.0
  0
ENDBLK
  5
A5
  8
0
  0
BLOCK
  8
0
  2
____-4-1
 70
     0
 10
0.0
 20
0.0
 30
0.0
  3
____-4-1
  1

  0
POLYLINE
  5
1CA
  8
__-3
 62
     1
 66
     1
 10
0.0
 20
0.0
 30
0.0
 70
   129
  0
VERTEX
  5
1CB
  8
__-3
 62
     1
 10
44.73288581853694
 20
262.724631362171
 30
0.0
  0
VERTEX
  5
1CC
  8
__-3
 62
     1
 10
387.2328858185369
 20
262.724631362171
 30
0.0
  0
VERTEX
  5
1CD
  8
__-3
 62
     1
 10
387.2328858185369
 20
201.0200272168042
 30
0.0
  0
VERTEX
  5
1CE
  8
__-3
 62
     1
 10
44.73288581853694
 20
201.0200272168042
 30
0.0
  0
SEQEND
  5
1CF
  8
__-3
 62
     1
  0
LINE
  5
1D0
  8
__-3
 62
     2
 10
84.23692272741823
 20
262.724631362171
 30
0.0
 11
84.23692272741823
 21
201.0200272168042
 31
0.0
  0
LINE
  5
1D1
  8
__-3
 62
     2
 10
180.2317324159994
 20
262.724631362171
 30
0.0
 11
180.2317324159994
 21
201.0200272168042
 31
0.0
  0
TEXT
  5
1D2
  8
__-3
 62
     2
 10
57.01610441076151
 20
244.6293927678838
 30
0.0
 40
6.372048611111111
  1
No.
  7
YUGOTHIC_MEDIUM-B
 72
     1
 11
64.75359200996786
 21
247.8154170734393
 31
0.0
 73
     2
  0
TEXT
  5
1D3
  8
__-3
 62
     2
 10
119.9218127372172
 20
244.6293927678838
 30
0.0
 40
6.372048611111111
  1
名 称
  7
YUGOTHIC_MEDIUM-B
 72
     1
 11
128.5695929951537
 21
247.8154170734393
 31
0.0
 73
     2
  0
TEXT
  5
1D4
  8
__-3
 62
     2
 10
250.3692265157584
 20
244.6293927678838
 30
0.0
 40
6.372048611111111
  1
仕 様
  7
YUGOTHIC_MEDIUM-B
 72
     1
 11
259.0170067736949
 21
247.8154170734393
 31
0.0
 73
     2
  0
TEXT
  5
1D5
  8
__-3
 62
     2
 10
61.42365299472037
 20
214.8003779624522
 30
0.0
 40
6.372048611111111
  1
1
  7
YUGOTHIC_MEDIUM
 72
     1
 11
64.00281552778915
 21
217.9864022680077
 31
0.0
 73
     2
  0
TEXT
  5
1D6
  8
__-3
 62
     2
 10
118.1058077634277
 20
214.8003779624522
 30
0.0
 40
6.372048611111111
  1
水栓本体
  7
YUGOTHIC_MEDIUM
 72
     1
 11
129.0293196681896
 21
217.9864022680077
 31
0.0
 73
     2
  0
TEXT
  5
1D7
  8
__-3
 62
     2
 10
250.173279961256
 20
214.8003779624522
 30
0.0
 40
6.372048611111111
  1
クロームメッキ仕上げ
  7
YUGOTHIC_MEDIUM
 72
     1
 11
277.4820597231608
 21
217.9864022680077
 31
0.0
 73
     2
  0
LINE
  5
1D8
  8
__-3
 62
     1
 10
44.73288581853694
 20
231.8723292894876
 30
0.0
 11
387.2328858185369
 21
231.8723292894876
 31
0.0
  0
TEXT
  5
1D9
  8
__
 62
    17
 10
48.33728352374578
 20
179.8171466720484
 30
0.0
 40
6.372048611111111
  1
※スパウト150mm。
  7
YUGOTHIC_MEDIUM
 11
48.33728352374578
 21
186.1891952831595
 31
0.0
 73
     3
  0
TEXT
  5
1DA
  8
__
 62
    17
 10
48.33728352374578
 20
163.9436290803621
 30
0.0
 40
6.372048611111111
  1
※水 (CLOD BLUE)、湯 (HOT RED) のマークは、各1個付属されています。
  7
YUGOTHIC_MEDIUM
 11
48.33728352374578
 21
170.3156776914732
 31
0.0
 73
     3
  0
ENDBLK
  5
A9
  8
0
  0
BLOCK
  8
0
  2
____-5-1
 70
     0
 10
0.0
 20
0.0
 30
0.0
  3
____-5-1
  1

  0
TEXT
  5
1DB
  8
__
 62
    17
 10
48.33728352374578
 20
-385.4630657400315
 30
0.0
 40
6.372048611111111
  1
※スパウト200mm。
  7
YUGOTHIC_MEDIUM
 11
48.33728352374578
 21
-379.0910171289204
 31
0.0
 73
     3
  0
TEXT
  5
1DC
  8
__
 62
    17
 10
48.33728352374578
 20
-401.3365833317177
 30
0.0
 40
6.372048611111111
  1
※水 (CLOD BLUE)、湯 (HOT RED) のマークは、各1個付属されています。
  7
YUGOTHIC_MEDIUM
 11
48.33728352374578
 21
-394.9645347206067
 31
0.0
 73
     3
  0
POLYLINE
  5
1DD
  8
__-3
 62
     1
 66
     1
 10
0.0
 20
0.0
 30
0.0
 70
   129
  0
VERTEX
  5
1DE
  8
__-3
 62
     1
 10
44.73288581853694
 20
-305.4275135526411
 30
0.0
  0
VERTEX
  5
1DF
  8
__-3
 62
     1
 10
387.2328858185369
 20
-305.4275135526411
 30
0.0
  0
VERTEX
  5
1E0
  8
__-3
 62
     1
 10
387.2328858185369
 20
-367.132117698008
 30
0.0
  0
VERTEX
  5
1E1
  8
__-3
 62
     1
 10
44.73288581853694
 20
-367.132117698008
 30
0.0
  0
SEQEND
  5
1E2
  8
__-3
 62
     1
  0
LINE
  5
1E3
  8
__-3
 62
     2
 10
84.23692272741823
 20
-305.4275135526411
 30
0.0
 11
84.23692272741823
 21
-367.132117698008
 31
0.0
  0
LINE
  5
1E4
  8
__-3
 62
     2
 10
180.2317324159994
 20
-305.4275135526411
 30
0.0
 11
180.2317324159994
 21
-367.132117698008
 31
0.0
  0
TEXT
  5
1E5
  8
__-3
 62
     2
 10
57.01610441076151
 20
-323.5227521469284
 30
0.0
 40
6.372048611111111
  1
No.
  7
YUGOTHIC_MEDIUM-B
 72
     1
 11
64.75359200996786
 21
-320.3367278413728
 31
0.0
 73
     2
  0
TEXT
  5
1E6
  8
__-3
 62
     2
 10
119.9218127372172
 20
-323.5227521469284
 30
0.0
 40
6.372048611111111
  1
名 称
  7
YUGOTHIC_MEDIUM-B
 72
     1
 11
128.5695929951537
 21
-320.3367278413728
 31
0.0
 73
     2
  0
TEXT
  5
1E7
  8
__-3
 62
     2
 10
250.3692265157584
 20
-323.5227521469284
 30
0.0
 40
6.372048611111111
  1
仕 様
  7
YUGOTHIC_MEDIUM-B
 72
     1
 11
259.0170067736949
 21
-320.3367278413728
 31
0.0
 73
     2
  0
TEXT
  5
1E8
  8
__-3
 62
     2
 10
61.42365299472037
 20
-353.35176695236
 30
0.0
 40
6.372048611111111
  1
1
  7
YUGOTHIC_MEDIUM
 72
     1
 11
64.00281552778915
 21
-350.1657426468044
 31
0.0
 73
     2
  0
TEXT
  5
1E9
  8
__-3
 62
     2
 10
118.1058077634277
 20
-353.35176695236
 30
0.0
 40
6.372048611111111
  1
水栓本体
  7
YUGOTHIC_MEDIUM
 72
     1
 11
129.0293196681896
 21
-350.1657426468044
 31
0.0
 73
     2
  0
TEXT
  5
1EA
  8
__-3
 62
     2
 10
250.173279961256
 20
-353.35176695236
 30
0.0
 40
6.372048611111111
  1
クロームメッキ仕上げ
  7
YUGOTHIC_MEDIUM
 72
     1
 11
277.4820597231608
 21
-350.1657426468044
 31
0.0
 73
     2
  0
LINE
  5
1EB
  8
__-3
 62
     1
 10
44.73288581853694
 20
-336.2798156253245
 30
0.0
 11
387.2328858185369
 21
-336.2798156253245
 31
0.0
  0
ENDBLK
  5
AC
  8
0
  0
BLOCK
  8
0
  2
____-6-1
 70
     0
 10
0.0
 20
0.0
 30
0.0
  3
____-6-1
  1

  0
TEXT
  5
1EC
  8
__
 62
    17
 10
48.33728352374578
 20
-950.8633060079812
 30
0.0
 40
6.372048611111111
  1
※スパウト250mm。
  7
YUGOTHIC_MEDIUM
 11
48.33728352374578
 21
-944.4912573968701
 31
0.0
 73
     3
  0
TEXT
  5
1ED
  8
__
 62
    17
 10
48.33728352374578
 20
-966.7368235996676
 30
0.0
 40
6.372048611111111
  1
※水 (CLOD BLUE)、湯 (HOT RED) のマークは、各1個付属されています。
  7
YUGOTHIC_MEDIUM
 11
48.33728352374578
 21
-960.3647749885564
 31
0.0
 73
     3
  0
POLYLINE
  5
1EE
  8
__-3
 62
     1
 66
     1
 10
0.0
 20
0.0
 30
0.0
 70
   129
  0
VERTEX
  5
1EF
  8
__-3
 62
     1
 10
44.73288581853694
 20
-874.8277538205908
 30
0.0
  0
VERTEX
  5
1F0
  8
__-3
 62
     1
 10
387.2328858185369
 20
-874.8277538205908
 30
0.0
  0
VERTEX
  5
1F1
  8
__-3
 62
     1
 10
387.2328858185369
 20
-936.5323579659577
 30
0.0
  0
VERTEX
  5
1F2
  8
__-3
 62
     1
 10
44.73288581853694
 20
-936.5323579659577
 30
0.0
  0
SEQEND
  5
1F3
  8
__-3
 62
     1
  0
LINE
  5
1F4
  8
__-3
 62
     2
 10
84.23692272741823
 20
-874.8277538205908
 30
0.0
 11
84.23692272741823
 21
-936.5323579659577
 31
0.0
  0
LINE
  5
1F5
  8
__-3
 62
     2
 10
180.2317324159994
 20
-874.8277538205908
 30
0.0
 11
180.2317324159994
 21
-936.5323579659577
 31
0.0
  0
TEXT
  5
1F6
  8
__-3
 62
     2
 10
57.01610441076151
 20
-892.9229924148781
 30
0.0
 40
6.372048611111111
  1
No.
  7
YUGOTHIC_MEDIUM-B
 72
     1
 11
64.75359200996786
 21
-889.7369681093226
 31
0.0
 73
     2
  0
TEXT
  5
1F7
  8
__-3
 62
     2
 10
119.9218127372172
 20
-892.9229924148781
 30
0.0
 40
6.372048611111111
  1
名 称
  7
YUGOTHIC_MEDIUM-B
 72
     1
 11
128.5695929951537
 21
-889.7369681093226
 31
0.0
 73
     2
  0
TEXT
  5
1F8
  8
__-3
 62
     2
 10
250.3692265157584
 20
-892.9229924148781
 30
0.0
 40
6.372048611111111
  1
仕 様
  7
YUGOTHIC_MEDIUM-B
 72
     1
 11
259.0170067736949
 21
-889.7369681093226
 31
0.0
 73
     2
  0
TEXT
  5
1F9
  8
__-3
 62
     2
 10
61.42365299472037
 20
-922.7520072203097
 30
0.0
 40
6.372048611111111
  1
1
  7
YUGOTHIC_MEDIUM
 72
     1
 11
64.00281552778915
 21
-919.5659829147542
 31
0.0
 73
     2
  0
TEXT
  5
1FA
  8
__-3
 62
     2
 10
118.1058077634277
 20
-922.7520072203097
 30
0.0
 40
6.372048611111111
  1
水栓本体
  7
YUGOTHIC_MEDIUM
 72
     1
 11
129.0293196681896
 21
-919.5659829147542
 31
0.0
 73
     2
  0
TEXT
  5
1FB
  8
__-3
 62
     2
 10
250.173279961256
 20
-922.7520072203097
 30
0.0
 40
6.372048611111111
  1
クロームメッキ仕上げ
  7
YUGOTHIC_MEDIUM
 72
     1
 11
277.4820597231608
 21
-919.5659829147542
 31
0.0
 73
     2
  0
LINE
  5
1FC
  8
__-3
 62
     1
 10
44.73288581853694
 20
-905.6800558932742
 30
0.0
 11
387.2328858185369
 21
-905.6800558932742
 31
0.0
  0
ENDBLK
  5
AF
  8
0
  0
BLOCK
  8
0
  2
VW_FILLEDARROW
 70
     0
 10
0.0
 20
0.0
 30
0.0
  3
VW_FILLEDARROW
  1

  0
POLYLINE
  5
C6
  8
0
  6
CONTINUOUS
 62
     0
 66
     1
 10
0.0
 20
0.0
 30
0.0
 70
   129
  0
VERTEX
  5
C7
  8
0
  6
CONTINUOUS
 62
     0
 10
-2.0
 20
0.2455691218058088
 30
0.0
  0
VERTEX
  5
C8
  8
0
  6
CONTINUOUS
 62
     0
 10
0.0
 20
0.0
 30
0.0
  0
VERTEX
  5
C9
  8
0
  6
CONTINUOUS
 62
     0
 10
-2.0
 20
-0.2455691218058093
 30
0.0
  0
SEQEND
  5
CA
  8
0
  6
CONTINUOUS
 62
     0
  0
ENDBLK
  5
C5
  8
0
  0
ENDSEC
  0
SECTION
  2
ENTITIES
  0
LINE
  5
1FD
  8
__-2
  6
CONTINUOUS
 62
     7
 10
266.6269839681351
 20
131.2845250210839
 30
0.0
 11
-140.7890160318649
 21
131.2845250210839
 31
0.0
  0
TEXT
  5
1FE
  8
__-2
 62
     3
 10
211.6923540546792
 20
127.4000985329652
 30
0.0
 40
2.124016203703704
  1
2023.01.21
  7
YUGOTHIC_MEDIUM
 11
211.6923540546792
 21
128.462106634817
 31
0.0
 73
     2
  0
TEXT
  5
1FF
  8
__-2
 62
     3
 10
253.0950665878036
 20
127.4000985329652
 30
0.0
 40
2.124016203703704
  1
1:3(A3)
  7
YUGOTHIC_MEDIUM
 11
253.0950665878036
 21
128.462106634817
 31
0.0
 73
     2
  0
INSERT
  5
200
  8
__-2
 62
    17
  2
____-1
 10
62.91898396813508
 20
267.1473011405615
 30
0.0
  0
TEXT
  5
201
  8
__-2
 62
     3
 10
241.077432422481
 20
128.095217745928
 30
0.0
 40
2.124016203703704
  1
SCALE:
  7
YUGOTHIC_MEDIUM
 11
241.077432422481
 21
130.2192339496317
 31
0.0
 73
     3
  0
TEXT
  5
202
  8
__-2
 62
     3
 10
51.46723562885646
 20
128.095217745928
 30
0.0
 40
2.124016203703704
  1
NAME:
  7
YUGOTHIC_MEDIUM
 11
51.46723562885646
 21
130.2192339496317
 31
0.0
 73
     3
  0
TEXT
  5
203
  8
__-2
 62
     3
 10
201.8189135686399
 20
128.095217745928
 30
0.0
 40
2.124016203703704
  1
DATE:
  7
YUGOTHIC_MEDIUM
 11
201.8189135686399
 21
130.2192339496317
 31
0.0
 73
     3
  0
TEXT
  5
204
  8
__-2
 62
     3
 10
148.4203851491925
 20
128.095217745928
 30
0.0
 40
2.124016203703704
  1
ID:
  7
YUGOTHIC_MEDIUM
 11
148.4203851491925
 21
130.2192339496317
 31
0.0
 73
     3
  0
TEXT
  5
205
  8
__-2
 62
     3
 10
154.5111165065862
 20
127.4000985329652
 30
0.0
 40
2.124016203703704
  1
KB-TP009-02
  7
YUGOTHIC_MEDIUM
 11
154.5111165065862
 21
128.462106634817
 31
0.0
 73
     2
  0
TEXT
  5
206
  8
__-2
 62
     3
 10
62.80083906227949
 20
127.4000985329652
 30
0.0
 40
2.124016203703704
  1
ワーカーズ水栓　台付けツインレバー混合栓　スパウト150mm
  7
YUGOTHIC_MEDIUM
 11
62.80083906227949
 21
128.462106634817
 31
0.0
 73
     2
  0
LINE
  5
207
  8
__-2
  6
CONTINUOUS
 62
     7
 10
266.6269839681351
 20
-153.7154749789161
 30
0.0
 11
-140.7890160318649
 21
-153.7154749789161
 31
0.0
  0
TEXT
  5
208
  8
__-2
 62
     3
 10
211.6923540546792
 20
-157.5999014670348
 30
0.0
 40
2.124016203703704
  1
2023.01.21
  7
YUGOTHIC_MEDIUM
 11
211.6923540546792
 21
-156.537893365183
 31
0.0
 73
     2
  0
TEXT
  5
209
  8
__-2
 62
     3
 10
253.0950665878036
 20
-157.5999014670348
 30
0.0
 40
2.124016203703704
  1
1:3(A3)
  7
YUGOTHIC_MEDIUM
 11
253.0950665878036
 21
-156.537893365183
 31
0.0
 73
     2
  0
INSERT
  5
20A
  8
__-2
 62
    17
  2
____-2-1
 10
62.91898396813508
 20
267.1473011405615
 30
0.0
  0
TEXT
  5
20B
  8
__-2
 62
     3
 10
241.077432422481
 20
-156.904782254072
 30
0.0
 40
2.124016203703704
  1
SCALE:
  7
YUGOTHIC_MEDIUM
 11
241.077432422481
 21
-154.7807660503683
 31
0.0
 73
     3
  0
TEXT
  5
20C
  8
__-2
 62
     3
 10
30.11790906981225
 20
-156.904782254072
 30
0.0
 40
2.124016203703704
  1
NAME:
  7
YUGOTHIC_MEDIUM
 11
30.11790906981225
 21
-154.7807660503683
 31
0.0
 73
     3
  0
TEXT
  5
20D
  8
__-2
 62
     3
 10
201.8189135686399
 20
-156.904782254072
 30
0.0
 40
2.124016203703704
  1
DATE:
  7
YUGOTHIC_MEDIUM
 11
201.8189135686399
 21
-154.7807660503683
 31
0.0
 73
     3
  0
TEXT
  5
20E
  8
__-2
 62
     3
 10
148.4203851491925
 20
-156.904782254072
 30
0.0
 40
2.124016203703704
  1
ID:
  7
YUGOTHIC_MEDIUM
 11
148.4203851491925
 21
-154.7807660503683
 31
0.0
 73
     3
  0
TEXT
  5
20F
  8
__-2
 62
     3
 10
154.5111165065862
 20
-157.5999014670348
 30
0.0
 40
2.124016203703704
  1
KB-TP009-07
  7
YUGOTHIC_MEDIUM
 11
154.5111165065862
 21
-156.537893365183
 31
0.0
 73
     2
  0
TEXT
  5
210
  8
__-2
 62
     3
 10
41.45151250323529
 20
-157.5999014670348
 30
0.0
 40
2.124016203703704
  1
ワーカーズ水栓　台付けツインレバー混合栓　スパウト200mm
  7
YUGOTHIC_MEDIUM
 11
41.45151250323529
 21
-156.537893365183
 31
0.0
 73
     2
  0
LINE
  5
211
  8
__-2
  6
CONTINUOUS
 62
     7
 10
266.6269839681351
 20
-438.7154749789161
 30
0.0
 11
-140.7890160318649
 21
-438.7154749789161
 31
0.0
  0
TEXT
  5
212
  8
__-2
 62
     3
 10
211.6923540546792
 20
-442.5999014670348
 30
0.0
 40
2.124016203703704
  1
2023.01.21
  7
YUGOTHIC_MEDIUM
 11
211.6923540546792
 21
-441.537893365183
 31
0.0
 73
     2
  0
TEXT
  5
213
  8
__-2
 62
     3
 10
253.0950665878036
 20
-442.5999014670348
 30
0.0
 40
2.124016203703704
  1
1:3(A3)
  7
YUGOTHIC_MEDIUM
 11
253.0950665878036
 21
-441.537893365183
 31
0.0
 73
     2
  0
INSERT
  5
214
  8
__-2
 62
    17
  2
____-3-1
 10
62.91898396813508
 20
267.1473011405615
 30
0.0
  0
TEXT
  5
215
  8
__-2
 62
     3
 10
241.077432422481
 20
-441.904782254072
 30
0.0
 40
2.124016203703704
  1
SCALE:
  7
YUGOTHIC_MEDIUM
 11
241.077432422481
 21
-439.7807660503682
 31
0.0
 73
     3
  0
TEXT
  5
216
  8
__-2
 62
     3
 10
53.04827786013709
 20
-441.904782254072
 30
0.0
 40
2.124016203703704
  1
NAME:
  7
YUGOTHIC_MEDIUM
 11
53.04827786013709
 21
-439.7807660503682
 31
0.0
 73
     3
  0
TEXT
  5
217
  8
__-2
 62
     3
 10
201.8189135686399
 20
-441.904782254072
 30
0.0
 40
2.124016203703704
  1
DATE:
  7
YUGOTHIC_MEDIUM
 11
201.8189135686399
 21
-439.7807660503682
 31
0.0
 73
     3
  0
TEXT
  5
218
  8
__-2
 62
     3
 10
148.4203851491925
 20
-441.904782254072
 30
0.0
 40
2.124016203703704
  1
ID:
  7
YUGOTHIC_MEDIUM
 11
148.4203851491925
 21
-439.7807660503682
 31
0.0
 73
     3
  0
TEXT
  5
219
  8
__-2
 62
     3
 10
154.5111165065862
 20
-442.5999014670348
 30
0.0
 40
2.124016203703704
  1
KB-TP009-08
  7
YUGOTHIC_MEDIUM
 11
154.5111165065862
 21
-441.537893365183
 31
0.0
 73
     2
  0
TEXT
  5
21A
  8
__-2
 62
     3
 10
64.38188129356013
 20
-442.5999014670348
 30
0.0
 40
2.124016203703704
  1
ワーカーズ水栓　台付けツインレバー混合栓　スパウト250mm
  7
YUGOTHIC_MEDIUM
 11
64.38188129356013
 21
-441.537893365183
 31
0.0
 73
     2
  0
LINE
  5
21B
  8
__
  6
HIDDEN
 62
    17
 10
462.4703154519558
 20
309.8616421556763
 30
0.0
 11
-327.8946047271925
 21
309.8616421556763
 31
0.0
  0
LINE
  5
21C
  8
__
  6
HIDDEN
 62
    17
 10
-261.472540031077
 20
109.5160055396528
 30
0.0
 11
-261.472540031077
 21
429.5160055396527
 31
0.0
  0
LINE
  5
21D
  8
_0-1_250
  6
CONTINUOUS
 62
     1
 10
-311.0849423227971
 20
244.2769191353408
 30
0.0
 11
-306.6977088764919
 21
223.3812449216427
 31
0.0
  0
LINE
  5
21E
  8
_0-1_250
  6
CONTINUOUS
 62
     1
 10
-268.9110830413672
 20
223.3811051621814
 30
0.0
 11
-272.4703545429318
 21
239.3811051621814
 31
0.0
  0
LINE
  5
21F
  8
_0-1_250
  6
CONTINUOUS
 62
     1
 10
-277.472540031077
 20
212.3811054063455
 30
0.0
 11
-277.472540031077
 21
201.3811054063455
 31
0.0
  0
LINE
  5
220
  8
_0-1_250
  6
CONTINUOUS
 62
     1
 10
-248.472540031077
 20
201.3811054063455
 30
0.0
 11
-248.472540031077
 21
187.3811054063455
 31
0.0
  0
LINE
  5
221
  8
_0-1_250
  6
CONTINUOUS
 62
     1
 10
-268.9110830413672
 20
223.3811051621814
 30
0.0
 11
-306.6977088764919
 21
223.3812449216427
 31
0.0
  0
LINE
  5
222
  8
_0-1_250
  6
CONTINUOUS
 62
     1
 10
-249.4725015028191
 20
216.3810530042823
 30
0.0
 11
-273.472501502668
 21
216.3811381664333
 31
0.0
  0
LINE
  5
223
  8
_0-1_250
  6
CONTINUOUS
 62
     1
 10
-277.472540031077
 20
212.3811054063455
 30
0.0
 11
-245.472540031077
 21
212.3811054063455
 31
0.0
  0
LINE
  5
224
  8
_0-1_250
  6
CONTINUOUS
 62
     1
 10
-267.3535202734452
 20
223.3811051621814
 30
0.0
 11
-267.3535202734452
 21
216.3811164537
 31
0.0
  0
LINE
  5
225
  8
_0-1_250
  6
CONTINUOUS
 62
     1
 10
-280.5203545429317
 20
239.5311051621815
 30
0.0
 11
-309.3861454518237
 21
245.0113936313197
 31
0.0
  0
LINE
  5
226
  8
_0-1_250
  6
CONTINUOUS
 62
     1
 10
-280.5203545429317
 20
239.5311051621815
 30
0.0
 11
-272.4703545429318
 21
239.3811051621814
 31
0.0
  0
LINE
  5
227
  8
_0-1_250
  6
CONTINUOUS
 62
     1
 10
-311.0849423227971
 20
244.2769191353408
 30
0.0
 11
-309.3861454518237
 21
245.0113936313197
 31
0.0
  0
LINE
  5
228
  8
_0-1_250
  6
CONTINUOUS
 62
     1
 10
-253.9110830413672
 20
223.3811051621814
 30
0.0
 11
-250.4703545429318
 21
239.3811051621814
 31
0.0
  0
LINE
  5
229
  8
_0-1_250
  6
CONTINUOUS
 62
     1
 10
-268.9110830413672
 20
223.3811051621814
 30
0.0
 11
-253.9110830413672
 21
223.3811051621814
 31
0.0
  0
LINE
  5
22A
  8
_0-1_250
  6
CONTINUOUS
 62
     1
 10
-272.3545449490412
 20
239.3811051621814
 30
0.0
 11
-266.222540031077
 21
240.7991228904258
 31
0.0
  0
LINE
  5
22B
  8
_0-1_250
  6
CONTINUOUS
 62
     1
 10
-266.222540031077
 20
240.7991228904258
 30
0.0
 11
-256.722540031077
 21
240.7991228904258
 31
0.0
  0
LINE
  5
22C
  8
_0-1_250
  6
CONTINUOUS
 62
     1
 10
-255.5915597887088
 20
223.3811051621814
 30
0.0
 11
-255.5915597887088
 21
216.3810747172894
 31
0.0
  0
LINE
  5
22D
  8
_0-1_250
  6
CONTINUOUS
 62
     1
 10
-274.7150750829468
 20
214.8403602352411
 30
0.0
 11
-274.7150750829468
 21
212.3811054063455
 31
0.0
  0
LINE
  5
22E
  8
_0-1_250
  6
CONTINUOUS
 62
     1
 10
-269.8980166574196
 20
212.3811054063455
 30
0.0
 11
-269.8980166574196
 21
201.3811054063455
 31
0.0
  0
LINE
  5
22F
  8
_0-1_250
  6
CONTINUOUS
 62
     1
 10
-272.4703545429318
 20
239.3811051621814
 30
0.0
 11
-250.4703545429318
 21
239.3811051621814
 31
0.0
  0
LINE
  5
230
  8
_0-1_250
  6
CONTINUOUS
 62
     1
 10
-266.222540031077
 20
241.2991228904258
 30
0.0
 11
-266.222540031077
 21
240.7991228904258
 31
0.0
  0
LINE
  5
231
  8
_0-1_250
  6
CONTINUOUS
 62
     1
 10
-256.722540031077
 20
241.2991228904258
 30
0.0
 11
-256.722540031077
 21
240.7991228904258
 31
0.0
  0
LINE
  5
232
  8
_0-1_250
  6
CONTINUOUS
 62
     1
 10
-272.4703545429318
 20
239.3811051621814
 30
0.0
 11
-250.4703545429318
 21
239.3811051621814
 31
0.0
  0
ARC
  5
233
  8
__
  6
CONTINUOUS
 62
     1
 10
-261.472540031077
 20
231.4136492916315
 30
0.0
 40
10.96745587054989
 50
64.3355743611285
 51
115.6644256388715
  0
LINE
  5
234
  8
_0-1_250
  6
CONTINUOUS
 62
     1
 10
-250.5905351131128
 20
239.3811051621814
 30
0.0
 11
-256.722540031077
 21
240.7991228904258
 31
0.0
  0
ARC
  5
235
  8
__
  6
CONTINUOUS
 62
     1
 10
-273.2348179102879
 20
214.9180251671181
 30
0.0
 40
1.482293202727366
 50
99.2271289249529
 51
183.0033945545471
  0
LINE
  5
236
  8
_0-1_250
  6
CONTINUOUS
 62
     1
 10
-248.2300049792073
 20
214.8403602352411
 30
0.0
 11
-248.2300049792073
 21
212.3811054063455
 31
0.0
  0
ARC
  5
237
  8
__
  6
CONTINUOUS
 62
     1
 10
-249.7102621518661
 20
214.9180251671181
 30
0.0
 40
1.482293202727277
 50
356.9966054454529
 51
80.77287107504714
  0
LINE
  5
238
  8
_0-1_250
  6
CONTINUOUS
 62
     1
 10
-277.472540031077
 20
201.3811054063455
 30
0.0
 11
-245.472540031077
 21
201.3811054063455
 31
0.0
  0
LINE
  5
239
  8
_0-1_250
  6
CONTINUOUS
 62
     1
 10
-245.472540031077
 20
212.3811054063455
 30
0.0
 11
-245.472540031077
 21
201.3811054063455
 31
0.0
  0
LINE
  5
23A
  8
_0-1_250
  6
CONTINUOUS
 62
     1
 10
-253.0470634047343
 20
212.3811054063455
 30
0.0
 11
-253.0470634047343
 21
201.3811054063455
 31
0.0
  0
LINE
  5
23B
  8
_0-1_250
  6
CONTINUOUS
 62
     1
 10
-274.472540031077
 20
201.3811054063455
 30
0.0
 11
-274.472540031077
 21
187.3811054063455
 31
0.0
  0
LINE
  5
23C
  8
_0-1_250
  6
CONTINUOUS
 62
     1
 10
-8.457427883506625
 20
244.2769191353408
 30
0.0
 11
-12.84466132981186
 21
223.3812449216427
 31
0.0
  0
LINE
  5
23D
  8
_0-1_250
  6
CONTINUOUS
 62
     1
 10
-50.63128716493651
 20
223.3811051621814
 30
0.0
 11
-47.07201566337199
 21
239.3811051621814
 31
0.0
  0
LINE
  5
23E
  8
_0-1_250
  6
CONTINUOUS
 62
     1
 10
-42.0698301752268
 20
212.3811054063455
 30
0.0
 11
-42.0698301752268
 21
201.3811054063455
 31
0.0
  0
LINE
  5
23F
  8
_0-1_250
  6
CONTINUOUS
 62
     1
 10
395.0
 20
201.8990663824691
 30
0.0
 11
395.0
 21
187.8990663824691
 31
0.0
  0
LINE
  5
240
  8
_0-1_250
  6
CONTINUOUS
 62
     1
 10
-50.63128716493651
 20
223.3811051621814
 30
0.0
 11
-12.84466132981186
 21
223.3812449216427
 31
0.0
  0
LINE
  5
241
  8
_0-1_250
  6
CONTINUOUS
 62
     1
 10
-70.06986870348464
 20
216.3810530042823
 30
0.0
 11
-46.06986870363573
 21
216.3811381664333
 31
0.0
  0
LINE
  5
242
  8
_0-1_250
  6
CONTINUOUS
 62
     1
 10
-42.0698301752268
 20
212.3811054063455
 30
0.0
 11
-74.0698301752268
 21
212.3811054063455
 31
0.0
  0
LINE
  5
243
  8
_0-1_250
  6
CONTINUOUS
 62
     1
 10
-52.18884993285855
 20
223.3811051621814
 30
0.0
 11
-52.18884993285855
 21
216.3811164537
 31
0.0
  0
LINE
  5
244
  8
_0-1_250
  6
CONTINUOUS
 62
     1
 10
-39.02201566337203
 20
239.5311051621815
 30
0.0
 11
-10.15622475448004
 21
245.0113936313197
 31
0.0
  0
LINE
  5
245
  8
_0-1_250
  6
CONTINUOUS
 62
     1
 10
-39.02201566337203
 20
239.5311051621815
 30
0.0
 11
-47.07201566337199
 21
239.3811051621814
 31
0.0
  0
LINE
  5
246
  8
_0-1_250
  6
CONTINUOUS
 62
     1
 10
-8.457427883506625
 20
244.2769191353408
 30
0.0
 11
-10.15622475448004
 21
245.0113936313197
 31
0.0
  0
LINE
  5
247
  8
_0-1_250
  6
CONTINUOUS
 62
     1
 10
-65.63128716493651
 20
223.3811051621814
 30
0.0
 11
-69.07201566337199
 21
239.3811051621814
 31
0.0
  0
LINE
  5
248
  8
_0-1_250
  6
CONTINUOUS
 62
     1
 10
-50.63128716493651
 20
223.3811051621814
 30
0.0
 11
-65.63128716493651
 21
223.3811051621814
 31
0.0
  0
LINE
  5
249
  8
_0-1_250
  6
CONTINUOUS
 62
     1
 10
-47.18782525726255
 20
239.3811051621814
 30
0.0
 11
-53.3198301752268
 21
240.7991228904258
 31
0.0
  0
LINE
  5
24A
  8
_0-1_250
  6
CONTINUOUS
 62
     1
 10
-53.3198301752268
 20
240.7991228904258
 30
0.0
 11
-62.8198301752268
 21
240.7991228904258
 31
0.0
  0
LINE
  5
24B
  8
_0-1_250
  6
CONTINUOUS
 62
     1
 10
-63.95081041759499
 20
223.3811051621814
 30
0.0
 11
-63.95081041759499
 21
216.3810747172894
 31
0.0
  0
LINE
  5
24C
  8
_0-1_250
  6
CONTINUOUS
 62
     1
 10
-44.82729512335698
 20
214.8403602352411
 30
0.0
 11
-44.82729512335698
 21
212.3811054063455
 31
0.0
  0
LINE
  5
24D
  8
_0-1_250
  6
CONTINUOUS
 62
     1
 10
-49.64435354888417
 20
212.3811054063455
 30
0.0
 11
-49.64435354888417
 21
201.3811054063455
 31
0.0
  0
LINE
  5
24E
  8
_0-1_250
  6
CONTINUOUS
 62
     1
 10
-47.07201566337199
 20
239.3811051621814
 30
0.0
 11
-69.07201566337199
 21
239.3811051621814
 31
0.0
  0
LINE
  5
24F
  8
_0-1_250
  6
CONTINUOUS
 62
     1
 10
-53.3198301752268
 20
241.2991228904258
 30
0.0
 11
-53.3198301752268
 21
240.7991228904258
 31
0.0
  0
LINE
  5
250
  8
_0-1_250
  6
CONTINUOUS
 62
     1
 10
-62.8198301752268
 20
241.2991228904258
 30
0.0
 11
-62.8198301752268
 21
240.7991228904258
 31
0.0
  0
LINE
  5
251
  8
_0-1_250
  6
CONTINUOUS
 62
     1
 10
-47.07201566337199
 20
239.3811051621814
 30
0.0
 11
-69.07201566337199
 21
239.3811051621814
 31
0.0
  0
ARC
  5
252
  8
__
  6
CONTINUOUS
 62
     1
 10
-58.0698301752268
 20
231.4136492916315
 30
0.0
 40
10.96745587054989
 50
64.3355743611285
 51
115.6644256388715
  0
LINE
  5
253
  8
_0-1_250
  6
CONTINUOUS
 62
     1
 10
-68.951835093191
 20
239.3811051621814
 30
0.0
 11
-62.8198301752268
 21
240.7991228904258
 31
0.0
  0
ARC
  5
254
  8
__
  6
CONTINUOUS
 62
     1
 10
-46.30755229601584
 20
214.9180251671181
 30
0.0
 40
1.482293202727277
 50
356.9966054454529
 51
80.77287107504714
  0
LINE
  5
255
  8
_0-1_250
  6
CONTINUOUS
 62
     1
 10
-71.3123652270965
 20
214.8403602352411
 30
0.0
 11
-71.3123652270965
 21
212.3811054063455
 31
0.0
  0
ARC
  5
256
  8
__
  6
CONTINUOUS
 62
     1
 10
-69.83210805443764
 20
214.9180251671181
 30
0.0
 40
1.482293202727366
 50
99.2271289249529
 51
183.0033945545471
  0
LINE
  5
257
  8
_0-1_250
  6
CONTINUOUS
 62
     1
 10
424.0
 20
201.8990663824691
 30
0.0
 11
392.0
 21
201.8990663824691
 31
0.0
  0
LINE
  5
258
  8
_0-1_250
  6
CONTINUOUS
 62
     1
 10
-74.0698301752268
 20
212.3811054063455
 30
0.0
 11
-74.0698301752268
 21
201.3811054063455
 31
0.0
  0
LINE
  5
259
  8
_0-1_250
  6
CONTINUOUS
 62
     1
 10
-66.49530680156943
 20
212.3811054063455
 30
0.0
 11
-66.49530680156943
 21
201.3811054063455
 31
0.0
  0
LINE
  5
25A
  8
_0-1_250
  6
CONTINUOUS
 62
     1
 10
421.0
 20
201.8990663824691
 30
0.0
 11
421.0
 21
187.8990663824691
 31
0.0
  0
LINE
  5
25B
  8
_0-1_250
  6
CONTINUOUS
 62
     1
 10
-147.2698155301508
 20
199.3811054063455
 30
0.0
 11
-147.2698155301508
 21
187.3811054063455
 31
0.0
  0
LINE
  5
25C
  8
_0-0_0
  6
CONTINUOUS
 62
     1
 10
-144.3732329352844
 20
199.3811054063455
 30
0.0
 11
-175.1678232382843
 21
199.3811054063455
 31
0.0
  0
LINE
  5
25D
  8
_0-0_0
  6
CONTINUOUS
 62
     1
 10
-143.7705280867843
 20
210.3811054063455
 30
0.0
 11
-143.7705280867843
 21
199.3811054063455
 31
0.0
  0
LINE
  5
25E
  8
_0-0_0
  6
CONTINUOUS
 62
     1
 10
-175.7705280867843
 20
210.3811054063455
 30
0.0
 11
-175.7705280867843
 21
199.3811054063455
 31
0.0
  0
LINE
  5
25F
  8
_0-0_0
  6
CONTINUOUS
 62
     1
 10
-146.0112430577843
 20
199.3811054063455
 30
0.0
 11
-158.5476945397357
 21
199.3811054063455
 31
0.0
  0
LINE
  5
260
  8
_0-0_0
  6
CONTINUOUS
 62
     1
 10
-158.5476945397357
 20
199.3811054063455
 30
0.0
 11
-173.5298131157841
 21
199.3811054063455
 31
0.0
  0
LINE
  5
261
  8
_0-0_0
  6
CONTINUOUS
 62
     1
 10
-156.4945078417842
 20
199.3811054063455
 30
0.0
 11
-143.7705280867843
 21
199.3811054063455
 31
0.0
  0
LINE
  5
262
  8
_0-0_0
  6
CONTINUOUS
 62
     1
 10
-175.7705280867843
 20
199.3811054063455
 30
0.0
 11
-163.0465483317843
 21
199.3811054063455
 31
0.0
  0
LINE
  5
263
  8
_0-0_0
  6
CONTINUOUS
 62
     1
 10
-151.6173758090114
 20
210.3809364915575
 30
0.0
 11
-151.6157807592491
 21
199.3809364915575
 31
0.0
  0
LINE
  5
264
  8
_0-0_0
  6
CONTINUOUS
 62
     1
 10
-159.7712406434181
 20
209.2091661413455
 30
0.0
 11
-159.7698155301508
 21
199.3811054063455
 31
0.0
  0
LINE
  5
265
  8
_0-0_0
  6
CONTINUOUS
 62
     1
 10
-167.9236803645573
 20
210.3809364915575
 30
0.0
 11
-167.9252754143196
 21
199.3809364915575
 31
0.0
  0
LINE
  5
266
  8
_0-1_250
  6
CONTINUOUS
 62
     1
 10
-172.2718704209752
 20
199.3811054063455
 30
0.0
 11
-172.2718704209752
 21
187.3811054063455
 31
0.0
  0
LINE
  5
267
  8
_0-0_0
  6
CONTINUOUS
 62
     1
 10
431.4041325095901
 20
160.3666830036153
 30
0.0
 11
384.4041325095901
 21
160.3666830036153
 31
0.0
  0
LINE
  5
268
  8
_0-0_0
  6
CONTINUOUS
 62
     1
 10
389.5
 20
187.8990663824691
 30
0.0
 11
426.5
 21
187.8990663824691
 31
0.0
  0
LINE
  5
269
  8
_0-0_0
  6
CONTINUOUS
 62
     1
 10
389.5
 20
187.8990663824691
 30
0.0
 11
384.4041325095901
 21
160.3666830036153
 31
0.0
  0
LINE
  5
26A
  8
_0-0_0
  6
CONTINUOUS
 62
     1
 10
426.5
 20
187.8990663824691
 30
0.0
 11
431.4041325095901
 21
160.3666830036153
 31
0.0
  0
LINE
  5
26B
  8
_0-1_250
  6
CONTINUOUS
 62
     1
 10
415.4385430102902
 20
223.899066138305
 30
0.0
 11
418.9978145118547
 21
239.899066138305
 31
0.0
  0
LINE
  5
26C
  8
_0-1_250
  6
CONTINUOUS
 62
     1
 10
423.9999999999999
 20
212.8990663824691
 30
0.0
 11
423.9999999999999
 21
201.8990663824691
 31
0.0
  0
LINE
  5
26D
  8
_0-1_250
  6
CONTINUOUS
 62
     1
 10
395.9999614717419
 20
216.899013980406
 30
0.0
 11
419.999961471591
 21
216.899099142557
 31
0.0
  0
LINE
  5
26E
  8
_0-1_250
  6
CONTINUOUS
 62
     1
 10
413.8809802423682
 20
223.899066138305
 30
0.0
 11
413.8809802423682
 21
216.8990774298236
 31
0.0
  0
LINE
  5
26F
  8
_0-1_250
  6
CONTINUOUS
 62
     1
 10
400.4385430102902
 20
223.899066138305
 30
0.0
 11
396.9978145118546
 21
239.899066138305
 31
0.0
  0
LINE
  5
270
  8
_0-1_250
  6
CONTINUOUS
 62
     1
 10
415.4385430102902
 20
223.899066138305
 30
0.0
 11
400.4385430102902
 21
223.899066138305
 31
0.0
  0
LINE
  5
271
  8
_0-1_250
  6
CONTINUOUS
 62
     1
 10
418.8820049179642
 20
239.899066138305
 30
0.0
 11
412.7499999999999
 21
241.3170838665495
 31
0.0
  0
LINE
  5
272
  8
_0-1_250
  6
CONTINUOUS
 62
     1
 10
412.7499999999999
 20
241.3170838665495
 30
0.0
 11
403.2499999999999
 21
241.3170838665495
 31
0.0
  0
LINE
  5
273
  8
_0-1_250
  6
CONTINUOUS
 62
     1
 10
402.1190197576317
 20
223.899066138305
 30
0.0
 11
402.1190197576317
 21
216.8990356934131
 31
0.0
  0
LINE
  5
274
  8
_0-1_250
  6
CONTINUOUS
 62
     1
 10
421.2425350518697
 20
215.3583212113647
 30
0.0
 11
421.2425350518697
 21
212.8990663824691
 31
0.0
  0
LINE
  5
275
  8
_0-1_250
  6
CONTINUOUS
 62
     1
 10
416.4254766263425
 20
212.8990663824691
 30
0.0
 11
416.4254766263425
 21
201.8990663824691
 31
0.0
  0
LINE
  5
276
  8
_0-1_250
  6
CONTINUOUS
 62
     1
 10
418.9978145118547
 20
239.899066138305
 30
0.0
 11
396.9978145118546
 21
239.899066138305
 31
0.0
  0
LINE
  5
277
  8
_0-1_250
  6
CONTINUOUS
 62
     1
 10
412.7499999999999
 20
241.8170838665495
 30
0.0
 11
412.7499999999999
 21
241.3170838665495
 31
0.0
  0
LINE
  5
278
  8
_0-1_250
  6
CONTINUOUS
 62
     1
 10
403.2499999999999
 20
241.8170838665495
 30
0.0
 11
403.2499999999999
 21
241.3170838665495
 31
0.0
  0
LINE
  5
279
  8
_0-1_250
  6
CONTINUOUS
 62
     1
 10
418.9978145118547
 20
239.899066138305
 30
0.0
 11
396.9978145118546
 21
239.899066138305
 31
0.0
  0
ARC
  5
27A
  8
__
  6
CONTINUOUS
 62
     1
 10
407.9999999999999
 20
231.9316102677552
 30
0.0
 40
10.96745587054989
 50
64.3355743611285
 51
115.6644256388715
  0
LINE
  5
27B
  8
_0-1_250
  6
CONTINUOUS
 62
     1
 10
397.1179950820356
 20
239.899066138305
 30
0.0
 11
403.2499999999999
 21
241.3170838665495
 31
0.0
  0
ARC
  5
27C
  8
__
  6
CONTINUOUS
 62
     1
 10
419.7622778792108
 20
215.4359861432418
 30
0.0
 40
1.482293202727277
 50
356.9966054454529
 51
80.77287107504714
  0
LINE
  5
27D
  8
_0-1_250
  6
CONTINUOUS
 62
     1
 10
394.7574649481301
 20
215.3583212113647
 30
0.0
 11
394.7574649481301
 21
212.8990663824691
 31
0.0
  0
ARC
  5
27E
  8
__
  6
CONTINUOUS
 62
     1
 10
396.2377221207889
 20
215.4359861432418
 30
0.0
 40
1.482293202727366
 50
99.2271289249529
 51
183.0033945545471
  0
LINE
  5
27F
  8
_0-1_250
  6
CONTINUOUS
 62
     1
 10
392.0
 20
212.8990663824691
 30
0.0
 11
392.0
 21
201.8990663824691
 31
0.0
  0
LINE
  5
280
  8
_0-1_250
  6
CONTINUOUS
 62
     1
 10
399.5745233736573
 20
212.8990663824691
 30
0.0
 11
399.5745233736573
 21
201.8990663824691
 31
0.0
  0
POLYLINE
  5
281
  8
__
  6
CONTINUOUS
 62
     1
 66
     1
 10
0.0
 20
0.0
 30
0.0
 70
   129
  0
VERTEX
  5
282
  8
__
  6
CONTINUOUS
 62
     1
 10
405.6885430102902
 20
245.5292198870321
 30
0.0
  0
VERTEX
  5
283
  8
__
  6
CONTINUOUS
 62
     1
 10
410.1885430102902
 20
245.5292198870321
 30
0.0
  0
VERTEX
  5
284
  8
__
  6
CONTINUOUS
 62
     1
 10
410.1885430102902
 20
223.899066138305
 30
0.0
  0
VERTEX
  5
285
  8
__
  6
CONTINUOUS
 62
     1
 10
405.6885430102902
 20
223.899066138305
 30
0.0
  0
SEQEND
  5
286
  8
__
  6
CONTINUOUS
 62
     1
  0
LINE
  5
287
  8
__
  6
CONTINUOUS
 62
     1
 10
410.1885430102902
 20
244.7947453910533
 30
0.0
 11
405.6885430102902
 21
244.7947453910533
 31
0.0
  0
LINE
  5
288
  8
_0-1_250
  6
CONTINUOUS
 62
     1
 10
423.9999999999999
 20
212.8990663824691
 30
0.0
 11
392.0
 21
212.8990663824691
 31
0.0
  0
LINE
  5
289
  8
_0-0_0
  6
CONTINUOUS
 62
     1
 10
417.3437547343841
 20
230.9926936233224
 30
0.0
 11
417.3437547343841
 21
216.8990223089627
 31
0.0
  0
LINE
  5
28A
  8
_0-0_0
  6
CONTINUOUS
 62
     1
 10
398.3470764508155
 20
233.6247579407271
 30
0.0
 11
398.3470764508155
 21
216.8990223089627
 31
0.0
  0
LINE
  5
28B
  8
_0-1_250
  6
CONTINUOUS
 62
     1
 10
-71.0698301752268
 20
201.3811054063455
 30
0.0
 11
-71.0698301752268
 21
187.3811054063455
 31
0.0
  0
LINE
  5
28C
  8
_0-1_250
  6
CONTINUOUS
 62
     1
 10
-42.0698301752268
 20
201.3811054063455
 30
0.0
 11
-74.0698301752268
 21
201.3811054063455
 31
0.0
  0
LINE
  5
28D
  8
_0-1_250
  6
CONTINUOUS
 62
     1
 10
-45.0698301752268
 20
201.3811054063455
 30
0.0
 11
-45.0698301752268
 21
187.3811054063455
 31
0.0
  0
LINE
  5
28E
  8
__
  6
HIDDEN
 62
    17
 10
-159.7711851031519
 20
109.5160055396528
 30
0.0
 11
-159.7711851031519
 21
429.5160055396527
 31
0.0
  0
LINE
  5
28F
  8
__
  6
HIDDEN
 62
    17
 10
-58.0698301752268
 20
109.5160055396528
 30
0.0
 11
-58.0698301752268
 21
429.5160055396527
 31
0.0
  0
LINE
  5
290
  8
__
  6
HIDDEN
 62
    17
 10
408.0
 20
109.5160055396528
 30
0.0
 11
408.0
 21
429.5160055396527
 31
0.0
  0
LINE
  5
291
  8
__
  6
HIDDEN
 62
    17
 10
462.4703154519558
 20
160.3666830036153
 30
0.0
 11
-327.8946047271925
 21
160.3666830036153
 31
0.0
  0
LINE
  5
292
  8
__
  6
HIDDEN
 62
    17
 10
-261.472540031077
 20
-458.8845272883882
 30
0.0
 11
-261.472540031077
 21
-138.8845272883882
 31
0.0
  0
LINE
  5
293
  8
_0-1_250
  6
CONTINUOUS
 62
     1
 10
-311.0849423227971
 20
-324.1236136927001
 30
0.0
 11
-306.6977088764919
 21
-345.0192879063983
 31
0.0
  0
LINE
  5
294
  8
_0-1_250
  6
CONTINUOUS
 62
     1
 10
-268.9110830413672
 20
-345.0194276658596
 30
0.0
 11
-272.4703545429318
 21
-329.0194276658596
 31
0.0
  0
LINE
  5
295
  8
_0-1_250
  6
CONTINUOUS
 62
     1
 10
-277.472540031077
 20
-356.0194274216955
 30
0.0
 11
-277.472540031077
 21
-367.0194274216955
 31
0.0
  0
LINE
  5
296
  8
_0-1_250
  6
CONTINUOUS
 62
     1
 10
-248.472540031077
 20
-367.0194274216955
 30
0.0
 11
-248.472540031077
 21
-381.0194274216955
 31
0.0
  0
LINE
  5
297
  8
_0-1_250
  6
CONTINUOUS
 62
     1
 10
-268.9110830413672
 20
-345.0194276658596
 30
0.0
 11
-306.6977088764919
 21
-345.0192879063983
 31
0.0
  0
LINE
  5
298
  8
_0-1_250
  6
CONTINUOUS
 62
     1
 10
-249.4725015028191
 20
-352.0194798237586
 30
0.0
 11
-273.472501502668
 21
-352.0193946616076
 31
0.0
  0
LINE
  5
299
  8
_0-1_250
  6
CONTINUOUS
 62
     1
 10
-277.472540031077
 20
-356.0194274216955
 30
0.0
 11
-245.472540031077
 21
-356.0194274216955
 31
0.0
  0
LINE
  5
29A
  8
_0-1_250
  6
CONTINUOUS
 62
     1
 10
-267.3535202734452
 20
-345.0194276658596
 30
0.0
 11
-267.3535202734452
 21
-352.0194163743409
 31
0.0
  0
LINE
  5
29B
  8
_0-1_250
  6
CONTINUOUS
 62
     1
 10
-280.5203545429317
 20
-328.8694276658595
 30
0.0
 11
-309.3861454518237
 21
-323.3891391967212
 31
0.0
  0
LINE
  5
29C
  8
_0-1_250
  6
CONTINUOUS
 62
     1
 10
-280.5203545429317
 20
-328.8694276658595
 30
0.0
 11
-272.4703545429318
 21
-329.0194276658596
 31
0.0
  0
LINE
  5
29D
  8
_0-1_250
  6
CONTINUOUS
 62
     1
 10
-311.0849423227971
 20
-324.1236136927001
 30
0.0
 11
-309.3861454518237
 21
-323.3891391967212
 31
0.0
  0
LINE
  5
29E
  8
_0-1_250
  6
CONTINUOUS
 62
     1
 10
-253.9110830413672
 20
-345.0194276658596
 30
0.0
 11
-250.4703545429318
 21
-329.0194276658596
 31
0.0
  0
LINE
  5
29F
  8
_0-1_250
  6
CONTINUOUS
 62
     1
 10
-268.9110830413672
 20
-345.0194276658596
 30
0.0
 11
-253.9110830413672
 21
-345.0194276658596
 31
0.0
  0
LINE
  5
2A0
  8
_0-1_250
  6
CONTINUOUS
 62
     1
 10
-272.3545449490412
 20
-329.0194276658596
 30
0.0
 11
-266.222540031077
 21
-327.6014099376151
 31
0.0
  0
LINE
  5
2A1
  8
_0-1_250
  6
CONTINUOUS
 62
     1
 10
-266.222540031077
 20
-327.6014099376151
 30
0.0
 11
-256.722540031077
 21
-327.6014099376151
 31
0.0
  0
LINE
  5
2A2
  8
_0-1_250
  6
CONTINUOUS
 62
     1
 10
-255.5915597887088
 20
-345.0194276658596
 30
0.0
 11
-255.5915597887088
 21
-352.0194581107515
 31
0.0
  0
LINE
  5
2A3
  8
_0-1_250
  6
CONTINUOUS
 62
     1
 10
-274.7150750829468
 20
-353.5601725927999
 30
0.0
 11
-274.7150750829468
 21
-356.0194274216955
 31
0.0
  0
LINE
  5
2A4
  8
_0-1_250
  6
CONTINUOUS
 62
     1
 10
-269.8980166574196
 20
-356.0194274216955
 30
0.0
 11
-269.8980166574196
 21
-367.0194274216955
 31
0.0
  0
LINE
  5
2A5
  8
_0-1_250
  6
CONTINUOUS
 62
     1
 10
-272.4703545429318
 20
-329.0194276658596
 30
0.0
 11
-250.4703545429318
 21
-329.0194276658596
 31
0.0
  0
LINE
  5
2A6
  8
_0-1_250
  6
CONTINUOUS
 62
     1
 10
-266.222540031077
 20
-327.1014099376151
 30
0.0
 11
-266.222540031077
 21
-327.6014099376151
 31
0.0
  0
LINE
  5
2A7
  8
_0-1_250
  6
CONTINUOUS
 62
     1
 10
-256.722540031077
 20
-327.1014099376151
 30
0.0
 11
-256.722540031077
 21
-327.6014099376151
 31
0.0
  0
LINE
  5
2A8
  8
_0-1_250
  6
CONTINUOUS
 62
     1
 10
-272.4703545429318
 20
-329.0194276658596
 30
0.0
 11
-250.4703545429318
 21
-329.0194276658596
 31
0.0
  0
ARC
  5
2A9
  8
__
  6
CONTINUOUS
 62
     1
 10
-261.472540031077
 20
-336.9868835364094
 30
0.0
 40
10.96745587054989
 50
64.3355743611285
 51
115.6644256388715
  0
LINE
  5
2AA
  8
_0-1_250
  6
CONTINUOUS
 62
     1
 10
-250.5905351131128
 20
-329.0194276658596
 30
0.0
 11
-256.722540031077
 21
-327.6014099376151
 31
0.0
  0
ARC
  5
2AB
  8
__
  6
CONTINUOUS
 62
     1
 10
-273.2348179102879
 20
-353.4825076609228
 30
0.0
 40
1.482293202727366
 50
99.2271289249529
 51
183.0033945545471
  0
LINE
  5
2AC
  8
_0-1_250
  6
CONTINUOUS
 62
     1
 10
-248.2300049792073
 20
-353.5601725927999
 30
0.0
 11
-248.2300049792073
 21
-356.0194274216955
 31
0.0
  0
ARC
  5
2AD
  8
__
  6
CONTINUOUS
 62
     1
 10
-249.7102621518661
 20
-353.4825076609228
 30
0.0
 40
1.482293202727277
 50
356.9966054454529
 51
80.77287107504714
  0
LINE
  5
2AE
  8
_0-1_250
  6
CONTINUOUS
 62
     1
 10
-277.472540031077
 20
-367.0194274216955
 30
0.0
 11
-245.472540031077
 21
-367.0194274216955
 31
0.0
  0
LINE
  5
2AF
  8
_0-1_250
  6
CONTINUOUS
 62
     1
 10
-245.472540031077
 20
-356.0194274216955
 30
0.0
 11
-245.472540031077
 21
-367.0194274216955
 31
0.0
  0
LINE
  5
2B0
  8
_0-1_250
  6
CONTINUOUS
 62
     1
 10
-253.0470634047343
 20
-356.0194274216955
 30
0.0
 11
-253.0470634047343
 21
-367.0194274216955
 31
0.0
  0
LINE
  5
2B1
  8
_0-1_250
  6
CONTINUOUS
 62
     1
 10
-274.472540031077
 20
-367.0194274216955
 30
0.0
 11
-274.472540031077
 21
-381.0194274216955
 31
0.0
  0
LINE
  5
2B2
  8
_0-1_250
  6
CONTINUOUS
 62
     1
 10
-8.457427883506625
 20
-324.1236136927001
 30
0.0
 11
-12.84466132981186
 21
-345.0192879063983
 31
0.0
  0
LINE
  5
2B3
  8
_0-1_250
  6
CONTINUOUS
 62
     1
 10
-50.63128716493651
 20
-345.0194276658596
 30
0.0
 11
-47.07201566337199
 21
-329.0194276658596
 31
0.0
  0
LINE
  5
2B4
  8
_0-1_250
  6
CONTINUOUS
 62
     1
 10
-42.0698301752268
 20
-356.0194274216955
 30
0.0
 11
-42.0698301752268
 21
-367.0194274216955
 31
0.0
  0
LINE
  5
2B5
  8
_0-1_250
  6
CONTINUOUS
 62
     1
 10
395.0
 20
-366.5014664455717
 30
0.0
 11
395.0
 21
-380.5014664455717
 31
0.0
  0
LINE
  5
2B6
  8
_0-1_250
  6
CONTINUOUS
 62
     1
 10
-50.63128716493651
 20
-345.0194276658596
 30
0.0
 11
-12.84466132981186
 21
-345.0192879063983
 31
0.0
  0
LINE
  5
2B7
  8
_0-1_250
  6
CONTINUOUS
 62
     1
 10
-70.06986870348464
 20
-352.0194798237586
 30
0.0
 11
-46.06986870363573
 21
-352.0193946616076
 31
0.0
  0
LINE
  5
2B8
  8
_0-1_250
  6
CONTINUOUS
 62
     1
 10
-42.0698301752268
 20
-356.0194274216955
 30
0.0
 11
-74.0698301752268
 21
-356.0194274216955
 31
0.0
  0
LINE
  5
2B9
  8
_0-1_250
  6
CONTINUOUS
 62
     1
 10
-52.18884993285855
 20
-345.0194276658596
 30
0.0
 11
-52.18884993285855
 21
-352.0194163743409
 31
0.0
  0
LINE
  5
2BA
  8
_0-1_250
  6
CONTINUOUS
 62
     1
 10
-39.02201566337203
 20
-328.8694276658595
 30
0.0
 11
-10.15622475448004
 21
-323.3891391967212
 31
0.0
  0
LINE
  5
2BB
  8
_0-1_250
  6
CONTINUOUS
 62
     1
 10
-39.02201566337203
 20
-328.8694276658595
 30
0.0
 11
-47.07201566337199
 21
-329.0194276658596
 31
0.0
  0
LINE
  5
2BC
  8
_0-1_250
  6
CONTINUOUS
 62
     1
 10
-8.457427883506625
 20
-324.1236136927001
 30
0.0
 11
-10.15622475448004
 21
-323.3891391967212
 31
0.0
  0
LINE
  5
2BD
  8
_0-1_250
  6
CONTINUOUS
 62
     1
 10
-65.63128716493651
 20
-345.0194276658596
 30
0.0
 11
-69.07201566337199
 21
-329.0194276658596
 31
0.0
  0
LINE
  5
2BE
  8
_0-1_250
  6
CONTINUOUS
 62
     1
 10
-50.63128716493651
 20
-345.0194276658596
 30
0.0
 11
-65.63128716493651
 21
-345.0194276658596
 31
0.0
  0
LINE
  5
2BF
  8
_0-1_250
  6
CONTINUOUS
 62
     1
 10
-47.18782525726255
 20
-329.0194276658596
 30
0.0
 11
-53.3198301752268
 21
-327.6014099376151
 31
0.0
  0
LINE
  5
2C0
  8
_0-1_250
  6
CONTINUOUS
 62
     1
 10
-53.3198301752268
 20
-327.6014099376151
 30
0.0
 11
-62.8198301752268
 21
-327.6014099376151
 31
0.0
  0
LINE
  5
2C1
  8
_0-1_250
  6
CONTINUOUS
 62
     1
 10
-63.95081041759499
 20
-345.0194276658596
 30
0.0
 11
-63.95081041759499
 21
-352.0194581107515
 31
0.0
  0
LINE
  5
2C2
  8
_0-1_250
  6
CONTINUOUS
 62
     1
 10
-44.82729512335698
 20
-353.5601725927999
 30
0.0
 11
-44.82729512335698
 21
-356.0194274216955
 31
0.0
  0
LINE
  5
2C3
  8
_0-1_250
  6
CONTINUOUS
 62
     1
 10
-49.64435354888417
 20
-356.0194274216955
 30
0.0
 11
-49.64435354888417
 21
-367.0194274216955
 31
0.0
  0
LINE
  5
2C4
  8
_0-1_250
  6
CONTINUOUS
 62
     1
 10
-47.07201566337199
 20
-329.0194276658596
 30
0.0
 11
-69.07201566337199
 21
-329.0194276658596
 31
0.0
  0
LINE
  5
2C5
  8
_0-1_250
  6
CONTINUOUS
 62
     1
 10
-53.3198301752268
 20
-327.1014099376151
 30
0.0
 11
-53.3198301752268
 21
-327.6014099376151
 31
0.0
  0
LINE
  5
2C6
  8
_0-1_250
  6
CONTINUOUS
 62
     1
 10
-62.8198301752268
 20
-327.1014099376151
 30
0.0
 11
-62.8198301752268
 21
-327.6014099376151
 31
0.0
  0
LINE
  5
2C7
  8
_0-1_250
  6
CONTINUOUS
 62
     1
 10
-47.07201566337199
 20
-329.0194276658596
 30
0.0
 11
-69.07201566337199
 21
-329.0194276658596
 31
0.0
  0
ARC
  5
2C8
  8
__
  6
CONTINUOUS
 62
     1
 10
-58.0698301752268
 20
-336.9868835364094
 30
0.0
 40
10.96745587054989
 50
64.3355743611285
 51
115.6644256388715
  0
LINE
  5
2C9
  8
_0-1_250
  6
CONTINUOUS
 62
     1
 10
-68.951835093191
 20
-329.0194276658596
 30
0.0
 11
-62.8198301752268
 21
-327.6014099376151
 31
0.0
  0
ARC
  5
2CA
  8
__
  6
CONTINUOUS
 62
     1
 10
-46.30755229601584
 20
-353.4825076609228
 30
0.0
 40
1.482293202727277
 50
356.9966054454529
 51
80.77287107504714
  0
LINE
  5
2CB
  8
_0-1_250
  6
CONTINUOUS
 62
     1
 10
-71.3123652270965
 20
-353.5601725927999
 30
0.0
 11
-71.3123652270965
 21
-356.0194274216955
 31
0.0
  0
ARC
  5
2CC
  8
__
  6
CONTINUOUS
 62
     1
 10
-69.83210805443764
 20
-353.4825076609228
 30
0.0
 40
1.482293202727366
 50
99.2271289249529
 51
183.0033945545471
  0
LINE
  5
2CD
  8
_0-1_250
  6
CONTINUOUS
 62
     1
 10
424.0
 20
-366.5014664455717
 30
0.0
 11
392.0
 21
-366.5014664455717
 31
0.0
  0
LINE
  5
2CE
  8
_0-1_250
  6
CONTINUOUS
 62
     1
 10
-74.0698301752268
 20
-356.0194274216955
 30
0.0
 11
-74.0698301752268
 21
-367.0194274216955
 31
0.0
  0
LINE
  5
2CF
  8
_0-1_250
  6
CONTINUOUS
 62
     1
 10
-66.49530680156943
 20
-356.0194274216955
 30
0.0
 11
-66.49530680156943
 21
-367.0194274216955
 31
0.0
  0
LINE
  5
2D0
  8
_0-1_250
  6
CONTINUOUS
 62
     1
 10
421.0
 20
-366.5014664455717
 30
0.0
 11
421.0
 21
-380.5014664455717
 31
0.0
  0
LINE
  5
2D1
  8
_0-1_250
  6
CONTINUOUS
 62
     1
 10
-147.2698155301508
 20
-369.0194274216955
 30
0.0
 11
-147.2698155301508
 21
-381.0194274216955
 31
0.0
  0
LINE
  5
2D2
  8
_0-0_0
  6
CONTINUOUS
 62
     1
 10
-144.3732329352844
 20
-369.0194274216955
 30
0.0
 11
-175.1678232382843
 21
-369.0194274216955
 31
0.0
  0
LINE
  5
2D3
  8
_0-0_0
  6
CONTINUOUS
 62
     1
 10
-143.7705280867843
 20
-358.0194274216955
 30
0.0
 11
-143.7705280867843
 21
-369.0194274216955
 31
0.0
  0
LINE
  5
2D4
  8
_0-0_0
  6
CONTINUOUS
 62
     1
 10
-175.7705280867843
 20
-358.0194274216955
 30
0.0
 11
-175.7705280867843
 21
-369.0194274216955
 31
0.0
  0
LINE
  5
2D5
  8
_0-0_0
  6
CONTINUOUS
 62
     1
 10
-146.0112430577843
 20
-369.0194274216955
 30
0.0
 11
-158.5476945397357
 21
-369.0194274216955
 31
0.0
  0
LINE
  5
2D6
  8
_0-0_0
  6
CONTINUOUS
 62
     1
 10
-158.5476945397357
 20
-369.0194274216955
 30
0.0
 11
-173.5298131157841
 21
-369.0194274216955
 31
0.0
  0
LINE
  5
2D7
  8
_0-0_0
  6
CONTINUOUS
 62
     1
 10
-156.4945078417842
 20
-369.0194274216955
 30
0.0
 11
-143.7705280867843
 21
-369.0194274216955
 31
0.0
  0
LINE
  5
2D8
  8
_0-0_0
  6
CONTINUOUS
 62
     1
 10
-175.7705280867843
 20
-369.0194274216955
 30
0.0
 11
-163.0465483317843
 21
-369.0194274216955
 31
0.0
  0
LINE
  5
2D9
  8
_0-0_0
  6
CONTINUOUS
 62
     1
 10
-151.6173758090114
 20
-358.0195963364835
 30
0.0
 11
-151.6157807592491
 21
-369.0195963364835
 31
0.0
  0
LINE
  5
2DA
  8
_0-0_0
  6
CONTINUOUS
 62
     1
 10
-159.7712406434181
 20
-359.1913666866955
 30
0.0
 11
-159.7698155301508
 21
-369.0194274216955
 31
0.0
  0
LINE
  5
2DB
  8
_0-0_0
  6
CONTINUOUS
 62
     1
 10
-167.9236803645573
 20
-358.0195963364835
 30
0.0
 11
-167.9252754143196
 21
-369.0195963364835
 31
0.0
  0
LINE
  5
2DC
  8
_0-1_250
  6
CONTINUOUS
 62
     1
 10
-172.2718704209752
 20
-369.0194274216955
 30
0.0
 11
-172.2718704209752
 21
-381.0194274216955
 31
0.0
  0
LINE
  5
2DD
  8
_0-0_0
  6
CONTINUOUS
 62
     1
 10
431.4041325095901
 20
-408.0338498244256
 30
0.0
 11
384.4041325095901
 21
-408.0338498244256
 31
0.0
  0
LINE
  5
2DE
  8
_0-0_0
  6
CONTINUOUS
 62
     1
 10
389.5
 20
-380.5014664455717
 30
0.0
 11
426.5
 21
-380.5014664455717
 31
0.0
  0
LINE
  5
2DF
  8
_0-0_0
  6
CONTINUOUS
 62
     1
 10
389.5
 20
-380.5014664455717
 30
0.0
 11
384.4041325095901
 21
-408.0338498244256
 31
0.0
  0
LINE
  5
2E0
  8
_0-0_0
  6
CONTINUOUS
 62
     1
 10
426.5
 20
-380.5014664455717
 30
0.0
 11
431.4041325095901
 21
-408.0338498244256
 31
0.0
  0
LINE
  5
2E1
  8
_0-1_250
  6
CONTINUOUS
 62
     1
 10
415.4385430102902
 20
-344.5014666897358
 30
0.0
 11
418.9978145118547
 21
-328.5014666897358
 31
0.0
  0
LINE
  5
2E2
  8
_0-1_250
  6
CONTINUOUS
 62
     1
 10
423.9999999999999
 20
-355.5014664455717
 30
0.0
 11
423.9999999999999
 21
-366.5014664455717
 31
0.0
  0
LINE
  5
2E3
  8
_0-1_250
  6
CONTINUOUS
 62
     1
 10
395.9999614717419
 20
-351.5015188476349
 30
0.0
 11
419.999961471591
 21
-351.5014336854839
 31
0.0
  0
LINE
  5
2E4
  8
_0-1_250
  6
CONTINUOUS
 62
     1
 10
413.8809802423682
 20
-344.5014666897358
 30
0.0
 11
413.8809802423682
 21
-351.5014553982172
 31
0.0
  0
LINE
  5
2E5
  8
_0-1_250
  6
CONTINUOUS
 62
     1
 10
400.4385430102902
 20
-344.5014666897358
 30
0.0
 11
396.9978145118546
 21
-328.5014666897358
 31
0.0
  0
LINE
  5
2E6
  8
_0-1_250
  6
CONTINUOUS
 62
     1
 10
415.4385430102902
 20
-344.5014666897358
 30
0.0
 11
400.4385430102902
 21
-344.5014666897358
 31
0.0
  0
LINE
  5
2E7
  8
_0-1_250
  6
CONTINUOUS
 62
     1
 10
418.8820049179642
 20
-328.5014666897358
 30
0.0
 11
412.7499999999999
 21
-327.0834489614914
 31
0.0
  0
LINE
  5
2E8
  8
_0-1_250
  6
CONTINUOUS
 62
     1
 10
412.7499999999999
 20
-327.0834489614914
 30
0.0
 11
403.2499999999999
 21
-327.0834489614914
 31
0.0
  0
LINE
  5
2E9
  8
_0-1_250
  6
CONTINUOUS
 62
     1
 10
402.1190197576317
 20
-344.5014666897358
 30
0.0
 11
402.1190197576317
 21
-351.5014971346278
 31
0.0
  0
LINE
  5
2EA
  8
_0-1_250
  6
CONTINUOUS
 62
     1
 10
421.2425350518697
 20
-353.0422116166761
 30
0.0
 11
421.2425350518697
 21
-355.5014664455717
 31
0.0
  0
LINE
  5
2EB
  8
_0-1_250
  6
CONTINUOUS
 62
     1
 10
416.4254766263425
 20
-355.5014664455717
 30
0.0
 11
416.4254766263425
 21
-366.5014664455717
 31
0.0
  0
LINE
  5
2EC
  8
_0-1_250
  6
CONTINUOUS
 62
     1
 10
418.9978145118547
 20
-328.5014666897358
 30
0.0
 11
396.9978145118546
 21
-328.5014666897358
 31
0.0
  0
LINE
  5
2ED
  8
_0-1_250
  6
CONTINUOUS
 62
     1
 10
412.7499999999999
 20
-326.5834489614914
 30
0.0
 11
412.7499999999999
 21
-327.0834489614914
 31
0.0
  0
LINE
  5
2EE
  8
_0-1_250
  6
CONTINUOUS
 62
     1
 10
403.2499999999999
 20
-326.5834489614914
 30
0.0
 11
403.2499999999999
 21
-327.0834489614914
 31
0.0
  0
LINE
  5
2EF
  8
_0-1_250
  6
CONTINUOUS
 62
     1
 10
418.9978145118547
 20
-328.5014666897358
 30
0.0
 11
396.9978145118546
 21
-328.5014666897358
 31
0.0
  0
ARC
  5
2F0
  8
__
  6
CONTINUOUS
 62
     1
 10
407.9999999999999
 20
-336.4689225602857
 30
0.0
 40
10.96745587054989
 50
64.3355743611285
 51
115.6644256388715
  0
LINE
  5
2F1
  8
_0-1_250
  6
CONTINUOUS
 62
     1
 10
397.1179950820356
 20
-328.5014666897358
 30
0.0
 11
403.2499999999999
 21
-327.0834489614914
 31
0.0
  0
ARC
  5
2F2
  8
__
  6
CONTINUOUS
 62
     1
 10
419.7622778792108
 20
-352.9645466847991
 30
0.0
 40
1.482293202727277
 50
356.9966054454529
 51
80.77287107504714
  0
LINE
  5
2F3
  8
_0-1_250
  6
CONTINUOUS
 62
     1
 10
394.7574649481301
 20
-353.0422116166761
 30
0.0
 11
394.7574649481301
 21
-355.5014664455717
 31
0.0
  0
ARC
  5
2F4
  8
__
  6
CONTINUOUS
 62
     1
 10
396.2377221207889
 20
-352.9645466847991
 30
0.0
 40
1.482293202727366
 50
99.2271289249529
 51
183.0033945545471
  0
LINE
  5
2F5
  8
_0-1_250
  6
CONTINUOUS
 62
     1
 10
392.0
 20
-355.5014664455717
 30
0.0
 11
392.0
 21
-366.5014664455717
 31
0.0
  0
LINE
  5
2F6
  8
_0-1_250
  6
CONTINUOUS
 62
     1
 10
399.5745233736573
 20
-355.5014664455717
 30
0.0
 11
399.5745233736573
 21
-366.5014664455717
 31
0.0
  0
POLYLINE
  5
2F7
  8
__
  6
CONTINUOUS
 62
     1
 66
     1
 10
0.0
 20
0.0
 30
0.0
 70
   129
  0
VERTEX
  5
2F8
  8
__
  6
CONTINUOUS
 62
     1
 10
405.6885430102902
 20
-322.8713129410088
 30
0.0
  0
VERTEX
  5
2F9
  8
__
  6
CONTINUOUS
 62
     1
 10
410.1885430102902
 20
-322.8713129410088
 30
0.0
  0
VERTEX
  5
2FA
  8
__
  6
CONTINUOUS
 62
     1
 10
410.1885430102902
 20
-344.5014666897358
 30
0.0
  0
VERTEX
  5
2FB
  8
__
  6
CONTINUOUS
 62
     1
 10
405.6885430102902
 20
-344.5014666897358
 30
0.0
  0
SEQEND
  5
2FC
  8
__
  6
CONTINUOUS
 62
     1
  0
LINE
  5
2FD
  8
__
  6
CONTINUOUS
 62
     1
 10
410.1885430102902
 20
-323.6057874369877
 30
0.0
 11
405.6885430102902
 21
-323.6057874369877
 31
0.0
  0
LINE
  5
2FE
  8
_0-1_250
  6
CONTINUOUS
 62
     1
 10
423.9999999999999
 20
-355.5014664455717
 30
0.0
 11
392.0
 21
-355.5014664455717
 31
0.0
  0
LINE
  5
2FF
  8
_0-1_250
  6
CONTINUOUS
 62
     1
 10
-71.0698301752268
 20
-367.0194274216955
 30
0.0
 11
-71.0698301752268
 21
-381.0194274216955
 31
0.0
  0
LINE
  5
300
  8
_0-1_250
  6
CONTINUOUS
 62
     1
 10
-42.0698301752268
 20
-367.0194274216955
 30
0.0
 11
-74.0698301752268
 21
-367.0194274216955
 31
0.0
  0
LINE
  5
301
  8
_0-1_250
  6
CONTINUOUS
 62
     1
 10
-45.0698301752268
 20
-367.0194274216955
 30
0.0
 11
-45.0698301752268
 21
-381.0194274216955
 31
0.0
  0
LINE
  5
302
  8
__
  6
HIDDEN
 62
    17
 10
-159.7711851031519
 20
-458.8845272883882
 30
0.0
 11
-159.7711851031519
 21
-138.8845272883882
 31
0.0
  0
LINE
  5
303
  8
__
  6
HIDDEN
 62
    17
 10
-58.0698301752268
 20
-458.8845272883882
 30
0.0
 11
-58.0698301752268
 21
-138.8845272883882
 31
0.0
  0
LINE
  5
304
  8
__
  6
HIDDEN
 62
    17
 10
408.0
 20
-458.8845272883882
 30
0.0
 11
408.0
 21
-138.8845272883882
 31
0.0
  0
LINE
  5
305
  8
__
  6
HIDDEN
 62
    17
 10
462.4703154519558
 20
-408.0338498244256
 30
0.0
 11
-327.8946047271925
 21
-408.0338498244256
 31
0.0
  0
LINE
  5
306
  8
__
  6
HIDDEN
 62
    17
 10
-261.472540031077
 20
-1023.884527288388
 30
0.0
 11
-261.472540031077
 21
-703.8845272883882
 31
0.0
  0
LINE
  5
307
  8
_0-1_250
  6
CONTINUOUS
 62
     1
 10
-311.0849423227971
 20
-889.1236136927
 30
0.0
 11
-306.6977088764919
 21
-910.0192879063984
 31
0.0
  0
LINE
  5
308
  8
_0-1_250
  6
CONTINUOUS
 62
     1
 10
-268.9110830413672
 20
-910.0194276658594
 30
0.0
 11
-272.4703545429318
 21
-894.0194276658594
 31
0.0
  0
LINE
  5
309
  8
_0-1_250
  6
CONTINUOUS
 62
     1
 10
-277.472540031077
 20
-921.0194274216956
 30
0.0
 11
-277.472540031077
 21
-932.0194274216956
 31
0.0
  0
LINE
  5
30A
  8
_0-1_250
  6
CONTINUOUS
 62
     1
 10
-248.472540031077
 20
-932.0194274216956
 30
0.0
 11
-248.472540031077
 21
-946.0194274216956
 31
0.0
  0
LINE
  5
30B
  8
_0-1_250
  6
CONTINUOUS
 62
     1
 10
-268.9110830413672
 20
-910.0194276658594
 30
0.0
 11
-306.6977088764919
 21
-910.0192879063984
 31
0.0
  0
LINE
  5
30C
  8
_0-1_250
  6
CONTINUOUS
 62
     1
 10
-249.4725015028191
 20
-917.0194798237585
 30
0.0
 11
-273.472501502668
 21
-917.0193946616077
 31
0.0
  0
LINE
  5
30D
  8
_0-1_250
  6
CONTINUOUS
 62
     1
 10
-277.472540031077
 20
-921.0194274216956
 30
0.0
 11
-245.472540031077
 21
-921.0194274216956
 31
0.0
  0
LINE
  5
30E
  8
_0-1_250
  6
CONTINUOUS
 62
     1
 10
-267.3535202734452
 20
-910.0194276658594
 30
0.0
 11
-267.3535202734452
 21
-917.0194163743408
 31
0.0
  0
LINE
  5
30F
  8
_0-1_250
  6
CONTINUOUS
 62
     1
 10
-280.5203545429317
 20
-893.8694276658593
 30
0.0
 11
-309.3861454518237
 21
-888.3891391967213
 31
0.0
  0
LINE
  5
310
  8
_0-1_250
  6
CONTINUOUS
 62
     1
 10
-280.5203545429317
 20
-893.8694276658593
 30
0.0
 11
-272.4703545429318
 21
-894.0194276658594
 31
0.0
  0
LINE
  5
311
  8
_0-1_250
  6
CONTINUOUS
 62
     1
 10
-311.0849423227971
 20
-889.1236136927
 30
0.0
 11
-309.3861454518237
 21
-888.3891391967213
 31
0.0
  0
LINE
  5
312
  8
_0-1_250
  6
CONTINUOUS
 62
     1
 10
-253.9110830413672
 20
-910.0194276658594
 30
0.0
 11
-250.4703545429318
 21
-894.0194276658594
 31
0.0
  0
LINE
  5
313
  8
_0-1_250
  6
CONTINUOUS
 62
     1
 10
-268.9110830413672
 20
-910.0194276658594
 30
0.0
 11
-253.9110830413672
 21
-910.0194276658594
 31
0.0
  0
LINE
  5
314
  8
_0-1_250
  6
CONTINUOUS
 62
     1
 10
-272.3545449490412
 20
-894.0194276658594
 30
0.0
 11
-266.222540031077
 21
-892.6014099376152
 31
0.0
  0
LINE
  5
315
  8
_0-1_250
  6
CONTINUOUS
 62
     1
 10
-266.222540031077
 20
-892.6014099376152
 30
0.0
 11
-256.722540031077
 21
-892.6014099376152
 31
0.0
  0
LINE
  5
316
  8
_0-1_250
  6
CONTINUOUS
 62
     1
 10
-255.5915597887088
 20
-910.0194276658594
 30
0.0
 11
-255.5915597887088
 21
-917.0194581107517
 31
0.0
  0
LINE
  5
317
  8
_0-1_250
  6
CONTINUOUS
 62
     1
 10
-274.7150750829468
 20
-918.5601725928
 30
0.0
 11
-274.7150750829468
 21
-921.0194274216956
 31
0.0
  0
LINE
  5
318
  8
_0-1_250
  6
CONTINUOUS
 62
     1
 10
-269.8980166574196
 20
-921.0194274216956
 30
0.0
 11
-269.8980166574196
 21
-932.0194274216956
 31
0.0
  0
LINE
  5
319
  8
_0-1_250
  6
CONTINUOUS
 62
     1
 10
-272.4703545429318
 20
-894.0194276658594
 30
0.0
 11
-250.4703545429318
 21
-894.0194276658594
 31
0.0
  0
LINE
  5
31A
  8
_0-1_250
  6
CONTINUOUS
 62
     1
 10
-266.222540031077
 20
-892.1014099376152
 30
0.0
 11
-266.222540031077
 21
-892.6014099376152
 31
0.0
  0
LINE
  5
31B
  8
_0-1_250
  6
CONTINUOUS
 62
     1
 10
-256.722540031077
 20
-892.1014099376152
 30
0.0
 11
-256.722540031077
 21
-892.6014099376152
 31
0.0
  0
LINE
  5
31C
  8
_0-1_250
  6
CONTINUOUS
 62
     1
 10
-272.4703545429318
 20
-894.0194276658594
 30
0.0
 11
-250.4703545429318
 21
-894.0194276658594
 31
0.0
  0
ARC
  5
31D
  8
__
  6
CONTINUOUS
 62
     1
 10
-261.472540031077
 20
-901.9868835364096
 30
0.0
 40
10.96745587054989
 50
64.3355743611285
 51
115.6644256388715
  0
LINE
  5
31E
  8
_0-1_250
  6
CONTINUOUS
 62
     1
 10
-250.5905351131128
 20
-894.0194276658594
 30
0.0
 11
-256.722540031077
 21
-892.6014099376152
 31
0.0
  0
ARC
  5
31F
  8
__
  6
CONTINUOUS
 62
     1
 10
-273.2348179102879
 20
-918.4825076609227
 30
0.0
 40
1.482293202727141
 50
99.22712892495429
 51
183.0033945545559
  0
LINE
  5
320
  8
_0-1_250
  6
CONTINUOUS
 62
     1
 10
-248.2300049792073
 20
-918.5601725928
 30
0.0
 11
-248.2300049792073
 21
-921.0194274216956
 31
0.0
  0
ARC
  5
321
  8
__
  6
CONTINUOUS
 62
     1
 10
-249.7102621518661
 20
-918.4825076609227
 30
0.0
 40
1.482293202727289
 50
356.9966054454441
 51
80.77287107504571
  0
LINE
  5
322
  8
_0-1_250
  6
CONTINUOUS
 62
     1
 10
-277.472540031077
 20
-932.0194274216956
 30
0.0
 11
-245.472540031077
 21
-932.0194274216956
 31
0.0
  0
LINE
  5
323
  8
_0-1_250
  6
CONTINUOUS
 62
     1
 10
-245.472540031077
 20
-921.0194274216956
 30
0.0
 11
-245.472540031077
 21
-932.0194274216956
 31
0.0
  0
LINE
  5
324
  8
_0-1_250
  6
CONTINUOUS
 62
     1
 10
-253.0470634047343
 20
-921.0194274216956
 30
0.0
 11
-253.0470634047343
 21
-932.0194274216956
 31
0.0
  0
LINE
  5
325
  8
_0-1_250
  6
CONTINUOUS
 62
     1
 10
-274.472540031077
 20
-932.0194274216956
 30
0.0
 11
-274.472540031077
 21
-946.0194274216956
 31
0.0
  0
LINE
  5
326
  8
_0-1_250
  6
CONTINUOUS
 62
     1
 10
-8.457427883506625
 20
-889.1236136927
 30
0.0
 11
-12.84466132981186
 21
-910.0192879063984
 31
0.0
  0
LINE
  5
327
  8
_0-1_250
  6
CONTINUOUS
 62
     1
 10
-50.63128716493651
 20
-910.0194276658594
 30
0.0
 11
-47.07201566337199
 21
-894.0194276658594
 31
0.0
  0
LINE
  5
328
  8
_0-1_250
  6
CONTINUOUS
 62
     1
 10
-42.0698301752268
 20
-921.0194274216956
 30
0.0
 11
-42.0698301752268
 21
-932.0194274216956
 31
0.0
  0
LINE
  5
329
  8
_0-1_250
  6
CONTINUOUS
 62
     1
 10
395.0
 20
-931.5014664455716
 30
0.0
 11
395.0
 21
-945.5014664455716
 31
0.0
  0
LINE
  5
32A
  8
_0-1_250
  6
CONTINUOUS
 62
     1
 10
-50.63128716493651
 20
-910.0194276658594
 30
0.0
 11
-12.84466132981186
 21
-910.0192879063984
 31
0.0
  0
LINE
  5
32B
  8
_0-1_250
  6
CONTINUOUS
 62
     1
 10
-70.06986870348464
 20
-917.0194798237585
 30
0.0
 11
-46.06986870363573
 21
-917.0193946616077
 31
0.0
  0
LINE
  5
32C
  8
_0-1_250
  6
CONTINUOUS
 62
     1
 10
-42.0698301752268
 20
-921.0194274216956
 30
0.0
 11
-74.0698301752268
 21
-921.0194274216956
 31
0.0
  0
LINE
  5
32D
  8
_0-1_250
  6
CONTINUOUS
 62
     1
 10
-52.18884993285855
 20
-910.0194276658594
 30
0.0
 11
-52.18884993285855
 21
-917.0194163743408
 31
0.0
  0
LINE
  5
32E
  8
_0-1_250
  6
CONTINUOUS
 62
     1
 10
-39.02201566337203
 20
-893.8694276658593
 30
0.0
 11
-10.15622475448004
 21
-888.3891391967213
 31
0.0
  0
LINE
  5
32F
  8
_0-1_250
  6
CONTINUOUS
 62
     1
 10
-39.02201566337203
 20
-893.8694276658593
 30
0.0
 11
-47.07201566337199
 21
-894.0194276658594
 31
0.0
  0
LINE
  5
330
  8
_0-1_250
  6
CONTINUOUS
 62
     1
 10
-8.457427883506625
 20
-889.1236136927
 30
0.0
 11
-10.15622475448004
 21
-888.3891391967213
 31
0.0
  0
LINE
  5
331
  8
_0-1_250
  6
CONTINUOUS
 62
     1
 10
-65.63128716493651
 20
-910.0194276658594
 30
0.0
 11
-69.07201566337199
 21
-894.0194276658594
 31
0.0
  0
LINE
  5
332
  8
_0-1_250
  6
CONTINUOUS
 62
     1
 10
-50.63128716493651
 20
-910.0194276658594
 30
0.0
 11
-65.63128716493651
 21
-910.0194276658594
 31
0.0
  0
LINE
  5
333
  8
_0-1_250
  6
CONTINUOUS
 62
     1
 10
-47.18782525726255
 20
-894.0194276658594
 30
0.0
 11
-53.3198301752268
 21
-892.6014099376152
 31
0.0
  0
LINE
  5
334
  8
_0-1_250
  6
CONTINUOUS
 62
     1
 10
-53.3198301752268
 20
-892.6014099376152
 30
0.0
 11
-62.8198301752268
 21
-892.6014099376152
 31
0.0
  0
LINE
  5
335
  8
_0-1_250
  6
CONTINUOUS
 62
     1
 10
-63.95081041759499
 20
-910.0194276658594
 30
0.0
 11
-63.95081041759499
 21
-917.0194581107517
 31
0.0
  0
LINE
  5
336
  8
_0-1_250
  6
CONTINUOUS
 62
     1
 10
-44.82729512335698
 20
-918.5601725928
 30
0.0
 11
-44.82729512335698
 21
-921.0194274216956
 31
0.0
  0
LINE
  5
337
  8
_0-1_250
  6
CONTINUOUS
 62
     1
 10
-49.64435354888417
 20
-921.0194274216956
 30
0.0
 11
-49.64435354888417
 21
-932.0194274216956
 31
0.0
  0
LINE
  5
338
  8
_0-1_250
  6
CONTINUOUS
 62
     1
 10
-47.07201566337199
 20
-894.0194276658594
 30
0.0
 11
-69.07201566337199
 21
-894.0194276658594
 31
0.0
  0
LINE
  5
339
  8
_0-1_250
  6
CONTINUOUS
 62
     1
 10
-53.3198301752268
 20
-892.1014099376152
 30
0.0
 11
-53.3198301752268
 21
-892.6014099376152
 31
0.0
  0
LINE
  5
33A
  8
_0-1_250
  6
CONTINUOUS
 62
     1
 10
-62.8198301752268
 20
-892.1014099376152
 30
0.0
 11
-62.8198301752268
 21
-892.6014099376152
 31
0.0
  0
LINE
  5
33B
  8
_0-1_250
  6
CONTINUOUS
 62
     1
 10
-47.07201566337199
 20
-894.0194276658594
 30
0.0
 11
-69.07201566337199
 21
-894.0194276658594
 31
0.0
  0
ARC
  5
33C
  8
__
  6
CONTINUOUS
 62
     1
 10
-58.0698301752268
 20
-901.9868835364096
 30
0.0
 40
10.96745587054989
 50
64.3355743611285
 51
115.6644256388715
  0
LINE
  5
33D
  8
_0-1_250
  6
CONTINUOUS
 62
     1
 10
-68.951835093191
 20
-894.0194276658594
 30
0.0
 11
-62.8198301752268
 21
-892.6014099376152
 31
0.0
  0
ARC
  5
33E
  8
__
  6
CONTINUOUS
 62
     1
 10
-46.30755229601584
 20
-918.4825076609227
 30
0.0
 40
1.482293202727289
 50
356.9966054454441
 51
80.77287107504571
  0
LINE
  5
33F
  8
_0-1_250
  6
CONTINUOUS
 62
     1
 10
-71.3123652270965
 20
-918.5601725928
 30
0.0
 11
-71.3123652270965
 21
-921.0194274216956
 31
0.0
  0
ARC
  5
340
  8
__
  6
CONTINUOUS
 62
     1
 10
-69.83210805443764
 20
-918.4825076609227
 30
0.0
 40
1.482293202727141
 50
99.22712892495429
 51
183.0033945545559
  0
LINE
  5
341
  8
_0-1_250
  6
CONTINUOUS
 62
     1
 10
424.0
 20
-931.5014664455716
 30
0.0
 11
392.0
 21
-931.5014664455716
 31
0.0
  0
LINE
  5
342
  8
_0-1_250
  6
CONTINUOUS
 62
     1
 10
-74.0698301752268
 20
-921.0194274216956
 30
0.0
 11
-74.0698301752268
 21
-932.0194274216956
 31
0.0
  0
LINE
  5
343
  8
_0-1_250
  6
CONTINUOUS
 62
     1
 10
-66.49530680156943
 20
-921.0194274216956
 30
0.0
 11
-66.49530680156943
 21
-932.0194274216956
 31
0.0
  0
LINE
  5
344
  8
_0-1_250
  6
CONTINUOUS
 62
     1
 10
421.0
 20
-931.5014664455716
 30
0.0
 11
421.0
 21
-945.5014664455716
 31
0.0
  0
LINE
  5
345
  8
_0-1_250
  6
CONTINUOUS
 62
     1
 10
-147.2698155301508
 20
-934.0194274216956
 30
0.0
 11
-147.2698155301508
 21
-946.0194274216956
 31
0.0
  0
LINE
  5
346
  8
_0-0_0
  6
CONTINUOUS
 62
     1
 10
-144.3732329352844
 20
-934.0194274216956
 30
0.0
 11
-175.1678232382843
 21
-934.0194274216956
 31
0.0
  0
LINE
  5
347
  8
_0-0_0
  6
CONTINUOUS
 62
     1
 10
-143.7705280867843
 20
-923.0194274216956
 30
0.0
 11
-143.7705280867843
 21
-934.0194274216956
 31
0.0
  0
LINE
  5
348
  8
_0-0_0
  6
CONTINUOUS
 62
     1
 10
-175.7705280867843
 20
-923.0194274216956
 30
0.0
 11
-175.7705280867843
 21
-934.0194274216956
 31
0.0
  0
LINE
  5
349
  8
_0-0_0
  6
CONTINUOUS
 62
     1
 10
-146.0112430577843
 20
-934.0194274216956
 30
0.0
 11
-158.5476945397357
 21
-934.0194274216956
 31
0.0
  0
LINE
  5
34A
  8
_0-0_0
  6
CONTINUOUS
 62
     1
 10
-158.5476945397357
 20
-934.0194274216956
 30
0.0
 11
-173.5298131157841
 21
-934.0194274216956
 31
0.0
  0
LINE
  5
34B
  8
_0-0_0
  6
CONTINUOUS
 62
     1
 10
-156.4945078417842
 20
-934.0194274216956
 30
0.0
 11
-143.7705280867843
 21
-934.0194274216956
 31
0.0
  0
LINE
  5
34C
  8
_0-0_0
  6
CONTINUOUS
 62
     1
 10
-175.7705280867843
 20
-934.0194274216956
 30
0.0
 11
-163.0465483317843
 21
-934.0194274216956
 31
0.0
  0
LINE
  5
34D
  8
_0-0_0
  6
CONTINUOUS
 62
     1
 10
-151.6173758090114
 20
-923.0195963364836
 30
0.0
 11
-151.6157807592491
 21
-934.0195963364836
 31
0.0
  0
LINE
  5
34E
  8
_0-0_0
  6
CONTINUOUS
 62
     1
 10
-159.7712406434181
 20
-924.1913666866953
 30
0.0
 11
-159.7698155301508
 21
-934.0194274216956
 31
0.0
  0
LINE
  5
34F
  8
_0-0_0
  6
CONTINUOUS
 62
     1
 10
-167.9236803645573
 20
-923.0195963364836
 30
0.0
 11
-167.9252754143196
 21
-934.0195963364836
 31
0.0
  0
LINE
  5
350
  8
_0-1_250
  6
CONTINUOUS
 62
     1
 10
-172.2718704209752
 20
-934.0194274216956
 30
0.0
 11
-172.2718704209752
 21
-946.0194274216956
 31
0.0
  0
LINE
  5
351
  8
_0-0_0
  6
CONTINUOUS
 62
     1
 10
431.4041325095901
 20
-973.0338498244255
 30
0.0
 11
384.4041325095901
 21
-973.0338498244255
 31
0.0
  0
LINE
  5
352
  8
_0-0_0
  6
CONTINUOUS
 62
     1
 10
389.5
 20
-945.5014664455716
 30
0.0
 11
426.5
 21
-945.5014664455716
 31
0.0
  0
LINE
  5
353
  8
_0-0_0
  6
CONTINUOUS
 62
     1
 10
389.5
 20
-945.5014664455716
 30
0.0
 11
384.4041325095901
 21
-973.0338498244255
 31
0.0
  0
LINE
  5
354
  8
_0-0_0
  6
CONTINUOUS
 62
     1
 10
426.5
 20
-945.5014664455716
 30
0.0
 11
431.4041325095901
 21
-973.0338498244255
 31
0.0
  0
LINE
  5
355
  8
_0-1_250
  6
CONTINUOUS
 62
     1
 10
415.4385430102902
 20
-909.5014666897359
 30
0.0
 11
418.9978145118547
 21
-893.5014666897359
 31
0.0
  0
LINE
  5
356
  8
_0-1_250
  6
CONTINUOUS
 62
     1
 10
423.9999999999999
 20
-920.5014664455716
 30
0.0
 11
423.9999999999999
 21
-931.5014664455716
 31
0.0
  0
LINE
  5
357
  8
_0-1_250
  6
CONTINUOUS
 62
     1
 10
395.9999614717419
 20
-916.501518847635
 30
0.0
 11
419.999961471591
 21
-916.5014336854838
 31
0.0
  0
LINE
  5
358
  8
_0-1_250
  6
CONTINUOUS
 62
     1
 10
413.8809802423682
 20
-909.5014666897359
 30
0.0
 11
413.8809802423682
 21
-916.5014553982173
 31
0.0
  0
LINE
  5
359
  8
_0-1_250
  6
CONTINUOUS
 62
     1
 10
400.4385430102902
 20
-909.5014666897359
 30
0.0
 11
396.9978145118546
 21
-893.5014666897359
 31
0.0
  0
LINE
  5
35A
  8
_0-1_250
  6
CONTINUOUS
 62
     1
 10
415.4385430102902
 20
-909.5014666897359
 30
0.0
 11
400.4385430102902
 21
-909.5014666897359
 31
0.0
  0
LINE
  5
35B
  8
_0-1_250
  6
CONTINUOUS
 62
     1
 10
418.8820049179642
 20
-893.5014666897359
 30
0.0
 11
412.7499999999999
 21
-892.0834489614913
 31
0.0
  0
LINE
  5
35C
  8
_0-1_250
  6
CONTINUOUS
 62
     1
 10
412.7499999999999
 20
-892.0834489614913
 30
0.0
 11
403.2499999999999
 21
-892.0834489614913
 31
0.0
  0
LINE
  5
35D
  8
_0-1_250
  6
CONTINUOUS
 62
     1
 10
402.1190197576317
 20
-909.5014666897359
 30
0.0
 11
402.1190197576317
 21
-916.5014971346277
 31
0.0
  0
LINE
  5
35E
  8
_0-1_250
  6
CONTINUOUS
 62
     1
 10
421.2425350518697
 20
-918.042211616676
 30
0.0
 11
421.2425350518697
 21
-920.5014664455716
 31
0.0
  0
LINE
  5
35F
  8
_0-1_250
  6
CONTINUOUS
 62
     1
 10
416.4254766263425
 20
-920.5014664455716
 30
0.0
 11
416.4254766263425
 21
-931.5014664455716
 31
0.0
  0
LINE
  5
360
  8
_0-1_250
  6
CONTINUOUS
 62
     1
 10
418.9978145118547
 20
-893.5014666897359
 30
0.0
 11
396.9978145118546
 21
-893.5014666897359
 31
0.0
  0
LINE
  5
361
  8
_0-1_250
  6
CONTINUOUS
 62
     1
 10
412.7499999999999
 20
-891.5834489614913
 30
0.0
 11
412.7499999999999
 21
-892.0834489614913
 31
0.0
  0
LINE
  5
362
  8
_0-1_250
  6
CONTINUOUS
 62
     1
 10
403.2499999999999
 20
-891.5834489614913
 30
0.0
 11
403.2499999999999
 21
-892.0834489614913
 31
0.0
  0
LINE
  5
363
  8
_0-1_250
  6
CONTINUOUS
 62
     1
 10
418.9978145118547
 20
-893.5014666897359
 30
0.0
 11
396.9978145118546
 21
-893.5014666897359
 31
0.0
  0
ARC
  5
364
  8
__
  6
CONTINUOUS
 62
     1
 10
407.9999999999999
 20
-901.4689225602856
 30
0.0
 40
10.96745587054989
 50
64.3355743611285
 51
115.6644256388715
  0
LINE
  5
365
  8
_0-1_250
  6
CONTINUOUS
 62
     1
 10
397.1179950820356
 20
-893.5014666897359
 30
0.0
 11
403.2499999999999
 21
-892.0834489614913
 31
0.0
  0
ARC
  5
366
  8
__
  6
CONTINUOUS
 62
     1
 10
419.7622778792108
 20
-917.9645466847992
 30
0.0
 40
1.482293202727265
 50
356.9966054454616
 51
80.7728710750485
  0
LINE
  5
367
  8
_0-1_250
  6
CONTINUOUS
 62
     1
 10
394.7574649481301
 20
-918.042211616676
 30
0.0
 11
394.7574649481301
 21
-920.5014664455716
 31
0.0
  0
ARC
  5
368
  8
__
  6
CONTINUOUS
 62
     1
 10
396.2377221207889
 20
-917.9645466847992
 30
0.0
 40
1.48229320272759
 50
99.22712892495147
 51
183.0033945545383
  0
LINE
  5
369
  8
_0-1_250
  6
CONTINUOUS
 62
     1
 10
392.0
 20
-920.5014664455716
 30
0.0
 11
392.0
 21
-931.5014664455716
 31
0.0
  0
LINE
  5
36A
  8
_0-1_250
  6
CONTINUOUS
 62
     1
 10
399.5745233736573
 20
-920.5014664455716
 30
0.0
 11
399.5745233736573
 21
-931.5014664455716
 31
0.0
  0
POLYLINE
  5
36B
  8
__
  6
CONTINUOUS
 62
     1
 66
     1
 10
0.0
 20
0.0
 30
0.0
 70
   129
  0
VERTEX
  5
36C
  8
__
  6
CONTINUOUS
 62
     1
 10
405.6885430102902
 20
-887.8713129410089
 30
0.0
  0
VERTEX
  5
36D
  8
__
  6
CONTINUOUS
 62
     1
 10
410.1885430102902
 20
-887.8713129410089
 30
0.0
  0
VERTEX
  5
36E
  8
__
  6
CONTINUOUS
 62
     1
 10
410.1885430102902
 20
-909.5014666897359
 30
0.0
  0
VERTEX
  5
36F
  8
__
  6
CONTINUOUS
 62
     1
 10
405.6885430102902
 20
-909.5014666897359
 30
0.0
  0
SEQEND
  5
370
  8
__
  6
CONTINUOUS
 62
     1
  0
LINE
  5
371
  8
__
  6
CONTINUOUS
 62
     1
 10
410.1885430102902
 20
-888.6057874369876
 30
0.0
 11
405.6885430102902
 21
-888.6057874369876
 31
0.0
  0
LINE
  5
372
  8
_0-1_250
  6
CONTINUOUS
 62
     1
 10
423.9999999999999
 20
-920.5014664455716
 30
0.0
 11
392.0
 21
-920.5014664455716
 31
0.0
  0
LINE
  5
373
  8
_0-1_250
  6
CONTINUOUS
 62
     1
 10
-71.0698301752268
 20
-932.0194274216956
 30
0.0
 11
-71.0698301752268
 21
-946.0194274216956
 31
0.0
  0
LINE
  5
374
  8
_0-1_250
  6
CONTINUOUS
 62
     1
 10
-42.0698301752268
 20
-932.0194274216956
 30
0.0
 11
-74.0698301752268
 21
-932.0194274216956
 31
0.0
  0
LINE
  5
375
  8
_0-1_250
  6
CONTINUOUS
 62
     1
 10
-45.0698301752268
 20
-932.0194274216956
 30
0.0
 11
-45.0698301752268
 21
-946.0194274216956
 31
0.0
  0
LINE
  5
376
  8
__
  6
HIDDEN
 62
    17
 10
-159.7711851031519
 20
-1023.884527288388
 30
0.0
 11
-159.7711851031519
 21
-703.8845272883882
 31
0.0
  0
LINE
  5
377
  8
__
  6
HIDDEN
 62
    17
 10
-58.0698301752268
 20
-1023.884527288388
 30
0.0
 11
-58.0698301752268
 21
-703.8845272883882
 31
0.0
  0
LINE
  5
378
  8
__
  6
HIDDEN
 62
    17
 10
408.0
 20
-1023.884527288388
 30
0.0
 11
408.0
 21
-703.8845272883882
 31
0.0
  0
LINE
  5
379
  8
__
  6
HIDDEN
 62
    17
 10
462.4703154519558
 20
-973.0338498244255
 30
0.0
 11
-327.8946047271925
 21
-973.0338498244255
 31
0.0
  0
ARC
  5
37A
  8
_0-0_0
  6
CONTINUOUS
 62
     1
 10
-159.7711851031518
 20
300.3616421556765
 30
0.0
 40
9.499999999999886
 50
0.0
 51
180.0
  0
LINE
  5
37B
  8
_0-0_0
  6
CONTINUOUS
 62
     1
 10
-169.2711851031518
 20
300.3616421556765
 30
0.0
 11
-169.2711851031518
 21
234.6571256513454
 31
0.0
  0
LINE
  5
37C
  8
_0-0_0
  6
CONTINUOUS
 62
     1
 10
-150.2711851031519
 20
210.3811054063455
 30
0.0
 11
-150.2711851031519
 21
213.6571256513454
 31
0.0
  0
LINE
  5
37D
  8
_0-0_0
  6
CONTINUOUS
 62
     1
 10
-150.2711851031519
 20
300.4187087922583
 30
0.0
 11
-150.2711851031519
 21
234.4816708798158
 31
0.0
  0
LINE
  5
37E
  8
_0-0_0
  6
CONTINUOUS
 62
     1
 10
-169.2711851031518
 20
210.3811054063455
 30
0.0
 11
-169.2711851031518
 21
213.6571256513454
 31
0.0
  0
LINE
  5
37F
  8
_0-0_0
  6
CONTINUOUS
 62
     1
 10
-143.7705280867843
 20
210.3811054063455
 30
0.0
 11
-175.7705280867841
 21
210.3811054063455
 31
0.0
  0
LINE
  5
380
  8
_0-0_0
  6
CONTINUOUS
 62
     1
 10
-148.8544728541902
 20
213.6571256513454
 30
0.0
 11
-170.6878973521134
 21
213.6571256513454
 31
0.0
  0
LINE
  5
381
  8
_0-0_0
  6
CONTINUOUS
 62
     1
 10
-147.7711851031519
 20
231.6571256513454
 30
0.0
 11
-171.7711851031518
 21
231.6571256513454
 31
0.0
  0
LINE
  5
382
  8
_0-0_0
  6
CONTINUOUS
 62
     1
 10
-148.8544728541902
 20
213.6571256513454
 30
0.0
 11
-147.7711851031519
 21
231.6571256513454
 31
0.0
  0
LINE
  5
383
  8
_0-0_0
  6
CONTINUOUS
 62
     1
 10
-170.6878973521134
 20
213.6571256513454
 30
0.0
 11
-171.7711851031518
 21
231.6571256513454
 31
0.0
  0
LINE
  5
384
  8
_0-0_0
  6
CONTINUOUS
 62
     1
 10
-148.7711851031519
 20
231.6571256513454
 30
0.0
 11
-150.2711851031519
 21
234.4816708798158
 31
0.0
  0
LINE
  5
385
  8
_0-0_0
  6
CONTINUOUS
 62
     1
 10
-170.7711851031518
 20
231.6571256513454
 30
0.0
 11
-169.2711851031518
 21
234.6571256513454
 31
0.0
  0
LINE
  5
386
  8
_0-0_0
  6
CONTINUOUS
 62
     1
 10
262.8447299664058
 20
231.6571256513454
 30
0.0
 11
238.8447299664058
 21
231.6571256513454
 31
0.0
  0
LINE
  5
387
  8
_0-0_0
  6
CONTINUOUS
 62
     1
 10
261.7614422153674
 20
213.6571256513454
 30
0.0
 11
262.8447299664058
 21
231.6571256513454
 31
0.0
  0
LINE
  5
388
  8
_0-0_0
  6
CONTINUOUS
 62
     1
 10
239.9280177174442
 20
213.6571256513454
 30
0.0
 11
238.8447299664058
 21
231.6571256513454
 31
0.0
  0
LINE
  5
389
  8
_0-0_0
  6
CONTINUOUS
 62
     1
 10
261.8447299664058
 20
231.6571256513454
 30
0.0
 11
260.3447299664058
 21
234.6571256513454
 31
0.0
  0
LINE
  5
38A
  8
_0-0_0
  6
CONTINUOUS
 62
     1
 10
239.8447299664058
 20
231.6571256513454
 30
0.0
 11
241.3447299664058
 21
234.6571256513454
 31
0.0
  0
LINE
  5
38B
  8
_0-0_0
  6
CONTINUOUS
 62
     1
 10
261.5723090238675
 20
213.6571256513454
 30
0.0
 11
239.9280177174442
 21
213.6571256513454
 31
0.0
  0
ARC
  5
38C
  8
_0-0_0
  6
CONTINUOUS
 62
     1
 10
294.9764366781558
 20
256.2453888363453
 30
0.0
 40
53.63170671174995
 50
74.05479200000018
 51
180.0
  0
LINE
  5
38D
  8
_0-0_0
  6
CONTINUOUS
 62
     1
 10
241.3447299664058
 20
256.2453888363453
 30
0.0
 11
241.3447299664058
 21
234.6571256513454
 31
0.0
  0
ARC
  5
38E
  8
_0-0_0
  6
CONTINUOUS
 62
     1
 10
363.7737266925001
 20
236.5892673663455
 30
0.0
 40
53.56937199507919
 50
3.955361149558163
 51
74.0547919999999
  0
LINE
  5
38F
  8
_0-0_0
  6
CONTINUOUS
 62
     1
 10
379.449588824526
 20
287.8137240483336
 30
0.0
 11
309.9656400883068
 21
307.6660312582485
 31
0.0
  0
LINE
  5
390
  8
_0-0_0
  6
CONTINUOUS
 62
     1
 10
373.287669441112
 20
269.888509166399
 30
0.0
 11
304.4904056349294
 21
289.544630636399
 31
0.0
  0
LINE
  5
391
  8
_0-0_0
  6
CONTINUOUS
 62
     1
 10
260.3447299664058
 20
256.2453888363453
 30
0.0
 11
260.3447299664058
 21
234.6571256513454
 31
0.0
  0
ARC
  5
392
  8
_0-0_0
  6
CONTINUOUS
 62
     1
 10
294.9764366781558
 20
256.2453888363453
 30
0.0
 40
34.63170671174992
 50
74.05479199999998
 51
180.0
  0
ARC
  5
393
  8
_0-0_0
  6
CONTINUOUS
 62
     1
 10
363.7737266925001
 20
236.5892673663455
 30
0.0
 40
34.62784746314342
 50
5.907672033813072
 51
74.05479199999996
  0
LINE
  5
394
  8
_0-0_0
  6
CONTINUOUS
 62
     1
 10
417.343236226802
 20
232.46123720359
 30
0.0
 11
417.3437547343841
 21
216.8990223089627
 31
0.0
  0
ARC
  5
395
  8
_0-0_0
  6
CONTINUOUS
 62
     1
 10
-159.7718421195194
 20
-248.7095654142979
 30
0.0
 40
9.499999999999886
 50
0.0
 51
180.0
  0
LINE
  5
396
  8
_0-0_0
  6
CONTINUOUS
 62
     1
 10
-169.2718421195194
 20
-248.7095654142979
 30
0.0
 11
-169.2718421195194
 21
-308.8544917741384
 31
0.0
  0
LINE
  5
397
  8
_0-0_0
  6
CONTINUOUS
 62
     1
 10
-150.2718421195195
 20
-358.0194274216955
 30
0.0
 11
-150.2718421195195
 21
-329.8544917741384
 31
0.0
  0
LINE
  5
398
  8
_0-0_0
  6
CONTINUOUS
 62
     1
 10
-150.2718421195195
 20
-250.1561638874746
 30
0.0
 11
-150.2718421195195
 21
-309.0299465456682
 31
0.0
  0
LINE
  5
399
  8
_0-0_0
  6
CONTINUOUS
 62
     1
 10
-169.2718421195194
 20
-358.0194274216955
 30
0.0
 11
-169.2718421195194
 21
-329.8544917741384
 31
0.0
  0
LINE
  5
39A
  8
_0-0_0
  6
CONTINUOUS
 62
     1
 10
-143.771185103152
 20
-358.0194274216955
 30
0.0
 11
-175.7711851031518
 21
-358.0194274216955
 31
0.0
  0
LINE
  5
39B
  8
_0-0_0
  6
CONTINUOUS
 62
     1
 10
-148.8551298705579
 20
-329.8544917741384
 30
0.0
 11
-170.6885543684811
 21
-329.8544917741384
 31
0.0
  0
LINE
  5
39C
  8
_0-0_0
  6
CONTINUOUS
 62
     1
 10
-147.7718421195195
 20
-311.8544917741384
 30
0.0
 11
-171.7718421195194
 21
-311.8544917741384
 31
0.0
  0
LINE
  5
39D
  8
_0-0_0
  6
CONTINUOUS
 62
     1
 10
-148.8551298705579
 20
-329.8544917741384
 30
0.0
 11
-147.7718421195195
 21
-311.8544917741384
 31
0.0
  0
LINE
  5
39E
  8
_0-0_0
  6
CONTINUOUS
 62
     1
 10
-170.6885543684811
 20
-329.8544917741384
 30
0.0
 11
-171.7718421195194
 21
-311.8544917741384
 31
0.0
  0
LINE
  5
39F
  8
_0-0_0
  6
CONTINUOUS
 62
     1
 10
-148.7718421195195
 20
-311.8544917741384
 30
0.0
 11
-150.2718421195195
 21
-309.0299465456682
 31
0.0
  0
LINE
  5
3A0
  8
_0-0_0
  6
CONTINUOUS
 62
     1
 10
-170.7718421195194
 20
-311.8544917741384
 30
0.0
 11
-169.2718421195194
 21
-308.8544917741384
 31
0.0
  0
LINE
  5
3A1
  8
__
  6
HIDDEN
 62
    17
 10
462.4703154519558
 20
-239.2095654370175
 30
0.0
 11
-327.8946047271925
 21
-239.2095654370175
 31
0.0
  0
LINE
  5
3A2
  8
_0-0_0
  6
CONTINUOUS
 62
     1
 10
215.7357243480828
 20
-329.8515114685241
 30
0.0
 11
193.9022998501595
 21
-329.8515114685241
 31
0.0
  0
LINE
  5
3A3
  8
_0-0_0
  6
CONTINUOUS
 62
     1
 10
216.8190120991211
 20
-311.8515114685241
 30
0.0
 11
192.8190120991211
 21
-311.8515114685241
 31
0.0
  0
LINE
  5
3A4
  8
_0-0_0
  6
CONTINUOUS
 62
     1
 10
215.7357243480828
 20
-329.8515114685241
 30
0.0
 11
216.8190120991211
 21
-311.8515114685241
 31
0.0
  0
LINE
  5
3A5
  8
_0-0_0
  6
CONTINUOUS
 62
     1
 10
193.9022998501595
 20
-329.8515114685241
 30
0.0
 11
192.8190120991211
 21
-311.8515114685241
 31
0.0
  0
LINE
  5
3A6
  8
_0-0_0
  6
CONTINUOUS
 62
     1
 10
215.8190120991211
 20
-311.8515114685241
 30
0.0
 11
214.3190120991211
 21
-308.8484462155692
 31
0.0
  0
LINE
  5
3A7
  8
_0-0_0
  6
CONTINUOUS
 62
     1
 10
193.8190120991211
 20
-311.8515114685241
 30
0.0
 11
195.3190120991211
 21
-308.8515114685241
 31
0.0
  0
LINE
  5
3A8
  8
_0-0_0
  6
CONTINUOUS
 62
     1
 10
274.0544635320772
 20
-244.3814858192368
 30
0.0
 11
384.6936907296109
 21
-287.8581647920702
 31
0.0
  0
ARC
  5
3A9
  8
_0-0_0
  6
CONTINUOUS
 62
     1
 10
250.6644646006352
 20
-294.5415003984259
 30
0.0
 40
36.34545250151375
 50
64.99999999999989
 51
179.9999999999982
  0
ARC
  5
3AA
  8
_0-0_0
  6
CONTINUOUS
 62
     1
 10
250.6644646006352
 20
-294.5415003984259
 30
0.0
 40
55.34545250151385
 50
65.00000000000021
 51
179.9999999999984
  0
LINE
  5
3AB
  8
_0-0_0
  6
CONTINUOUS
 62
     1
 10
195.3190120991211
 20
-309.2835915009247
 30
0.0
 11
195.3190120991211
 21
-294.5415003984245
 31
0.0
  0
LINE
  5
3AC
  8
_0-0_0
  6
CONTINUOUS
 62
     1
 10
266.0247165590041
 20
-261.6013337729333
 30
0.0
 11
376.8265363490174
 21
-305.1500646943003
 31
0.0
  0
LINE
  5
3AD
  8
_0-0_0
  6
CONTINUOUS
 62
     1
 10
214.3190120991211
 20
-309.2835915009247
 30
0.0
 11
214.3190120991211
 21
-294.5415003984252
 31
0.0
  0
ARC
  5
3AE
  8
_0-0_0
  6
CONTINUOUS
 62
     1
 10
362.1353177155817
 20
-338.3974461925737
 30
0.0
 40
55.34527222373536
 50
10.8839109897426
 51
65.96884926579095
  0
ARC
  5
3AF
  8
_0-0_0
  6
CONTINUOUS
 62
     1
 10
362.1353177155817
 20
-338.3974461925734
 30
0.0
 40
36.34859394016667
 50
0.0000000000003411
 51
6.357113280496152
  0
ARC
  5
3B0
  8
_0-0_0
  6
CONTINUOUS
 62
     1
 10
362.1353177155817
 20
-338.3974461925734
 30
0.0
 40
36.34859394016668
 50
15.79832147106907
 51
66.16051702532204
  0
LINE
  5
3B1
  8
_0-0_0
  6
CONTINUOUS
 62
     1
 10
417.4809887937361
 20
-335.3200562463995
 30
0.0
 11
417.4809887937361
 21
-351.5014426238644
 31
0.0
  0
LINE
  5
3B2
  8
_0-0_0
  6
CONTINUOUS
 62
     1
 10
398.4839116557483
 20
-338.3974461925734
 30
0.0
 11
398.4839116557483
 21
-351.501510033529
 31
0.0
  0
ARC
  5
3B3
  8
_0-0_0
  6
CONTINUOUS
 62
     1
 10
-159.7718421195194
 20
-794.2797054725875
 30
0.0
 40
9.499999999999886
 50
0.0
 51
180.0
  0
LINE
  5
3B4
  8
_0-0_0
  6
CONTINUOUS
 62
     1
 10
-169.2718421195194
 20
-794.2797054725875
 30
0.0
 11
-169.2718421195194
 21
-854.6038211088176
 31
0.0
  0
LINE
  5
3B5
  8
_0-0_0
  6
CONTINUOUS
 62
     1
 10
-150.2718421195195
 20
-923.0194274216956
 30
0.0
 11
-150.2718421195195
 21
-875.4372456067408
 31
0.0
  0
LINE
  5
3B6
  8
_0-0_0
  6
CONTINUOUS
 62
     1
 10
-150.2718421195195
 20
-793.9300362485342
 30
0.0
 11
-150.2718421195195
 21
-854.455867031747
 31
0.0
  0
LINE
  5
3B7
  8
_0-0_0
  6
CONTINUOUS
 62
     1
 10
-169.2718421195194
 20
-923.0194274216956
 30
0.0
 11
-169.2718421195194
 21
-875.4372456067408
 31
0.0
  0
LINE
  5
3B8
  8
_0-0_0
  6
CONTINUOUS
 62
     1
 10
-143.771185103152
 20
-923.0194274216956
 30
0.0
 11
-175.7711851031518
 21
-923.0194274216956
 31
0.0
  0
LINE
  5
3B9
  8
_0-0_0
  6
CONTINUOUS
 62
     1
 10
-148.7718421195195
 20
-875.4372456067408
 30
0.0
 11
-170.7718421195194
 21
-875.4372456067408
 31
0.0
  0
LINE
  5
3BA
  8
_0-0_0
  6
CONTINUOUS
 62
     1
 10
-147.6885543684812
 20
-857.4372456067408
 30
0.0
 11
-171.6885543684811
 21
-857.4372456067408
 31
0.0
  0
LINE
  5
3BB
  8
_0-0_0
  6
CONTINUOUS
 62
     1
 10
-148.7718421195195
 20
-875.4372456067408
 30
0.0
 11
-147.6885543684812
 21
-857.4372456067408
 31
0.0
  0
LINE
  5
3BC
  8
_0-0_0
  6
CONTINUOUS
 62
     1
 10
-170.6052666174427
 20
-875.4372456067408
 30
0.0
 11
-171.6885543684811
 21
-857.4372456067408
 31
0.0
  0
LINE
  5
3BD
  8
_0-0_0
  6
CONTINUOUS
 62
     1
 10
-148.6885543684812
 20
-857.4372456067408
 30
0.0
 11
-150.2718421195195
 21
-854.455867031747
 31
0.0
  0
LINE
  5
3BE
  8
_0-0_0
  6
CONTINUOUS
 62
     1
 10
-170.6885543684811
 20
-857.4372456067408
 30
0.0
 11
-169.2718421195194
 21
-854.6038211088176
 31
0.0
  0
LINE
  5
3BF
  8
__
  6
HIDDEN
 62
    17
 10
462.4703154519558
 20
-784.7797054725875
 30
0.0
 11
-327.8946047271925
 21
-784.7797054725875
 31
0.0
  0
LINE
  5
3C0
  8
_0-0_0
  6
CONTINUOUS
 62
     1
 10
164.9172922740149
 20
-874.9709491619074
 30
0.0
 11
143.0838677760917
 21
-874.9709491619074
 31
0.0
  0
LINE
  5
3C1
  8
_0-0_0
  6
CONTINUOUS
 62
     1
 10
166.0005800250533
 20
-856.9709491619074
 30
0.0
 11
142.0005800250533
 21
-856.9709491619074
 31
0.0
  0
LINE
  5
3C2
  8
_0-0_0
  6
CONTINUOUS
 62
     1
 10
164.9172922740149
 20
-874.9709491619074
 30
0.0
 11
166.0005800250533
 21
-856.9709491619074
 31
0.0
  0
LINE
  5
3C3
  8
_0-0_0
  6
CONTINUOUS
 62
     1
 10
143.0838677760917
 20
-874.9709491619074
 30
0.0
 11
142.0005800250533
 21
-856.9709491619074
 31
0.0
  0
LINE
  5
3C4
  8
_0-0_0
  6
CONTINUOUS
 62
     1
 10
143.0005800250533
 20
-856.9709491619074
 30
0.0
 11
144.5005800250533
 21
-854.1363646138775
 31
0.0
  0
ARC
  5
3C5
  8
_0-0_0
  6
CONTINUOUS
 62
     1
 10
199.8648634550541
 20
-839.6609380918089
 30
0.0
 40
55.36428343000057
 50
65.00000000000026
 51
179.9999999999986
  0
LINE
  5
3C6
  8
_0-0_0
  6
CONTINUOUS
 62
     1
 10
223.2628206807601
 20
-789.4838568954951
 30
0.0
 11
384.7020478782936
 21
-852.3777820357259
 31
0.0
  0
LINE
  5
3C7
  8
_0-0_0
  6
CONTINUOUS
 62
     1
 10
215.3120892547754
 20
-806.7344930704603
 30
0.0
 11
376.8881332471258
 21
-869.6922169298787
 31
0.0
  0
LINE
  5
3C8
  8
_0-0_0
  6
CONTINUOUS
 62
     1
 10
163.5005800250533
 20
-854.1363646138775
 30
0.0
 11
163.5005800250533
 21
-839.6609380918085
 31
0.0
  0
LINE
  5
3C9
  8
_0-0_0
  6
CONTINUOUS
 62
     1
 10
144.5005800250533
 20
-854.1363646138775
 30
0.0
 11
144.5005800250533
 21
-839.6609380918076
 31
0.0
  0
ARC
  5
3CA
  8
_0-0_0
  6
CONTINUOUS
 62
     1
 10
199.8648634550541
 20
-839.6609380918089
 30
0.0
 40
36.36428343000048
 50
65.00000000000037
 51
179.9999999999986
  0
LINE
  5
3CB
  8
_0-0_0
  6
CONTINUOUS
 62
     1
 10
398.5040899997296
 20
-902.9341300533542
 30
0.0
 11
398.5040899997296
 21
-916.5015099619277
 31
0.0
  0
LINE
  5
3CC
  8
_0-0_0
  6
CONTINUOUS
 62
     1
 10
417.499817155084
 20
-900.2354170775602
 30
0.0
 11
417.499817155084
 21
-916.5014425570535
 31
0.0
  0
ARC
  5
3CD
  8
_0-0_0
  6
CONTINUOUS
 62
     1
 10
362.1357165700008
 20
-902.9341300533542
 30
0.0
 40
36.36837342972876
 50
0.000000000000739
 51
4.743444990765909
  0
ARC
  5
3CE
  8
_0-0_0
  6
CONTINUOUS
 62
     1
 10
362.1357165700008
 20
-902.9341300533542
 30
0.0
 40
36.36837342972873
 50
15.03235452020039
 51
66.1605170253211
  0
ARC
  5
3CF
  8
_0-0_0
  6
CONTINUOUS
 62
     1
 10
362.1357165700008
 20
-902.9341300533547
 30
0.0
 40
55.36410058508317
 50
10.36522127464213
 51
65.96884926579102
  0
LINE
  5
3D0
  8
_0-0_0
  6
CONTINUOUS
 62
     1
 10
165.0005800250533
 20
-856.9709491619074
 30
0.0
 11
163.5005800250533
 21
-854.1363646138775
 31
0.0
  0
LINE
  5
3D1
  8
__
  6
HIDDEN
 62
    17
 10
154.0005800250533
 20
-1023.884527288388
 30
0.0
 11
154.0005800250533
 21
-703.8845272883882
 31
0.0
  0
LINE
  5
3D2
  8
__
  6
HIDDEN
 62
    17
 10
250.7501633706559
 20
109.5160055396528
 30
0.0
 11
250.7501633706559
 21
429.5160055396527
 31
0.0
  0
LINE
  5
3D3
  8
__
  6
HIDDEN
 62
    17
 10
204.8190120991211
 20
-458.8845272883882
 30
0.0
 11
204.8190120991211
 21
-138.8845272883882
 31
0.0
  0
DIMENSION
  5
3D4
  8
__-1
  6
CONTINUOUS
 62
    17
  2
*D4
 10
-261.5698301752268
 20
333.4781850032241
 30
0.0
 11
-159.8198301752268
 21
333.4781850032241
 31
0.0
 70
    32
  3
STANDARD-1
 13
-58.0698301752268
 23
309.8616421556763
 33
0.0
 14
-261.5698301752268
 24
309.8616421556763
 34
0.0
  0
DIMENSION
  5
3D6
  8
__-1
  6
CONTINUOUS
 62
    17
  2
*D5
 10
199.2735070229265
 20
309.8616421556763
 30
0.0
 11
199.2735070229265
 21
235.1141625796458
 31
0.0
 70
    32
  3
STANDARD-1
 13
250.7501633706559
 23
160.3666830036153
 33
0.0
 14
250.7501633706559
 24
309.8616421556763
 34
0.0
 50
-90.0
  0
DIMENSION
  5
3D8
  8
__-1
  6
CONTINUOUS
 62
    17
  2
*D6
 10
250.7501633706559
 20
326.316737119951
 30
0.0
 11
329.3750816853279
 21
326.316737119951
 31
0.0
 70
    32
  3
STANDARD-1
 13
408.0
 23
309.8616421556763
 33
0.0
 14
250.7501633706559
 24
309.8616421556763
 34
0.0
  0
DIMENSION
  5
3DA
  8
__-1
  6
CONTINUOUS
 62
    17
  2
*D7
 10
-261.5698301752268
 20
-208.0
 30
0.0
 11
-159.8198301752268
 21
-208.0
 31
0.0
 70
    32
  3
STANDARD-1
 13
-58.0698301752268
 23
-239.2095654370175
 33
0.0
 14
-261.5698301752268
 24
-239.2095654370175
 34
0.0
  0
DIMENSION
  5
3DC
  8
__-1
  6
CONTINUOUS
 62
    17
  2
*D8
 10
167.0
 20
-239.2095654370175
 30
0.0
 11
167.0
 21
-323.6217076307216
 31
0.0
 70
    32
  3
STANDARD-1
 13
204.8190120991211
 23
-408.0338498244256
 33
0.0
 14
204.8190120991211
 24
-239.2095654370175
 34
0.0
 50
-90.0
  0
DIMENSION
  5
3DE
  8
__-1
  6
CONTINUOUS
 62
    17
  2
*D9
 10
204.8190120991211
 20
-208.0
 30
0.0
 11
306.4095060495605
 21
-208.0
 31
0.0
 70
    32
  3
STANDARD-1
 13
408.0
 23
-239.2095654370175
 33
0.0
 14
204.8190120991211
 24
-239.2095654370175
 34
0.0
  0
DIMENSION
  5
3E0
  8
__-1
  6
CONTINUOUS
 62
    17
  2
*D10
 10
-261.5698301752268
 20
-762.155661508574
 30
0.0
 11
-159.8198301752268
 21
-762.155661508574
 31
0.0
 70
    32
  3
STANDARD-1
 13
-58.0698301752268
 23
-784.7797054725875
 33
0.0
 14
-261.5698301752268
 24
-784.7797054725875
 34
0.0
  0
DIMENSION
  5
3E2
  8
__-1
  6
CONTINUOUS
 62
    17
  2
*D11
 10
118.0
 20
-784.7797054725875
 30
0.0
 11
118.0
 21
-878.9067776485065
 31
0.0
 70
    32
  3
STANDARD-1
 13
154.0005800250533
 23
-973.0338498244255
 33
0.0
 14
154.0005800250533
 24
-784.7797054725875
 34
0.0
 50
-90.0
  0
DIMENSION
  5
3E4
  8
__-1
  6
CONTINUOUS
 62
    17
  2
*D12
 10
154.0005800250533
 20
-762.155661508574
 30
0.0
 11
281.0002900125266
 21
-762.155661508574
 31
0.0
 70
    32
  3
STANDARD-1
 13
408.0
 23
-784.7797054725875
 33
0.0
 14
154.0005800250533
 24
-784.7797054725875
 34
0.0
  0
DIMENSION
  5
3E6
  8
__-1
  6
CONTINUOUS
 62
    17
  2
*D13
 10
384.4041325095901
 20
-430.5
 30
0.0
 11
407.9041325095901
 21
-430.5
 31
0.0
 70
    32
  3
STANDARD-1
 13
431.4041325095901
 23
-408.0338498244256
 33
0.0
 14
384.4041325095901
 24
-408.0338498244256
 34
0.0
  0
DIMENSION
  5
3E8
  8
__-1
  6
CONTINUOUS
 62
    17
  2
*D14
 10
384.4041325095901
 20
-997.0
 30
0.0
 11
407.9041325095901
 21
-997.0
 31
0.0
 70
    32
  3
STANDARD-1
 13
431.4041325095901
 23
-973.0338498244255
 33
0.0
 14
384.4041325095901
 24
-973.0338498244255
 34
0.0
  0
DIMENSION
  5
3EA
  8
__-1
  6
CONTINUOUS
 62
    17
  2
*D15
 10
384.4041325095901
 20
132.0
 30
0.0
 11
407.9041325095901
 21
132.0
 31
0.0
 70
    32
  3
STANDARD-1
 13
431.4041325095901
 23
160.3666830036153
 33
0.0
 14
384.4041325095901
 24
160.3666830036153
 34
0.0
  0
LINE
  5
3EC
  8
_0-1_250
  6
CONTINUOUS
 62
     1
 10
-33.77118510315185
 20
-973.0338498244255
 30
0.0
 11
-285.7711851031519
 21
-973.0338498244255
 31
0.0
  0
LINE
  5
3ED
  8
_0-1_250
  6
CONTINUOUS
 62
     1
 10
-39.00082612624078
 20
-946.0194274216956
 30
0.0
 11
-280.541544080063
 21
-946.0194274216956
 31
0.0
  0
LINE
  5
3EE
  8
_0-1_250
  6
CONTINUOUS
 62
     1
 10
-280.541544080063
 20
-946.0194274216956
 30
0.0
 11
-285.7711851031519
 21
-973.0338498244255
 31
0.0
  0
LINE
  5
3EF
  8
_0-1_250
  6
CONTINUOUS
 62
     1
 10
-33.77118510315185
 20
-973.0338498244255
 30
0.0
 11
-39.00082612624078
 21
-946.0194274216956
 31
0.0
  0
LINE
  5
3F0
  8
_0-1_250
  6
CONTINUOUS
 62
     1
 10
-33.77118510315188
 20
-408.0338498244256
 30
0.0
 11
-285.7711851031519
 21
-408.0338498244256
 31
0.0
  0
LINE
  5
3F1
  8
_0-1_250
  6
CONTINUOUS
 62
     1
 10
-39.00082612624081
 20
-381.0194274216957
 30
0.0
 11
-280.541544080063
 21
-381.0194274216957
 31
0.0
  0
LINE
  5
3F2
  8
_0-1_250
  6
CONTINUOUS
 62
     1
 10
-280.541544080063
 20
-381.0194274216957
 30
0.0
 11
-285.7711851031519
 21
-408.0338498244256
 31
0.0
  0
LINE
  5
3F3
  8
_0-1_250
  6
CONTINUOUS
 62
     1
 10
-33.77118510315188
 20
-408.0338498244256
 30
0.0
 11
-39.00082612624081
 21
-381.0194274216957
 31
0.0
  0
LINE
  5
3F4
  8
_0-1_250
  6
CONTINUOUS
 62
     1
 10
-33.77118510315185
 20
160.3666830036153
 30
0.0
 11
-285.7711851031519
 21
160.3666830036153
 31
0.0
  0
LINE
  5
3F5
  8
_0-1_250
  6
CONTINUOUS
 62
     1
 10
-39.00082612624078
 20
187.3811054063453
 30
0.0
 11
-280.541544080063
 21
187.3811054063453
 31
0.0
  0
LINE
  5
3F6
  8
_0-1_250
  6
CONTINUOUS
 62
     1
 10
-280.541544080063
 20
187.3811054063453
 30
0.0
 11
-285.7711851031519
 21
160.3666830036153
 31
0.0
  0
LINE
  5
3F7
  8
_0-1_250
  6
CONTINUOUS
 62
     1
 10
-33.77118510315185
 20
160.3666830036153
 30
0.0
 11
-39.00082612624078
 21
187.3811054063453
 31
0.0
  0
DIMENSION
  5
3F8
  8
__-1
  6
CONTINUOUS
 62
    17
  2
*D16
 10
-285.7711851031519
 20
-433.0
 30
0.0
 11
-159.7711851031519
 21
-433.0
 31
0.0
 70
    32
  3
STANDARD-1
 13
-33.77118510315188
 23
-408.0338498244256
 33
0.0
 14
-285.7711851031519
 24
-408.0338498244256
 34
0.0
  0
DIMENSION
  5
3FA
  8
__-1
  6
CONTINUOUS
 62
    17
  2
*D17
 10
-285.7711851031519
 20
-998.0
 30
0.0
 11
-159.7711851031519
 21
-998.0
 31
0.0
 70
    32
  3
STANDARD-1
 13
-33.77118510315185
 23
-973.0338498244255
 33
0.0
 14
-285.7711851031519
 24
-973.0338498244255
 34
0.0
  0
DIMENSION
  5
3FC
  8
__-1
  6
CONTINUOUS
 62
    17
  2
*D18
 10
-285.7711851031519
 20
135.400532828041
 30
0.0
 11
-159.7711851031519
 21
135.400532828041
 31
0.0
 70
    32
  3
STANDARD-1
 13
-33.77118510315185
 23
160.3666830036153
 33
0.0
 14
-285.7711851031519
 24
160.3666830036153
 34
0.0
  0
LINE
  5
3FE
  8
_0-0_0
  6
HIDDEN
 62
     1
 10
-48.0698301752268
 20
-453.0338498244256
 30
0.0
 11
-68.0698301752268
 21
-453.0338498244256
 31
0.0
  0
LINE
  5
3FF
  8
_0-0_0
  6
HIDDEN
 62
     1
 10
-68.0698301752268
 20
-408.0338498244256
 30
0.0
 11
-68.0698301752268
 21
-453.0338498244256
 31
0.0
  0
LINE
  5
400
  8
_0-0_0
  6
HIDDEN
 62
     1
 10
-48.0698301752268
 20
-408.0338498244256
 30
0.0
 11
-48.0698301752268
 21
-453.0338498244256
 31
0.0
  0
LINE
  5
401
  8
_0-0_0
  6
HIDDEN
 62
     1
 10
-251.472540031077
 20
-453.0338498244256
 30
0.0
 11
-271.472540031077
 21
-453.0338498244256
 31
0.0
  0
LINE
  5
402
  8
_0-0_0
  6
HIDDEN
 62
     1
 10
-271.472540031077
 20
-408.0338498244256
 30
0.0
 11
-271.472540031077
 21
-453.0338498244256
 31
0.0
  0
LINE
  5
403
  8
_0-0_0
  6
HIDDEN
 62
     1
 10
-251.472540031077
 20
-408.0338498244256
 30
0.0
 11
-251.472540031077
 21
-453.0338498244256
 31
0.0
  0
LINE
  5
404
  8
_0-0_0
  6
HIDDEN
 62
     1
 10
-48.0698301752268
 20
115.3666830036153
 30
0.0
 11
-68.0698301752268
 21
115.3666830036153
 31
0.0
  0
LINE
  5
405
  8
_0-0_0
  6
HIDDEN
 62
     1
 10
-68.0698301752268
 20
160.3666830036153
 30
0.0
 11
-68.0698301752268
 21
115.3666830036153
 31
0.0
  0
LINE
  5
406
  8
_0-0_0
  6
HIDDEN
 62
     1
 10
-48.0698301752268
 20
160.3666830036153
 30
0.0
 11
-48.0698301752268
 21
115.3666830036153
 31
0.0
  0
LINE
  5
407
  8
_0-0_0
  6
HIDDEN
 62
     1
 10
-251.472540031077
 20
115.3666830036153
 30
0.0
 11
-271.472540031077
 21
115.3666830036153
 31
0.0
  0
LINE
  5
408
  8
_0-0_0
  6
HIDDEN
 62
     1
 10
-271.472540031077
 20
160.3666830036153
 30
0.0
 11
-271.472540031077
 21
115.3666830036153
 31
0.0
  0
LINE
  5
409
  8
_0-0_0
  6
HIDDEN
 62
     1
 10
-251.472540031077
 20
160.3666830036153
 30
0.0
 11
-251.472540031077
 21
115.3666830036153
 31
0.0
  0
LINE
  5
40A
  8
_0-0_0
  6
HIDDEN
 62
     1
 10
-48.0698301752268
 20
-1018.033849824425
 30
0.0
 11
-68.0698301752268
 21
-1018.033849824425
 31
0.0
  0
LINE
  5
40B
  8
_0-0_0
  6
HIDDEN
 62
     1
 10
-68.0698301752268
 20
-973.0338498244255
 30
0.0
 11
-68.0698301752268
 21
-1018.033849824425
 31
0.0
  0
LINE
  5
40C
  8
_0-0_0
  6
HIDDEN
 62
     1
 10
-48.0698301752268
 20
-973.0338498244255
 30
0.0
 11
-48.0698301752268
 21
-1018.033849824425
 31
0.0
  0
LINE
  5
40D
  8
_0-0_0
  6
HIDDEN
 62
     1
 10
-251.472540031077
 20
-1018.033849824425
 30
0.0
 11
-271.472540031077
 21
-1018.033849824425
 31
0.0
  0
LINE
  5
40E
  8
_0-0_0
  6
HIDDEN
 62
     1
 10
-271.472540031077
 20
-973.0338498244255
 30
0.0
 11
-271.472540031077
 21
-1018.033849824425
 31
0.0
  0
LINE
  5
40F
  8
_0-0_0
  6
HIDDEN
 62
     1
 10
-251.472540031077
 20
-973.0338498244255
 30
0.0
 11
-251.472540031077
 21
-1018.033849824425
 31
0.0
  0
LINE
  5
410
  8
_0-0_0
  6
HIDDEN
 62
     1
 10
418.0
 20
-1018.033849824425
 30
0.0
 11
398.0
 21
-1018.033849824425
 31
0.0
  0
LINE
  5
411
  8
_0-0_0
  6
HIDDEN
 62
     1
 10
398.0
 20
-973.0338498244255
 30
0.0
 11
398.0
 21
-1018.033849824425
 31
0.0
  0
LINE
  5
412
  8
_0-0_0
  6
HIDDEN
 62
     1
 10
418.0
 20
-973.0338498244255
 30
0.0
 11
418.0
 21
-1018.033849824425
 31
0.0
  0
LINE
  5
413
  8
_0-0_0
  6
HIDDEN
 62
     1
 10
418.0
 20
-453.0338498244256
 30
0.0
 11
398.0
 21
-453.0338498244256
 31
0.0
  0
LINE
  5
414
  8
_0-0_0
  6
HIDDEN
 62
     1
 10
398.0
 20
-408.0338498244256
 30
0.0
 11
398.0
 21
-453.0338498244256
 31
0.0
  0
LINE
  5
415
  8
_0-0_0
  6
HIDDEN
 62
     1
 10
418.0
 20
-408.0338498244256
 30
0.0
 11
418.0
 21
-453.0338498244256
 31
0.0
  0
LINE
  5
416
  8
_0-0_0
  6
HIDDEN
 62
     1
 10
418.0
 20
115.3666830036153
 30
0.0
 11
398.0
 21
115.3666830036153
 31
0.0
  0
LINE
  5
417
  8
_0-0_0
  6
HIDDEN
 62
     1
 10
398.0
 20
160.3666830036153
 30
0.0
 11
398.0
 21
115.3666830036153
 31
0.0
  0
LINE
  5
418
  8
_0-0_0
  6
HIDDEN
 62
     1
 10
418.0
 20
160.3666830036153
 30
0.0
 11
418.0
 21
115.3666830036153
 31
0.0
  0
TEXT
  5
419
  8
__-3
 62
     2
 10
347.5044973773401
 20
82.6942681765176
 30
0.0
 40
5.31004050925926
  1
ネジ：R1/2
  7
YUGOTHIC_MEDIUM
 11
347.5044973773401
 21
81.17711374530066
 31
0.0
 73
     1
  0
LINE
  5
41A
  8
__-3
 62
     2
 10
408.0
 20
115.3666830036153
 30
0.0
 11
387.1800007392382
 21
79.30538647042593
 31
0.0
  0
LINE
  5
41B
  8
__-3
 62
     2
 10
387.1800007392382
 20
79.30538647042593
 30
0.0
 11
347.5044973773401
 21
79.30538647042593
 31
0.0
  0
TEXT
  5
41C
  8
__-3
 62
     2
 10
347.5044973773401
 20
-485.7062646515234
 30
0.0
 40
5.31004050925926
  1
ネジ：R1/2
  7
YUGOTHIC_MEDIUM
 11
347.5044973773401
 21
-487.2234190827403
 31
0.0
 73
     1
  0
LINE
  5
41D
  8
__-3
 62
     2
 10
408.0
 20
-453.0338498244256
 30
0.0
 11
387.1800007392382
 21
-489.095146357615
 31
0.0
  0
LINE
  5
41E
  8
__-3
 62
     2
 10
387.1800007392382
 20
-489.095146357615
 30
0.0
 11
347.5044973773401
 21
-489.095146357615
 31
0.0
  0
TEXT
  5
41F
  8
__-3
 62
     2
 10
347.5044973773401
 20
-1050.706264651523
 30
0.0
 40
5.31004050925926
  1
ネジ：R1/2
  7
YUGOTHIC_MEDIUM
 11
347.5044973773401
 21
-1052.22341908274
 31
0.0
 73
     1
  0
LINE
  5
420
  8
__-3
 62
     2
 10
408.0
 20
-1018.033849824425
 30
0.0
 11
387.1800007392382
 21
-1054.095146357615
 31
0.0
  0
LINE
  5
421
  8
__-3
 62
     2
 10
387.1800007392382
 20
-1054.095146357615
 30
0.0
 11
347.5044973773401
 21
-1054.095146357615
 31
0.0
  0
INSERT
  5
422
  8
__
 62
    17
  2
____-4-1
 10
62.91898396813508
 20
267.1473011405615
 30
0.0
  0
INSERT
  5
423
  8
__
 62
    17
  2
____-5-1
 10
62.91898396813508
 20
267.1473011405615
 30
0.0
  0
INSERT
  5
424
  8
__
 62
    17
  2
____-6-1
 10
62.91898396813508
 20
267.1473011405615
 30
0.0
  0
VIEWPORT
  5
425
 67
     1
  8
0
 10
128.5
 20
97.5
 30
0.0
 40
314.226
 41
222.18
 68
     1
 69
     1
1001
ACAD
1000
MVIEW
1002
{
1070
    16
1010
0.0
1020
0.0
1030
0.0
1010
0.0
1020
0.0
1030
1.0
1040
0.0
1040
222.18
1040
128.5
1040
97.5
1040
50.0
1040
0.0
1040
0.0
1070
     0
1070
   100
1070
     0
1070
     3
1070
     0
1070
     0
1070
     0
1070
     0
1040
0.0
1040
0.0
1040
0.0
1040
10.0
1040
10.0
1040
10.0
1040
10.0
1070
     0
1002
{
1002
}
1002
}
  0
ENDSEC
  0
EOF
