  0
SECTION
  2
HEADER
  9
$ACADVER
  1
AC1009
  9
$DWGCODEPAGE
  3
dos932
  9
$INSBASE
 10
0.0
 20
0.0
 30
0.0
  9
$EXTMIN
 10
-311.3852639520677
 20
-1123.260152577858
 30
-11.37242666666667
  9
$EXTMAX
 10
450.151869786672
 20
529.8719325027325
 30
11.37242666666667
  9
$LIMMIN
 10
0.0
 20
0.0
  9
$LIMMAX
 10
12.0
 20
9.0
  9
$ORTHOMODE
 70
     0
  9
$REGENMODE
 70
     1
  9
$FILLMODE
 70
     1
  9
$QTEXTMODE
 70
     0
  9
$MIRRTEXT
 70
     1
  9
$DRAGMODE
 70
     2
  9
$LTSCALE
 40
2.54
  9
$OSMODE
 70
    37
  9
$ATTMODE
 70
     1
  9
$TEXTSIZE
 40
0.2
  9
$TRACEWID
 40
1.0
  9
$TEXTSTYLE
  7
STANDARD
  9
$CLAYER
  8
__
  9
$CELTYPE
  6
BYLAYER
  9
$CECOLOR
 62
   256
  9
$DIMSCALE
 40
1.0
  9
$DIMASZ
 40
0.00775146484375
  9
$DIMEXO
 40
0.003125
  9
$DIMDLI
 40
0.019
  9
$DIMRND
 40
0.0
  9
$DIMDLE
 40
0.0
  9
$DIMEXE
 40
0.009
  9
$DIMTP
 40
0.0
  9
$DIMTM
 40
0.0
  9
$DIMTXT
 40
3.813491030092584
  9
$DIMCEN
 40
0.0
  9
$DIMTSZ
 40
0.0
  9
$DIMTOL
 70
     0
  9
$DIMLIM
 70
     0
  9
$DIMTIH
 70
     0
  9
$DIMTOH
 70
     0
  9
$DIMSE1
 70
     0
  9
$DIMSE2
 70
     0
  9
$DIMTAD
 70
     0
  9
$DIMZIN
 70
     8
  9
$DIMBLK
  1
VW_FILLEDARROW
  9
$DIMASO
 70
     1
  9
$DIMSHO
 70
     1
  9
$DIMPOST
  1
<>
  9
$DIMAPOST
  1
[]
  9
$DIMALT
 70
     0
  9
$DIMALTD
 70
     3
  9
$DIMALTF
 40
0.0393700787401575
  9
$DIMLFAC
 40
1.0
  9
$DIMTOFL
 70
     1
  9
$DIMTVP
 40
0.0
  9
$DIMTIX
 70
     1
  9
$DIMSOXD
 70
     0
  9
$DIMSAH
 70
     0
  9
$DIMBLK1
  1
VW_FILLEDARROW
  9
$DIMBLK2
  1
VW_FILLEDARROW
  9
$DIMSTYLE
  2
STANDARD-1
  9
$DIMCLRD
 70
     0
  9
$DIMCLRE
 70
     0
  9
$DIMCLRT
 70
     0
  9
$DIMTFAC
 40
1.0
  9
$DIMGAP
 40
0.0
  9
$LUNITS
 70
     2
  9
$LUPREC
 70
     2
  9
$SKETCHINC
 40
0.1
  9
$FILLETRAD
 40
0.5
  9
$AUNITS
 70
     0
  9
$AUPREC
 70
     2
  9
$MENU
  1
.
  9
$ELEVATION
 40
0.0
  9
$PELEVATION
 40
0.0
  9
$THICKNESS
 40
0.0
  9
$LIMCHECK
 70
     0
  9
$CHAMFERA
 40
0.0
  9
$CHAMFERB
 40
0.0
  9
$SKPOLY
 70
     0
  9
$TDCREATE
 40
2459967.057480058
  9
$TDUPDATE
 40
2459967.057499548
  9
$TDINDWG
 40
0.0000000116
  9
$TDUSRTIMER
 40
0.0000000116
  9
$USRTIMER
 70
     1
  9
$ANGBASE
 50
0.0
  9
$ANGDIR
 70
     0
  9
$PDMODE
 70
     1
  9
$PDSIZE
 40
-2.0
  9
$PLINEWID
 40
0.0
  9
$COORDS
 70
     1
  9
$SPLFRAME
 70
     0
  9
$SPLINETYPE
 70
     6
  9
$SPLINESEGS
 70
     8
  9
$ATTDIA
 70
     0
  9
$ATTREQ
 70
     1
  9
$HANDLING
 70
     1
  9
$HANDSEED
  5
52A
  9
$SURFTAB1
 70
     6
  9
$SURFTAB2
 70
     6
  9
$SURFTYPE
 70
     6
  9
$SURFU
 70
     6
  9
$SURFV
 70
     6
  9
$UCSNAME
  2

  9
$UCSORG
 10
0.0
 20
0.0
 30
0.0
  9
$UCSXDIR
 10
1.0
 20
0.0
 30
0.0
  9
$UCSYDIR
 10
0.0
 20
1.0
 30
0.0
  9
$PUCSNAME
  2

  9
$PUCSORG
 10
0.0
 20
0.0
 30
0.0
  9
$PUCSXDIR
 10
1.0
 20
0.0
 30
0.0
  9
$PUCSYDIR
 10
0.0
 20
1.0
 30
0.0
  9
$USERI1
 70
     0
  9
$USERI2
 70
     0
  9
$USERI3
 70
     0
  9
$USERI4
 70
     0
  9
$USERI5
 70
     0
  9
$USERR1
 40
0.0
  9
$USERR2
 40
0.0
  9
$USERR3
 40
0.0
  9
$USERR4
 40
0.0
  9
$USERR5
 40
0.0
  9
$WORLDVIEW
 70
     1
  9
$SHADEDGE
 70
     3
  9
$SHADEDIF
 70
    70
  9
$TILEMODE
 70
     1
  9
$MAXACTVP
 70
    64
  9
$PLIMCHECK
 70
     0
  9
$PEXTMIN
 10
1.000000000000000E+20
 20
1.000000000000000E+20
 30
1.000000000000000E+20
  9
$PEXTMAX
 10
-1.000000000000000E+20
 20
-1.000000000000000E+20
 30
-1.000000000000000E+20
  9
$PLIMMIN
 10
-20.0
 20
-7.5
  9
$PLIMMAX
 10
277.0
 20
202.5
  9
$UNITMODE
 70
     0
  9
$VISRETAIN
 70
     1
  9
$PLINEGEN
 70
     0
  9
$PSLTSCALE
 70
     1
  0
ENDSEC
  0
SECTION
  2
TABLES
  0
TABLE
  2
VPORT
 70
     1
  0
VPORT
  2
*ACTIVE
 70
     0
 10
0.0
 20
0.0
 11
1.0
 21
1.0
 12
69.38330291730216
 22
-296.6941100375625
 13
0.0
 23
0.0
 14
0.5
 24
0.5
 15
0.5
 25
0.5
 16
0.0
 26
0.0
 36
1.0
 17
0.0
 27
0.0
 37
0.0
 40
1653.13208508059
 41
0.4606632105271944
 42
2000.0
 43
0.0
 44
0.0
 50
0.0
 51
0.0
 71
     0
 72
   100
 73
     1
 74
     3
 75
     0
 76
     0
 77
     0
 78
     0
  0
ENDTAB
  0
TABLE
  2
LTYPE
 70
     4
  0
LTYPE
  2
CONTINUOUS
 70
     0
  3
Solid line
 72
    65
 73
     0
 40
0.0
  0
LTYPE
  2
HIDDEN
 70
     0
  3

 72
    65
 73
     2
 40
0.6561679790026248
 49
0.6561679790026248
 49
-0.3280839895013124
  0
LTYPE
  2
CENTER-4
 70
     0
  3

 72
    65
 73
     4
 40
3.280839895013124
 49
3.280839895013124
 49
-0.6561679790026248
 49
0.6561679790026248
 49
-0.6561679790026248
  0
LTYPE
  2
CENTER
 70
     0
  3

 72
    65
 73
     4
 40
0.4921259842519687
 49
0.4921259842519687
 49
-0.0984251968503937
 49
0.0984251968503937
 49
-0.0984251968503938
  0
ENDTAB
  0
TABLE
  2
LAYER
 70
    13
  0
LAYER
  2
0
 70
     0
 62
     7
  6
CONTINUOUS
  0
LAYER
  2
__
 70
     0
 62
     7
  6
CONTINUOUS
  0
LAYER
  2
__-1
 70
     0
 62
     7
  6
CONTINUOUS
  0
LAYER
  2
_0-0_0
 70
     0
 62
     7
  6
CONTINUOUS
  0
LAYER
  2
_0-1_250
 70
     0
 62
     7
  6
CONTINUOUS
  0
LAYER
  2
__-2
 70
     0
 62
     7
  6
CONTINUOUS
  0
LAYER
  2
__-3
 70
     0
 62
     7
  6
CONTINUOUS
  0
LAYER
  2
DEFPOINTS
 70
     0
 62
     7
  6
CONTINUOUS
  0
ENDTAB
  0
TABLE
  2
STYLE
 70
     4
  0
STYLE
  2
STANDARD
 70
     0
 40
0.0
 41
1.0
 50
0.0
 71
     0
 42
0.2
  3
txt
  4
BIGFONT.SHX
  0
STYLE
  2
YUGOTHIC_MEDIUM
 70
     0
 40
0.0
 41
1.0
 50
0.0
 71
     0
 42
0.2
  3

  4
YuGothic Medium
  0
STYLE
  2
YUGOTHIC_BOLD
 70
     0
 40
0.0
 41
1.0
 50
0.0
 71
     0
 42
0.2
  3

  4
YuGothic Bold
  0
STYLE
  2
YUGOTHIC_MEDIUM-B
 70
     0
 40
0.0
 41
1.0
 50
0.0
 71
     0
 42
0.2
  3

  4
YuGothic Medium
  0
ENDTAB
  0
TABLE
  2
VIEW
 70
     0
  0
ENDTAB
  0
TABLE
  2
UCS
 70
     0
  0
ENDTAB
  0
TABLE
  2
APPID
 70
     3
  0
APPID
  2
ACAD
 70
     0
  0
APPID
  2
ACCMTRANSPARENCY
 70
     0
  0
APPID
  2
ACAECLAYERSTANDARD
 70
     0
  0
ENDTAB
  0
TABLE
  2
DIMSTYLE
 70
     2
  0
DIMSTYLE
  2
STANDARD
 70
     0
  3

  4

  5

  6

  7

 40
1.0
 41
0.18
 42
0.0625
 43
0.38
 44
0.18
 45
0.0
 46
0.0
 47
0.0
 48
0.0
140
0.18
141
0.09
142
0.0
143
25.4
144
1.0
145
0.0
146
1.0
147
0.09
 71
     0
 72
     0
 73
     1
 74
     1
 75
     0
 76
     0
 77
     0
 78
     0
170
     0
171
     2
172
     0
173
     0
174
     0
175
     0
176
     0
177
     0
178
     0
  0
DIMSTYLE
  2
STANDARD-1
 70
     0
  3
<>
  4
[]
  5
VW_FILLEDARROW
  6
VW_FILLEDARROW
  7
VW_FILLEDARROW
 40
1.0
 41
0.00775146484375
 42
0.003125
 43
0.019
 44
0.009
 45
0.0
 46
0.0
 47
0.0
 48
0.0
140
3.813491030092584
141
0.0
142
0.0
143
0.0393700787401575
144
1.0
145
0.0
146
1.0
147
0.0
 71
     0
 72
     0
 73
     0
 74
     0
 75
     0
 76
     0
 77
     0
 78
     8
170
     0
171
     3
172
     1
173
     0
174
     1
175
     0
176
     0
177
     0
178
     0
  0
ENDTAB
  0
ENDSEC
  0
SECTION
  2
BLOCKS
  0
BLOCK
  8
0
  2
$MODEL_SPACE
 70
     0
 10
0.0
 20
0.0
 30
0.0
  3
$MODEL_SPACE
  1

  0
ENDBLK
  5
21
  8
0
  0
BLOCK
 67
     1
  8
0
  2
$PAPER_SPACE
 70
     0
 10
0.0
 20
0.0
 30
0.0
  3
$PAPER_SPACE
  1

  0
ENDBLK
  5
1D
 67
     1
  8
0
  0
BLOCK
  8
0
  2
____-1
 70
     0
 10
0.0
 20
0.0
 30
0.0
  3
____-1
  1

  0
ENDBLK
  5
71
  8
0
  0
BLOCK
  8
0
  2
____-2-1
 70
     0
 10
0.0
 20
0.0
 30
0.0
  3
____-2-1
  1

  0
ENDBLK
  5
74
  8
0
  0
BLOCK
  8
0
  2
____-3-1
 70
     0
 10
0.0
 20
0.0
 30
0.0
  3
____-3-1
  1

  0
ENDBLK
  5
77
  8
0
  0
BLOCK
  8
0
  2
*D4
 70
     1
 10
0.0
 20
0.0
 30
0.0
  3
*D4
  1

  0
LINE
  5
CE
  8
__-1
  6
CONTINUOUS
 62
     0
 10
-39.78737080838107
 20
39.90539443816972
 30
0.0
 11
-39.78737080838107
 21
9.89391302841615
 31
0.0
  0
LINE
  5
CF
  8
__-1
  6
CONTINUOUS
 62
     0
 10
-243.3932831745694
 20
39.90539443816938
 30
0.0
 11
-243.3932831745694
 21
9.89391302841615
 31
0.0
  0
LINE
  5
D0
  8
__-1
  6
CONTINUOUS
 62
     0
 10
-39.79512227322482
 20
9.902913028416151
 30
0.0
 11
-128.6062980080648
 21
9.902913028416151
 31
0.0
  0
LINE
  5
D1
  8
__-1
  6
CONTINUOUS
 62
     0
 10
-243.3855317097256
 20
9.902913028416151
 30
0.0
 11
-154.5743559748857
 21
9.902913028416151
 31
0.0
  0
INSERT
  5
D6
  8
__-1
 62
     0
  2
VW_FILLEDARROW
 10
-39.78737080838107
 20
9.902913028416151
 30
0.0
 41
0.00775146484375
 42
0.00775146484375
 43
0.00775146484375
  0
INSERT
  5
DB
  8
__-1
 62
     0
  2
VW_FILLEDARROW
 10
-243.3932831745694
 20
9.902913028416151
 30
0.0
 41
0.00775146484375
 42
0.00775146484375
 43
0.00775146484375
 50
180.0
  0
TEXT
  5
DC
  8
__-1
  6
CONTINUOUS
 62
     0
 10
-155.119140407756
 20
7.99616751336986
 30
0.0
 40
3.813491030092584
  1
203.6059
  7
YUGOTHIC_BOLD
  0
POINT
  5
DD
  8
DEFPOINTS
 62
     0
 10
-39.78737080838107
 20
39.90851943816972
 30
0.0
  0
POINT
  5
DE
  8
DEFPOINTS
 62
     0
 10
-243.3932831745694
 20
39.90851943816938
 30
0.0
  0
POINT
  5
275
  8
DEFPOINTS
 62
     0
 10
-243.3932831745694
 20
9.902913028416151
 30
0.0
  0
ENDBLK
  5
7B
  8
0
  0
BLOCK
  8
0
  2
*D5
 70
     1
 10
0.0
 20
0.0
 30
0.0
  3
*D5
  1

  0
LINE
  5
DF
  8
__-1
  6
CONTINUOUS
 62
     0
 10
-39.78737080838107
 20
-520.2104526394282
 30
0.0
 11
-39.78737080838107
 21
-550.2219340491819
 31
0.0
  0
LINE
  5
E0
  8
__-1
  6
CONTINUOUS
 62
     0
 10
-243.3932831745694
 20
-520.2104526394286
 30
0.0
 11
-243.3932831745694
 21
-550.2219340491819
 31
0.0
  0
LINE
  5
E1
  8
__-1
  6
CONTINUOUS
 62
     0
 10
-39.79512227322482
 20
-550.2129340491819
 30
0.0
 11
-128.6062980080648
 21
-550.2129340491819
 31
0.0
  0
LINE
  5
E2
  8
__-1
  6
CONTINUOUS
 62
     0
 10
-243.3855317097256
 20
-550.2129340491819
 30
0.0
 11
-154.5743559748857
 21
-550.2129340491819
 31
0.0
  0
INSERT
  5
E7
  8
__-1
 62
     0
  2
VW_FILLEDARROW
 10
-39.78737080838107
 20
-550.2129340491819
 30
0.0
 41
0.00775146484375
 42
0.00775146484375
 43
0.00775146484375
  0
INSERT
  5
EC
  8
__-1
 62
     0
  2
VW_FILLEDARROW
 10
-243.3932831745694
 20
-550.2129340491819
 30
0.0
 41
0.00775146484375
 42
0.00775146484375
 43
0.00775146484375
 50
180.0
  0
TEXT
  5
ED
  8
__-1
  6
CONTINUOUS
 62
     0
 10
-155.119140407756
 20
-552.1196795642281
 30
0.0
 40
3.813491030092584
  1
203.6059
  7
YUGOTHIC_BOLD
  0
POINT
  5
EE
  8
DEFPOINTS
 62
     0
 10
-39.78737080838107
 20
-520.2073276394283
 30
0.0
  0
POINT
  5
EF
  8
DEFPOINTS
 62
     0
 10
-243.3932831745694
 20
-520.2073276394286
 30
0.0
  0
POINT
  5
348
  8
DEFPOINTS
 62
     0
 10
-243.3932831745694
 20
-550.2129340491819
 30
0.0
  0
ENDBLK
  5
7E
  8
0
  0
BLOCK
  8
0
  2
*D6
 70
     1
 10
0.0
 20
0.0
 30
0.0
  3
*D6
  1

  0
LINE
  5
F0
  8
__-1
  6
CONTINUOUS
 62
     0
 10
-39.78737080838107
 20
-1093.239671168104
 30
0.0
 11
-39.78737080838107
 21
-1123.251152577858
 31
0.0
  0
LINE
  5
F1
  8
__-1
  6
CONTINUOUS
 62
     0
 10
-243.3932831745694
 20
-1093.239671168104
 30
0.0
 11
-243.3932831745694
 21
-1123.251152577858
 31
0.0
  0
LINE
  5
F2
  8
__-1
  6
CONTINUOUS
 62
     0
 10
-39.79512227322482
 20
-1123.242152577857
 30
0.0
 11
-128.6062980080648
 21
-1123.242152577857
 31
0.0
  0
LINE
  5
F3
  8
__-1
  6
CONTINUOUS
 62
     0
 10
-243.3855317097256
 20
-1123.242152577857
 30
0.0
 11
-154.5743559748857
 21
-1123.242152577857
 31
0.0
  0
INSERT
  5
F8
  8
__-1
 62
     0
  2
VW_FILLEDARROW
 10
-39.78737080838107
 20
-1123.242152577857
 30
0.0
 41
0.00775146484375
 42
0.00775146484375
 43
0.00775146484375
  0
INSERT
  5
FD
  8
__-1
 62
     0
  2
VW_FILLEDARROW
 10
-243.3932831745694
 20
-1123.242152577857
 30
0.0
 41
0.00775146484375
 42
0.00775146484375
 43
0.00775146484375
 50
180.0
  0
TEXT
  5
FE
  8
__-1
  6
CONTINUOUS
 62
     0
 10
-155.119140407756
 20
-1125.148898092904
 30
0.0
 40
3.813491030092584
  1
203.6059
  7
YUGOTHIC_BOLD
  0
POINT
  5
FF
  8
DEFPOINTS
 62
     0
 10
-39.78737080838107
 20
-1093.236546168104
 30
0.0
  0
POINT
  5
100
  8
DEFPOINTS
 62
     0
 10
-243.3932831745694
 20
-1093.236546168104
 30
0.0
  0
POINT
  5
43C
  8
DEFPOINTS
 62
     0
 10
-243.3932831745694
 20
-1123.242152577857
 30
0.0
  0
ENDBLK
  5
81
  8
0
  0
BLOCK
  8
0
  2
*D7
 70
     1
 10
0.0
 20
0.0
 30
0.0
  3
*D7
  1

  0
LINE
  5
101
  8
__-1
  6
CONTINUOUS
 62
     0
 10
-39.7873708083813
 20
250.1468015900182
 30
0.0
 11
-39.7873708083813
 21
284.7020467329797
 31
0.0
  0
LINE
  5
102
  8
__-1
  6
CONTINUOUS
 62
     0
 10
-243.2873708083813
 20
250.146801590018
 30
0.0
 11
-243.2873708083813
 21
284.7020467329797
 31
0.0
  0
LINE
  5
103
  8
__-1
  6
CONTINUOUS
 62
     0
 10
-39.79512227322505
 20
284.6930467329797
 30
0.0
 11
-133.9103887481961
 21
284.6930467329797
 31
0.0
  0
LINE
  5
104
  8
__-1
  6
CONTINUOUS
 62
     0
 10
-243.2796193435375
 20
284.6930467329797
 30
0.0
 11
-149.1643528685665
 21
284.6930467329797
 31
0.0
  0
INSERT
  5
109
  8
__-1
 62
     0
  2
VW_FILLEDARROW
 10
-39.7873708083813
 20
284.6930467329797
 30
0.0
 41
0.00775146484375
 42
0.00775146484375
 43
0.00775146484375
  0
INSERT
  5
10E
  8
__-1
 62
     0
  2
VW_FILLEDARROW
 10
-243.2873708083813
 20
284.6930467329797
 30
0.0
 41
0.00775146484375
 42
0.00775146484375
 43
0.00775146484375
 50
180.0
  0
TEXT
  5
10F
  8
__-1
  6
CONTINUOUS
 62
     0
 10
-149.7091373014368
 20
282.7863012179334
 30
0.0
 40
3.813491030092584
  1
203.5
  7
YUGOTHIC_BOLD
  0
POINT
  5
110
  8
DEFPOINTS
 62
     0
 10
-39.7873708083813
 20
250.1436765900182
 30
0.0
  0
POINT
  5
111
  8
DEFPOINTS
 62
     0
 10
-243.2873708083813
 20
250.143676590018
 30
0.0
  0
POINT
  5
4F1
  8
DEFPOINTS
 62
     0
 10
-243.2873708083813
 20
284.6930467329797
 30
0.0
  0
ENDBLK
  5
84
  8
0
  0
BLOCK
  8
0
  2
*D8
 70
     1
 10
0.0
 20
0.0
 30
0.0
  3
*D8
  1

  0
LINE
  5
112
  8
__-1
  6
CONTINUOUS
 62
     0
 10
326.8058995460999
 20
250.1468015900186
 30
0.0
 11
326.8058995460999
 21
284.0090000000002
 31
0.0
  0
LINE
  5
113
  8
__-1
  6
CONTINUOUS
 62
     0
 10
169.5560629167559
 20
250.1468015900185
 30
0.0
 11
169.5560629167559
 21
284.0090000000002
 31
0.0
  0
LINE
  5
114
  8
__-1
  6
CONTINUOUS
 62
     0
 10
326.7981480812561
 20
284.0000000000002
 30
0.0
 11
260.9834154038816
 21
284.0000000000002
 31
0.0
  0
LINE
  5
115
  8
__-1
  6
CONTINUOUS
 62
     0
 10
169.5638143815997
 20
284.0000000000002
 30
0.0
 11
235.3785470589742
 21
284.0000000000002
 31
0.0
  0
INSERT
  5
11A
  8
__-1
 62
     0
  2
VW_FILLEDARROW
 10
326.8058995460999
 20
284.0000000000002
 30
0.0
 41
0.00775146484375
 42
0.00775146484375
 43
0.00775146484375
  0
INSERT
  5
11F
  8
__-1
 62
     0
  2
VW_FILLEDARROW
 10
169.5560629167559
 20
284.0000000000002
 30
0.0
 41
0.00775146484375
 42
0.00775146484375
 43
0.00775146484375
 50
180.0
  0
TEXT
  5
120
  8
__-1
  6
CONTINUOUS
 62
     0
 10
234.2889781932335
 20
282.0932544849539
 30
0.0
 40
3.813491030092584
  1
157.2498
  7
YUGOTHIC_BOLD
  0
POINT
  5
121
  8
DEFPOINTS
 62
     0
 10
326.8058995460999
 20
250.1436765900186
 30
0.0
  0
POINT
  5
122
  8
DEFPOINTS
 62
     0
 10
169.5560629167559
 20
250.1436765900185
 30
0.0
  0
POINT
  5
4F3
  8
DEFPOINTS
 62
     0
 10
169.5560629167559
 20
284.0000000000002
 30
0.0
  0
ENDBLK
  5
87
  8
0
  0
BLOCK
  8
0
  2
*D9
 70
     1
 10
0.0
 20
0.0
 30
0.0
  3
*D9
  1

  0
LINE
  5
123
  8
__-1
  6
CONTINUOUS
 62
     0
 10
169.5529379167561
 20
102.6399656326909
 30
0.0
 11
130.3999219170751
 21
102.6399656326908
 31
0.0
  0
LINE
  5
124
  8
__-1
  6
CONTINUOUS
 62
     0
 10
169.5529379167559
 20
250.1436765900185
 30
0.0
 11
130.399921917075
 21
250.1436765900184
 31
0.0
  0
LINE
  5
125
  8
__-1
  6
CONTINUOUS
 62
     0
 10
130.4089219170751
 20
102.6477170975346
 30
0.0
 11
130.4089219170751
 21
163.5893869389009
 31
0.0
  0
LINE
  5
126
  8
__-1
  6
CONTINUOUS
 62
     0
 10
130.408921917075
 20
250.1359251251747
 30
0.0
 11
130.408921917075
 21
189.1942552838083
 31
0.0
  0
INSERT
  5
12B
  8
__-1
 62
     0
  2
VW_FILLEDARROW
 10
130.4089219170751
 20
102.6399656326908
 30
0.0
 41
0.00775146484375
 42
0.00775146484375
 43
0.00775146484375
 50
270.0000000000001
  0
INSERT
  5
130
  8
__-1
 62
     0
  2
VW_FILLEDARROW
 10
130.408921917075
 20
250.1436765900184
 30
0.0
 41
0.00775146484375
 42
0.00775146484375
 43
0.00775146484375
 50
90.00000000000006
  0
TEXT
  5
131
  8
__-1
  6
CONTINUOUS
 62
     0
 10
132.3156674321214
 20
162.4998180731602
 30
0.0
 40
3.813491030092584
  1
147.5037
 50
90.00000000000006
  7
YUGOTHIC_BOLD
  0
POINT
  5
132
  8
DEFPOINTS
 62
     0
 10
169.5560629167561
 20
102.6399656326909
 30
0.0
  0
POINT
  5
133
  8
DEFPOINTS
 62
     0
 10
169.5560629167559
 20
250.1436765900185
 30
0.0
  0
POINT
  5
4F5
  8
DEFPOINTS
 62
     0
 10
130.408921917075
 20
250.1436765900184
 30
0.0
  0
ENDBLK
  5
8A
  8
0
  0
BLOCK
  8
0
  2
*D10
 70
     1
 10
0.0
 20
0.0
 30
0.0
  3
*D10
  1

  0
LINE
  5
134
  8
__-1
  6
CONTINUOUS
 62
     0
 10
-39.78737080838131
 20
-290.7474150179218
 30
0.0
 11
-39.7873708083813
 21
-252.3929911964714
 31
0.0
  0
LINE
  5
135
  8
__-1
  6
CONTINUOUS
 62
     0
 10
-243.2873708083813
 20
-290.747415017922
 30
0.0
 11
-243.2873708083813
 21
-252.3929911964714
 31
0.0
  0
LINE
  5
136
  8
__-1
  6
CONTINUOUS
 62
     0
 10
-39.79512227322505
 20
-252.4019911964714
 30
0.0
 11
-133.9103887481961
 21
-252.4019911964714
 31
0.0
  0
LINE
  5
137
  8
__-1
  6
CONTINUOUS
 62
     0
 10
-243.2796193435375
 20
-252.4019911964714
 30
0.0
 11
-149.1643528685665
 21
-252.4019911964714
 31
0.0
  0
INSERT
  5
13C
  8
__-1
 62
     0
  2
VW_FILLEDARROW
 10
-39.7873708083813
 20
-252.4019911964714
 30
0.0
 41
0.00775146484375
 42
0.00775146484375
 43
0.00775146484375
  0
INSERT
  5
141
  8
__-1
 62
     0
  2
VW_FILLEDARROW
 10
-243.2873708083813
 20
-252.4019911964714
 30
0.0
 41
0.00775146484375
 42
0.00775146484375
 43
0.00775146484375
 50
180.0
  0
TEXT
  5
142
  8
__-1
  6
CONTINUOUS
 62
     0
 10
-149.7091373014368
 20
-254.3087367115177
 30
0.0
 40
3.813491030092584
  1
203.5
  7
YUGOTHIC_BOLD
  0
POINT
  5
143
  8
DEFPOINTS
 62
     0
 10
-39.78737080838131
 20
-290.7505400179218
 30
0.0
  0
POINT
  5
144
  8
DEFPOINTS
 62
     0
 10
-243.2873708083813
 20
-290.750540017922
 30
0.0
  0
POINT
  5
4F7
  8
DEFPOINTS
 62
     0
 10
-243.2873708083813
 20
-252.4019911964714
 30
0.0
  0
ENDBLK
  5
8D
  8
0
  0
BLOCK
  8
0
  2
*D11
 70
     1
 10
0.0
 20
0.0
 30
0.0
  3
*D11
  1

  0
LINE
  5
145
  8
__-1
  6
CONTINUOUS
 62
     0
 10
326.8058995460999
 20
-290.7474150179215
 30
0.0
 11
326.8058995460999
 21
-252.3929911964709
 31
0.0
  0
LINE
  5
146
  8
__-1
  6
CONTINUOUS
 62
     0
 10
123.6058995460999
 20
-290.7474150179217
 30
0.0
 11
123.6058995460999
 21
-252.3929911964709
 31
0.0
  0
LINE
  5
147
  8
__-1
  6
CONTINUOUS
 62
     0
 10
326.7981480812561
 20
-252.4019911964709
 30
0.0
 11
232.832881606285
 21
-252.4019911964709
 31
0.0
  0
LINE
  5
148
  8
__-1
  6
CONTINUOUS
 62
     0
 10
123.6136510109436
 20
-252.4019911964709
 30
0.0
 11
217.5789174859147
 21
-252.4019911964709
 31
0.0
  0
INSERT
  5
14D
  8
__-1
 62
     0
  2
VW_FILLEDARROW
 10
326.8058995460999
 20
-252.4019911964709
 30
0.0
 41
0.00775146484375
 42
0.00775146484375
 43
0.00775146484375
  0
INSERT
  5
152
  8
__-1
 62
     0
  2
VW_FILLEDARROW
 10
123.6058995460999
 20
-252.4019911964709
 30
0.0
 41
0.00775146484375
 42
0.00775146484375
 43
0.00775146484375
 50
180.0
  0
TEXT
  5
153
  8
__-1
  6
CONTINUOUS
 62
     0
 10
217.0341330530443
 20
-254.3087367115172
 30
0.0
 40
3.813491030092584
  1
203.2
  7
YUGOTHIC_BOLD
  0
POINT
  5
154
  8
DEFPOINTS
 62
     0
 10
326.8058995460999
 20
-290.7505400179215
 30
0.0
  0
POINT
  5
155
  8
DEFPOINTS
 62
     0
 10
123.6058995460999
 20
-290.7505400179217
 30
0.0
  0
POINT
  5
4F9
  8
DEFPOINTS
 62
     0
 10
123.6058995460999
 20
-252.4019911964709
 30
0.0
  0
ENDBLK
  5
90
  8
0
  0
BLOCK
  8
0
  2
*D12
 70
     1
 10
0.0
 20
0.0
 30
0.0
  3
*D12
  1

  0
LINE
  5
156
  8
__-1
  6
CONTINUOUS
 62
     0
 10
123.4849514402885
 20
-457.4758814449071
 30
0.0
 11
86.31743179534207
 21
-457.4758814449072
 31
0.0
  0
LINE
  5
157
  8
__-1
  6
CONTINUOUS
 62
     0
 10
123.4849514402883
 20
-290.6758814449072
 30
0.0
 11
86.31743179534188
 21
-290.6758814449072
 31
0.0
  0
LINE
  5
158
  8
__-1
  6
CONTINUOUS
 62
     0
 10
86.32643179534207
 20
-457.4681299800635
 30
0.0
 11
86.32643179534199
 21
-381.4304712886572
 31
0.0
  0
LINE
  5
159
  8
__-1
  6
CONTINUOUS
 62
     0
 10
86.32643179534188
 20
-290.683632909751
 30
0.0
 11
86.32643179534196
 21
-366.7212916011573
 31
0.0
  0
INSERT
  5
15E
  8
__-1
 62
     0
  2
VW_FILLEDARROW
 10
86.32643179534207
 20
-457.4758814449072
 30
0.0
 41
0.00775146484375
 42
0.00775146484375
 43
0.00775146484375
 50
270.0000000000001
  0
INSERT
  5
163
  8
__-1
 62
     0
  2
VW_FILLEDARROW
 10
86.32643179534188
 20
-290.6758814449072
 30
0.0
 41
0.00775146484375
 42
0.00775146484375
 43
0.00775146484375
 50
90.00000000000006
  0
TEXT
  5
164
  8
__-1
  6
CONTINUOUS
 62
     0
 10
88.23317731038827
 20
-382.520040154398
 30
0.0
 40
3.813491030092584
  1
166.8
 50
90.00000000000006
  7
YUGOTHIC_BOLD
  0
POINT
  5
165
  8
DEFPOINTS
 62
     0
 10
123.4880764402885
 20
-457.4758814449071
 30
0.0
  0
POINT
  5
166
  8
DEFPOINTS
 62
     0
 10
123.4880764402883
 20
-290.6758814449072
 30
0.0
  0
POINT
  5
4FB
  8
DEFPOINTS
 62
     0
 10
86.32643179534188
 20
-290.6758814449072
 30
0.0
  0
ENDBLK
  5
93
  8
0
  0
BLOCK
  8
0
  2
*D13
 70
     1
 10
0.0
 20
0.0
 30
0.0
  3
*D13
  1

  0
LINE
  5
167
  8
__-1
  6
CONTINUOUS
 62
     0
 10
-39.78737080838134
 20
-844.3221629614607
 30
0.0
 11
-39.78737080838135
 21
-810.0744251023068
 31
0.0
  0
LINE
  5
168
  8
__-1
  6
CONTINUOUS
 62
     0
 10
-243.2873708083814
 20
-844.3221629614609
 30
0.0
 11
-243.2873708083814
 21
-810.0744251023068
 31
0.0
  0
LINE
  5
169
  8
__-1
  6
CONTINUOUS
 62
     0
 10
-39.7951222732251
 20
-810.0834251023068
 30
0.0
 11
-133.9103887481962
 21
-810.0834251023068
 31
0.0
  0
LINE
  5
16A
  8
__-1
  6
CONTINUOUS
 62
     0
 10
-243.2796193435376
 20
-810.0834251023068
 30
0.0
 11
-149.1643528685665
 21
-810.0834251023068
 31
0.0
  0
INSERT
  5
16F
  8
__-1
 62
     0
  2
VW_FILLEDARROW
 10
-39.78737080838135
 20
-810.0834251023068
 30
0.0
 41
0.00775146484375
 42
0.00775146484375
 43
0.00775146484375
  0
INSERT
  5
174
  8
__-1
 62
     0
  2
VW_FILLEDARROW
 10
-243.2873708083814
 20
-810.0834251023068
 30
0.0
 41
0.00775146484375
 42
0.00775146484375
 43
0.00775146484375
 50
180.0
  0
TEXT
  5
175
  8
__-1
  6
CONTINUOUS
 62
     0
 10
-149.7091373014369
 20
-811.9901706173531
 30
0.0
 40
3.813491030092584
  1
203.5
  7
YUGOTHIC_BOLD
  0
POINT
  5
176
  8
DEFPOINTS
 62
     0
 10
-39.78737080838134
 20
-844.3252879614606
 30
0.0
  0
POINT
  5
177
  8
DEFPOINTS
 62
     0
 10
-243.2873708083814
 20
-844.3252879614608
 30
0.0
  0
POINT
  5
4FD
  8
DEFPOINTS
 62
     0
 10
-243.2873708083814
 20
-810.0834251023068
 30
0.0
  0
ENDBLK
  5
96
  8
0
  0
BLOCK
  8
0
  2
*D14
 70
     1
 10
0.0
 20
0.0
 30
0.0
  3
*D14
  1

  0
LINE
  5
178
  8
__-1
  6
CONTINUOUS
 62
     0
 10
326.8058995460998
 20
-844.32216296146
 30
0.0
 11
326.8058995460998
 21
-810.0744251023063
 31
0.0
  0
LINE
  5
179
  8
__-1
  6
CONTINUOUS
 62
     0
 10
72.80647957115316
 20
-844.3221629614604
 30
0.0
 11
72.80647957115316
 21
-810.0744251023063
 31
0.0
  0
LINE
  5
17A
  8
__-1
  6
CONTINUOUS
 62
     0
 10
326.798148081256
 20
-810.0834251023064
 30
0.0
 11
212.9718133529938
 21
-810.0834251023064
 31
0.0
  0
LINE
  5
17B
  8
__-1
  6
CONTINUOUS
 62
     0
 10
72.81423103599691
 20
-810.0834251023064
 30
0.0
 11
186.6405657642592
 21
-810.0834251023064
 31
0.0
  0
INSERT
  5
180
  8
__-1
 62
     0
  2
VW_FILLEDARROW
 10
326.8058995460998
 20
-810.0834251023064
 30
0.0
 41
0.00775146484375
 42
0.00775146484375
 43
0.00775146484375
  0
INSERT
  5
185
  8
__-1
 62
     0
  2
VW_FILLEDARROW
 10
72.80647957115316
 20
-810.0834251023064
 30
0.0
 41
0.00775146484375
 42
0.00775146484375
 43
0.00775146484375
 50
180.0
  0
TEXT
  5
186
  8
__-1
  6
CONTINUOUS
 62
     0
 10
186.0957813313888
 20
-811.9901706173526
 30
0.0
 40
3.813491030092584
  1
253.9994
  7
YUGOTHIC_BOLD
  0
POINT
  5
187
  8
DEFPOINTS
 62
     0
 10
326.8058995460998
 20
-844.3252879614599
 30
0.0
  0
POINT
  5
188
  8
DEFPOINTS
 62
     0
 10
72.80647957115316
 20
-844.3252879614604
 30
0.0
  0
POINT
  5
4FF
  8
DEFPOINTS
 62
     0
 10
72.80647957115316
 20
-810.0834251023064
 30
0.0
  0
ENDBLK
  5
99
  8
0
  0
BLOCK
  8
0
  2
*D15
 70
     1
 10
0.0
 20
0.0
 30
0.0
  3
*D15
  1

  0
LINE
  5
189
  8
__-1
  6
CONTINUOUS
 62
     0
 10
72.80335457115336
 20
-1030.505099973583
 30
0.0
 11
43.87537073576519
 21
-1030.505099973583
 31
0.0
  0
LINE
  5
18A
  8
__-1
  6
CONTINUOUS
 62
     0
 10
72.80335457115316
 20
-844.3252879614604
 30
0.0
 11
43.87537073576497
 21
-844.3252879614605
 31
0.0
  0
LINE
  5
18B
  8
__-1
  6
CONTINUOUS
 62
     0
 10
43.8843707357652
 20
-1030.497348508739
 30
0.0
 11
43.8843707357651
 21
-950.2176281399753
 31
0.0
  0
LINE
  5
18C
  8
__-1
  6
CONTINUOUS
 62
     0
 10
43.88437073576497
 20
-844.3330394263043
 30
0.0
 11
43.88437073576507
 21
-924.612759795068
 31
0.0
  0
INSERT
  5
191
  8
__-1
 62
     0
  2
VW_FILLEDARROW
 10
43.8843707357652
 20
-1030.505099973583
 30
0.0
 41
0.00775146484375
 42
0.00775146484375
 43
0.00775146484375
 50
270.0000000000001
  0
INSERT
  5
196
  8
__-1
 62
     0
  2
VW_FILLEDARROW
 10
43.88437073576497
 20
-844.3252879614605
 30
0.0
 41
0.00775146484375
 42
0.00775146484375
 43
0.00775146484375
 50
90.00000000000006
  0
TEXT
  5
197
  8
__-1
  6
CONTINUOUS
 62
     0
 10
45.79111625081134
 20
-951.307197005716
 30
0.0
 40
3.813491030092584
  1
186.1798
 50
90.00000000000006
  7
YUGOTHIC_BOLD
  0
POINT
  5
198
  8
DEFPOINTS
 62
     0
 10
72.80647957115336
 20
-1030.505099973583
 30
0.0
  0
POINT
  5
199
  8
DEFPOINTS
 62
     0
 10
72.80647957115316
 20
-844.3252879614604
 30
0.0
  0
POINT
  5
501
  8
DEFPOINTS
 62
     0
 10
43.88437073576497
 20
-844.3252879614605
 30
0.0
  0
ENDBLK
  5
9C
  8
0
  0
BLOCK
  8
0
  2
*D16
 70
     1
 10
0.0
 20
0.0
 30
0.0
  3
*D16
  1

  0
LINE
  5
19A
  8
__-1
  6
CONTINUOUS
 62
     0
 10
387.4073715020725
 20
-1060.774159792258
 30
0.0
 11
387.4073715020725
 21
-1073.663607668261
 31
0.0
  0
LINE
  5
19B
  8
__-1
  6
CONTINUOUS
 62
     0
 10
326.8058995461
 20
-1061.847790865258
 30
0.0
 11
326.8058995461
 21
-1073.663607668261
 31
0.0
  0
LINE
  5
19C
  8
__-1
  6
CONTINUOUS
 62
     0
 10
387.3996200372287
 20
-1073.65460766826
 30
0.0
 11
368.2747163979288
 21
-1073.65460766826
 31
0.0
  0
LINE
  5
19D
  8
__-1
  6
CONTINUOUS
 62
     0
 10
326.8136510109438
 20
-1073.65460766826
 30
0.0
 11
345.9385546502437
 21
-1073.65460766826
 31
0.0
  0
INSERT
  5
1A2
  8
__-1
 62
     0
  2
VW_FILLEDARROW
 10
387.4073715020725
 20
-1073.65460766826
 30
0.0
 41
0.00775146484375
 42
0.00775146484375
 43
0.00775146484375
  0
INSERT
  5
1A7
  8
__-1
 62
     0
  2
VW_FILLEDARROW
 10
326.8058995461
 20
-1073.65460766826
 30
0.0
 41
0.00775146484375
 42
0.00775146484375
 43
0.00775146484375
 50
180.0
  0
TEXT
  5
1A8
  8
__-1
  6
CONTINUOUS
 62
     0
 10
345.2121754064165
 20
-1075.561353183307
 30
0.0
 40
3.813491030092584
  1
60.6015
  7
YUGOTHIC_BOLD
  0
POINT
  5
1A9
  8
DEFPOINTS
 62
     0
 10
387.4073715020725
 20
-1060.771034792258
 30
0.0
  0
POINT
  5
1AA
  8
DEFPOINTS
 62
     0
 10
326.8058995461
 20
-1061.844665865258
 30
0.0
  0
POINT
  5
503
  8
DEFPOINTS
 62
     0
 10
326.8058995461
 20
-1073.65460766826
 30
0.0
  0
ENDBLK
  5
9F
  8
0
  0
BLOCK
  8
0
  2
*D17
 70
     1
 10
0.0
 20
0.0
 30
0.0
  3
*D17
  1

  0
LINE
  5
1AB
  8
__-1
  6
CONTINUOUS
 62
     0
 10
387.4071576869862
 20
-482.5612017850901
 30
0.0
 11
387.4071576869862
 21
-504.1888852615239
 31
0.0
  0
LINE
  5
1AC
  8
__-1
  6
CONTINUOUS
 62
     0
 10
326.8058995461
 20
-487.8565399314986
 30
0.0
 11
326.8058995461
 21
-504.1888852615239
 31
0.0
  0
LINE
  5
1AD
  8
__-1
  6
CONTINUOUS
 62
     0
 10
387.3994062221425
 20
-504.1798852615239
 30
0.0
 11
368.2746094903857
 21
-504.1798852615239
 31
0.0
  0
LINE
  5
1AE
  8
__-1
  6
CONTINUOUS
 62
     0
 10
326.8136510109438
 20
-504.1798852615239
 30
0.0
 11
345.9384477427006
 21
-504.1798852615239
 31
0.0
  0
INSERT
  5
1B3
  8
__-1
 62
     0
  2
VW_FILLEDARROW
 10
387.4071576869862
 20
-504.1798852615239
 30
0.0
 41
0.00775146484375
 42
0.00775146484375
 43
0.00775146484375
  0
INSERT
  5
1B8
  8
__-1
 62
     0
  2
VW_FILLEDARROW
 10
326.8058995461
 20
-504.1798852615239
 30
0.0
 41
0.00775146484375
 42
0.00775146484375
 43
0.00775146484375
 50
180.0
  0
TEXT
  5
1B9
  8
__-1
  6
CONTINUOUS
 62
     0
 10
345.2120684988734
 20
-506.0866307765701
 30
0.0
 40
3.813491030092584
  1
60.6013
  7
YUGOTHIC_BOLD
  0
POINT
  5
1BA
  8
DEFPOINTS
 62
     0
 10
387.4071576869862
 20
-482.5580767850901
 30
0.0
  0
POINT
  5
1BB
  8
DEFPOINTS
 62
     0
 10
326.8058995461
 20
-487.8534149314986
 30
0.0
  0
POINT
  5
505
  8
DEFPOINTS
 62
     0
 10
326.8058995461
 20
-504.1798852615239
 30
0.0
  0
ENDBLK
  5
A2
  8
0
  0
BLOCK
  8
0
  2
*D18
 70
     1
 10
0.0
 20
0.0
 30
0.0
  3
*D18
  1

  0
LINE
  5
1BC
  8
__-1
  6
CONTINUOUS
 62
     0
 10
387.4073715020725
 20
77.63684063269086
 30
0.0
 11
387.4073715020725
 21
56.75117781104957
 31
0.0
  0
LINE
  5
1BD
  8
__-1
  6
CONTINUOUS
 62
     0
 10
326.8058995461
 20
78.15634305240907
 30
0.0
 11
326.8058995461
 21
56.75117781104957
 31
0.0
  0
LINE
  5
1BE
  8
__-1
  6
CONTINUOUS
 62
     0
 10
387.3996200372287
 20
56.76017781104957
 30
0.0
 11
368.2747163979288
 21
56.76017781104957
 31
0.0
  0
LINE
  5
1BF
  8
__-1
  6
CONTINUOUS
 62
     0
 10
326.8136510109438
 20
56.76017781104957
 30
0.0
 11
345.9385546502437
 21
56.76017781104957
 31
0.0
  0
INSERT
  5
1C4
  8
__-1
 62
     0
  2
VW_FILLEDARROW
 10
387.4073715020725
 20
56.76017781104957
 30
0.0
 41
0.00775146484375
 42
0.00775146484375
 43
0.00775146484375
  0
INSERT
  5
1C9
  8
__-1
 62
     0
  2
VW_FILLEDARROW
 10
326.8058995461
 20
56.76017781104957
 30
0.0
 41
0.00775146484375
 42
0.00775146484375
 43
0.00775146484375
 50
180.0
  0
TEXT
  5
1CA
  8
__-1
  6
CONTINUOUS
 62
     0
 10
345.2121754064165
 20
54.85343229600328
 30
0.0
 40
3.813491030092584
  1
60.6015
  7
YUGOTHIC_BOLD
  0
POINT
  5
1CB
  8
DEFPOINTS
 62
     0
 10
387.4073715020725
 20
77.63996563269086
 30
0.0
  0
POINT
  5
1CC
  8
DEFPOINTS
 62
     0
 10
326.8058995461
 20
78.15946805240907
 30
0.0
  0
POINT
  5
507
  8
DEFPOINTS
 62
     0
 10
326.8058995461
 20
56.76017781104957
 30
0.0
  0
ENDBLK
  5
A5
  8
0
  0
BLOCK
  8
0
  2
CALLOUT
 70
     0
 10
0.0
 20
0.0
 30
0.0
  3
CALLOUT
  1

  0
LINE
  5
1CD
  8
_0-0_0
  6
CONTINUOUS
 62
    17
 10
0.0
 20
0.0
 30
0.0
 11
-7.822461453855539
 21
-13.96477947733874
 31
0.0
  0
LINE
  5
1CE
  8
_0-0_0
  6
CONTINUOUS
 62
    17
 10
12.7
 20
0.0
 30
0.0
 11
0.0
 21
0.0
 31
0.0
  0
TEXT
  5
1CF
  8
_0-0_0
 62
    17
 10
13.89
 20
-0.6420555700000006
 30
0.0
 40
3.813491115885417
  1
穴径φ22±2
  7
YUGOTHIC_BOLD
 11
13.89
 21
3.171435545885416
 31
0.0
 73
     3
  0
ENDBLK
  5
A8
  8
0
  0
BLOCK
  8
0
  2
____-4-1
 70
     0
 10
0.0
 20
0.0
 30
0.0
  3
____-4-1
  1

  0
POLYLINE
  5
1D0
  8
__-3
 62
     1
 66
     1
 10
0.0
 20
0.0
 30
0.0
 70
   129
  0
VERTEX
  5
1D1
  8
__-3
 62
     1
 10
44.73288581853694
 20
262.724631362171
 30
0.0
  0
VERTEX
  5
1D2
  8
__-3
 62
     1
 10
387.2328858185369
 20
262.724631362171
 30
0.0
  0
VERTEX
  5
1D3
  8
__-3
 62
     1
 10
387.2328858185369
 20
201.0200272168042
 30
0.0
  0
VERTEX
  5
1D4
  8
__-3
 62
     1
 10
44.73288581853694
 20
201.0200272168042
 30
0.0
  0
SEQEND
  5
1D5
  8
__-3
 62
     1
  0
LINE
  5
1D6
  8
__-3
 62
     2
 10
84.23692272741823
 20
262.724631362171
 30
0.0
 11
84.23692272741823
 21
201.0200272168042
 31
0.0
  0
LINE
  5
1D7
  8
__-3
 62
     2
 10
180.2317324159994
 20
262.724631362171
 30
0.0
 11
180.2317324159994
 21
201.0200272168042
 31
0.0
  0
TEXT
  5
1D8
  8
__-3
 62
     2
 10
57.01610441076151
 20
244.6293927678838
 30
0.0
 40
6.372048611111111
  1
No.
  7
YUGOTHIC_MEDIUM-B
 72
     1
 11
64.75359200996786
 21
247.8154170734393
 31
0.0
 73
     2
  0
TEXT
  5
1D9
  8
__-3
 62
     2
 10
119.9218127372172
 20
244.6293927678838
 30
0.0
 40
6.372048611111111
  1
名 称
  7
YUGOTHIC_MEDIUM-B
 72
     1
 11
128.5695929951537
 21
247.8154170734393
 31
0.0
 73
     2
  0
TEXT
  5
1DA
  8
__-3
 62
     2
 10
250.3692265157584
 20
244.6293927678838
 30
0.0
 40
6.372048611111111
  1
仕 様
  7
YUGOTHIC_MEDIUM-B
 72
     1
 11
259.0170067736949
 21
247.8154170734393
 31
0.0
 73
     2
  0
TEXT
  5
1DB
  8
__-3
 62
     2
 10
61.42365299472037
 20
214.8003779624522
 30
0.0
 40
6.372048611111111
  1
1
  7
YUGOTHIC_MEDIUM
 72
     1
 11
64.00281552778915
 21
217.9864022680077
 31
0.0
 73
     2
  0
TEXT
  5
1DC
  8
__-3
 62
     2
 10
118.1058077634277
 20
214.8003779624522
 30
0.0
 40
6.372048611111111
  1
水栓本体
  7
YUGOTHIC_MEDIUM
 72
     1
 11
129.0293196681896
 21
217.9864022680077
 31
0.0
 73
     2
  0
TEXT
  5
1DD
  8
__-3
 62
     2
 10
250.173279961256
 20
214.8003779624522
 30
0.0
 40
6.372048611111111
  1
クロームメッキ仕上げ
  7
YUGOTHIC_MEDIUM
 72
     1
 11
277.4820597231608
 21
217.9864022680077
 31
0.0
 73
     2
  0
LINE
  5
1DE
  8
__-3
 62
     1
 10
44.73288581853694
 20
231.8723292894876
 30
0.0
 11
387.2328858185369
 21
231.8723292894876
 31
0.0
  0
TEXT
  5
1DF
  8
__
 62
    17
 10
48.33728352374578
 20
179.8171466720484
 30
0.0
 40
6.372048611111111
  1
※スパウト150mm。
  7
YUGOTHIC_MEDIUM
 11
48.33728352374578
 21
186.1891952831595
 31
0.0
 73
     3
  0
TEXT
  5
1E0
  8
__
 62
    17
 10
48.33728352374578
 20
163.9436290803621
 30
0.0
 40
6.372048611111111
  1
※水 (CLOD BLUE)、湯 (HOT RED) のマークは、各1個付属されています。
  7
YUGOTHIC_MEDIUM
 11
48.33728352374578
 21
170.3156776914732
 31
0.0
 73
     3
  0
ENDBLK
  5
AC
  8
0
  0
BLOCK
  8
0
  2
____-5-1
 70
     0
 10
0.0
 20
0.0
 30
0.0
  3
____-5-1
  1

  0
TEXT
  5
1E1
  8
__
 62
    17
 10
48.33728352374578
 20
-385.4630657400315
 30
0.0
 40
6.372048611111111
  1
※スパウト200mm。
  7
YUGOTHIC_MEDIUM
 11
48.33728352374578
 21
-379.0910171289204
 31
0.0
 73
     3
  0
TEXT
  5
1E2
  8
__
 62
    17
 10
48.33728352374578
 20
-401.3365833317177
 30
0.0
 40
6.372048611111111
  1
※水 (CLOD BLUE)、湯 (HOT RED) のマークは、各1個付属されています。
  7
YUGOTHIC_MEDIUM
 11
48.33728352374578
 21
-394.9645347206067
 31
0.0
 73
     3
  0
POLYLINE
  5
1E3
  8
__-3
 62
     1
 66
     1
 10
0.0
 20
0.0
 30
0.0
 70
   129
  0
VERTEX
  5
1E4
  8
__-3
 62
     1
 10
44.73288581853694
 20
-305.4275135526411
 30
0.0
  0
VERTEX
  5
1E5
  8
__-3
 62
     1
 10
387.2328858185369
 20
-305.4275135526411
 30
0.0
  0
VERTEX
  5
1E6
  8
__-3
 62
     1
 10
387.2328858185369
 20
-367.132117698008
 30
0.0
  0
VERTEX
  5
1E7
  8
__-3
 62
     1
 10
44.73288581853694
 20
-367.132117698008
 30
0.0
  0
SEQEND
  5
1E8
  8
__-3
 62
     1
  0
LINE
  5
1E9
  8
__-3
 62
     2
 10
84.23692272741823
 20
-305.4275135526411
 30
0.0
 11
84.23692272741823
 21
-367.132117698008
 31
0.0
  0
LINE
  5
1EA
  8
__-3
 62
     2
 10
180.2317324159994
 20
-305.4275135526411
 30
0.0
 11
180.2317324159994
 21
-367.132117698008
 31
0.0
  0
TEXT
  5
1EB
  8
__-3
 62
     2
 10
57.01610441076151
 20
-323.5227521469284
 30
0.0
 40
6.372048611111111
  1
No.
  7
YUGOTHIC_MEDIUM-B
 72
     1
 11
64.75359200996786
 21
-320.3367278413728
 31
0.0
 73
     2
  0
TEXT
  5
1EC
  8
__-3
 62
     2
 10
119.9218127372172
 20
-323.5227521469284
 30
0.0
 40
6.372048611111111
  1
名 称
  7
YUGOTHIC_MEDIUM-B
 72
     1
 11
128.5695929951537
 21
-320.3367278413728
 31
0.0
 73
     2
  0
TEXT
  5
1ED
  8
__-3
 62
     2
 10
250.3692265157584
 20
-323.5227521469284
 30
0.0
 40
6.372048611111111
  1
仕 様
  7
YUGOTHIC_MEDIUM-B
 72
     1
 11
259.0170067736949
 21
-320.3367278413728
 31
0.0
 73
     2
  0
TEXT
  5
1EE
  8
__-3
 62
     2
 10
61.42365299472037
 20
-353.35176695236
 30
0.0
 40
6.372048611111111
  1
1
  7
YUGOTHIC_MEDIUM
 72
     1
 11
64.00281552778915
 21
-350.1657426468044
 31
0.0
 73
     2
  0
TEXT
  5
1EF
  8
__-3
 62
     2
 10
118.1058077634277
 20
-353.35176695236
 30
0.0
 40
6.372048611111111
  1
水栓本体
  7
YUGOTHIC_MEDIUM
 72
     1
 11
129.0293196681896
 21
-350.1657426468044
 31
0.0
 73
     2
  0
TEXT
  5
1F0
  8
__-3
 62
     2
 10
250.173279961256
 20
-353.35176695236
 30
0.0
 40
6.372048611111111
  1
クロームメッキ仕上げ
  7
YUGOTHIC_MEDIUM
 72
     1
 11
277.4820597231608
 21
-350.1657426468044
 31
0.0
 73
     2
  0
LINE
  5
1F1
  8
__-3
 62
     1
 10
44.73288581853694
 20
-336.2798156253245
 30
0.0
 11
387.2328858185369
 21
-336.2798156253245
 31
0.0
  0
ENDBLK
  5
AF
  8
0
  0
BLOCK
  8
0
  2
____-6-1
 70
     0
 10
0.0
 20
0.0
 30
0.0
  3
____-6-1
  1

  0
TEXT
  5
1F2
  8
__
 62
    17
 10
48.33728352374578
 20
-950.8633060079812
 30
0.0
 40
6.372048611111111
  1
※スパウト250mm。
  7
YUGOTHIC_MEDIUM
 11
48.33728352374578
 21
-944.4912573968701
 31
0.0
 73
     3
  0
TEXT
  5
1F3
  8
__
 62
    17
 10
48.33728352374578
 20
-966.7368235996676
 30
0.0
 40
6.372048611111111
  1
※水 (CLOD BLUE)、湯 (HOT RED) のマークは、各1個付属されています。
  7
YUGOTHIC_MEDIUM
 11
48.33728352374578
 21
-960.3647749885564
 31
0.0
 73
     3
  0
POLYLINE
  5
1F4
  8
__-3
 62
     1
 66
     1
 10
0.0
 20
0.0
 30
0.0
 70
   129
  0
VERTEX
  5
1F5
  8
__-3
 62
     1
 10
44.73288581853694
 20
-874.8277538205908
 30
0.0
  0
VERTEX
  5
1F6
  8
__-3
 62
     1
 10
387.2328858185369
 20
-874.8277538205908
 30
0.0
  0
VERTEX
  5
1F7
  8
__-3
 62
     1
 10
387.2328858185369
 20
-936.5323579659577
 30
0.0
  0
VERTEX
  5
1F8
  8
__-3
 62
     1
 10
44.73288581853694
 20
-936.5323579659577
 30
0.0
  0
SEQEND
  5
1F9
  8
__-3
 62
     1
  0
LINE
  5
1FA
  8
__-3
 62
     2
 10
84.23692272741823
 20
-874.8277538205908
 30
0.0
 11
84.23692272741823
 21
-936.5323579659577
 31
0.0
  0
LINE
  5
1FB
  8
__-3
 62
     2
 10
180.2317324159994
 20
-874.8277538205908
 30
0.0
 11
180.2317324159994
 21
-936.5323579659577
 31
0.0
  0
TEXT
  5
1FC
  8
__-3
 62
     2
 10
57.01610441076151
 20
-892.9229924148781
 30
0.0
 40
6.372048611111111
  1
No.
  7
YUGOTHIC_MEDIUM-B
 72
     1
 11
64.75359200996786
 21
-889.7369681093226
 31
0.0
 73
     2
  0
TEXT
  5
1FD
  8
__-3
 62
     2
 10
119.9218127372172
 20
-892.9229924148781
 30
0.0
 40
6.372048611111111
  1
名 称
  7
YUGOTHIC_MEDIUM-B
 72
     1
 11
128.5695929951537
 21
-889.7369681093226
 31
0.0
 73
     2
  0
TEXT
  5
1FE
  8
__-3
 62
     2
 10
250.3692265157584
 20
-892.9229924148781
 30
0.0
 40
6.372048611111111
  1
仕 様
  7
YUGOTHIC_MEDIUM-B
 72
     1
 11
259.0170067736949
 21
-889.7369681093226
 31
0.0
 73
     2
  0
TEXT
  5
1FF
  8
__-3
 62
     2
 10
61.42365299472037
 20
-922.7520072203097
 30
0.0
 40
6.372048611111111
  1
1
  7
YUGOTHIC_MEDIUM
 72
     1
 11
64.00281552778915
 21
-919.5659829147542
 31
0.0
 73
     2
  0
TEXT
  5
200
  8
__-3
 62
     2
 10
118.1058077634277
 20
-922.7520072203097
 30
0.0
 40
6.372048611111111
  1
水栓本体
  7
YUGOTHIC_MEDIUM
 72
     1
 11
129.0293196681896
 21
-919.5659829147542
 31
0.0
 73
     2
  0
TEXT
  5
201
  8
__-3
 62
     2
 10
250.173279961256
 20
-922.7520072203097
 30
0.0
 40
6.372048611111111
  1
クロームメッキ仕上げ
  7
YUGOTHIC_MEDIUM
 72
     1
 11
277.4820597231608
 21
-919.5659829147542
 31
0.0
 73
     2
  0
LINE
  5
202
  8
__-3
 62
     1
 10
44.73288581853694
 20
-905.6800558932742
 30
0.0
 11
387.2328858185369
 21
-905.6800558932742
 31
0.0
  0
ENDBLK
  5
B2
  8
0
  0
BLOCK
  8
0
  2
VW_FILLEDARROW
 70
     0
 10
0.0
 20
0.0
 30
0.0
  3
VW_FILLEDARROW
  1

  0
POLYLINE
  5
C9
  8
0
  6
CONTINUOUS
 62
     0
 66
     1
 10
0.0
 20
0.0
 30
0.0
 70
   129
  0
VERTEX
  5
CA
  8
0
  6
CONTINUOUS
 62
     0
 10
-1.0
 20
0.1227845609029044
 30
0.0
  0
VERTEX
  5
CB
  8
0
  6
CONTINUOUS
 62
     0
 10
0.0
 20
0.0
 30
0.0
  0
VERTEX
  5
CC
  8
0
  6
CONTINUOUS
 62
     0
 10
-1.0
 20
-0.1227845609029047
 30
0.0
  0
SEQEND
  5
CD
  8
0
  6
CONTINUOUS
 62
     0
  0
ENDBLK
  5
C8
  8
0
  0
ENDSEC
  0
SECTION
  2
ENTITIES
  0
LINE
  5
203
  8
__-2
  6
CONTINUOUS
 62
     7
 10
266.6269839681351
 20
131.2845250210839
 30
0.0
 11
-140.7890160318649
 21
131.2845250210839
 31
0.0
  0
TEXT
  5
204
  8
__-2
 62
     3
 10
211.6923540546792
 20
127.4000985329652
 30
0.0
 40
2.124016203703704
  1
2021.07.05
  7
YUGOTHIC_MEDIUM
 11
211.6923540546792
 21
128.462106634817
 31
0.0
 73
     2
  0
TEXT
  5
205
  8
__-2
 62
     3
 10
253.0950665878036
 20
127.4000985329652
 30
0.0
 40
2.124016203703704
  1
1:3(A3)
  7
YUGOTHIC_MEDIUM
 11
253.0950665878036
 21
128.462106634817
 31
0.0
 73
     2
  0
INSERT
  5
206
  8
__-2
 62
    17
  2
____-1
 10
62.91898396813508
 20
267.1473011405615
 30
0.0
  0
TEXT
  5
207
  8
__-2
 62
     3
 10
241.077432422481
 20
128.095217745928
 30
0.0
 40
2.124016203703704
  1
SCALE:
  7
YUGOTHIC_MEDIUM
 11
241.077432422481
 21
130.2192339496317
 31
0.0
 73
     3
  0
TEXT
  5
208
  8
__-2
 62
     3
 10
55.79941717575559
 20
128.095217745928
 30
0.0
 40
2.124016203703704
  1
NAME:
  7
YUGOTHIC_MEDIUM
 11
55.79941717575559
 21
130.2192339496317
 31
0.0
 73
     3
  0
TEXT
  5
209
  8
__-2
 62
     3
 10
201.8189135686399
 20
128.095217745928
 30
0.0
 40
2.124016203703704
  1
DATE:
  7
YUGOTHIC_MEDIUM
 11
201.8189135686399
 21
130.2192339496317
 31
0.0
 73
     3
  0
TEXT
  5
20A
  8
__-2
 62
     3
 10
148.4203851491925
 20
128.095217745928
 30
0.0
 40
2.124016203703704
  1
ID:
  7
YUGOTHIC_MEDIUM
 11
148.4203851491925
 21
130.2192339496317
 31
0.0
 73
     3
  0
TEXT
  5
20B
  8
__-2
 62
     3
 10
154.5111165065862
 20
127.4000985329652
 30
0.0
 40
2.124016203703704
  1
KB-TP009-01
  7
YUGOTHIC_MEDIUM
 11
154.5111165065862
 21
128.462106634817
 31
0.0
 73
     2
  0
TEXT
  5
20C
  8
__-2
 62
     3
 10
67.13302060917863
 20
127.4000985329652
 30
0.0
 40
2.124016203703704
  1
ワーカーズ水栓　壁付けツインレバー混合栓　スパウト150mm
  7
YUGOTHIC_MEDIUM
 11
67.13302060917863
 21
128.462106634817
 31
0.0
 73
     2
  0
LINE
  5
20D
  8
__-2
  6
CONTINUOUS
 62
     7
 10
266.6269839681351
 20
-153.7154749789161
 30
0.0
 11
-140.7890160318649
 21
-153.7154749789161
 31
0.0
  0
TEXT
  5
20E
  8
__-2
 62
     3
 10
211.6923540546792
 20
-157.5999014670348
 30
0.0
 40
2.124016203703704
  1
2021.07.05
  7
YUGOTHIC_MEDIUM
 11
211.6923540546792
 21
-156.537893365183
 31
0.0
 73
     2
  0
TEXT
  5
20F
  8
__-2
 62
     3
 10
253.0950665878036
 20
-157.5999014670348
 30
0.0
 40
2.124016203703704
  1
1:3(A3)
  7
YUGOTHIC_MEDIUM
 11
253.0950665878036
 21
-156.537893365183
 31
0.0
 73
     2
  0
INSERT
  5
210
  8
__-2
 62
    17
  2
____-2-1
 10
62.91898396813508
 20
267.1473011405615
 30
0.0
  0
TEXT
  5
211
  8
__-2
 62
     3
 10
241.077432422481
 20
-156.904782254072
 30
0.0
 40
2.124016203703704
  1
SCALE:
  7
YUGOTHIC_MEDIUM
 11
241.077432422481
 21
-154.7807660503683
 31
0.0
 73
     3
  0
TEXT
  5
212
  8
__-2
 62
     3
 10
47.73622281105446
 20
-156.904782254072
 30
0.0
 40
2.124016203703704
  1
NAME:
  7
YUGOTHIC_MEDIUM
 11
47.73622281105446
 21
-154.7807660503683
 31
0.0
 73
     3
  0
TEXT
  5
213
  8
__-2
 62
     3
 10
201.8189135686399
 20
-156.904782254072
 30
0.0
 40
2.124016203703704
  1
DATE:
  7
YUGOTHIC_MEDIUM
 11
201.8189135686399
 21
-154.7807660503683
 31
0.0
 73
     3
  0
TEXT
  5
214
  8
__-2
 62
     3
 10
148.4203851491925
 20
-156.904782254072
 30
0.0
 40
2.124016203703704
  1
ID:
  7
YUGOTHIC_MEDIUM
 11
148.4203851491925
 21
-154.7807660503683
 31
0.0
 73
     3
  0
TEXT
  5
215
  8
__-2
 62
     3
 10
154.5111165065862
 20
-157.5999014670348
 30
0.0
 40
2.124016203703704
  1
KB-TP009-05
  7
YUGOTHIC_MEDIUM
 11
154.5111165065862
 21
-156.537893365183
 31
0.0
 73
     2
  0
TEXT
  5
216
  8
__-2
 62
     3
 10
59.0698262444775
 20
-157.5999014670348
 30
0.0
 40
2.124016203703704
  1
ワーカーズ水栓　壁付けツインレバー混合栓　スパウト200mm
  7
YUGOTHIC_MEDIUM
 11
59.0698262444775
 21
-156.537893365183
 31
0.0
 73
     2
  0
LINE
  5
217
  8
__-2
  6
CONTINUOUS
 62
     7
 10
266.6269839681351
 20
-438.7154749789161
 30
0.0
 11
-140.7890160318649
 21
-438.7154749789161
 31
0.0
  0
TEXT
  5
218
  8
__-2
 62
     3
 10
211.6923540546792
 20
-442.5999014670348
 30
0.0
 40
2.124016203703704
  1
2021.07.05
  7
YUGOTHIC_MEDIUM
 11
211.6923540546792
 21
-441.537893365183
 31
0.0
 73
     2
  0
TEXT
  5
219
  8
__-2
 62
     3
 10
253.0950665878036
 20
-442.5999014670348
 30
0.0
 40
2.124016203703704
  1
1:3(A3)
  7
YUGOTHIC_MEDIUM
 11
253.0950665878036
 21
-441.537893365183
 31
0.0
 73
     2
  0
INSERT
  5
21A
  8
__-2
 62
    17
  2
____-3-1
 10
62.91898396813508
 20
267.1473011405615
 30
0.0
  0
TEXT
  5
21B
  8
__-2
 62
     3
 10
241.077432422481
 20
-441.904782254072
 30
0.0
 40
2.124016203703704
  1
SCALE:
  7
YUGOTHIC_MEDIUM
 11
241.077432422481
 21
-439.7807660503682
 31
0.0
 73
     3
  0
TEXT
  5
21C
  8
__-2
 62
     3
 10
48.5334644805278
 20
-441.904782254072
 30
0.0
 40
2.124016203703704
  1
NAME:
  7
YUGOTHIC_MEDIUM
 11
48.5334644805278
 21
-439.7807660503682
 31
0.0
 73
     3
  0
TEXT
  5
21D
  8
__-2
 62
     3
 10
201.8189135686399
 20
-441.904782254072
 30
0.0
 40
2.124016203703704
  1
DATE:
  7
YUGOTHIC_MEDIUM
 11
201.8189135686399
 21
-439.7807660503682
 31
0.0
 73
     3
  0
TEXT
  5
21E
  8
__-2
 62
     3
 10
148.4203851491925
 20
-441.904782254072
 30
0.0
 40
2.124016203703704
  1
ID:
  7
YUGOTHIC_MEDIUM
 11
148.4203851491925
 21
-439.7807660503682
 31
0.0
 73
     3
  0
TEXT
  5
21F
  8
__-2
 62
     3
 10
154.5111165065862
 20
-442.5999014670348
 30
0.0
 40
2.124016203703704
  1
KB-TP009-06
  7
YUGOTHIC_MEDIUM
 11
154.5111165065862
 21
-441.537893365183
 31
0.0
 73
     2
  0
TEXT
  5
220
  8
__-2
 62
     3
 10
59.86706791395083
 20
-442.5999014670348
 30
0.0
 40
2.124016203703704
  1
ワーカーズ水栓　壁付けツインレバー混合栓　スパウト250mm
  7
YUGOTHIC_MEDIUM
 11
59.86706791395083
 21
-441.537893365183
 31
0.0
 73
     2
  0
LINE
  5
221
  8
_0-0_0
  6
CONTINUOUS
 62
     1
 10
347.3749004651696
 20
111.6268284154572
 30
0.0
 11
347.3749004651696
 21
93.62682841545723
 31
0.0
  0
LINE
  5
222
  8
_0-0_0
  6
CENTER-4
 62
    17
 10
-294.754652845551
 20
102.6399656326909
 30
0.0
 11
411.7908056071414
 21
102.6399656326909
 31
0.0
  0
LINE
  5
223
  8
_0-0_0
  6
CONTINUOUS
 62
     1
 10
-65.27367024075525
 20
97.81397562131178
 30
0.0
 11
-141.5398037207424
 21
97.81397562131178
 31
0.0
  0
LINE
  5
224
  8
_0-0_0
  6
CONTINUOUS
 62
     1
 10
-119.437072932552
 20
120.4679487131673
 30
0.0
 11
-61.94119627389293
 21
120.4679487131673
 31
0.0
  0
LINE
  5
225
  8
_0-0_0
  6
CENTER-4
 62
    17
 10
-243.3932831745694
 20
355.1158470775981
 30
0.0
 11
-243.3932831745694
 21
39.90851943816921
 31
0.0
  0
LINE
  5
226
  8
_0-0_0
  6
CENTER-4
 62
    17
 10
-141.5398037207416
 20
355.1158470775981
 30
0.0
 11
-141.5398037207416
 21
39.90851943816966
 31
0.0
  0
ARC
  5
227
  8
_0-0_0
  6
CONTINUOUS
 62
     1
 10
-227.515572531189
 20
127.1228572617471
 30
0.0
 40
2.288280110288497
 50
180.0000000000086
 51
270.0000000000085
  0
LINE
  5
228
  8
_0-0_0
  6
CONTINUOUS
 62
     1
 10
-226.5494098179562
 20
124.7648302535979
 30
0.0
 11
-259.9328740936081
 21
124.7648302535979
 31
0.0
  0
ARC
  5
229
  8
_0-0_0
  6
CONTINUOUS
 62
     1
 10
-217.8059372007291
 20
85.10130834193183
 30
0.0
 40
12.71266727937996
 50
90.0
 51
165.9637565320733
  0
LINE
  5
22A
  8
_0-0_0
  6
CONTINUOUS
 62
     1
 10
-261.9305744134055
 20
110.5338891284316
 30
0.0
 11
-256.026029679474
 21
86.91571019270486
 31
0.0
  0
LINE
  5
22B
  8
_0-0_0
  6
CONTINUOUS
 62
     1
 10
-230.4562542320903
 20
86.91571019270486
 30
0.0
 11
-230.1390360186625
 21
88.18458304641513
 31
0.0
  0
LINE
  5
22C
  8
_0-0_0
  6
CONTINUOUS
 62
     1
 10
-255.6560367149357
 20
86.62682841545723
 30
0.0
 11
-230.8262471966285
 21
86.62682841545723
 31
0.0
  0
ARC
  5
22D
  8
_0-0_0
  6
CONTINUOUS
 62
     1
 10
-255.6560367149354
 20
87.00820843383917
 30
0.0
 40
0.3813800183819279
 50
194.0362434678768
 51
269.9999999999318
  0
ARC
  5
22E
  8
_0-0_0
  6
CONTINUOUS
 62
     1
 10
-230.8262471966288
 20
87.00820843383917
 30
0.0
 40
0.3813800183819467
 50
270.0000000000512
 51
345.9637565321232
  0
ARC
  5
22F
  8
_0-0_0
  6
CONTINUOUS
 62
     1
 10
-258.9667113803751
 20
127.122857261747
 30
0.0
 40
2.288280110288383
 50
269.9999999999943
 51
359.9999999999943
  0
ARC
  5
230
  8
_0-0_0
  6
CONTINUOUS
 62
     1
 10
-259.9328740936081
 20
122.3875614723538
 30
0.0
 40
2.377268781244084
 50
90.0
 51
180.0
  0
LINE
  5
231
  8
_0-0_0
  6
CONTINUOUS
 62
     1
 10
-262.3101428748521
 20
122.3875614723538
 30
0.0
 11
-262.3101428748521
 21
113.6171638329151
 31
0.0
  0
ARC
  5
232
  8
_0-0_0
  6
CONTINUOUS
 62
     1
 10
-249.597475595472
 20
113.6171638329151
 30
0.0
 40
12.71266727938018
 50
180.000000000001
 51
194.0362434679276
  0
LINE
  5
233
  8
_0-0_0
  6
CONTINUOUS
 62
     1
 10
-259.1319760550069
 20
124.8345771514587
 30
0.0
 11
-259.1319760550069
 21
124.7648302535979
 31
0.0
  0
LINE
  5
234
  8
_0-0_0
  6
CONTINUOUS
 62
     1
 10
-163.6425345089324
 20
120.4679487131673
 30
0.0
 11
-221.1384111675911
 21
120.4679487131673
 31
0.0
  0
LINE
  5
235
  8
_0-0_0
  6
CONTINUOUS
 62
     1
 10
-217.8059372007291
 20
97.81397562131178
 30
0.0
 11
-141.5398037207416
 21
97.81397562131178
 31
0.0
  0
ARC
  5
236
  8
_0-0_0
  6
CONTINUOUS
 62
     1
 10
-226.5494098179562
 20
122.387561472354
 30
0.0
 40
2.37726878124395
 50
13.09372415419229
 51
90.0
  0
ARC
  5
237
  8
_0-0_0
  6
CONTINUOUS
 62
     1
 10
-221.1384111675911
 20
123.646115533013
 30
0.0
 40
3.178166819845618
 50
193.0937241541957
 51
270.0
  0
LINE
  5
238
  8
_0-0_0
  6
CONTINUOUS
 62
     1
 10
-227.3503078565566
 20
124.7648302535979
 30
0.0
 11
-227.3503078565566
 21
124.8345771514587
 31
0.0
  0
LINE
  5
239
  8
_0-0_0
  6
CONTINUOUS
 62
     1
 10
-141.539803720742
 20
124.7648302535972
 30
0.0
 11
-158.231535858568
 21
124.7648302535979
 31
0.0
  0
ARC
  5
23A
  8
_0-0_0
  6
CONTINUOUS
 62
     1
 10
-158.2315358585681
 20
122.3875614723538
 30
0.0
 40
2.377268781244084
 50
89.9999999999959
 51
166.9062758458002
  0
ARC
  5
23B
  8
_0-0_0
  6
CONTINUOUS
 62
     1
 10
-163.6425345089329
 20
123.6461155330123
 30
0.0
 40
3.178166819845046
 50
270.0000000000097
 51
346.9062758458125
  0
LINE
  5
23C
  8
_0-0_0
  6
CONTINUOUS
 62
     1
 10
-154.6783453539813
 20
139.5974835790922
 30
0.0
 11
-154.6783453539813
 21
126.3017917276753
 31
0.0
  0
ARC
  5
23D
  8
_0-0_0
  6
CONTINUOUS
 62
     1
 10
-156.2153068280583
 20
126.3017917276749
 30
0.0
 40
1.536961474077088
 50
270.0000000000138
 51
0.0000000000169962
  0
ARC
  5
23E
  8
_0-0_0
  6
CONTINUOUS
 62
     1
 10
-124.8480715829162
 20
122.3875614723538
 30
0.0
 40
2.37726878124411
 50
13.09372415419984
 51
90.00000000000412
  0
ARC
  5
23F
  8
_0-0_0
  6
CONTINUOUS
 62
     1
 10
-119.4370729325515
 20
123.6461155330123
 30
0.0
 40
3.178166819845046
 50
193.0937241541876
 51
269.9999999999903
  0
LINE
  5
240
  8
_0-0_0
  6
CONTINUOUS
 62
     1
 10
-141.539803720742
 20
124.7648302535972
 30
0.0
 11
-124.8480715829164
 21
124.7648302535979
 31
0.0
  0
LINE
  5
241
  8
_0-0_0
  6
CONTINUOUS
 62
     1
 10
-128.4012620875035
 20
139.5974835790922
 30
0.0
 11
-128.4012620875031
 21
126.3017917276753
 31
0.0
  0
ARC
  5
242
  8
_0-0_0
  6
CONTINUOUS
 62
     1
 10
-126.8643006134261
 20
126.3017917276749
 30
0.0
 40
1.53696147407706
 50
179.9999999999831
 51
269.9999999999862
  0
LINE
  5
243
  8
_0-0_0
  6
CENTER-4
 62
    17
 10
-39.78737080838141
 20
355.1158470775981
 30
0.0
 11
-39.78737080838107
 21
39.90851943816989
 31
0.0
  0
ARC
  5
244
  8
_0-0_0
  6
CONTINUOUS
 62
     1
 10
-56.53019762352798
 20
122.3875614723538
 30
0.0
 40
2.377268781244197
 50
89.9999999999952
 51
166.9062758458005
  0
ARC
  5
245
  8
_0-0_0
  6
CONTINUOUS
 62
     1
 10
-65.27367024075508
 20
85.1013083419316
 30
0.0
 40
12.71266727938017
 50
14.03624346792757
 51
90.00000000000075
  0
ARC
  5
246
  8
_0-0_0
  6
CONTINUOUS
 62
     1
 10
-61.9411962738931
 20
123.6461155330127
 30
0.0
 40
3.178166819845387
 50
270.000000000003
 51
346.9062758458075
  0
LINE
  5
247
  8
_0-0_0
  6
CONTINUOUS
 62
     1
 10
-21.14903302807888
 20
110.5338891284316
 30
0.0
 11
-27.05357776201035
 21
86.91571019270486
 31
0.0
  0
LINE
  5
248
  8
_0-0_0
  6
CONTINUOUS
 62
     1
 10
-27.42357072654816
 20
86.62682841545723
 30
0.0
 11
-52.25336024485586
 21
86.62682841545723
 31
0.0
  0
LINE
  5
249
  8
_0-0_0
  6
CONTINUOUS
 62
     1
 10
-52.62335320939411
 20
86.91571019270486
 30
0.0
 11
-52.94057142282151
 21
88.18458304641513
 31
0.0
  0
ARC
  5
24A
  8
_0-0_0
  6
CONTINUOUS
 62
     1
 10
-52.25336024485551
 20
87.00820843383917
 30
0.0
 40
0.3813800183819003
 50
194.0362434678778
 51
269.9999999999488
  0
ARC
  5
24B
  8
_0-0_0
  6
CONTINUOUS
 62
     1
 10
-27.42357072654876
 20
87.00820843383894
 30
0.0
 40
0.3813800183817193
 50
270.0000000000811
 51
345.9637565321331
  0
LINE
  5
24C
  8
_0-0_0
  6
CONTINUOUS
 62
     1
 10
-56.53019762352781
 20
124.7648302535979
 30
0.0
 11
-23.14673334787594
 21
124.7648302535979
 31
0.0
  0
LINE
  5
24D
  8
_0-0_0
  6
CONTINUOUS
 62
     1
 10
-53.27575480000687
 20
141.1228572617467
 30
0.0
 11
-53.27575480000687
 21
127.1228572617467
 31
0.0
  0
ARC
  5
24E
  8
_0-0_0
  6
CONTINUOUS
 62
     1
 10
-55.56403491029519
 20
127.122857261747
 30
0.0
 40
2.288280110288383
 50
269.999999999995
 51
359.9999999999943
  0
LINE
  5
24F
  8
_0-0_0
  6
CONTINUOUS
 62
     1
 10
-55.72929958492736
 20
124.7648302535979
 30
0.0
 11
-55.72929958492736
 21
124.8345771514587
 31
0.0
  0
ARC
  5
250
  8
_0-0_0
  6
CONTINUOUS
 62
     1
 10
-23.14673334787607
 20
122.387561472354
 30
0.0
 40
2.377268781243842
 50
359.9999999999945
 51
89.99999999999551
  0
LINE
  5
251
  8
_0-0_0
  6
CONTINUOUS
 62
     1
 10
-20.76946456663221
 20
122.3875614723538
 30
0.0
 11
-20.76946456663221
 21
113.6171638329151
 31
0.0
  0
ARC
  5
252
  8
_0-0_0
  6
CONTINUOUS
 62
     1
 10
-33.48213184601239
 20
113.6171638329151
 30
0.0
 40
12.71266727938016
 50
345.9637565320724
 51
359.999999999999
  0
ARC
  5
253
  8
_0-0_0
  6
CONTINUOUS
 62
     1
 10
-24.11289606110903
 20
127.1228572617467
 30
0.0
 40
2.288280110288184
 50
180.0
 51
270.0
  0
LINE
  5
254
  8
_0-0_0
  6
CONTINUOUS
 62
     1
 10
-26.40117617139725
 20
127.1228572617467
 30
0.0
 11
-26.40117617139725
 21
141.1228572617467
 31
0.0
  0
LINE
  5
255
  8
_0-0_0
  6
CONTINUOUS
 62
     1
 10
-23.94763138647703
 20
124.8345771514587
 30
0.0
 11
-23.94763138647703
 21
124.7648302535979
 31
0.0
  0
LINE
  5
256
  8
_0-1_250
  6
CONTINUOUS
 62
     1
 10
-293.0056854662894
 20
184.0186709907421
 30
0.0
 11
-288.6184520199843
 21
163.1229967770439
 31
0.0
  0
LINE
  5
257
  8
_0-1_250
  6
CONTINUOUS
 62
     1
 10
-250.8318261848597
 20
163.1228570175826
 30
0.0
 11
-254.3910976864241
 21
179.1228570175826
 31
0.0
  0
LINE
  5
258
  8
_0-1_250
  6
CONTINUOUS
 62
     1
 10
-259.3932831745693
 20
152.1228572617467
 30
0.0
 11
-259.3932831745693
 21
141.1228572617467
 31
0.0
  0
LINE
  5
259
  8
_0-1_250
  6
CONTINUOUS
 62
     1
 10
-250.8318261848597
 20
163.1228570175826
 30
0.0
 11
-288.6184520199843
 21
163.1229967770439
 31
0.0
  0
LINE
  5
25A
  8
_0-1_250
  6
CONTINUOUS
 62
     1
 10
-231.3932446463114
 20
156.1228048596836
 30
0.0
 11
-255.3932446461604
 21
156.1228900218346
 31
0.0
  0
LINE
  5
25B
  8
_0-1_250
  6
CONTINUOUS
 62
     1
 10
-259.3932831745693
 20
152.1228572617467
 30
0.0
 11
-227.3932831745694
 21
152.1228572617467
 31
0.0
  0
LINE
  5
25C
  8
_0-1_250
  6
CONTINUOUS
 62
     1
 10
-249.2742634169376
 20
163.1228570175826
 30
0.0
 11
-249.2742634169376
 21
156.1228683091012
 31
0.0
  0
LINE
  5
25D
  8
_0-1_250
  6
CONTINUOUS
 62
     1
 10
-262.4410976864241
 20
179.2728570175827
 30
0.0
 11
-291.3068885953161
 21
184.753145486721
 31
0.0
  0
LINE
  5
25E
  8
_0-1_250
  6
CONTINUOUS
 62
     1
 10
-262.4410976864241
 20
179.2728570175827
 30
0.0
 11
-254.3910976864241
 21
179.1228570175826
 31
0.0
  0
LINE
  5
25F
  8
_0-1_250
  6
CONTINUOUS
 62
     1
 10
-293.0056854662894
 20
184.0186709907421
 30
0.0
 11
-291.3068885953161
 21
184.753145486721
 31
0.0
  0
LINE
  5
260
  8
_0-1_250
  6
CONTINUOUS
 62
     1
 10
-235.8318261848597
 20
163.1228570175826
 30
0.0
 11
-232.391097686424
 21
179.1228570175826
 31
0.0
  0
LINE
  5
261
  8
_0-1_250
  6
CONTINUOUS
 62
     1
 10
-250.8318261848597
 20
163.1228570175826
 30
0.0
 11
-235.8318261848597
 21
163.1228570175826
 31
0.0
  0
LINE
  5
262
  8
_0-1_250
  6
CONTINUOUS
 62
     1
 10
-254.2752880925336
 20
179.1228570175826
 30
0.0
 11
-248.1432831745693
 21
180.5408747458271
 31
0.0
  0
LINE
  5
263
  8
_0-1_250
  6
CONTINUOUS
 62
     1
 10
-248.1432831745693
 20
180.5408747458271
 30
0.0
 11
-238.6432831745693
 21
180.5408747458271
 31
0.0
  0
LINE
  5
264
  8
_0-1_250
  6
CONTINUOUS
 62
     1
 10
-237.5123029322011
 20
163.1228570175826
 30
0.0
 11
-237.5123029322011
 21
156.1228265726907
 31
0.0
  0
LINE
  5
265
  8
_0-1_250
  6
CONTINUOUS
 62
     1
 10
-256.6358182264391
 20
154.5821120906423
 30
0.0
 11
-256.6358182264391
 21
152.1228572617467
 31
0.0
  0
LINE
  5
266
  8
_0-1_250
  6
CONTINUOUS
 62
     1
 10
-251.8187598009119
 20
152.1228572617467
 30
0.0
 11
-251.8187598009119
 21
141.1228572617467
 31
0.0
  0
LINE
  5
267
  8
_0-1_250
  6
CONTINUOUS
 62
     1
 10
-254.3910976864241
 20
179.1228570175826
 30
0.0
 11
-232.391097686424
 21
179.1228570175826
 31
0.0
  0
LINE
  5
268
  8
_0-1_250
  6
CONTINUOUS
 62
     1
 10
-248.1432831745693
 20
181.0408747458271
 30
0.0
 11
-248.1432831745693
 21
180.5408747458271
 31
0.0
  0
LINE
  5
269
  8
_0-1_250
  6
CONTINUOUS
 62
     1
 10
-238.6432831745693
 20
181.0408747458271
 30
0.0
 11
-238.6432831745693
 21
180.5408747458271
 31
0.0
  0
LINE
  5
26A
  8
_0-1_250
  6
CONTINUOUS
 62
     1
 10
-254.3910976864241
 20
179.1228570175826
 30
0.0
 11
-232.391097686424
 21
179.1228570175826
 31
0.0
  0
ARC
  5
26B
  8
__
  6
CONTINUOUS
 62
     1
 10
-243.3932831745693
 20
171.1554011470328
 30
0.0
 40
10.96745587054989
 50
64.3355743611285
 51
115.6644256388715
  0
LINE
  5
26C
  8
_0-1_250
  6
CONTINUOUS
 62
     1
 10
-232.511278256605
 20
179.1228570175826
 30
0.0
 11
-238.6432831745693
 21
180.5408747458271
 31
0.0
  0
ARC
  5
26D
  8
__
  6
CONTINUOUS
 62
     1
 10
-255.1555610537803
 20
154.6597770225194
 30
0.0
 40
1.482293202727366
 50
99.2271289249529
 51
183.0033945545471
  0
LINE
  5
26E
  8
_0-1_250
  6
CONTINUOUS
 62
     1
 10
-230.1507481226995
 20
154.5821120906423
 30
0.0
 11
-230.1507481226995
 21
152.1228572617467
 31
0.0
  0
ARC
  5
26F
  8
__
  6
CONTINUOUS
 62
     1
 10
-231.6310052953584
 20
154.6597770225194
 30
0.0
 40
1.482293202727277
 50
356.9966054454529
 51
80.77287107504714
  0
LINE
  5
270
  8
_0-1_250
  6
CONTINUOUS
 62
     1
 10
-259.3932831745693
 20
141.1228572617467
 30
0.0
 11
-227.3932831745694
 21
141.1228572617467
 31
0.0
  0
LINE
  5
271
  8
_0-1_250
  6
CONTINUOUS
 62
     1
 10
-227.3932831745694
 20
152.1228572617467
 30
0.0
 11
-227.3932831745694
 21
141.1228572617467
 31
0.0
  0
LINE
  5
272
  8
_0-1_250
  6
CONTINUOUS
 62
     1
 10
-234.9678065482267
 20
152.1228572617467
 30
0.0
 11
-234.9678065482267
 21
141.1228572617467
 31
0.0
  0
LINE
  5
273
  8
_0-1_250
  6
CONTINUOUS
 62
     1
 10
-256.6784312700868
 20
141.1228572617467
 30
0.0
 11
-256.6784312700868
 21
127.1228572617467
 31
0.0
  0
DIMENSION
  5
274
  8
__-1
  6
CONTINUOUS
 62
    17
  2
*D4
 10
-243.3932831745694
 20
9.902913028416151
 30
0.0
 11
-141.5903269914752
 21
9.902913028416151
 31
0.0
 70
    32
  3
STANDARD-1
 13
-39.78737080838107
 23
39.90851943816972
 33
0.0
 14
-243.3932831745694
 24
39.90851943816938
 34
0.0
  0
ARC
  5
276
  8
__
  6
CONTINUOUS
 62
     1
 10
-39.68632426691391
 20
102.5853770479991
 30
0.0
 40
16.50000000000002
 50
332.6421181585308
 51
0.1895576495853675
  0
ARC
  5
277
  8
__
  6
CONTINUOUS
 62
     1
 10
-39.68632426691391
 20
102.5853770479991
 30
0.0
 40
16.49999999999994
 50
255.2812740657107
 51
284.7187259342893
  0
ARC
  5
278
  8
__
  6
CONTINUOUS
 62
     1
 10
-39.68632426691391
 20
102.5853770479991
 30
0.0
 40
24.99999999999992
 50
191.1052391571127
 51
40.8281100460141
  0
LINE
  5
279
  8
_0-0_0
  6
CONTINUOUS
 62
     1
 10
383.9073715020725
 20
126.5586273713851
 30
0.0
 11
383.9073715020725
 21
78.69645457279637
 31
0.0
  0
LINE
  5
27A
  8
_0-0_0
  6
CONTINUOUS
 62
     1
 10
374.9073715020724
 20
118.6275409720907
 30
0.0
 11
374.9073715020724
 21
86.62754097209074
 31
0.0
  0
LINE
  5
27B
  8
_0-0_0
  6
CONTINUOUS
 62
     1
 10
379.9073715020724
 20
86.62754097209074
 30
0.0
 11
379.9073715020724
 21
118.6275409720907
 31
0.0
  0
LINE
  5
27C
  8
_0-0_0
  6
CONTINUOUS
 62
     1
 10
387.4073715020725
 20
127.6399656326909
 30
0.0
 11
387.4073715020725
 21
77.63996563269086
 31
0.0
  0
LINE
  5
27D
  8
_0-0_0
  6
CONTINUOUS
 62
     1
 10
369.3749004651696
 20
117.1275409720907
 30
0.0
 11
369.3749004651696
 21
88.12754097209074
 31
0.0
  0
LINE
  5
27E
  8
_0-0_0
  6
CONTINUOUS
 62
     1
 10
384.5501618163819
 20
127.6973116516735
 30
0.0
 11
387.4073715020725
 21
127.6973116516735
 31
0.0
  0
LINE
  5
27F
  8
_0-0_0
  6
CONTINUOUS
 62
     1
 10
384.5501618163819
 20
77.55777029250794
 30
0.0
 11
379.9073715020724
 21
86.62754097209074
 31
0.0
  0
LINE
  5
280
  8
_0-0_0
  6
CONTINUOUS
 62
     1
 10
384.5501618163819
 20
77.55777029250794
 30
0.0
 11
387.4071576869862
 21
77.55777029250794
 31
0.0
  0
LINE
  5
281
  8
_0-0_0
  6
CONTINUOUS
 62
     1
 10
379.9073715020724
 20
86.62754097209074
 30
0.0
 11
370.9073715020724
 21
86.62754097209074
 31
0.0
  0
LINE
  5
282
  8
_0-0_0
  6
CONTINUOUS
 62
     1
 10
384.5501618163819
 20
127.6973116516735
 30
0.0
 11
379.9073715020724
 21
118.6275409720907
 31
0.0
  0
LINE
  5
283
  8
_0-0_0
  6
CONTINUOUS
 62
     1
 10
370.9073715020724
 20
118.6275409720907
 30
0.0
 11
370.9073715020724
 21
86.62754097209074
 31
0.0
  0
LINE
  5
284
  8
_0-0_0
  6
CONTINUOUS
 62
     1
 10
379.9073715020724
 20
118.6275409720907
 30
0.0
 11
370.9073715020724
 21
118.6275409720907
 31
0.0
  0
LINE
  5
285
  8
_0-0_0
  6
CONTINUOUS
 62
     1
 10
370.9073715020724
 20
116.077916679257
 30
0.0
 11
369.3749004651696
 21
116.077916679257
 31
0.0
  0
LINE
  5
286
  8
_0-0_0
  6
CONTINUOUS
 62
     1
 10
370.9073715020724
 20
89.1771652649245
 30
0.0
 11
369.3749004651696
 21
89.1771652649245
 31
0.0
  0
LINE
  5
287
  8
_0-0_0
  6
CONTINUOUS
 62
     1
 10
369.3749004651696
 20
118.6268284154572
 30
0.0
 11
369.3749004651696
 21
87.22953326395725
 31
0.0
  0
LINE
  5
288
  8
_0-0_0
  6
CONTINUOUS
 62
     1
 10
349.3749004651696
 20
118.6268284154572
 30
0.0
 11
349.3749004651696
 21
86.62682841545723
 31
0.0
  0
LINE
  5
289
  8
_0-0_0
  6
CONTINUOUS
 62
     1
 10
349.3749004651696
 20
118.6268284154572
 30
0.0
 11
369.3749004651696
 21
118.6268284154572
 31
0.0
  0
LINE
  5
28A
  8
_0-0_0
  6
CONTINUOUS
 62
     1
 10
349.3749004651696
 20
86.62682841545723
 30
0.0
 11
369.3749004651696
 21
86.62682841545723
 31
0.0
  0
LINE
  5
28B
  8
_0-0_0
  6
CONTINUOUS
 62
     1
 10
369.3749004651696
 20
105.9028486604574
 30
0.0
 11
369.3749004651696
 21
118.0241235669572
 31
0.0
  0
LINE
  5
28C
  8
_0-0_0
  6
CONTINUOUS
 62
     1
 10
369.3749004651696
 20
86.62682841545723
 30
0.0
 11
369.3749004651696
 21
99.3508081704573
 31
0.0
  0
LINE
  5
28D
  8
_0-0_0
  6
CONTINUOUS
 62
     1
 10
349.3750693799576
 20
110.7799806932302
 30
0.0
 11
369.3750693799576
 21
110.7815757429925
 31
0.0
  0
LINE
  5
28E
  8
_0-0_0
  6
CONTINUOUS
 62
     1
 10
349.3750693799576
 20
94.47367613768427
 30
0.0
 11
369.3750693799576
 21
94.47208108792199
 31
0.0
  0
LINE
  5
28F
  8
_0-0_0
  6
CONTINUOUS
 62
     1
 10
-157.5398037207416
 20
139.5974835790922
 30
0.0
 11
-125.5398037207416
 21
139.5974835790922
 31
0.0
  0
LINE
  5
290
  8
_0-0_0
  6
CONTINUOUS
 62
     1
 10
-157.5398037207416
 20
139.5974835790922
 30
0.0
 11
-157.5398037207416
 21
150.5974835790922
 31
0.0
  0
LINE
  5
291
  8
_0-0_0
  6
CONTINUOUS
 62
     1
 10
-125.5398037207416
 20
139.5974835790922
 30
0.0
 11
-125.5398037207416
 21
150.5974835790922
 31
0.0
  0
LINE
  5
292
  8
_0-0_0
  6
CONTINUOUS
 62
     1
 10
-149.6929559985146
 20
139.5976524938802
 30
0.0
 11
-149.6945510482769
 21
150.5976524938802
 31
0.0
  0
LINE
  5
293
  8
_0-0_0
  6
CONTINUOUS
 62
     1
 10
-133.3866514429687
 20
139.5976524938802
 30
0.0
 11
-133.3850563932064
 21
150.5976524938802
 31
0.0
  0
LINE
  5
294
  8
_0-1_250
  6
CONTINUOUS
 62
     1
 10
10.21122612032372
 20
184.0186709907421
 30
0.0
 11
5.823992674018541
 21
163.1229967770439
 31
0.0
  0
LINE
  5
295
  8
_0-1_250
  6
CONTINUOUS
 62
     1
 10
-32.34882779809089
 20
163.1228570175826
 30
0.0
 11
-28.78955629652643
 21
179.1228570175826
 31
0.0
  0
LINE
  5
296
  8
_0-1_250
  6
CONTINUOUS
 62
     1
 10
-23.78737080838124
 20
152.1228572617467
 30
0.0
 11
-23.78737080838124
 21
141.1228572617467
 31
0.0
  0
LINE
  5
297
  8
_0-1_250
  6
CONTINUOUS
 62
     1
 10
-32.34882779809089
 20
163.1228570175826
 30
0.0
 11
5.437798037033701
 21
163.1229967770439
 31
0.0
  0
LINE
  5
298
  8
_0-1_250
  6
CONTINUOUS
 62
     1
 10
-51.7874093366392
 20
156.1228048596836
 30
0.0
 11
-27.78740933679018
 21
156.1228900218346
 31
0.0
  0
LINE
  5
299
  8
_0-1_250
  6
CONTINUOUS
 62
     1
 10
-23.78737080838124
 20
152.1228572617467
 30
0.0
 11
-55.78737080838113
 21
152.1228572617467
 31
0.0
  0
LINE
  5
29A
  8
_0-1_250
  6
CONTINUOUS
 62
     1
 10
-33.90639056601293
 20
163.1228570175826
 30
0.0
 11
-33.90639056601293
 21
156.1228683091012
 31
0.0
  0
LINE
  5
29B
  8
_0-1_250
  6
CONTINUOUS
 62
     1
 10
-20.73955629652647
 20
179.2728570175827
 30
0.0
 11
8.126234612365522
 21
184.753145486721
 31
0.0
  0
LINE
  5
29C
  8
_0-1_250
  6
CONTINUOUS
 62
     1
 10
-20.73955629652647
 20
179.2728570175827
 30
0.0
 11
-28.78955629652643
 21
179.1228570175826
 31
0.0
  0
LINE
  5
29D
  8
_0-1_250
  6
CONTINUOUS
 62
     1
 10
10.21122612032372
 20
184.0186709907421
 30
0.0
 11
8.512429249350362
 21
184.753145486721
 31
0.0
  0
LINE
  5
29E
  8
_0-1_250
  6
CONTINUOUS
 62
     1
 10
-47.34882779809089
 20
163.1228570175826
 30
0.0
 11
-50.78955629652654
 21
179.1228570175826
 31
0.0
  0
LINE
  5
29F
  8
_0-1_250
  6
CONTINUOUS
 62
     1
 10
-32.34882779809089
 20
163.1228570175826
 30
0.0
 11
-47.34882779809089
 21
163.1228570175826
 31
0.0
  0
LINE
  5
2A0
  8
_0-1_250
  6
CONTINUOUS
 62
     1
 10
-28.90536589041693
 20
179.1228570175826
 30
0.0
 11
-35.03737080838124
 21
180.5408747458271
 31
0.0
  0
LINE
  5
2A1
  8
_0-1_250
  6
CONTINUOUS
 62
     1
 10
-35.03737080838124
 20
180.5408747458271
 30
0.0
 11
-44.53737080838124
 21
180.5408747458271
 31
0.0
  0
LINE
  5
2A2
  8
_0-1_250
  6
CONTINUOUS
 62
     1
 10
-45.66835105074944
 20
163.1228570175826
 30
0.0
 11
-45.66835105074944
 21
156.1228265726907
 31
0.0
  0
LINE
  5
2A3
  8
_0-1_250
  6
CONTINUOUS
 62
     1
 10
-26.54483575651142
 20
154.5821120906423
 30
0.0
 11
-26.54483575651142
 21
152.1228572617467
 31
0.0
  0
LINE
  5
2A4
  8
_0-1_250
  6
CONTINUOUS
 62
     1
 10
-31.36189418203861
 20
152.1228572617467
 30
0.0
 11
-31.36189418203861
 21
141.1228572617467
 31
0.0
  0
LINE
  5
2A5
  8
_0-1_250
  6
CONTINUOUS
 62
     1
 10
-28.78955629652643
 20
179.1228570175826
 30
0.0
 11
-50.78955629652654
 21
179.1228570175826
 31
0.0
  0
LINE
  5
2A6
  8
_0-1_250
  6
CONTINUOUS
 62
     1
 10
-35.03737080838124
 20
181.0408747458271
 30
0.0
 11
-35.03737080838124
 21
180.5408747458271
 31
0.0
  0
LINE
  5
2A7
  8
_0-1_250
  6
CONTINUOUS
 62
     1
 10
-44.53737080838124
 20
181.0408747458271
 30
0.0
 11
-44.53737080838124
 21
180.5408747458271
 31
0.0
  0
LINE
  5
2A8
  8
_0-1_250
  6
CONTINUOUS
 62
     1
 10
-28.78955629652643
 20
179.1228570175826
 30
0.0
 11
-50.78955629652654
 21
179.1228570175826
 31
0.0
  0
ARC
  5
2A9
  8
__
  6
CONTINUOUS
 62
     1
 10
-39.78737080838124
 20
171.1554011470328
 30
0.0
 40
10.96745587054989
 50
64.3355743611285
 51
115.6644256388715
  0
LINE
  5
2AA
  8
_0-1_250
  6
CONTINUOUS
 62
     1
 10
-50.66937572634555
 20
179.1228570175826
 30
0.0
 11
-44.53737080838124
 21
180.5408747458271
 31
0.0
  0
ARC
  5
2AB
  8
__
  6
CONTINUOUS
 62
     1
 10
-28.02509292917028
 20
154.6597770225194
 30
0.0
 40
1.482293202727277
 50
356.9966054454529
 51
80.77287107504714
  0
LINE
  5
2AC
  8
_0-1_250
  6
CONTINUOUS
 62
     1
 10
-53.02990586025106
 20
154.5821120906423
 30
0.0
 11
-53.02990586025106
 21
152.1228572617467
 31
0.0
  0
ARC
  5
2AD
  8
__
  6
CONTINUOUS
 62
     1
 10
-51.5496486875922
 20
154.6597770225194
 30
0.0
 40
1.482293202727366
 50
99.2271289249529
 51
183.0033945545471
  0
LINE
  5
2AE
  8
_0-1_250
  6
CONTINUOUS
 62
     1
 10
-23.78737080838124
 20
141.1228572617467
 30
0.0
 11
-55.78737080838113
 21
141.1228572617467
 31
0.0
  0
LINE
  5
2AF
  8
_0-1_250
  6
CONTINUOUS
 62
     1
 10
-55.78737080838113
 20
152.1228572617467
 30
0.0
 11
-55.78737080838113
 21
141.1228572617467
 31
0.0
  0
LINE
  5
2B0
  8
_0-1_250
  6
CONTINUOUS
 62
     1
 10
-48.21284743472387
 20
152.1228572617467
 30
0.0
 11
-48.21284743472387
 21
141.1228572617467
 31
0.0
  0
LINE
  5
2B1
  8
_0-0_0
  6
CONTINUOUS
 62
     1
 10
339.2207943052537
 20
86.62682841545723
 30
0.0
 11
314.391004786946
 21
86.62682841545723
 31
0.0
  0
ARC
  5
2B2
  8
_0-0_0
  6
CONTINUOUS
 62
     1
 10
339.2207943052531
 20
87.00820843383894
 30
0.0
 40
0.3813800183817193
 50
270.0000000000769
 51
345.9637565321315
  0
LINE
  5
2B3
  8
_0-0_0
  6
CONTINUOUS
 62
     1
 10
310.1141674082741
 20
124.7648302535979
 30
0.0
 11
343.4976316839259
 21
124.7648302535979
 31
0.0
  0
LINE
  5
2B4
  8
_0-0_0
  6
CONTINUOUS
 62
     1
 10
313.3686102317949
 20
141.1228572617467
 30
0.0
 11
313.3686102317949
 21
127.1228572617467
 31
0.0
  0
ARC
  5
2B5
  8
_0-0_0
  6
CONTINUOUS
 62
     1
 10
343.4976316839258
 20
122.387561472354
 30
0.0
 40
2.377268781243856
 50
359.9999999999945
 51
89.9999999999945
  0
LINE
  5
2B6
  8
_0-0_0
  6
CONTINUOUS
 62
     1
 10
345.8749004651696
 20
122.3875614723538
 30
0.0
 11
345.8749004651696
 21
119.7642268330621
 31
0.0
  0
ARC
  5
2B7
  8
_0-0_0
  6
CONTINUOUS
 62
     1
 10
342.5314689706928
 20
127.1228572617467
 30
0.0
 40
2.288280110288156
 50
180.0
 51
270.0
  0
LINE
  5
2B8
  8
_0-0_0
  6
CONTINUOUS
 62
     1
 10
340.2431888604046
 20
127.1228572617467
 30
0.0
 11
340.2431888604046
 21
141.1228572617467
 31
0.0
  0
LINE
  5
2B9
  8
_0-0_0
  6
CONTINUOUS
 62
     1
 10
342.6967336453248
 20
124.8345771514587
 30
0.0
 11
342.6967336453248
 21
124.7648302535979
 31
0.0
  0
LINE
  5
2BA
  8
_0-1_250
  6
CONTINUOUS
 62
     1
 10
334.2444425563903
 20
163.1228570175826
 30
0.0
 11
337.8037140579547
 21
179.1228570175826
 31
0.0
  0
LINE
  5
2BB
  8
_0-1_250
  6
CONTINUOUS
 62
     1
 10
342.8058995460999
 20
152.1228572617467
 30
0.0
 11
342.8058995460999
 21
141.1228572617467
 31
0.0
  0
LINE
  5
2BC
  8
_0-1_250
  6
CONTINUOUS
 62
     1
 10
314.8058610178419
 20
156.1228048596836
 30
0.0
 11
338.805861017691
 21
156.1228900218346
 31
0.0
  0
LINE
  5
2BD
  8
_0-1_250
  6
CONTINUOUS
 62
     1
 10
332.6868797884682
 20
163.1228570175826
 30
0.0
 11
332.6868797884682
 21
156.1228683091012
 31
0.0
  0
LINE
  5
2BE
  8
_0-1_250
  6
CONTINUOUS
 62
     1
 10
319.2444425563903
 20
163.1228570175826
 30
0.0
 11
315.8037140579546
 21
179.1228570175826
 31
0.0
  0
LINE
  5
2BF
  8
_0-1_250
  6
CONTINUOUS
 62
     1
 10
334.2444425563903
 20
163.1228570175826
 30
0.0
 11
319.2444425563903
 21
163.1228570175826
 31
0.0
  0
LINE
  5
2C0
  8
_0-1_250
  6
CONTINUOUS
 62
     1
 10
337.6879044640642
 20
179.1228570175826
 30
0.0
 11
331.5558995460999
 21
180.5408747458271
 31
0.0
  0
LINE
  5
2C1
  8
_0-1_250
  6
CONTINUOUS
 62
     1
 10
331.5558995460999
 20
180.5408747458271
 30
0.0
 11
322.0558995460999
 21
180.5408747458271
 31
0.0
  0
LINE
  5
2C2
  8
_0-1_250
  6
CONTINUOUS
 62
     1
 10
320.9249193037317
 20
163.1228570175826
 30
0.0
 11
320.9249193037317
 21
156.1228265726907
 31
0.0
  0
LINE
  5
2C3
  8
_0-1_250
  6
CONTINUOUS
 62
     1
 10
340.0484345979697
 20
154.5821120906423
 30
0.0
 11
340.0484345979697
 21
152.1228572617467
 31
0.0
  0
LINE
  5
2C4
  8
_0-1_250
  6
CONTINUOUS
 62
     1
 10
335.2313761724425
 20
152.1228572617467
 30
0.0
 11
335.2313761724425
 21
141.1228572617467
 31
0.0
  0
LINE
  5
2C5
  8
_0-1_250
  6
CONTINUOUS
 62
     1
 10
337.8037140579547
 20
179.1228570175826
 30
0.0
 11
315.8037140579546
 21
179.1228570175826
 31
0.0
  0
LINE
  5
2C6
  8
_0-1_250
  6
CONTINUOUS
 62
     1
 10
331.5558995460999
 20
181.0408747458271
 30
0.0
 11
331.5558995460999
 21
180.5408747458271
 31
0.0
  0
LINE
  5
2C7
  8
_0-1_250
  6
CONTINUOUS
 62
     1
 10
322.0558995460999
 20
181.0408747458271
 30
0.0
 11
322.0558995460999
 21
180.5408747458271
 31
0.0
  0
LINE
  5
2C8
  8
_0-1_250
  6
CONTINUOUS
 62
     1
 10
337.8037140579547
 20
179.1228570175826
 30
0.0
 11
315.8037140579546
 21
179.1228570175826
 31
0.0
  0
ARC
  5
2C9
  8
__
  6
CONTINUOUS
 62
     1
 10
326.8058995460999
 20
171.1554011470328
 30
0.0
 40
10.96745587054989
 50
64.3355743611285
 51
115.6644256388715
  0
LINE
  5
2CA
  8
_0-1_250
  6
CONTINUOUS
 62
     1
 10
315.9238946281356
 20
179.1228570175826
 30
0.0
 11
322.0558995460999
 21
180.5408747458271
 31
0.0
  0
ARC
  5
2CB
  8
__
  6
CONTINUOUS
 62
     1
 10
338.5681774253109
 20
154.6597770225194
 30
0.0
 40
1.482293202727277
 50
356.9966054454529
 51
80.77287107504714
  0
LINE
  5
2CC
  8
_0-1_250
  6
CONTINUOUS
 62
     1
 10
313.5633644942301
 20
154.5821120906423
 30
0.0
 11
313.5633644942301
 21
152.1228572617467
 31
0.0
  0
ARC
  5
2CD
  8
__
  6
CONTINUOUS
 62
     1
 10
315.043621666889
 20
154.6597770225194
 30
0.0
 40
1.482293202727366
 50
99.2271289249529
 51
183.0033945545471
  0
LINE
  5
2CE
  8
_0-1_250
  6
CONTINUOUS
 62
     1
 10
342.8058995460999
 20
141.1228572617467
 30
0.0
 11
310.8058995461
 21
141.1228572617467
 31
0.0
  0
LINE
  5
2CF
  8
_0-1_250
  6
CONTINUOUS
 62
     1
 10
310.8058995461
 20
152.1228572617467
 30
0.0
 11
310.8058995461
 21
141.1228572617467
 31
0.0
  0
LINE
  5
2D0
  8
_0-1_250
  6
CONTINUOUS
 62
     1
 10
318.3804229197573
 20
152.1228572617467
 30
0.0
 11
318.3804229197573
 21
141.1228572617467
 31
0.0
  0
LINE
  5
2D1
  8
_0-0_0
  6
CONTINUOUS
 62
     1
 10
308.1164670884766
 20
110.5338891284316
 30
0.0
 11
314.0210118224081
 21
86.91571019270486
 31
0.0
  0
ARC
  5
2D2
  8
_0-0_0
  6
CONTINUOUS
 62
     1
 10
314.3910047869465
 20
87.00820843383894
 30
0.0
 40
0.3813800183817073
 50
194.0362434678675
 51
269.9999999999231
  0
ARC
  5
2D3
  8
_0-0_0
  6
CONTINUOUS
 62
     1
 10
310.1141674082738
 20
122.387561472354
 30
0.0
 40
2.377268781243856
 50
90.0000000000048
 51
180.0000000000055
  0
LINE
  5
2D4
  8
_0-0_0
  6
CONTINUOUS
 62
     1
 10
307.73689862703
 20
122.3875614723538
 30
0.0
 11
307.73689862703
 21
113.6171638329151
 31
0.0
  0
ARC
  5
2D5
  8
_0-0_0
  6
CONTINUOUS
 62
     1
 10
320.4495659064102
 20
113.6171638329151
 30
0.0
 40
12.71266727938016
 50
180.000000000001
 51
194.0362434679276
  0
ARC
  5
2D6
  8
_0-0_0
  6
CONTINUOUS
 62
     1
 10
311.0803301215068
 20
127.1228572617467
 30
0.0
 40
2.288280110288156
 50
270.0
 51
0.0
  0
LINE
  5
2D7
  8
_0-0_0
  6
CONTINUOUS
 62
     1
 10
310.9150654468748
 20
124.8345771514587
 30
0.0
 11
310.9150654468748
 21
124.7648302535979
 31
0.0
  0
POLYLINE
  5
2D8
  8
__
  6
CONTINUOUS
 62
     1
 66
     1
 10
0.0
 20
0.0
 30
0.0
 70
   129
  0
VERTEX
  5
2D9
  8
__
  6
CONTINUOUS
 62
     1
 10
324.4944425563903
 20
184.7530107663097
 30
0.0
  0
VERTEX
  5
2DA
  8
__
  6
CONTINUOUS
 62
     1
 10
328.9944425563903
 20
184.7530107663097
 30
0.0
  0
VERTEX
  5
2DB
  8
__
  6
CONTINUOUS
 62
     1
 10
328.9944425563903
 20
163.1228570175826
 30
0.0
  0
VERTEX
  5
2DC
  8
__
  6
CONTINUOUS
 62
     1
 10
324.4944425563903
 20
163.1228570175826
 30
0.0
  0
SEQEND
  5
2DD
  8
__
  6
CONTINUOUS
 62
     1
  0
LINE
  5
2DE
  8
__
  6
CONTINUOUS
 62
     1
 10
328.9944425563903
 20
184.0185362703309
 30
0.0
 11
324.4944425563903
 21
184.0185362703309
 31
0.0
  0
LINE
  5
2DF
  8
_0-0_0
  6
CONTINUOUS
 62
     1
 10
310.8058995461
 20
139.7353269751557
 30
0.0
 11
313.3686102317949
 21
139.7353269751557
 31
0.0
  0
LINE
  5
2E0
  8
_0-0_0
  6
CONTINUOUS
 62
     1
 10
340.2431888604046
 20
139.7353269751557
 30
0.0
 11
342.8058995461
 21
139.7353269751557
 31
0.0
  0
LINE
  5
2E1
  8
_0-0_0
  6
CONTINUOUS
 62
     1
 10
310.8058995461
 20
139.7353269751557
 30
0.0
 11
310.8058995461
 21
150.7353269751557
 31
0.0
  0
LINE
  5
2E2
  8
_0-0_0
  6
CONTINUOUS
 62
     1
 10
342.8058995461
 20
139.7353269751557
 30
0.0
 11
342.8058995461
 21
150.7353269751557
 31
0.0
  0
LINE
  5
2E3
  8
_0-1_250
  6
CONTINUOUS
 62
     1
 10
342.8058995460999
 20
152.1228572617467
 30
0.0
 11
310.8058995461
 21
152.1228572617467
 31
0.0
  0
ARC
  5
2E4
  8
_0-0_0
  6
CONTINUOUS
 62
     1
 10
280.8043820567489
 20
170.2164845025997
 30
0.0
 40
55.34527222373526
 50
0.0000000000003411
 51
1.441368348590231
  0
ARC
  5
2E5
  8
_0-0_0
  6
CONTINUOUS
 62
     1
 10
280.8043820567489
 20
170.2164845026
 30
0.0
 40
36.34859394016667
 50
0.0000000000003411
 51
5.292116287787906
  0
LINE
  5
2E6
  8
_0-0_0
  6
CONTINUOUS
 62
     1
 10
336.1496542804841
 20
170.2164845026
 30
0.0
 11
336.1496542804841
 21
156.1228131882403
 31
0.0
  0
LINE
  5
2E7
  8
_0-0_0
  6
CONTINUOUS
 62
     1
 10
317.1529759969155
 20
170.2164845026
 30
0.0
 11
317.1529759969155
 21
156.1228131882403
 31
0.0
  0
LINE
  5
2E8
  8
_0-0_0
  6
CONTINUOUS
 62
     1
 10
349.3749004651696
 20
111.6268284154572
 30
0.0
 11
347.3749004651696
 21
111.6268284154572
 31
0.0
  0
LINE
  5
2E9
  8
_0-0_0
  6
CONTINUOUS
 62
     1
 10
347.3749004651696
 20
93.62682841545723
 30
0.0
 11
349.3749004651696
 21
93.62682841545723
 31
0.0
  0
LINE
  5
2EA
  8
_0-1_250
  6
CONTINUOUS
 62
     1
 10
-229.8038526414775
 20
141.1228572617467
 30
0.0
 11
-229.8038526414775
 21
127.1228572617467
 31
0.0
  0
LINE
  5
2EB
  8
_0-0_0
  6
CENTER-4
 62
    17
 10
169.5560629167558
 20
355.1158470775981
 30
0.0
 11
169.5560629167562
 21
39.90851943816989
 31
0.0
  0
LINE
  5
2EC
  8
_0-0_0
  6
CENTER-4
 62
    17
 10
326.8058995460997
 20
355.1158470775981
 30
0.0
 11
326.8058995461001
 21
39.90851943816989
 31
0.0
  0
LINE
  5
2ED
  8
_0-0_0
  6
CENTER-4
 62
    17
 10
-308.7698477572844
 20
250.1436765900179
 30
0.0
 11
412.8910259658336
 21
250.1436765900187
 31
0.0
  0
LINE
  5
2EE
  8
_0-0_0
  6
CENTER-4
 62
    17
 10
387.4073715020722
 20
355.1158470775981
 30
0.0
 11
387.4073715020725
 21
39.90851943816989
 31
0.0
  0
ARC
  5
2EF
  8
_0-0_0
  6
CONTINUOUS
 62
     1
 10
377.7412163199099
 20
121.4313256504608
 30
0.0
 40
31.9098935225589
 50
182.9947210932997
 51
197.8939248773808
  0
ARC
  5
2F0
  8
__
  6
CONTINUOUS
 62
     1
 10
349.0585905063108
 20
83.71803489075063
 30
0.0
 40
9.993218973992978
 50
97.45294380096472
 51
161.338011728992
  0
ARC
  5
2F1
  8
__
  6
CONTINUOUS
 62
     1
 10
-243.3932831745694
 20
102.5853770479991
 30
0.0
 40
16.49999999999997
 50
179.8104423504147
 51
207.3578818414693
  0
ARC
  5
2F2
  8
__
  6
CONTINUOUS
 62
     1
 10
-243.3932831745694
 20
102.5853770479991
 30
0.0
 40
16.49999999999994
 50
255.2812740657107
 51
284.7187259342893
  0
ARC
  5
2F3
  8
__
  6
CONTINUOUS
 62
     1
 10
-243.3932831745694
 20
102.5853770479991
 30
0.0
 40
24.99999999999991
 50
139.1718899539859
 51
348.8947608428873
  0
LINE
  5
2F4
  8
_0-0_0
  6
CONTINUOUS
 62
     1
 10
347.3749004651696
 20
-448.4890186621408
 30
0.0
 11
347.3749004651696
 21
-466.4890186621408
 31
0.0
  0
LINE
  5
2F5
  8
_0-0_0
  6
CENTER-4
 62
    17
 10
-294.754652845551
 20
-457.4758814449071
 30
0.0
 11
411.7908056071414
 21
-457.4758814449071
 31
0.0
  0
LINE
  5
2F6
  8
_0-0_0
  6
CONTINUOUS
 62
     1
 10
-65.27367024075525
 20
-462.3018714562862
 30
0.0
 11
-141.5398037207424
 21
-462.3018714562862
 31
0.0
  0
LINE
  5
2F7
  8
_0-0_0
  6
CONTINUOUS
 62
     1
 10
-119.437072932552
 20
-439.6478983644307
 30
0.0
 11
-61.94119627389293
 21
-439.6478983644307
 31
0.0
  0
LINE
  5
2F8
  8
_0-0_0
  6
CENTER-4
 62
    17
 10
-243.3932831745694
 20
-204.9999999999999
 30
0.0
 11
-243.3932831745694
 21
-520.2073276394287
 31
0.0
  0
LINE
  5
2F9
  8
_0-0_0
  6
CENTER-4
 62
    17
 10
-141.5398037207416
 20
-204.9999999999999
 30
0.0
 11
-141.5398037207416
 21
-520.2073276394283
 31
0.0
  0
ARC
  5
2FA
  8
_0-0_0
  6
CONTINUOUS
 62
     1
 10
-227.515572531189
 20
-432.9929898158509
 30
0.0
 40
2.288280110288497
 50
180.0000000000086
 51
270.0000000000085
  0
LINE
  5
2FB
  8
_0-0_0
  6
CONTINUOUS
 62
     1
 10
-226.5494098179562
 20
-435.3510168240001
 30
0.0
 11
-259.9328740936081
 21
-435.3510168240001
 31
0.0
  0
ARC
  5
2FC
  8
_0-0_0
  6
CONTINUOUS
 62
     1
 10
-217.8059372007291
 20
-475.0145387356662
 30
0.0
 40
12.71266727937996
 50
90.0
 51
165.9637565320733
  0
LINE
  5
2FD
  8
_0-0_0
  6
CONTINUOUS
 62
     1
 10
-261.9305744134055
 20
-449.5819579491664
 30
0.0
 11
-256.026029679474
 21
-473.2001368848931
 31
0.0
  0
LINE
  5
2FE
  8
_0-0_0
  6
CONTINUOUS
 62
     1
 10
-230.4562542320903
 20
-473.2001368848931
 30
0.0
 11
-230.1390360186625
 21
-471.9312640311829
 31
0.0
  0
LINE
  5
2FF
  8
_0-0_0
  6
CONTINUOUS
 62
     1
 10
-255.6560367149357
 20
-473.4890186621408
 30
0.0
 11
-230.8262471966285
 21
-473.4890186621408
 31
0.0
  0
ARC
  5
300
  8
_0-0_0
  6
CONTINUOUS
 62
     1
 10
-255.6560367149354
 20
-473.1076386437588
 30
0.0
 40
0.3813800183819279
 50
194.0362434678768
 51
269.9999999999318
  0
ARC
  5
301
  8
_0-0_0
  6
CONTINUOUS
 62
     1
 10
-230.8262471966288
 20
-473.1076386437588
 30
0.0
 40
0.3813800183819467
 50
270.0000000000512
 51
345.9637565321232
  0
ARC
  5
302
  8
_0-0_0
  6
CONTINUOUS
 62
     1
 10
-258.9667113803751
 20
-432.992989815851
 30
0.0
 40
2.288280110288383
 50
269.9999999999943
 51
359.9999999999943
  0
ARC
  5
303
  8
_0-0_0
  6
CONTINUOUS
 62
     1
 10
-259.9328740936081
 20
-437.7282856052442
 30
0.0
 40
2.377268781244084
 50
90.0
 51
180.0
  0
LINE
  5
304
  8
_0-0_0
  6
CONTINUOUS
 62
     1
 10
-262.3101428748521
 20
-437.7282856052442
 30
0.0
 11
-262.3101428748521
 21
-446.4986832446829
 31
0.0
  0
ARC
  5
305
  8
_0-0_0
  6
CONTINUOUS
 62
     1
 10
-249.597475595472
 20
-446.4986832446829
 30
0.0
 40
12.71266727938018
 50
180.000000000001
 51
194.0362434679276
  0
LINE
  5
306
  8
_0-0_0
  6
CONTINUOUS
 62
     1
 10
-259.1319760550069
 20
-435.2812699261393
 30
0.0
 11
-259.1319760550069
 21
-435.3510168240001
 31
0.0
  0
LINE
  5
307
  8
_0-0_0
  6
CONTINUOUS
 62
     1
 10
-163.6425345089324
 20
-439.6478983644307
 30
0.0
 11
-221.1384111675911
 21
-439.6478983644307
 31
0.0
  0
LINE
  5
308
  8
_0-0_0
  6
CONTINUOUS
 62
     1
 10
-217.8059372007291
 20
-462.3018714562862
 30
0.0
 11
-141.5398037207416
 21
-462.3018714562862
 31
0.0
  0
ARC
  5
309
  8
_0-0_0
  6
CONTINUOUS
 62
     1
 10
-226.5494098179562
 20
-437.728285605244
 30
0.0
 40
2.37726878124395
 50
13.09372415419229
 51
90.0
  0
ARC
  5
30A
  8
_0-0_0
  6
CONTINUOUS
 62
     1
 10
-221.1384111675911
 20
-436.469731544585
 30
0.0
 40
3.178166819845618
 50
193.0937241541957
 51
270.0
  0
LINE
  5
30B
  8
_0-0_0
  6
CONTINUOUS
 62
     1
 10
-227.3503078565566
 20
-435.3510168240001
 30
0.0
 11
-227.3503078565566
 21
-435.2812699261393
 31
0.0
  0
LINE
  5
30C
  8
_0-0_0
  6
CONTINUOUS
 62
     1
 10
-141.539803720742
 20
-435.3510168240008
 30
0.0
 11
-158.231535858568
 21
-435.3510168240001
 31
0.0
  0
ARC
  5
30D
  8
_0-0_0
  6
CONTINUOUS
 62
     1
 10
-158.2315358585681
 20
-437.7282856052442
 30
0.0
 40
2.377268781244084
 50
89.9999999999959
 51
166.9062758458002
  0
ARC
  5
30E
  8
_0-0_0
  6
CONTINUOUS
 62
     1
 10
-163.6425345089329
 20
-436.4697315445857
 30
0.0
 40
3.178166819845046
 50
270.0000000000097
 51
346.9062758458125
  0
LINE
  5
30F
  8
_0-0_0
  6
CONTINUOUS
 62
     1
 10
-154.6783453539813
 20
-420.5183634985058
 30
0.0
 11
-154.6783453539813
 21
-433.8140553499227
 31
0.0
  0
ARC
  5
310
  8
_0-0_0
  6
CONTINUOUS
 62
     1
 10
-156.2153068280583
 20
-433.8140553499231
 30
0.0
 40
1.536961474077088
 50
270.0000000000138
 51
0.0000000000169962
  0
ARC
  5
311
  8
_0-0_0
  6
CONTINUOUS
 62
     1
 10
-124.8480715829162
 20
-437.7282856052442
 30
0.0
 40
2.37726878124411
 50
13.09372415419984
 51
90.00000000000412
  0
ARC
  5
312
  8
_0-0_0
  6
CONTINUOUS
 62
     1
 10
-119.4370729325515
 20
-436.4697315445857
 30
0.0
 40
3.178166819845046
 50
193.0937241541876
 51
269.9999999999903
  0
LINE
  5
313
  8
_0-0_0
  6
CONTINUOUS
 62
     1
 10
-141.539803720742
 20
-435.3510168240008
 30
0.0
 11
-124.8480715829164
 21
-435.3510168240001
 31
0.0
  0
LINE
  5
314
  8
_0-0_0
  6
CONTINUOUS
 62
     1
 10
-128.4012620875035
 20
-420.5183634985058
 30
0.0
 11
-128.4012620875031
 21
-433.8140553499227
 31
0.0
  0
ARC
  5
315
  8
_0-0_0
  6
CONTINUOUS
 62
     1
 10
-126.8643006134261
 20
-433.8140553499231
 30
0.0
 40
1.53696147407706
 50
179.9999999999831
 51
269.9999999999862
  0
LINE
  5
316
  8
_0-0_0
  6
CENTER-4
 62
    17
 10
-39.78737080838141
 20
-204.9999999999999
 30
0.0
 11
-39.78737080838107
 21
-520.2073276394281
 31
0.0
  0
ARC
  5
317
  8
_0-0_0
  6
CONTINUOUS
 62
     1
 10
-56.53019762352798
 20
-437.7282856052442
 30
0.0
 40
2.377268781244197
 50
89.9999999999952
 51
166.9062758458005
  0
ARC
  5
318
  8
_0-0_0
  6
CONTINUOUS
 62
     1
 10
-65.27367024075508
 20
-475.0145387356664
 30
0.0
 40
12.71266727938017
 50
14.03624346792757
 51
90.00000000000075
  0
ARC
  5
319
  8
_0-0_0
  6
CONTINUOUS
 62
     1
 10
-61.9411962738931
 20
-436.4697315445853
 30
0.0
 40
3.178166819845387
 50
270.000000000003
 51
346.9062758458075
  0
LINE
  5
31A
  8
_0-0_0
  6
CONTINUOUS
 62
     1
 10
-21.14903302807888
 20
-449.5819579491664
 30
0.0
 11
-27.05357776201035
 21
-473.2001368848931
 31
0.0
  0
LINE
  5
31B
  8
_0-0_0
  6
CONTINUOUS
 62
     1
 10
-27.42357072654816
 20
-473.4890186621408
 30
0.0
 11
-52.25336024485586
 21
-473.4890186621408
 31
0.0
  0
LINE
  5
31C
  8
_0-0_0
  6
CONTINUOUS
 62
     1
 10
-52.62335320939411
 20
-473.2001368848931
 30
0.0
 11
-52.94057142282151
 21
-471.9312640311829
 31
0.0
  0
ARC
  5
31D
  8
_0-0_0
  6
CONTINUOUS
 62
     1
 10
-52.25336024485551
 20
-473.1076386437588
 30
0.0
 40
0.3813800183819003
 50
194.0362434678778
 51
269.9999999999488
  0
ARC
  5
31E
  8
_0-0_0
  6
CONTINUOUS
 62
     1
 10
-27.42357072654876
 20
-473.1076386437591
 30
0.0
 40
0.3813800183817193
 50
270.0000000000811
 51
345.9637565321331
  0
LINE
  5
31F
  8
_0-0_0
  6
CONTINUOUS
 62
     1
 10
-56.53019762352781
 20
-435.3510168240001
 30
0.0
 11
-23.14673334787594
 21
-435.3510168240001
 31
0.0
  0
LINE
  5
320
  8
_0-0_0
  6
CONTINUOUS
 62
     1
 10
-53.27575480000687
 20
-418.9929898158513
 30
0.0
 11
-53.27575480000687
 21
-432.9929898158513
 31
0.0
  0
ARC
  5
321
  8
_0-0_0
  6
CONTINUOUS
 62
     1
 10
-55.56403491029519
 20
-432.992989815851
 30
0.0
 40
2.288280110288383
 50
269.999999999995
 51
359.9999999999943
  0
LINE
  5
322
  8
_0-0_0
  6
CONTINUOUS
 62
     1
 10
-55.72929958492736
 20
-435.3510168240001
 30
0.0
 11
-55.72929958492736
 21
-435.2812699261393
 31
0.0
  0
ARC
  5
323
  8
_0-0_0
  6
CONTINUOUS
 62
     1
 10
-23.14673334787607
 20
-437.728285605244
 30
0.0
 40
2.377268781243842
 50
359.9999999999945
 51
89.99999999999551
  0
LINE
  5
324
  8
_0-0_0
  6
CONTINUOUS
 62
     1
 10
-20.76946456663221
 20
-437.7282856052442
 30
0.0
 11
-20.76946456663221
 21
-446.4986832446829
 31
0.0
  0
ARC
  5
325
  8
_0-0_0
  6
CONTINUOUS
 62
     1
 10
-33.48213184601239
 20
-446.4986832446829
 30
0.0
 40
12.71266727938016
 50
345.9637565320724
 51
359.999999999999
  0
ARC
  5
326
  8
_0-0_0
  6
CONTINUOUS
 62
     1
 10
-24.11289606110903
 20
-432.9929898158513
 30
0.0
 40
2.288280110288184
 50
180.0
 51
270.0
  0
LINE
  5
327
  8
_0-0_0
  6
CONTINUOUS
 62
     1
 10
-26.40117617139725
 20
-432.9929898158513
 30
0.0
 11
-26.40117617139725
 21
-418.9929898158513
 31
0.0
  0
LINE
  5
328
  8
_0-0_0
  6
CONTINUOUS
 62
     1
 10
-23.94763138647703
 20
-435.2812699261393
 30
0.0
 11
-23.94763138647703
 21
-435.3510168240001
 31
0.0
  0
LINE
  5
329
  8
_0-1_250
  6
CONTINUOUS
 62
     1
 10
-293.0056854662894
 20
-376.0971760868559
 30
0.0
 11
-288.6184520199843
 21
-396.9928503005541
 31
0.0
  0
LINE
  5
32A
  8
_0-1_250
  6
CONTINUOUS
 62
     1
 10
-250.8318261848597
 20
-396.9929900600154
 30
0.0
 11
-254.3910976864241
 21
-380.9929900600154
 31
0.0
  0
LINE
  5
32B
  8
_0-1_250
  6
CONTINUOUS
 62
     1
 10
-259.3932831745693
 20
-407.9929898158513
 30
0.0
 11
-259.3932831745693
 21
-418.9929898158513
 31
0.0
  0
LINE
  5
32C
  8
_0-1_250
  6
CONTINUOUS
 62
     1
 10
-250.8318261848597
 20
-396.9929900600154
 30
0.0
 11
-288.6184520199843
 21
-396.9928503005541
 31
0.0
  0
LINE
  5
32D
  8
_0-1_250
  6
CONTINUOUS
 62
     1
 10
-231.3932446463114
 20
-403.9930422179144
 30
0.0
 11
-255.3932446461604
 21
-403.9929570557634
 31
0.0
  0
LINE
  5
32E
  8
_0-1_250
  6
CONTINUOUS
 62
     1
 10
-259.3932831745693
 20
-407.9929898158513
 30
0.0
 11
-227.3932831745694
 21
-407.9929898158513
 31
0.0
  0
LINE
  5
32F
  8
_0-1_250
  6
CONTINUOUS
 62
     1
 10
-249.2742634169376
 20
-396.9929900600154
 30
0.0
 11
-249.2742634169376
 21
-403.9929787684968
 31
0.0
  0
LINE
  5
330
  8
_0-1_250
  6
CONTINUOUS
 62
     1
 10
-262.4410976864241
 20
-380.8429900600153
 30
0.0
 11
-291.3068885953161
 21
-375.362701590877
 31
0.0
  0
LINE
  5
331
  8
_0-1_250
  6
CONTINUOUS
 62
     1
 10
-262.4410976864241
 20
-380.8429900600153
 30
0.0
 11
-254.3910976864241
 21
-380.9929900600154
 31
0.0
  0
LINE
  5
332
  8
_0-1_250
  6
CONTINUOUS
 62
     1
 10
-293.0056854662894
 20
-376.0971760868559
 30
0.0
 11
-291.3068885953161
 21
-375.362701590877
 31
0.0
  0
LINE
  5
333
  8
_0-1_250
  6
CONTINUOUS
 62
     1
 10
-235.8318261848597
 20
-396.9929900600154
 30
0.0
 11
-232.391097686424
 21
-380.9929900600154
 31
0.0
  0
LINE
  5
334
  8
_0-1_250
  6
CONTINUOUS
 62
     1
 10
-250.8318261848597
 20
-396.9929900600154
 30
0.0
 11
-235.8318261848597
 21
-396.9929900600154
 31
0.0
  0
LINE
  5
335
  8
_0-1_250
  6
CONTINUOUS
 62
     1
 10
-254.2752880925336
 20
-380.9929900600154
 30
0.0
 11
-248.1432831745693
 21
-379.5749723317709
 31
0.0
  0
LINE
  5
336
  8
_0-1_250
  6
CONTINUOUS
 62
     1
 10
-248.1432831745693
 20
-379.5749723317709
 30
0.0
 11
-238.6432831745693
 21
-379.5749723317709
 31
0.0
  0
LINE
  5
337
  8
_0-1_250
  6
CONTINUOUS
 62
     1
 10
-237.5123029322011
 20
-396.9929900600154
 30
0.0
 11
-237.5123029322011
 21
-403.9930205049073
 31
0.0
  0
LINE
  5
338
  8
_0-1_250
  6
CONTINUOUS
 62
     1
 10
-256.6358182264391
 20
-405.5337349869557
 30
0.0
 11
-256.6358182264391
 21
-407.9929898158513
 31
0.0
  0
LINE
  5
339
  8
_0-1_250
  6
CONTINUOUS
 62
     1
 10
-251.8187598009119
 20
-407.9929898158513
 30
0.0
 11
-251.8187598009119
 21
-418.9929898158513
 31
0.0
  0
LINE
  5
33A
  8
_0-1_250
  6
CONTINUOUS
 62
     1
 10
-254.3910976864241
 20
-380.9929900600154
 30
0.0
 11
-232.391097686424
 21
-380.9929900600154
 31
0.0
  0
LINE
  5
33B
  8
_0-1_250
  6
CONTINUOUS
 62
     1
 10
-248.1432831745693
 20
-379.0749723317709
 30
0.0
 11
-248.1432831745693
 21
-379.5749723317709
 31
0.0
  0
LINE
  5
33C
  8
_0-1_250
  6
CONTINUOUS
 62
     1
 10
-238.6432831745693
 20
-379.0749723317709
 30
0.0
 11
-238.6432831745693
 21
-379.5749723317709
 31
0.0
  0
LINE
  5
33D
  8
_0-1_250
  6
CONTINUOUS
 62
     1
 10
-254.3910976864241
 20
-380.9929900600154
 30
0.0
 11
-232.391097686424
 21
-380.9929900600154
 31
0.0
  0
ARC
  5
33E
  8
__
  6
CONTINUOUS
 62
     1
 10
-243.3932831745693
 20
-388.9604459305652
 30
0.0
 40
10.96745587054989
 50
64.3355743611285
 51
115.6644256388715
  0
LINE
  5
33F
  8
_0-1_250
  6
CONTINUOUS
 62
     1
 10
-232.511278256605
 20
-380.9929900600154
 30
0.0
 11
-238.6432831745693
 21
-379.5749723317709
 31
0.0
  0
ARC
  5
340
  8
__
  6
CONTINUOUS
 62
     1
 10
-255.1555610537803
 20
-405.4560700550786
 30
0.0
 40
1.482293202727366
 50
99.2271289249529
 51
183.0033945545471
  0
LINE
  5
341
  8
_0-1_250
  6
CONTINUOUS
 62
     1
 10
-230.1507481226995
 20
-405.5337349869557
 30
0.0
 11
-230.1507481226995
 21
-407.9929898158513
 31
0.0
  0
ARC
  5
342
  8
__
  6
CONTINUOUS
 62
     1
 10
-231.6310052953584
 20
-405.4560700550786
 30
0.0
 40
1.482293202727277
 50
356.9966054454529
 51
80.77287107504714
  0
LINE
  5
343
  8
_0-1_250
  6
CONTINUOUS
 62
     1
 10
-259.3932831745693
 20
-418.9929898158513
 30
0.0
 11
-227.3932831745694
 21
-418.9929898158513
 31
0.0
  0
LINE
  5
344
  8
_0-1_250
  6
CONTINUOUS
 62
     1
 10
-227.3932831745694
 20
-407.9929898158513
 30
0.0
 11
-227.3932831745694
 21
-418.9929898158513
 31
0.0
  0
LINE
  5
345
  8
_0-1_250
  6
CONTINUOUS
 62
     1
 10
-234.9678065482267
 20
-407.9929898158513
 30
0.0
 11
-234.9678065482267
 21
-418.9929898158513
 31
0.0
  0
LINE
  5
346
  8
_0-1_250
  6
CONTINUOUS
 62
     1
 10
-256.6784312700868
 20
-418.9929898158513
 30
0.0
 11
-256.6784312700868
 21
-432.9929898158513
 31
0.0
  0
DIMENSION
  5
347
  8
__-1
  6
CONTINUOUS
 62
    17
  2
*D5
 10
-243.3932831745694
 20
-550.2129340491819
 30
0.0
 11
-141.5903269914752
 21
-550.2129340491819
 31
0.0
 70
    32
  3
STANDARD-1
 13
-39.78737080838107
 23
-520.2073276394283
 33
0.0
 14
-243.3932831745694
 24
-520.2073276394286
 34
0.0
  0
ARC
  5
349
  8
__
  6
CONTINUOUS
 62
     1
 10
-39.68632426691391
 20
-457.5304700295989
 30
0.0
 40
16.5
 50
332.6421181585309
 51
0.1895576495852538
  0
ARC
  5
34A
  8
__
  6
CONTINUOUS
 62
     1
 10
-39.68632426691391
 20
-457.5304700295989
 30
0.0
 40
16.49999999999997
 50
255.2812740657107
 51
284.7187259342892
  0
ARC
  5
34B
  8
_0-0_0
  6
CONTINUOUS
 62
     1
 10
-141.4151966041618
 20
-300.2161136252461
 30
0.0
 40
9.499999999999943
 50
0.0
 51
180.0
  0
LINE
  5
34C
  8
_0-0_0
  6
CONTINUOUS
 62
     1
 10
-150.9151966041618
 20
-300.2161136252461
 30
0.0
 11
-150.9151966041618
 21
-360.3610399850866
 31
0.0
  0
LINE
  5
34D
  8
_0-0_0
  6
CONTINUOUS
 62
     1
 10
-131.9151966041619
 20
-409.5183634985058
 30
0.0
 11
-131.9151966041619
 21
-381.3610399850866
 31
0.0
  0
LINE
  5
34E
  8
_0-0_0
  6
CONTINUOUS
 62
     1
 10
-131.9151966041619
 20
-301.6627120984227
 30
0.0
 11
-131.9151966041619
 21
-360.5364947566163
 31
0.0
  0
LINE
  5
34F
  8
_0-0_0
  6
CONTINUOUS
 62
     1
 10
-150.9151966041618
 20
-409.5183634985058
 30
0.0
 11
-150.9151966041618
 21
-381.3610399850866
 31
0.0
  0
LINE
  5
350
  8
_0-0_0
  6
CONTINUOUS
 62
     1
 10
-130.4984843552003
 20
-381.3610399850866
 30
0.0
 11
-152.3319088531234
 21
-381.3610399850866
 31
0.0
  0
LINE
  5
351
  8
_0-0_0
  6
CONTINUOUS
 62
     1
 10
-129.4151966041619
 20
-363.3610399850866
 30
0.0
 11
-153.4151966041618
 21
-363.3610399850866
 31
0.0
  0
LINE
  5
352
  8
_0-0_0
  6
CONTINUOUS
 62
     1
 10
-130.4984843552003
 20
-381.3610399850866
 30
0.0
 11
-129.4151966041619
 21
-363.3610399850866
 31
0.0
  0
LINE
  5
353
  8
_0-0_0
  6
CONTINUOUS
 62
     1
 10
-152.3319088531234
 20
-381.3610399850866
 30
0.0
 11
-153.4151966041618
 21
-363.3610399850866
 31
0.0
  0
LINE
  5
354
  8
_0-0_0
  6
CONTINUOUS
 62
     1
 10
-130.4151966041619
 20
-363.3610399850866
 30
0.0
 11
-131.9151966041619
 21
-360.5364947566163
 31
0.0
  0
LINE
  5
355
  8
_0-0_0
  6
CONTINUOUS
 62
     1
 10
-152.4151966041618
 20
-363.3610399850866
 30
0.0
 11
-150.9151966041618
 21
-360.3610399850866
 31
0.0
  0
ARC
  5
356
  8
__
  6
CONTINUOUS
 62
     1
 10
-39.68632426691391
 20
-457.5304700295989
 30
0.0
 40
24.99999999999993
 50
191.1052391571128
 51
40.82811004601413
  0
LINE
  5
357
  8
_0-0_0
  6
CONTINUOUS
 62
     1
 10
383.9073715020725
 20
-433.5572197062129
 30
0.0
 11
383.9073715020725
 21
-481.4193925048016
 31
0.0
  0
LINE
  5
358
  8
_0-0_0
  6
CONTINUOUS
 62
     1
 10
374.9073715020724
 20
-441.4883061055073
 30
0.0
 11
374.9073715020724
 21
-473.4883061055073
 31
0.0
  0
LINE
  5
359
  8
_0-0_0
  6
CONTINUOUS
 62
     1
 10
379.9073715020724
 20
-473.4883061055073
 30
0.0
 11
379.9073715020724
 21
-441.4883061055073
 31
0.0
  0
LINE
  5
35A
  8
_0-0_0
  6
CONTINUOUS
 62
     1
 10
387.4073715020725
 20
-432.4758814449071
 30
0.0
 11
387.4073715020725
 21
-482.4758814449071
 31
0.0
  0
LINE
  5
35B
  8
_0-0_0
  6
CONTINUOUS
 62
     1
 10
369.3749004651696
 20
-442.9883061055073
 30
0.0
 11
369.3749004651696
 21
-471.9883061055073
 31
0.0
  0
LINE
  5
35C
  8
_0-0_0
  6
CONTINUOUS
 62
     1
 10
384.5501618163819
 20
-432.4185354259245
 30
0.0
 11
387.4073715020725
 21
-432.4185354259245
 31
0.0
  0
LINE
  5
35D
  8
_0-0_0
  6
CONTINUOUS
 62
     1
 10
384.5501618163819
 20
-482.5580767850901
 30
0.0
 11
379.9073715020724
 21
-473.4883061055073
 31
0.0
  0
LINE
  5
35E
  8
_0-0_0
  6
CONTINUOUS
 62
     1
 10
384.5501618163819
 20
-482.5580767850901
 30
0.0
 11
387.4071576869862
 21
-482.5580767850901
 31
0.0
  0
LINE
  5
35F
  8
_0-0_0
  6
CONTINUOUS
 62
     1
 10
379.9073715020724
 20
-473.4883061055073
 30
0.0
 11
370.9073715020724
 21
-473.4883061055073
 31
0.0
  0
LINE
  5
360
  8
_0-0_0
  6
CONTINUOUS
 62
     1
 10
384.5501618163819
 20
-432.4185354259245
 30
0.0
 11
379.9073715020724
 21
-441.4883061055073
 31
0.0
  0
LINE
  5
361
  8
_0-0_0
  6
CONTINUOUS
 62
     1
 10
370.9073715020724
 20
-441.4883061055073
 30
0.0
 11
370.9073715020724
 21
-473.4883061055073
 31
0.0
  0
LINE
  5
362
  8
_0-0_0
  6
CONTINUOUS
 62
     1
 10
379.9073715020724
 20
-441.4883061055073
 30
0.0
 11
370.9073715020724
 21
-441.4883061055073
 31
0.0
  0
LINE
  5
363
  8
_0-0_0
  6
CONTINUOUS
 62
     1
 10
370.9073715020724
 20
-444.037930398341
 30
0.0
 11
369.3749004651696
 21
-444.037930398341
 31
0.0
  0
LINE
  5
364
  8
_0-0_0
  6
CONTINUOUS
 62
     1
 10
370.9073715020724
 20
-470.9386818126735
 30
0.0
 11
369.3749004651696
 21
-470.9386818126735
 31
0.0
  0
LINE
  5
365
  8
_0-0_0
  6
CONTINUOUS
 62
     1
 10
369.3749004651696
 20
-441.4890186621408
 30
0.0
 11
369.3749004651696
 21
-472.8863138136408
 31
0.0
  0
LINE
  5
366
  8
_0-0_0
  6
CONTINUOUS
 62
     1
 10
349.3749004651696
 20
-441.4890186621408
 30
0.0
 11
349.3749004651696
 21
-473.4890186621408
 31
0.0
  0
LINE
  5
367
  8
_0-0_0
  6
CONTINUOUS
 62
     1
 10
349.3749004651696
 20
-441.4890186621408
 30
0.0
 11
369.3749004651696
 21
-441.4890186621408
 31
0.0
  0
LINE
  5
368
  8
_0-0_0
  6
CONTINUOUS
 62
     1
 10
349.3749004651696
 20
-473.4890186621408
 30
0.0
 11
369.3749004651696
 21
-473.4890186621408
 31
0.0
  0
LINE
  5
369
  8
_0-0_0
  6
CONTINUOUS
 62
     1
 10
369.3749004651696
 20
-454.2129984171406
 30
0.0
 11
369.3749004651696
 21
-442.0917235106408
 31
0.0
  0
LINE
  5
36A
  8
_0-0_0
  6
CONTINUOUS
 62
     1
 10
369.3749004651696
 20
-473.4890186621408
 30
0.0
 11
369.3749004651696
 21
-460.7650389071407
 31
0.0
  0
LINE
  5
36B
  8
_0-0_0
  6
CONTINUOUS
 62
     1
 10
349.3750693799576
 20
-449.3358663843678
 30
0.0
 11
369.3750693799576
 21
-449.3342713346055
 31
0.0
  0
LINE
  5
36C
  8
_0-0_0
  6
CONTINUOUS
 62
     1
 10
349.3750693799576
 20
-465.6421709399137
 30
0.0
 11
369.3750693799576
 21
-465.643765989676
 31
0.0
  0
LINE
  5
36D
  8
_0-0_0
  6
CONTINUOUS
 62
     1
 10
-156.0405162773752
 20
-409.5183634985058
 30
0.0
 11
-127.0405162773752
 21
-409.5183634985058
 31
0.0
  0
LINE
  5
36E
  8
_0-0_0
  6
CONTINUOUS
 62
     1
 10
-156.9370988722416
 20
-409.5183634985058
 30
0.0
 11
-126.1425085692417
 21
-409.5183634985058
 31
0.0
  0
LINE
  5
36F
  8
_0-0_0
  6
CONTINUOUS
 62
     1
 10
-157.5398037207416
 20
-420.5183634985058
 30
0.0
 11
-125.5398037207416
 21
-420.5183634985058
 31
0.0
  0
LINE
  5
370
  8
_0-0_0
  6
CONTINUOUS
 62
     1
 10
-157.5398037207416
 20
-420.5183634985058
 30
0.0
 11
-157.5398037207416
 21
-409.5183634985058
 31
0.0
  0
LINE
  5
371
  8
_0-0_0
  6
CONTINUOUS
 62
     1
 10
-125.5398037207416
 20
-420.5183634985058
 30
0.0
 11
-125.5398037207416
 21
-409.5183634985058
 31
0.0
  0
LINE
  5
372
  8
_0-0_0
  6
CONTINUOUS
 62
     1
 10
-155.2990887497417
 20
-409.5183634985058
 30
0.0
 11
-142.7626372677902
 21
-409.5183634985058
 31
0.0
  0
LINE
  5
373
  8
_0-0_0
  6
CONTINUOUS
 62
     1
 10
-142.7626372677902
 20
-409.5183634985058
 30
0.0
 11
-127.7805186917419
 21
-409.5183634985058
 31
0.0
  0
LINE
  5
374
  8
_0-0_0
  6
CONTINUOUS
 62
     1
 10
-144.8158239657418
 20
-409.5183634985058
 30
0.0
 11
-156.9370988722416
 21
-409.5183634985058
 31
0.0
  0
LINE
  5
375
  8
_0-0_0
  6
CONTINUOUS
 62
     1
 10
-126.1425085692417
 20
-409.5183634985058
 30
0.0
 11
-138.2637834757417
 21
-409.5183634985058
 31
0.0
  0
LINE
  5
376
  8
_0-0_0
  6
CONTINUOUS
 62
     1
 10
-157.5398037207416
 20
-409.5183634985058
 30
0.0
 11
-140.2447545445536
 21
-409.5183634985058
 31
0.0
  0
LINE
  5
377
  8
_0-0_0
  6
CONTINUOUS
 62
     1
 10
-140.2447545445536
 20
-409.5183634985058
 30
0.0
 11
-125.5398037207416
 21
-409.5183634985058
 31
0.0
  0
LINE
  5
378
  8
_0-0_0
  6
CONTINUOUS
 62
     1
 10
-149.6929559985146
 20
-420.5181945837178
 30
0.0
 11
-149.6945510482769
 21
-409.5181945837178
 31
0.0
  0
LINE
  5
379
  8
_0-0_0
  6
CONTINUOUS
 62
     1
 10
-133.3866514429687
 20
-420.5181945837178
 30
0.0
 11
-133.3850563932064
 21
-409.5181945837178
 31
0.0
  0
LINE
  5
37A
  8
_0-1_250
  6
CONTINUOUS
 62
     1
 10
10.21122612032372
 20
-376.0971760868559
 30
0.0
 11
5.823992674018541
 21
-396.9928503005541
 31
0.0
  0
LINE
  5
37B
  8
_0-1_250
  6
CONTINUOUS
 62
     1
 10
-32.34882779809089
 20
-396.9929900600154
 30
0.0
 11
-28.78955629652643
 21
-380.9929900600154
 31
0.0
  0
LINE
  5
37C
  8
_0-1_250
  6
CONTINUOUS
 62
     1
 10
-23.78737080838124
 20
-407.9929898158513
 30
0.0
 11
-23.78737080838124
 21
-418.9929898158513
 31
0.0
  0
LINE
  5
37D
  8
_0-1_250
  6
CONTINUOUS
 62
     1
 10
-32.34882779809089
 20
-396.9929900600154
 30
0.0
 11
5.437798037033701
 21
-396.9928503005541
 31
0.0
  0
LINE
  5
37E
  8
_0-1_250
  6
CONTINUOUS
 62
     1
 10
-51.7874093366392
 20
-403.9930422179144
 30
0.0
 11
-27.78740933679018
 21
-403.9929570557634
 31
0.0
  0
LINE
  5
37F
  8
_0-1_250
  6
CONTINUOUS
 62
     1
 10
-23.78737080838124
 20
-407.9929898158513
 30
0.0
 11
-55.78737080838113
 21
-407.9929898158513
 31
0.0
  0
LINE
  5
380
  8
_0-1_250
  6
CONTINUOUS
 62
     1
 10
-33.90639056601293
 20
-396.9929900600154
 30
0.0
 11
-33.90639056601293
 21
-403.9929787684968
 31
0.0
  0
LINE
  5
381
  8
_0-1_250
  6
CONTINUOUS
 62
     1
 10
-20.73955629652647
 20
-380.8429900600153
 30
0.0
 11
8.126234612365522
 21
-375.362701590877
 31
0.0
  0
LINE
  5
382
  8
_0-1_250
  6
CONTINUOUS
 62
     1
 10
-20.73955629652647
 20
-380.8429900600153
 30
0.0
 11
-28.78955629652643
 21
-380.9929900600154
 31
0.0
  0
LINE
  5
383
  8
_0-1_250
  6
CONTINUOUS
 62
     1
 10
10.21122612032372
 20
-376.0971760868559
 30
0.0
 11
8.512429249350362
 21
-375.362701590877
 31
0.0
  0
LINE
  5
384
  8
_0-1_250
  6
CONTINUOUS
 62
     1
 10
-47.34882779809089
 20
-396.9929900600154
 30
0.0
 11
-50.78955629652654
 21
-380.9929900600154
 31
0.0
  0
LINE
  5
385
  8
_0-1_250
  6
CONTINUOUS
 62
     1
 10
-32.34882779809089
 20
-396.9929900600154
 30
0.0
 11
-47.34882779809089
 21
-396.9929900600154
 31
0.0
  0
LINE
  5
386
  8
_0-1_250
  6
CONTINUOUS
 62
     1
 10
-28.90536589041693
 20
-380.9929900600154
 30
0.0
 11
-35.03737080838124
 21
-379.5749723317709
 31
0.0
  0
LINE
  5
387
  8
_0-1_250
  6
CONTINUOUS
 62
     1
 10
-35.03737080838124
 20
-379.5749723317709
 30
0.0
 11
-44.53737080838124
 21
-379.5749723317709
 31
0.0
  0
LINE
  5
388
  8
_0-1_250
  6
CONTINUOUS
 62
     1
 10
-45.66835105074944
 20
-396.9929900600154
 30
0.0
 11
-45.66835105074944
 21
-403.9930205049073
 31
0.0
  0
LINE
  5
389
  8
_0-1_250
  6
CONTINUOUS
 62
     1
 10
-26.54483575651142
 20
-405.5337349869557
 30
0.0
 11
-26.54483575651142
 21
-407.9929898158513
 31
0.0
  0
LINE
  5
38A
  8
_0-1_250
  6
CONTINUOUS
 62
     1
 10
-31.36189418203861
 20
-407.9929898158513
 30
0.0
 11
-31.36189418203861
 21
-418.9929898158513
 31
0.0
  0
LINE
  5
38B
  8
_0-1_250
  6
CONTINUOUS
 62
     1
 10
-28.78955629652643
 20
-380.9929900600154
 30
0.0
 11
-50.78955629652654
 21
-380.9929900600154
 31
0.0
  0
LINE
  5
38C
  8
_0-1_250
  6
CONTINUOUS
 62
     1
 10
-35.03737080838124
 20
-379.0749723317709
 30
0.0
 11
-35.03737080838124
 21
-379.5749723317709
 31
0.0
  0
LINE
  5
38D
  8
_0-1_250
  6
CONTINUOUS
 62
     1
 10
-44.53737080838124
 20
-379.0749723317709
 30
0.0
 11
-44.53737080838124
 21
-379.5749723317709
 31
0.0
  0
LINE
  5
38E
  8
_0-1_250
  6
CONTINUOUS
 62
     1
 10
-28.78955629652643
 20
-380.9929900600154
 30
0.0
 11
-50.78955629652654
 21
-380.9929900600154
 31
0.0
  0
ARC
  5
38F
  8
__
  6
CONTINUOUS
 62
     1
 10
-39.78737080838124
 20
-388.9604459305652
 30
0.0
 40
10.96745587054989
 50
64.3355743611285
 51
115.6644256388715
  0
LINE
  5
390
  8
_0-1_250
  6
CONTINUOUS
 62
     1
 10
-50.66937572634555
 20
-380.9929900600154
 30
0.0
 11
-44.53737080838124
 21
-379.5749723317709
 31
0.0
  0
ARC
  5
391
  8
__
  6
CONTINUOUS
 62
     1
 10
-28.02509292917028
 20
-405.4560700550786
 30
0.0
 40
1.482293202727277
 50
356.9966054454529
 51
80.77287107504714
  0
LINE
  5
392
  8
_0-1_250
  6
CONTINUOUS
 62
     1
 10
-53.02990586025106
 20
-405.5337349869557
 30
0.0
 11
-53.02990586025106
 21
-407.9929898158513
 31
0.0
  0
ARC
  5
393
  8
__
  6
CONTINUOUS
 62
     1
 10
-51.5496486875922
 20
-405.4560700550786
 30
0.0
 40
1.482293202727366
 50
99.2271289249529
 51
183.0033945545471
  0
LINE
  5
394
  8
_0-1_250
  6
CONTINUOUS
 62
     1
 10
-23.78737080838124
 20
-418.9929898158513
 30
0.0
 11
-55.78737080838113
 21
-418.9929898158513
 31
0.0
  0
LINE
  5
395
  8
_0-1_250
  6
CONTINUOUS
 62
     1
 10
-55.78737080838113
 20
-407.9929898158513
 30
0.0
 11
-55.78737080838113
 21
-418.9929898158513
 31
0.0
  0
LINE
  5
396
  8
_0-1_250
  6
CONTINUOUS
 62
     1
 10
-48.21284743472387
 20
-407.9929898158513
 30
0.0
 11
-48.21284743472387
 21
-418.9929898158513
 31
0.0
  0
LINE
  5
397
  8
_0-0_0
  6
CONTINUOUS
 62
     1
 10
339.2207943052537
 20
-473.4890186621408
 30
0.0
 11
314.391004786946
 21
-473.4890186621408
 31
0.0
  0
ARC
  5
398
  8
_0-0_0
  6
CONTINUOUS
 62
     1
 10
339.2207943052531
 20
-473.1076386437591
 30
0.0
 40
0.3813800183817193
 50
270.0000000000769
 51
345.9637565321315
  0
LINE
  5
399
  8
_0-0_0
  6
CONTINUOUS
 62
     1
 10
310.1141674082741
 20
-435.3510168240001
 30
0.0
 11
343.4976316839259
 21
-435.3510168240001
 31
0.0
  0
LINE
  5
39A
  8
_0-0_0
  6
CONTINUOUS
 62
     1
 10
313.3686102317949
 20
-418.9929898158513
 30
0.0
 11
313.3686102317949
 21
-432.9929898158513
 31
0.0
  0
ARC
  5
39B
  8
_0-0_0
  6
CONTINUOUS
 62
     1
 10
343.4976316839258
 20
-437.728285605244
 30
0.0
 40
2.377268781243856
 50
359.9999999999945
 51
89.9999999999945
  0
LINE
  5
39C
  8
_0-0_0
  6
CONTINUOUS
 62
     1
 10
345.8749004651696
 20
-437.7282856052442
 30
0.0
 11
345.8749004651696
 21
-440.3516202445359
 31
0.0
  0
ARC
  5
39D
  8
_0-0_0
  6
CONTINUOUS
 62
     1
 10
342.5314689706928
 20
-432.9929898158513
 30
0.0
 40
2.288280110288156
 50
180.0
 51
270.0
  0
LINE
  5
39E
  8
_0-0_0
  6
CONTINUOUS
 62
     1
 10
340.2431888604046
 20
-432.9929898158513
 30
0.0
 11
340.2431888604046
 21
-418.9929898158513
 31
0.0
  0
LINE
  5
39F
  8
_0-0_0
  6
CONTINUOUS
 62
     1
 10
342.6967336453248
 20
-435.2812699261393
 30
0.0
 11
342.6967336453248
 21
-435.3510168240001
 31
0.0
  0
LINE
  5
3A0
  8
_0-1_250
  6
CONTINUOUS
 62
     1
 10
334.2444425563903
 20
-396.9929900600154
 30
0.0
 11
337.8037140579547
 21
-380.9929900600154
 31
0.0
  0
LINE
  5
3A1
  8
_0-1_250
  6
CONTINUOUS
 62
     1
 10
342.8058995460999
 20
-407.9929898158513
 30
0.0
 11
342.8058995460999
 21
-418.9929898158513
 31
0.0
  0
LINE
  5
3A2
  8
_0-1_250
  6
CONTINUOUS
 62
     1
 10
314.8058610178419
 20
-403.9930422179144
 30
0.0
 11
338.805861017691
 21
-403.9929570557634
 31
0.0
  0
LINE
  5
3A3
  8
_0-1_250
  6
CONTINUOUS
 62
     1
 10
332.6868797884682
 20
-396.9929900600154
 30
0.0
 11
332.6868797884682
 21
-403.9929787684968
 31
0.0
  0
LINE
  5
3A4
  8
_0-1_250
  6
CONTINUOUS
 62
     1
 10
319.2444425563903
 20
-396.9929900600154
 30
0.0
 11
315.8037140579546
 21
-380.9929900600154
 31
0.0
  0
LINE
  5
3A5
  8
_0-1_250
  6
CONTINUOUS
 62
     1
 10
334.2444425563903
 20
-396.9929900600154
 30
0.0
 11
319.2444425563903
 21
-396.9929900600154
 31
0.0
  0
LINE
  5
3A6
  8
_0-1_250
  6
CONTINUOUS
 62
     1
 10
337.6879044640642
 20
-380.9929900600154
 30
0.0
 11
331.5558995460999
 21
-379.5749723317709
 31
0.0
  0
LINE
  5
3A7
  8
_0-1_250
  6
CONTINUOUS
 62
     1
 10
331.5558995460999
 20
-379.5749723317709
 30
0.0
 11
322.0558995460999
 21
-379.5749723317709
 31
0.0
  0
LINE
  5
3A8
  8
_0-1_250
  6
CONTINUOUS
 62
     1
 10
320.9249193037317
 20
-396.9929900600154
 30
0.0
 11
320.9249193037317
 21
-403.9930205049073
 31
0.0
  0
LINE
  5
3A9
  8
_0-1_250
  6
CONTINUOUS
 62
     1
 10
340.0484345979697
 20
-405.5337349869557
 30
0.0
 11
340.0484345979697
 21
-407.9929898158513
 31
0.0
  0
LINE
  5
3AA
  8
_0-1_250
  6
CONTINUOUS
 62
     1
 10
335.2313761724425
 20
-407.9929898158513
 30
0.0
 11
335.2313761724425
 21
-418.9929898158513
 31
0.0
  0
LINE
  5
3AB
  8
_0-1_250
  6
CONTINUOUS
 62
     1
 10
337.8037140579547
 20
-380.9929900600154
 30
0.0
 11
315.8037140579546
 21
-380.9929900600154
 31
0.0
  0
LINE
  5
3AC
  8
_0-1_250
  6
CONTINUOUS
 62
     1
 10
331.5558995460999
 20
-379.0749723317709
 30
0.0
 11
331.5558995460999
 21
-379.5749723317709
 31
0.0
  0
LINE
  5
3AD
  8
_0-1_250
  6
CONTINUOUS
 62
     1
 10
322.0558995460999
 20
-379.0749723317709
 30
0.0
 11
322.0558995460999
 21
-379.5749723317709
 31
0.0
  0
LINE
  5
3AE
  8
_0-1_250
  6
CONTINUOUS
 62
     1
 10
337.8037140579547
 20
-380.9929900600154
 30
0.0
 11
315.8037140579546
 21
-380.9929900600154
 31
0.0
  0
ARC
  5
3AF
  8
__
  6
CONTINUOUS
 62
     1
 10
326.8058995460999
 20
-388.9604459305652
 30
0.0
 40
10.96745587054989
 50
64.3355743611285
 51
115.6644256388715
  0
LINE
  5
3B0
  8
_0-1_250
  6
CONTINUOUS
 62
     1
 10
315.9238946281356
 20
-380.9929900600154
 30
0.0
 11
322.0558995460999
 21
-379.5749723317709
 31
0.0
  0
ARC
  5
3B1
  8
__
  6
CONTINUOUS
 62
     1
 10
338.5681774253109
 20
-405.4560700550786
 30
0.0
 40
1.482293202727277
 50
356.9966054454529
 51
80.77287107504714
  0
LINE
  5
3B2
  8
_0-1_250
  6
CONTINUOUS
 62
     1
 10
313.5633644942301
 20
-405.5337349869557
 30
0.0
 11
313.5633644942301
 21
-407.9929898158513
 31
0.0
  0
ARC
  5
3B3
  8
__
  6
CONTINUOUS
 62
     1
 10
315.043621666889
 20
-405.4560700550786
 30
0.0
 40
1.482293202727366
 50
99.2271289249529
 51
183.0033945545471
  0
LINE
  5
3B4
  8
_0-1_250
  6
CONTINUOUS
 62
     1
 10
342.8058995460999
 20
-418.9929898158513
 30
0.0
 11
310.8058995461
 21
-418.9929898158513
 31
0.0
  0
LINE
  5
3B5
  8
_0-1_250
  6
CONTINUOUS
 62
     1
 10
310.8058995461
 20
-407.9929898158513
 30
0.0
 11
310.8058995461
 21
-418.9929898158513
 31
0.0
  0
LINE
  5
3B6
  8
_0-1_250
  6
CONTINUOUS
 62
     1
 10
318.3804229197573
 20
-407.9929898158513
 30
0.0
 11
318.3804229197573
 21
-418.9929898158513
 31
0.0
  0
LINE
  5
3B7
  8
_0-0_0
  6
CONTINUOUS
 62
     1
 10
308.1164670884766
 20
-449.5819579491664
 30
0.0
 11
314.0210118224081
 21
-473.2001368848931
 31
0.0
  0
ARC
  5
3B8
  8
_0-0_0
  6
CONTINUOUS
 62
     1
 10
314.3910047869465
 20
-473.1076386437591
 30
0.0
 40
0.3813800183817073
 50
194.0362434678675
 51
269.9999999999231
  0
ARC
  5
3B9
  8
_0-0_0
  6
CONTINUOUS
 62
     1
 10
310.1141674082738
 20
-437.728285605244
 30
0.0
 40
2.377268781243856
 50
90.0000000000048
 51
180.0000000000055
  0
LINE
  5
3BA
  8
_0-0_0
  6
CONTINUOUS
 62
     1
 10
307.73689862703
 20
-437.7282856052442
 30
0.0
 11
307.73689862703
 21
-446.4986832446829
 31
0.0
  0
ARC
  5
3BB
  8
_0-0_0
  6
CONTINUOUS
 62
     1
 10
320.4495659064102
 20
-446.4986832446829
 30
0.0
 40
12.71266727938016
 50
180.000000000001
 51
194.0362434679276
  0
ARC
  5
3BC
  8
_0-0_0
  6
CONTINUOUS
 62
     1
 10
311.0803301215068
 20
-432.9929898158513
 30
0.0
 40
2.288280110288156
 50
270.0
 51
0.0
  0
LINE
  5
3BD
  8
_0-0_0
  6
CONTINUOUS
 62
     1
 10
310.9150654468748
 20
-435.2812699261393
 30
0.0
 11
310.9150654468748
 21
-435.3510168240001
 31
0.0
  0
POLYLINE
  5
3BE
  8
__
  6
CONTINUOUS
 62
     1
 66
     1
 10
0.0
 20
0.0
 30
0.0
 70
   129
  0
VERTEX
  5
3BF
  8
__
  6
CONTINUOUS
 62
     1
 10
324.4944425563903
 20
-375.3628363112883
 30
0.0
  0
VERTEX
  5
3C0
  8
__
  6
CONTINUOUS
 62
     1
 10
328.9944425563903
 20
-375.3628363112883
 30
0.0
  0
VERTEX
  5
3C1
  8
__
  6
CONTINUOUS
 62
     1
 10
328.9944425563903
 20
-396.9929900600154
 30
0.0
  0
VERTEX
  5
3C2
  8
__
  6
CONTINUOUS
 62
     1
 10
324.4944425563903
 20
-396.9929900600154
 30
0.0
  0
SEQEND
  5
3C3
  8
__
  6
CONTINUOUS
 62
     1
  0
LINE
  5
3C4
  8
__
  6
CONTINUOUS
 62
     1
 10
328.9944425563903
 20
-376.0973108072671
 30
0.0
 11
324.4944425563903
 21
-376.0973108072671
 31
0.0
  0
LINE
  5
3C5
  8
_0-0_0
  6
CONTINUOUS
 62
     1
 10
310.8058995461
 20
-420.3805201024423
 30
0.0
 11
313.3686102317949
 21
-420.3805201024423
 31
0.0
  0
LINE
  5
3C6
  8
_0-0_0
  6
CONTINUOUS
 62
     1
 10
340.2431888604046
 20
-420.3805201024423
 30
0.0
 11
342.8058995461
 21
-420.3805201024423
 31
0.0
  0
LINE
  5
3C7
  8
_0-0_0
  6
CONTINUOUS
 62
     1
 10
310.8058995461
 20
-420.3805201024423
 30
0.0
 11
310.8058995461
 21
-409.3805201024423
 31
0.0
  0
LINE
  5
3C8
  8
_0-0_0
  6
CONTINUOUS
 62
     1
 10
342.8058995461
 20
-420.3805201024423
 30
0.0
 11
342.8058995461
 21
-409.3805201024423
 31
0.0
  0
LINE
  5
3C9
  8
_0-1_250
  6
CONTINUOUS
 62
     1
 10
342.8058995460999
 20
-407.9929898158513
 30
0.0
 11
310.8058995461
 21
-407.9929898158513
 31
0.0
  0
LINE
  5
3CA
  8
_0-0_0
  6
CONTINUOUS
 62
     1
 10
134.40478868925
 20
-381.3534278509487
 30
0.0
 11
112.5713641913268
 21
-381.3534278509487
 31
0.0
  0
LINE
  5
3CB
  8
_0-0_0
  6
CONTINUOUS
 62
     1
 10
135.4880764402884
 20
-363.3534278509487
 30
0.0
 11
111.4880764402884
 21
-363.3534278509487
 31
0.0
  0
LINE
  5
3CC
  8
_0-0_0
  6
CONTINUOUS
 62
     1
 10
134.40478868925
 20
-381.3534278509487
 30
0.0
 11
135.4880764402884
 21
-363.3534278509487
 31
0.0
  0
LINE
  5
3CD
  8
_0-0_0
  6
CONTINUOUS
 62
     1
 10
112.5713641913268
 20
-381.3534278509487
 30
0.0
 11
111.4880764402884
 21
-363.3534278509487
 31
0.0
  0
LINE
  5
3CE
  8
_0-0_0
  6
CONTINUOUS
 62
     1
 10
134.4880764402884
 20
-363.3534278509487
 30
0.0
 11
132.9880764402884
 21
-360.3503625979938
 31
0.0
  0
LINE
  5
3CF
  8
_0-0_0
  6
CONTINUOUS
 62
     1
 10
112.4880764402884
 20
-363.3534278509487
 30
0.0
 11
113.9880764402884
 21
-360.3534278509487
 31
0.0
  0
LINE
  5
3D0
  8
_0-0_0
  6
CONTINUOUS
 62
     1
 10
192.7235278732444
 20
-295.8834022016614
 30
0.0
 11
303.3627550707782
 21
-339.3600811744948
 31
0.0
  0
ARC
  5
3D1
  8
_0-0_0
  6
CONTINUOUS
 62
     1
 10
169.3335289418023
 20
-346.0434167808505
 30
0.0
 40
36.3454525015138
 50
64.99999999999972
 51
179.9999999999982
  0
ARC
  5
3D2
  8
_0-0_0
  6
CONTINUOUS
 62
     1
 10
169.3335289418023
 20
-346.0434167808505
 30
0.0
 40
55.34545250151385
 50
65.00000000000021
 51
179.9999999999984
  0
LINE
  5
3D3
  8
_0-0_0
  6
CONTINUOUS
 62
     1
 10
113.9880764402884
 20
-360.7855078833493
 30
0.0
 11
113.9880764402884
 21
-346.0434167808492
 31
0.0
  0
LINE
  5
3D4
  8
_0-0_0
  6
CONTINUOUS
 62
     1
 10
184.6937809001714
 20
-313.103250155358
 30
0.0
 11
295.4956006901847
 21
-356.651981076725
 31
0.0
  0
LINE
  5
3D5
  8
_0-0_0
  6
CONTINUOUS
 62
     1
 10
132.9880764402884
 20
-360.7855078833493
 30
0.0
 11
132.9880764402884
 21
-346.0434167808498
 31
0.0
  0
ARC
  5
3D6
  8
_0-0_0
  6
CONTINUOUS
 62
     1
 10
280.8043820567489
 20
-389.8993625749983
 30
0.0
 40
55.34527222373526
 50
0.0000000000003411
 51
1.441368348590231
  0
ARC
  5
3D7
  8
_0-0_0
  6
CONTINUOUS
 62
     1
 10
280.8043820567489
 20
-389.8993625749983
 30
0.0
 40
55.34527222373528
 50
9.260521977127377
 51
65.96884926579102
  0
ARC
  5
3D8
  8
_0-0_0
  6
CONTINUOUS
 62
     1
 10
280.8043820567489
 20
-389.899362574998
 30
0.0
 40
36.34859394016667
 50
0.0000000000003411
 51
5.292116287787906
  0
ARC
  5
3D9
  8
_0-0_0
  6
CONTINUOUS
 62
     1
 10
280.8043820567489
 20
-389.899362574998
 30
0.0
 40
36.34859394016667
 50
14.1834059173124
 51
66.16051702532194
  0
LINE
  5
3DA
  8
_0-0_0
  6
CONTINUOUS
 62
     1
 10
336.1496542804841
 20
-389.899362574998
 30
0.0
 11
336.1496542804841
 21
-403.9930338893577
 31
0.0
  0
LINE
  5
3DB
  8
_0-0_0
  6
CONTINUOUS
 62
     1
 10
317.1529759969155
 20
-389.899362574998
 30
0.0
 11
317.1529759969155
 21
-403.9930338893577
 31
0.0
  0
LINE
  5
3DC
  8
_0-0_0
  6
CONTINUOUS
 62
     1
 10
349.3749004651696
 20
-448.4890186621408
 30
0.0
 11
347.3749004651696
 21
-448.4890186621408
 31
0.0
  0
LINE
  5
3DD
  8
_0-0_0
  6
CONTINUOUS
 62
     1
 10
347.3749004651696
 20
-466.4890186621408
 30
0.0
 11
349.3749004651696
 21
-466.4890186621408
 31
0.0
  0
LINE
  5
3DE
  8
_0-1_250
  6
CONTINUOUS
 62
     1
 10
-229.8038526414775
 20
-418.9929898158513
 30
0.0
 11
-229.8038526414775
 21
-432.9929898158513
 31
0.0
  0
LINE
  5
3DF
  8
_0-0_0
  6
CENTER-4
 62
    17
 10
123.4880764402882
 20
-204.9999999999999
 30
0.0
 11
123.4880764402886
 21
-520.2073276394281
 31
0.0
  0
LINE
  5
3E0
  8
_0-0_0
  6
CENTER-4
 62
    17
 10
326.8058995460997
 20
-204.9999999999999
 30
0.0
 11
326.8058995461001
 21
-520.2073276394281
 31
0.0
  0
LINE
  5
3E1
  8
_0-0_0
  6
CENTER-4
 62
    17
 10
-309.8700681159769
 20
-290.7505400179222
 30
0.0
 11
411.7908056071411
 21
-290.7505400179214
 31
0.0
  0
LINE
  5
3E2
  8
_0-0_0
  6
CENTER-4
 62
    17
 10
387.4073715020722
 20
-204.9999999999999
 30
0.0
 11
387.4073715020725
 21
-520.2073276394281
 31
0.0
  0
ARC
  5
3E3
  8
_0-0_0
  6
CONTINUOUS
 62
     1
 10
377.7412163199099
 20
-438.6845214271372
 30
0.0
 40
31.9098935225589
 50
182.9947210932998
 51
197.8939248773809
  0
ARC
  5
3E4
  8
__
  6
CONTINUOUS
 62
     1
 10
349.0585905063108
 20
-476.3978121868474
 30
0.0
 40
9.993218973993033
 50
97.45294380096466
 51
161.3380117289917
  0
ARC
  5
3E5
  8
__
  6
CONTINUOUS
 62
     1
 10
-243.3932831745694
 20
-457.5304700295989
 30
0.0
 40
16.49999999999997
 50
179.8104423504148
 51
207.3578818414692
  0
ARC
  5
3E6
  8
__
  6
CONTINUOUS
 62
     1
 10
-243.3932831745694
 20
-457.5304700295989
 30
0.0
 40
16.49999999999997
 50
255.2812740657107
 51
284.7187259342892
  0
ARC
  5
3E7
  8
__
  6
CONTINUOUS
 62
     1
 10
-243.3932831745694
 20
-457.5304700295989
 30
0.0
 40
24.99999999999993
 50
139.1718899539858
 51
348.8947608428872
  0
LINE
  5
3E8
  8
_0-0_0
  6
CONTINUOUS
 62
     1
 10
347.3749004651696
 20
-1021.518237190816
 30
0.0
 11
347.3749004651696
 21
-1039.518237190816
 31
0.0
  0
LINE
  5
3E9
  8
_0-0_0
  6
CENTER-4
 62
    17
 10
-294.754652845551
 20
-1030.505099973583
 30
0.0
 11
411.7908056071414
 21
-1030.505099973583
 31
0.0
  0
LINE
  5
3EA
  8
_0-0_0
  6
CONTINUOUS
 62
     1
 10
-65.27367024075525
 20
-1035.331089984962
 30
0.0
 11
-141.5398037207424
 21
-1035.331089984962
 31
0.0
  0
LINE
  5
3EB
  8
_0-0_0
  6
CONTINUOUS
 62
     1
 10
-119.437072932552
 20
-1012.677116893106
 30
0.0
 11
-61.94119627389293
 21
-1012.677116893106
 31
0.0
  0
LINE
  5
3EC
  8
_0-0_0
  6
CENTER-4
 62
    17
 10
-243.3932831745694
 20
-778.0292185286755
 30
0.0
 11
-243.3932831745694
 21
-1093.236546168104
 31
0.0
  0
LINE
  5
3ED
  8
_0-0_0
  6
CENTER-4
 62
    17
 10
-141.5398037207416
 20
-778.0292185286755
 30
0.0
 11
-141.5398037207416
 21
-1093.236546168104
 31
0.0
  0
ARC
  5
3EE
  8
_0-0_0
  6
CONTINUOUS
 62
     1
 10
-227.515572531189
 20
-1006.022208344526
 30
0.0
 40
2.288280110288497
 50
180.0000000000114
 51
270.0000000000085
  0
LINE
  5
3EF
  8
_0-0_0
  6
CONTINUOUS
 62
     1
 10
-226.5494098179562
 20
-1008.380235352676
 30
0.0
 11
-259.9328740936081
 21
-1008.380235352676
 31
0.0
  0
ARC
  5
3F0
  8
_0-0_0
  6
CONTINUOUS
 62
     1
 10
-217.8059372007291
 20
-1048.043757264342
 30
0.0
 40
12.71266727938018
 50
90.0
 51
165.9637565320728
  0
LINE
  5
3F1
  8
_0-0_0
  6
CONTINUOUS
 62
     1
 10
-261.9305744134055
 20
-1022.611176477842
 30
0.0
 11
-256.026029679474
 21
-1046.229355413569
 31
0.0
  0
LINE
  5
3F2
  8
_0-0_0
  6
CONTINUOUS
 62
     1
 10
-230.4562542320903
 20
-1046.229355413569
 30
0.0
 11
-230.1390360186625
 21
-1044.960482559859
 31
0.0
  0
LINE
  5
3F3
  8
_0-0_0
  6
CONTINUOUS
 62
     1
 10
-255.6560367149357
 20
-1046.518237190816
 30
0.0
 11
-230.8262471966285
 21
-1046.518237190816
 31
0.0
  0
ARC
  5
3F4
  8
_0-0_0
  6
CONTINUOUS
 62
     1
 10
-255.6560367149354
 20
-1046.136857172434
 30
0.0
 40
0.3813800183819279
 50
194.0362434678768
 51
269.9999999999318
  0
ARC
  5
3F5
  8
_0-0_0
  6
CONTINUOUS
 62
     1
 10
-230.8262471966288
 20
-1046.136857172434
 30
0.0
 40
0.3813800183820604
 50
270.0000000000512
 51
345.9637565321232
  0
ARC
  5
3F6
  8
_0-0_0
  6
CONTINUOUS
 62
     1
 10
-258.9667113803751
 20
-1006.022208344526
 30
0.0
 40
2.288280110288497
 50
269.9999999999943
 51
359.9999999999886
  0
ARC
  5
3F7
  8
_0-0_0
  6
CONTINUOUS
 62
     1
 10
-259.9328740936081
 20
-1010.75750413392
 30
0.0
 40
2.377268781243856
 50
90.0
 51
180.0
  0
LINE
  5
3F8
  8
_0-0_0
  6
CONTINUOUS
 62
     1
 10
-262.3101428748521
 20
-1010.75750413392
 30
0.0
 11
-262.3101428748521
 21
-1019.527901773358
 31
0.0
  0
ARC
  5
3F9
  8
_0-0_0
  6
CONTINUOUS
 62
     1
 10
-249.597475595472
 20
-1019.527901773358
 30
0.0
 40
12.71266727938018
 50
180.0000000000021
 51
194.0362434679281
  0
LINE
  5
3FA
  8
_0-0_0
  6
CONTINUOUS
 62
     1
 10
-259.1319760550069
 20
-1008.310488454815
 30
0.0
 11
-259.1319760550069
 21
-1008.380235352676
 31
0.0
  0
LINE
  5
3FB
  8
_0-0_0
  6
CONTINUOUS
 62
     1
 10
-163.6425345089324
 20
-1012.677116893106
 30
0.0
 11
-221.1384111675911
 21
-1012.677116893106
 31
0.0
  0
LINE
  5
3FC
  8
_0-0_0
  6
CONTINUOUS
 62
     1
 10
-217.8059372007291
 20
-1035.331089984962
 30
0.0
 11
-141.5398037207416
 21
-1035.331089984962
 31
0.0
  0
ARC
  5
3FD
  8
_0-0_0
  6
CONTINUOUS
 62
     1
 10
-226.5494098179562
 20
-1010.75750413392
 30
0.0
 40
2.37726878124395
 50
13.09372415419229
 51
90.0
  0
ARC
  5
3FE
  8
_0-0_0
  6
CONTINUOUS
 62
     1
 10
-221.1384111675911
 20
-1009.49895007326
 30
0.0
 40
3.178166819845643
 50
193.0937241541977
 51
270.0
  0
LINE
  5
3FF
  8
_0-0_0
  6
CONTINUOUS
 62
     1
 10
-227.3503078565566
 20
-1008.380235352676
 30
0.0
 11
-227.3503078565566
 21
-1008.310488454815
 31
0.0
  0
LINE
  5
400
  8
_0-0_0
  6
CONTINUOUS
 62
     1
 10
-141.539803720742
 20
-1008.380235352676
 30
0.0
 11
-158.231535858568
 21
-1008.380235352676
 31
0.0
  0
ARC
  5
401
  8
_0-0_0
  6
CONTINUOUS
 62
     1
 10
-158.2315358585681
 20
-1010.75750413392
 30
0.0
 40
2.377268781243856
 50
89.9999999999959
 51
166.9062758458028
  0
ARC
  5
402
  8
_0-0_0
  6
CONTINUOUS
 62
     1
 10
-163.6425345089329
 20
-1009.498950073261
 30
0.0
 40
3.178166819845046
 50
270.0000000000097
 51
346.9062758458125
  0
LINE
  5
403
  8
_0-0_0
  6
CONTINUOUS
 62
     1
 10
-154.6783453539813
 20
-993.5475820271813
 30
0.0
 11
-154.6783453539813
 21
-1006.843273878598
 31
0.0
  0
ARC
  5
404
  8
_0-0_0
  6
CONTINUOUS
 62
     1
 10
-156.2153068280583
 20
-1006.843273878599
 30
0.0
 40
1.536961474077088
 50
270.0000000000138
 51
0.0000000000169962
  0
ARC
  5
405
  8
_0-0_0
  6
CONTINUOUS
 62
     1
 10
-124.8480715829162
 20
-1010.75750413392
 30
0.0
 40
2.377268781244084
 50
13.09372415419717
 51
90.00000000000412
  0
ARC
  5
406
  8
_0-0_0
  6
CONTINUOUS
 62
     1
 10
-119.4370729325515
 20
-1009.498950073261
 30
0.0
 40
3.178166819845046
 50
193.0937241541876
 51
269.9999999999903
  0
LINE
  5
407
  8
_0-0_0
  6
CONTINUOUS
 62
     1
 10
-141.539803720742
 20
-1008.380235352676
 30
0.0
 11
-124.8480715829164
 21
-1008.380235352676
 31
0.0
  0
LINE
  5
408
  8
_0-0_0
  6
CONTINUOUS
 62
     1
 10
-128.4012620875035
 20
-993.5475820271813
 30
0.0
 11
-128.4012620875031
 21
-1006.843273878598
 31
0.0
  0
ARC
  5
409
  8
_0-0_0
  6
CONTINUOUS
 62
     1
 10
-126.8643006134261
 20
-1006.843273878599
 30
0.0
 40
1.53696147407706
 50
179.9999999999831
 51
269.9999999999862
  0
LINE
  5
40A
  8
_0-0_0
  6
CENTER-4
 62
    17
 10
-39.78737080838141
 20
-778.0292185286755
 30
0.0
 11
-39.78737080838107
 21
-1093.236546168104
 31
0.0
  0
ARC
  5
40B
  8
_0-0_0
  6
CONTINUOUS
 62
     1
 10
-56.53019762352798
 20
-1010.75750413392
 30
0.0
 40
2.377268781244084
 50
89.9999999999952
 51
166.9062758458032
  0
ARC
  5
40C
  8
_0-0_0
  6
CONTINUOUS
 62
     1
 10
-65.27367024075508
 20
-1048.043757264342
 30
0.0
 40
12.71266727938014
 50
14.03624346792707
 51
90.00000000000075
  0
ARC
  5
40D
  8
_0-0_0
  6
CONTINUOUS
 62
     1
 10
-61.9411962738931
 20
-1009.498950073261
 30
0.0
 40
3.178166819845501
 50
270.000000000003
 51
346.9062758458055
  0
LINE
  5
40E
  8
_0-0_0
  6
CONTINUOUS
 62
     1
 10
-21.14903302807888
 20
-1022.611176477842
 30
0.0
 11
-27.05357776201035
 21
-1046.229355413569
 31
0.0
  0
LINE
  5
40F
  8
_0-0_0
  6
CONTINUOUS
 62
     1
 10
-27.42357072654816
 20
-1046.518237190816
 30
0.0
 11
-52.25336024485586
 21
-1046.518237190816
 31
0.0
  0
LINE
  5
410
  8
_0-0_0
  6
CONTINUOUS
 62
     1
 10
-52.62335320939411
 20
-1046.229355413569
 30
0.0
 11
-52.94057142282151
 21
-1044.960482559859
 31
0.0
  0
ARC
  5
411
  8
_0-0_0
  6
CONTINUOUS
 62
     1
 10
-52.25336024485551
 20
-1046.136857172434
 30
0.0
 40
0.3813800183819003
 50
194.0362434678778
 51
269.9999999999488
  0
ARC
  5
412
  8
_0-0_0
  6
CONTINUOUS
 62
     1
 10
-27.42357072654876
 20
-1046.136857172435
 30
0.0
 40
0.3813800183816056
 50
270.0000000000811
 51
345.9637565321497
  0
LINE
  5
413
  8
_0-0_0
  6
CONTINUOUS
 62
     1
 10
-56.53019762352781
 20
-1008.380235352676
 30
0.0
 11
-23.14673334787594
 21
-1008.380235352676
 31
0.0
  0
LINE
  5
414
  8
_0-0_0
  6
CONTINUOUS
 62
     1
 10
-53.27575480000687
 20
-992.0222083445269
 30
0.0
 11
-53.27575480000687
 21
-1006.022208344527
 31
0.0
  0
ARC
  5
415
  8
_0-0_0
  6
CONTINUOUS
 62
     1
 10
-55.56403491029519
 20
-1006.022208344526
 30
0.0
 40
2.288280110288497
 50
269.999999999995
 51
359.9999999999886
  0
LINE
  5
416
  8
_0-0_0
  6
CONTINUOUS
 62
     1
 10
-55.72929958492736
 20
-1008.380235352676
 30
0.0
 11
-55.72929958492736
 21
-1008.310488454815
 31
0.0
  0
ARC
  5
417
  8
_0-0_0
  6
CONTINUOUS
 62
     1
 10
-23.14673334787607
 20
-1010.75750413392
 30
0.0
 40
2.377268781243842
 50
0.0
 51
89.99999999999551
  0
LINE
  5
418
  8
_0-0_0
  6
CONTINUOUS
 62
     1
 10
-20.76946456663221
 20
-1010.75750413392
 30
0.0
 11
-20.76946456663221
 21
-1019.527901773358
 31
0.0
  0
ARC
  5
419
  8
_0-0_0
  6
CONTINUOUS
 62
     1
 10
-33.48213184601239
 20
-1019.527901773358
 30
0.0
 40
12.71266727938018
 50
345.963756532072
 51
359.999999999998
  0
ARC
  5
41A
  8
_0-0_0
  6
CONTINUOUS
 62
     1
 10
-24.11289606110903
 20
-1006.022208344527
 30
0.0
 40
2.288280110288184
 50
180.0
 51
270.0
  0
LINE
  5
41B
  8
_0-0_0
  6
CONTINUOUS
 62
     1
 10
-26.40117617139725
 20
-1006.022208344527
 30
0.0
 11
-26.40117617139725
 21
-992.0222083445269
 31
0.0
  0
LINE
  5
41C
  8
_0-0_0
  6
CONTINUOUS
 62
     1
 10
-23.94763138647703
 20
-1008.310488454815
 30
0.0
 11
-23.94763138647703
 21
-1008.380235352676
 31
0.0
  0
LINE
  5
41D
  8
_0-1_250
  6
CONTINUOUS
 62
     1
 10
-293.0056854662894
 20
-949.1263946155314
 30
0.0
 11
-288.6184520199843
 21
-970.0220688292297
 31
0.0
  0
LINE
  5
41E
  8
_0-1_250
  6
CONTINUOUS
 62
     1
 10
-250.8318261848597
 20
-970.0222085886908
 30
0.0
 11
-254.3910976864241
 21
-954.0222085886908
 31
0.0
  0
LINE
  5
41F
  8
_0-1_250
  6
CONTINUOUS
 62
     1
 10
-259.3932831745693
 20
-981.0222083445269
 30
0.0
 11
-259.3932831745693
 21
-992.0222083445269
 31
0.0
  0
LINE
  5
420
  8
_0-1_250
  6
CONTINUOUS
 62
     1
 10
-250.8318261848597
 20
-970.0222085886908
 30
0.0
 11
-288.6184520199843
 21
-970.0220688292297
 31
0.0
  0
LINE
  5
421
  8
_0-1_250
  6
CONTINUOUS
 62
     1
 10
-231.3932446463114
 20
-977.0222607465898
 30
0.0
 11
-255.3932446461604
 21
-977.0221755844391
 31
0.0
  0
LINE
  5
422
  8
_0-1_250
  6
CONTINUOUS
 62
     1
 10
-259.3932831745693
 20
-981.0222083445269
 30
0.0
 11
-227.3932831745694
 21
-981.0222083445269
 31
0.0
  0
LINE
  5
423
  8
_0-1_250
  6
CONTINUOUS
 62
     1
 10
-249.2742634169376
 20
-970.0222085886908
 30
0.0
 11
-249.2742634169376
 21
-977.0221972971722
 31
0.0
  0
LINE
  5
424
  8
_0-1_250
  6
CONTINUOUS
 62
     1
 10
-262.4410976864241
 20
-953.8722085886907
 30
0.0
 11
-291.3068885953161
 21
-948.3919201195527
 31
0.0
  0
LINE
  5
425
  8
_0-1_250
  6
CONTINUOUS
 62
     1
 10
-262.4410976864241
 20
-953.8722085886907
 30
0.0
 11
-254.3910976864241
 21
-954.0222085886908
 31
0.0
  0
LINE
  5
426
  8
_0-1_250
  6
CONTINUOUS
 62
     1
 10
-293.0056854662894
 20
-949.1263946155314
 30
0.0
 11
-291.3068885953161
 21
-948.3919201195527
 31
0.0
  0
LINE
  5
427
  8
_0-1_250
  6
CONTINUOUS
 62
     1
 10
-235.8318261848597
 20
-970.0222085886908
 30
0.0
 11
-232.391097686424
 21
-954.0222085886908
 31
0.0
  0
LINE
  5
428
  8
_0-1_250
  6
CONTINUOUS
 62
     1
 10
-250.8318261848597
 20
-970.0222085886908
 30
0.0
 11
-235.8318261848597
 21
-970.0222085886908
 31
0.0
  0
LINE
  5
429
  8
_0-1_250
  6
CONTINUOUS
 62
     1
 10
-254.2752880925336
 20
-954.0222085886908
 30
0.0
 11
-248.1432831745693
 21
-952.6041908604466
 31
0.0
  0
LINE
  5
42A
  8
_0-1_250
  6
CONTINUOUS
 62
     1
 10
-248.1432831745693
 20
-952.6041908604466
 30
0.0
 11
-238.6432831745693
 21
-952.6041908604466
 31
0.0
  0
LINE
  5
42B
  8
_0-1_250
  6
CONTINUOUS
 62
     1
 10
-237.5123029322011
 20
-970.0222085886908
 30
0.0
 11
-237.5123029322011
 21
-977.022239033583
 31
0.0
  0
LINE
  5
42C
  8
_0-1_250
  6
CONTINUOUS
 62
     1
 10
-256.6358182264391
 20
-978.5629535156313
 30
0.0
 11
-256.6358182264391
 21
-981.0222083445269
 31
0.0
  0
LINE
  5
42D
  8
_0-1_250
  6
CONTINUOUS
 62
     1
 10
-251.8187598009119
 20
-981.0222083445269
 30
0.0
 11
-251.8187598009119
 21
-992.0222083445269
 31
0.0
  0
LINE
  5
42E
  8
_0-1_250
  6
CONTINUOUS
 62
     1
 10
-254.3910976864241
 20
-954.0222085886908
 30
0.0
 11
-232.391097686424
 21
-954.0222085886908
 31
0.0
  0
LINE
  5
42F
  8
_0-1_250
  6
CONTINUOUS
 62
     1
 10
-248.1432831745693
 20
-952.1041908604466
 30
0.0
 11
-248.1432831745693
 21
-952.6041908604466
 31
0.0
  0
LINE
  5
430
  8
_0-1_250
  6
CONTINUOUS
 62
     1
 10
-238.6432831745693
 20
-952.1041908604466
 30
0.0
 11
-238.6432831745693
 21
-952.6041908604466
 31
0.0
  0
LINE
  5
431
  8
_0-1_250
  6
CONTINUOUS
 62
     1
 10
-254.3910976864241
 20
-954.0222085886908
 30
0.0
 11
-232.391097686424
 21
-954.0222085886908
 31
0.0
  0
ARC
  5
432
  8
__
  6
CONTINUOUS
 62
     1
 10
-243.3932831745693
 20
-961.9896644592409
 30
0.0
 40
10.96745587054989
 50
64.3355743611285
 51
115.6644256388715
  0
LINE
  5
433
  8
_0-1_250
  6
CONTINUOUS
 62
     1
 10
-232.511278256605
 20
-954.0222085886908
 30
0.0
 11
-238.6432831745693
 21
-952.6041908604466
 31
0.0
  0
ARC
  5
434
  8
__
  6
CONTINUOUS
 62
     1
 10
-255.1555610537803
 20
-978.485288583754
 30
0.0
 40
1.482293202727141
 50
99.22712892495429
 51
183.0033945545559
  0
LINE
  5
435
  8
_0-1_250
  6
CONTINUOUS
 62
     1
 10
-230.1507481226995
 20
-978.5629535156313
 30
0.0
 11
-230.1507481226995
 21
-981.0222083445269
 31
0.0
  0
ARC
  5
436
  8
__
  6
CONTINUOUS
 62
     1
 10
-231.6310052953584
 20
-978.485288583754
 30
0.0
 40
1.482293202727289
 50
356.9966054454441
 51
80.77287107504571
  0
LINE
  5
437
  8
_0-1_250
  6
CONTINUOUS
 62
     1
 10
-259.3932831745693
 20
-992.0222083445269
 30
0.0
 11
-227.3932831745694
 21
-992.0222083445269
 31
0.0
  0
LINE
  5
438
  8
_0-1_250
  6
CONTINUOUS
 62
     1
 10
-227.3932831745694
 20
-981.0222083445269
 30
0.0
 11
-227.3932831745694
 21
-992.0222083445269
 31
0.0
  0
LINE
  5
439
  8
_0-1_250
  6
CONTINUOUS
 62
     1
 10
-234.9678065482267
 20
-981.0222083445269
 30
0.0
 11
-234.9678065482267
 21
-992.0222083445269
 31
0.0
  0
LINE
  5
43A
  8
_0-1_250
  6
CONTINUOUS
 62
     1
 10
-256.6784312700868
 20
-992.0222083445269
 30
0.0
 11
-256.6784312700868
 21
-1006.022208344527
 31
0.0
  0
DIMENSION
  5
43B
  8
__-1
  6
CONTINUOUS
 62
    17
  2
*D6
 10
-243.3932831745694
 20
-1123.242152577857
 30
0.0
 11
-141.5903269914752
 21
-1123.242152577857
 31
0.0
 70
    32
  3
STANDARD-1
 13
-39.78737080838107
 23
-1093.236546168104
 33
0.0
 14
-243.3932831745694
 24
-1093.236546168104
 34
0.0
  0
ARC
  5
43D
  8
__
  6
CONTINUOUS
 62
     1
 10
-39.68632426691391
 20
-1030.559688558275
 30
0.0
 40
16.49999999999995
 50
332.6421181585312
 51
0.1895576495856517
  0
ARC
  5
43E
  8
__
  6
CONTINUOUS
 62
     1
 10
-39.68632426691391
 20
-1030.559688558275
 30
0.0
 40
16.49999999999986
 50
255.2812740657106
 51
284.7187259342894
  0
ARC
  5
43F
  8
__
  6
CONTINUOUS
 62
     1
 10
-39.68632426691391
 20
-1030.559688558275
 30
0.0
 40
24.9999999999999
 50
191.1052391571125
 51
40.82811004601433
  0
LINE
  5
440
  8
_0-0_0
  6
CONTINUOUS
 62
     1
 10
383.9073715020725
 20
-1006.586438234888
 30
0.0
 11
383.9073715020725
 21
-1054.448611033477
 31
0.0
  0
LINE
  5
441
  8
_0-0_0
  6
CONTINUOUS
 62
     1
 10
374.9073715020724
 20
-1014.517524634183
 30
0.0
 11
374.9073715020724
 21
-1046.517524634183
 31
0.0
  0
LINE
  5
442
  8
_0-0_0
  6
CONTINUOUS
 62
     1
 10
379.9073715020724
 20
-1046.517524634183
 30
0.0
 11
379.9073715020724
 21
-1014.517524634183
 31
0.0
  0
LINE
  5
443
  8
_0-0_0
  6
CONTINUOUS
 62
     1
 10
387.4073715020725
 20
-1005.505099973583
 30
0.0
 11
387.4073715020725
 21
-1055.505099973583
 31
0.0
  0
LINE
  5
444
  8
_0-0_0
  6
CONTINUOUS
 62
     1
 10
369.3749004651696
 20
-1016.017524634183
 30
0.0
 11
369.3749004651696
 21
-1045.017524634183
 31
0.0
  0
LINE
  5
445
  8
_0-0_0
  6
CONTINUOUS
 62
     1
 10
384.5501618163819
 20
-1005.4477539546
 30
0.0
 11
387.4073715020725
 21
-1005.4477539546
 31
0.0
  0
LINE
  5
446
  8
_0-0_0
  6
CONTINUOUS
 62
     1
 10
384.5501618163819
 20
-1055.587295313765
 30
0.0
 11
379.9073715020724
 21
-1046.517524634183
 31
0.0
  0
LINE
  5
447
  8
_0-0_0
  6
CONTINUOUS
 62
     1
 10
384.5501618163819
 20
-1055.587295313765
 30
0.0
 11
387.4071576869862
 21
-1055.587295313765
 31
0.0
  0
LINE
  5
448
  8
_0-0_0
  6
CONTINUOUS
 62
     1
 10
379.9073715020724
 20
-1046.517524634183
 30
0.0
 11
370.9073715020724
 21
-1046.517524634183
 31
0.0
  0
LINE
  5
449
  8
_0-0_0
  6
CONTINUOUS
 62
     1
 10
384.5501618163819
 20
-1005.4477539546
 30
0.0
 11
379.9073715020724
 21
-1014.517524634183
 31
0.0
  0
LINE
  5
44A
  8
_0-0_0
  6
CONTINUOUS
 62
     1
 10
370.9073715020724
 20
-1014.517524634183
 30
0.0
 11
370.9073715020724
 21
-1046.517524634183
 31
0.0
  0
LINE
  5
44B
  8
_0-0_0
  6
CONTINUOUS
 62
     1
 10
379.9073715020724
 20
-1014.517524634183
 30
0.0
 11
370.9073715020724
 21
-1014.517524634183
 31
0.0
  0
LINE
  5
44C
  8
_0-0_0
  6
CONTINUOUS
 62
     1
 10
370.9073715020724
 20
-1017.067148927017
 30
0.0
 11
369.3749004651696
 21
-1017.067148927017
 31
0.0
  0
LINE
  5
44D
  8
_0-0_0
  6
CONTINUOUS
 62
     1
 10
370.9073715020724
 20
-1043.967900341349
 30
0.0
 11
369.3749004651696
 21
-1043.967900341349
 31
0.0
  0
LINE
  5
44E
  8
_0-0_0
  6
CONTINUOUS
 62
     1
 10
369.3749004651696
 20
-1014.518237190816
 30
0.0
 11
369.3749004651696
 21
-1045.915532342316
 31
0.0
  0
LINE
  5
44F
  8
_0-0_0
  6
CONTINUOUS
 62
     1
 10
349.3749004651696
 20
-1014.518237190816
 30
0.0
 11
349.3749004651696
 21
-1046.518237190816
 31
0.0
  0
LINE
  5
450
  8
_0-0_0
  6
CONTINUOUS
 62
     1
 10
349.3749004651696
 20
-1014.518237190816
 30
0.0
 11
369.3749004651696
 21
-1014.518237190816
 31
0.0
  0
LINE
  5
451
  8
_0-0_0
  6
CONTINUOUS
 62
     1
 10
349.3749004651696
 20
-1046.518237190816
 30
0.0
 11
369.3749004651696
 21
-1046.518237190816
 31
0.0
  0
LINE
  5
452
  8
_0-0_0
  6
CONTINUOUS
 62
     1
 10
369.3749004651696
 20
-1027.242216945816
 30
0.0
 11
369.3749004651696
 21
-1015.120942039316
 31
0.0
  0
LINE
  5
453
  8
_0-0_0
  6
CONTINUOUS
 62
     1
 10
369.3749004651696
 20
-1046.518237190816
 30
0.0
 11
369.3749004651696
 21
-1033.794257435816
 31
0.0
  0
LINE
  5
454
  8
_0-0_0
  6
CONTINUOUS
 62
     1
 10
349.3750693799576
 20
-1022.365084913043
 30
0.0
 11
369.3750693799576
 21
-1022.363489863281
 31
0.0
  0
LINE
  5
455
  8
_0-0_0
  6
CONTINUOUS
 62
     1
 10
349.3750693799576
 20
-1038.671389468589
 30
0.0
 11
369.3750693799576
 21
-1038.672984518352
 31
0.0
  0
LINE
  5
456
  8
_0-0_0
  6
CONTINUOUS
 62
     1
 10
-157.5398037207416
 20
-993.5475820271813
 30
0.0
 11
-125.5398037207416
 21
-993.5475820271813
 31
0.0
  0
LINE
  5
457
  8
_0-0_0
  6
CONTINUOUS
 62
     1
 10
-157.5398037207416
 20
-993.5475820271813
 30
0.0
 11
-157.5398037207416
 21
-982.5475820271813
 31
0.0
  0
LINE
  5
458
  8
_0-0_0
  6
CONTINUOUS
 62
     1
 10
-125.5398037207416
 20
-993.5475820271813
 30
0.0
 11
-125.5398037207416
 21
-982.5475820271813
 31
0.0
  0
LINE
  5
459
  8
_0-0_0
  6
CONTINUOUS
 62
     1
 10
-149.6929559985146
 20
-993.5474131123933
 30
0.0
 11
-149.6945510482769
 21
-982.5474131123933
 31
0.0
  0
LINE
  5
45A
  8
_0-0_0
  6
CONTINUOUS
 62
     1
 10
-133.3866514429687
 20
-993.5474131123933
 30
0.0
 11
-133.3850563932064
 21
-982.5474131123933
 31
0.0
  0
LINE
  5
45B
  8
_0-1_250
  6
CONTINUOUS
 62
     1
 10
10.21122612032372
 20
-949.1263946155314
 30
0.0
 11
5.823992674018541
 21
-970.0220688292297
 31
0.0
  0
LINE
  5
45C
  8
_0-1_250
  6
CONTINUOUS
 62
     1
 10
-32.34882779809089
 20
-970.0222085886908
 30
0.0
 11
-28.78955629652643
 21
-954.0222085886908
 31
0.0
  0
LINE
  5
45D
  8
_0-1_250
  6
CONTINUOUS
 62
     1
 10
-23.78737080838124
 20
-981.0222083445269
 30
0.0
 11
-23.78737080838124
 21
-992.0222083445269
 31
0.0
  0
LINE
  5
45E
  8
_0-1_250
  6
CONTINUOUS
 62
     1
 10
-32.34882779809089
 20
-970.0222085886908
 30
0.0
 11
5.437798037033701
 21
-970.0220688292297
 31
0.0
  0
LINE
  5
45F
  8
_0-1_250
  6
CONTINUOUS
 62
     1
 10
-51.7874093366392
 20
-977.0222607465898
 30
0.0
 11
-27.78740933679018
 21
-977.0221755844391
 31
0.0
  0
LINE
  5
460
  8
_0-1_250
  6
CONTINUOUS
 62
     1
 10
-23.78737080838124
 20
-981.0222083445269
 30
0.0
 11
-55.78737080838113
 21
-981.0222083445269
 31
0.0
  0
LINE
  5
461
  8
_0-1_250
  6
CONTINUOUS
 62
     1
 10
-33.90639056601293
 20
-970.0222085886908
 30
0.0
 11
-33.90639056601293
 21
-977.0221972971722
 31
0.0
  0
LINE
  5
462
  8
_0-1_250
  6
CONTINUOUS
 62
     1
 10
-20.73955629652647
 20
-953.8722085886907
 30
0.0
 11
8.126234612365522
 21
-948.3919201195527
 31
0.0
  0
LINE
  5
463
  8
_0-1_250
  6
CONTINUOUS
 62
     1
 10
-20.73955629652647
 20
-953.8722085886907
 30
0.0
 11
-28.78955629652643
 21
-954.0222085886908
 31
0.0
  0
LINE
  5
464
  8
_0-1_250
  6
CONTINUOUS
 62
     1
 10
10.21122612032372
 20
-949.1263946155314
 30
0.0
 11
8.512429249350362
 21
-948.3919201195527
 31
0.0
  0
LINE
  5
465
  8
_0-1_250
  6
CONTINUOUS
 62
     1
 10
-47.34882779809089
 20
-970.0222085886908
 30
0.0
 11
-50.78955629652654
 21
-954.0222085886908
 31
0.0
  0
LINE
  5
466
  8
_0-1_250
  6
CONTINUOUS
 62
     1
 10
-32.34882779809089
 20
-970.0222085886908
 30
0.0
 11
-47.34882779809089
 21
-970.0222085886908
 31
0.0
  0
LINE
  5
467
  8
_0-1_250
  6
CONTINUOUS
 62
     1
 10
-28.90536589041693
 20
-954.0222085886908
 30
0.0
 11
-35.03737080838124
 21
-952.6041908604466
 31
0.0
  0
LINE
  5
468
  8
_0-1_250
  6
CONTINUOUS
 62
     1
 10
-35.03737080838124
 20
-952.6041908604466
 30
0.0
 11
-44.53737080838124
 21
-952.6041908604466
 31
0.0
  0
LINE
  5
469
  8
_0-1_250
  6
CONTINUOUS
 62
     1
 10
-45.66835105074944
 20
-970.0222085886908
 30
0.0
 11
-45.66835105074944
 21
-977.022239033583
 31
0.0
  0
LINE
  5
46A
  8
_0-1_250
  6
CONTINUOUS
 62
     1
 10
-26.54483575651142
 20
-978.5629535156313
 30
0.0
 11
-26.54483575651142
 21
-981.0222083445269
 31
0.0
  0
LINE
  5
46B
  8
_0-1_250
  6
CONTINUOUS
 62
     1
 10
-31.36189418203861
 20
-981.0222083445269
 30
0.0
 11
-31.36189418203861
 21
-992.0222083445269
 31
0.0
  0
LINE
  5
46C
  8
_0-1_250
  6
CONTINUOUS
 62
     1
 10
-28.78955629652643
 20
-954.0222085886908
 30
0.0
 11
-50.78955629652654
 21
-954.0222085886908
 31
0.0
  0
LINE
  5
46D
  8
_0-1_250
  6
CONTINUOUS
 62
     1
 10
-35.03737080838124
 20
-952.1041908604466
 30
0.0
 11
-35.03737080838124
 21
-952.6041908604466
 31
0.0
  0
LINE
  5
46E
  8
_0-1_250
  6
CONTINUOUS
 62
     1
 10
-44.53737080838124
 20
-952.1041908604466
 30
0.0
 11
-44.53737080838124
 21
-952.6041908604466
 31
0.0
  0
LINE
  5
46F
  8
_0-1_250
  6
CONTINUOUS
 62
     1
 10
-28.78955629652643
 20
-954.0222085886908
 30
0.0
 11
-50.78955629652654
 21
-954.0222085886908
 31
0.0
  0
ARC
  5
470
  8
__
  6
CONTINUOUS
 62
     1
 10
-39.78737080838124
 20
-961.9896644592409
 30
0.0
 40
10.96745587054989
 50
64.3355743611285
 51
115.6644256388715
  0
LINE
  5
471
  8
_0-1_250
  6
CONTINUOUS
 62
     1
 10
-50.66937572634555
 20
-954.0222085886908
 30
0.0
 11
-44.53737080838124
 21
-952.6041908604466
 31
0.0
  0
ARC
  5
472
  8
__
  6
CONTINUOUS
 62
     1
 10
-28.02509292917028
 20
-978.485288583754
 30
0.0
 40
1.482293202727289
 50
356.9966054454441
 51
80.77287107504571
  0
LINE
  5
473
  8
_0-1_250
  6
CONTINUOUS
 62
     1
 10
-53.02990586025106
 20
-978.5629535156313
 30
0.0
 11
-53.02990586025106
 21
-981.0222083445269
 31
0.0
  0
ARC
  5
474
  8
__
  6
CONTINUOUS
 62
     1
 10
-51.5496486875922
 20
-978.485288583754
 30
0.0
 40
1.482293202727141
 50
99.22712892495429
 51
183.0033945545559
  0
LINE
  5
475
  8
_0-1_250
  6
CONTINUOUS
 62
     1
 10
-23.78737080838124
 20
-992.0222083445269
 30
0.0
 11
-55.78737080838113
 21
-992.0222083445269
 31
0.0
  0
LINE
  5
476
  8
_0-1_250
  6
CONTINUOUS
 62
     1
 10
-55.78737080838113
 20
-981.0222083445269
 30
0.0
 11
-55.78737080838113
 21
-992.0222083445269
 31
0.0
  0
LINE
  5
477
  8
_0-1_250
  6
CONTINUOUS
 62
     1
 10
-48.21284743472387
 20
-981.0222083445269
 30
0.0
 11
-48.21284743472387
 21
-992.0222083445269
 31
0.0
  0
LINE
  5
478
  8
_0-0_0
  6
CONTINUOUS
 62
     1
 10
339.2207943052537
 20
-1046.518237190816
 30
0.0
 11
314.391004786946
 21
-1046.518237190816
 31
0.0
  0
ARC
  5
479
  8
_0-0_0
  6
CONTINUOUS
 62
     1
 10
339.2207943052531
 20
-1046.136857172435
 30
0.0
 40
0.3813800183816056
 50
270.0000000000769
 51
345.9637565321481
  0
LINE
  5
47A
  8
_0-0_0
  6
CONTINUOUS
 62
     1
 10
310.1141674082741
 20
-1008.380235352676
 30
0.0
 11
343.4976316839259
 21
-1008.380235352676
 31
0.0
  0
LINE
  5
47B
  8
_0-0_0
  6
CONTINUOUS
 62
     1
 10
313.3686102317949
 20
-992.0222083445269
 30
0.0
 11
313.3686102317949
 21
-1006.022208344527
 31
0.0
  0
ARC
  5
47C
  8
_0-0_0
  6
CONTINUOUS
 62
     1
 10
343.4976316839258
 20
-1010.75750413392
 30
0.0
 40
2.377268781243856
 50
0.0
 51
89.9999999999945
  0
LINE
  5
47D
  8
_0-0_0
  6
CONTINUOUS
 62
     1
 10
345.8749004651696
 20
-1010.75750413392
 30
0.0
 11
345.8749004651696
 21
-1013.380838773212
 31
0.0
  0
ARC
  5
47E
  8
_0-0_0
  6
CONTINUOUS
 62
     1
 10
342.5314689706928
 20
-1006.022208344527
 30
0.0
 40
2.288280110288156
 50
180.0
 51
270.0
  0
LINE
  5
47F
  8
_0-0_0
  6
CONTINUOUS
 62
     1
 10
340.2431888604046
 20
-1006.022208344527
 30
0.0
 11
340.2431888604046
 21
-992.0222083445269
 31
0.0
  0
LINE
  5
480
  8
_0-0_0
  6
CONTINUOUS
 62
     1
 10
342.6967336453248
 20
-1008.310488454815
 30
0.0
 11
342.6967336453248
 21
-1008.380235352676
 31
0.0
  0
LINE
  5
481
  8
_0-1_250
  6
CONTINUOUS
 62
     1
 10
334.2444425563903
 20
-970.0222085886908
 30
0.0
 11
337.8037140579547
 21
-954.0222085886908
 31
0.0
  0
LINE
  5
482
  8
_0-1_250
  6
CONTINUOUS
 62
     1
 10
342.8058995460999
 20
-981.0222083445269
 30
0.0
 11
342.8058995460999
 21
-992.0222083445269
 31
0.0
  0
LINE
  5
483
  8
_0-1_250
  6
CONTINUOUS
 62
     1
 10
314.8058610178419
 20
-977.0222607465898
 30
0.0
 11
338.805861017691
 21
-977.0221755844391
 31
0.0
  0
LINE
  5
484
  8
_0-1_250
  6
CONTINUOUS
 62
     1
 10
332.6868797884682
 20
-970.0222085886908
 30
0.0
 11
332.6868797884682
 21
-977.0221972971722
 31
0.0
  0
LINE
  5
485
  8
_0-1_250
  6
CONTINUOUS
 62
     1
 10
319.2444425563903
 20
-970.0222085886908
 30
0.0
 11
315.8037140579546
 21
-954.0222085886908
 31
0.0
  0
LINE
  5
486
  8
_0-1_250
  6
CONTINUOUS
 62
     1
 10
334.2444425563903
 20
-970.0222085886908
 30
0.0
 11
319.2444425563903
 21
-970.0222085886908
 31
0.0
  0
LINE
  5
487
  8
_0-1_250
  6
CONTINUOUS
 62
     1
 10
337.6879044640642
 20
-954.0222085886908
 30
0.0
 11
331.5558995460999
 21
-952.6041908604466
 31
0.0
  0
LINE
  5
488
  8
_0-1_250
  6
CONTINUOUS
 62
     1
 10
331.5558995460999
 20
-952.6041908604466
 30
0.0
 11
322.0558995460999
 21
-952.6041908604466
 31
0.0
  0
LINE
  5
489
  8
_0-1_250
  6
CONTINUOUS
 62
     1
 10
320.9249193037317
 20
-970.0222085886908
 30
0.0
 11
320.9249193037317
 21
-977.022239033583
 31
0.0
  0
LINE
  5
48A
  8
_0-1_250
  6
CONTINUOUS
 62
     1
 10
340.0484345979697
 20
-978.5629535156313
 30
0.0
 11
340.0484345979697
 21
-981.0222083445269
 31
0.0
  0
LINE
  5
48B
  8
_0-1_250
  6
CONTINUOUS
 62
     1
 10
335.2313761724425
 20
-981.0222083445269
 30
0.0
 11
335.2313761724425
 21
-992.0222083445269
 31
0.0
  0
LINE
  5
48C
  8
_0-1_250
  6
CONTINUOUS
 62
     1
 10
337.8037140579547
 20
-954.0222085886908
 30
0.0
 11
315.8037140579546
 21
-954.0222085886908
 31
0.0
  0
LINE
  5
48D
  8
_0-1_250
  6
CONTINUOUS
 62
     1
 10
331.5558995460999
 20
-952.1041908604466
 30
0.0
 11
331.5558995460999
 21
-952.6041908604466
 31
0.0
  0
LINE
  5
48E
  8
_0-1_250
  6
CONTINUOUS
 62
     1
 10
322.0558995460999
 20
-952.1041908604466
 30
0.0
 11
322.0558995460999
 21
-952.6041908604466
 31
0.0
  0
LINE
  5
48F
  8
_0-1_250
  6
CONTINUOUS
 62
     1
 10
337.8037140579547
 20
-954.0222085886908
 30
0.0
 11
315.8037140579546
 21
-954.0222085886908
 31
0.0
  0
ARC
  5
490
  8
__
  6
CONTINUOUS
 62
     1
 10
326.8058995460999
 20
-961.9896644592409
 30
0.0
 40
10.96745587054989
 50
64.3355743611285
 51
115.6644256388715
  0
LINE
  5
491
  8
_0-1_250
  6
CONTINUOUS
 62
     1
 10
315.9238946281356
 20
-954.0222085886908
 30
0.0
 11
322.0558995460999
 21
-952.6041908604466
 31
0.0
  0
ARC
  5
492
  8
__
  6
CONTINUOUS
 62
     1
 10
338.5681774253109
 20
-978.485288583754
 30
0.0
 40
1.482293202727289
 50
356.9966054454441
 51
80.77287107504571
  0
LINE
  5
493
  8
_0-1_250
  6
CONTINUOUS
 62
     1
 10
313.5633644942301
 20
-978.5629535156313
 30
0.0
 11
313.5633644942301
 21
-981.0222083445269
 31
0.0
  0
ARC
  5
494
  8
__
  6
CONTINUOUS
 62
     1
 10
315.043621666889
 20
-978.485288583754
 30
0.0
 40
1.482293202727141
 50
99.22712892495429
 51
183.0033945545559
  0
LINE
  5
495
  8
_0-1_250
  6
CONTINUOUS
 62
     1
 10
342.8058995460999
 20
-992.0222083445269
 30
0.0
 11
310.8058995461
 21
-992.0222083445269
 31
0.0
  0
LINE
  5
496
  8
_0-1_250
  6
CONTINUOUS
 62
     1
 10
310.8058995461
 20
-981.0222083445269
 30
0.0
 11
310.8058995461
 21
-992.0222083445269
 31
0.0
  0
LINE
  5
497
  8
_0-1_250
  6
CONTINUOUS
 62
     1
 10
318.3804229197573
 20
-981.0222083445269
 30
0.0
 11
318.3804229197573
 21
-992.0222083445269
 31
0.0
  0
LINE
  5
498
  8
_0-0_0
  6
CONTINUOUS
 62
     1
 10
308.1164670884766
 20
-1022.611176477842
 30
0.0
 11
314.0210118224081
 21
-1046.229355413569
 31
0.0
  0
ARC
  5
499
  8
_0-0_0
  6
CONTINUOUS
 62
     1
 10
314.3910047869465
 20
-1046.136857172435
 30
0.0
 40
0.3813800183816798
 50
194.0362434678509
 51
269.9999999999231
  0
ARC
  5
49A
  8
_0-0_0
  6
CONTINUOUS
 62
     1
 10
310.1141674082738
 20
-1010.75750413392
 30
0.0
 40
2.377268781243856
 50
90.0000000000048
 51
180.0
  0
LINE
  5
49B
  8
_0-0_0
  6
CONTINUOUS
 62
     1
 10
307.73689862703
 20
-1010.75750413392
 30
0.0
 11
307.73689862703
 21
-1019.527901773358
 31
0.0
  0
ARC
  5
49C
  8
_0-0_0
  6
CONTINUOUS
 62
     1
 10
320.4495659064102
 20
-1019.527901773358
 30
0.0
 40
12.71266727938016
 50
180.0000000000021
 51
194.0362434679281
  0
ARC
  5
49D
  8
_0-0_0
  6
CONTINUOUS
 62
     1
 10
311.0803301215068
 20
-1006.022208344527
 30
0.0
 40
2.288280110288042
 50
270.0
 51
0.0
  0
LINE
  5
49E
  8
_0-0_0
  6
CONTINUOUS
 62
     1
 10
310.9150654468748
 20
-1008.310488454815
 30
0.0
 11
310.9150654468748
 21
-1008.380235352676
 31
0.0
  0
POLYLINE
  5
49F
  8
__
  6
CONTINUOUS
 62
     1
 66
     1
 10
0.0
 20
0.0
 30
0.0
 70
   129
  0
VERTEX
  5
4A0
  8
__
  6
CONTINUOUS
 62
     1
 10
324.4944425563903
 20
-948.3920548399637
 30
0.0
  0
VERTEX
  5
4A1
  8
__
  6
CONTINUOUS
 62
     1
 10
328.9944425563903
 20
-948.3920548399637
 30
0.0
  0
VERTEX
  5
4A2
  8
__
  6
CONTINUOUS
 62
     1
 10
328.9944425563903
 20
-970.0222085886908
 30
0.0
  0
VERTEX
  5
4A3
  8
__
  6
CONTINUOUS
 62
     1
 10
324.4944425563903
 20
-970.0222085886908
 30
0.0
  0
SEQEND
  5
4A4
  8
__
  6
CONTINUOUS
 62
     1
  0
LINE
  5
4A5
  8
__
  6
CONTINUOUS
 62
     1
 10
328.9944425563903
 20
-949.1265293359427
 30
0.0
 11
324.4944425563903
 21
-949.1265293359427
 31
0.0
  0
LINE
  5
4A6
  8
_0-0_0
  6
CONTINUOUS
 62
     1
 10
310.8058995461
 20
-993.4097386311178
 30
0.0
 11
313.3686102317949
 21
-993.4097386311178
 31
0.0
  0
LINE
  5
4A7
  8
_0-0_0
  6
CONTINUOUS
 62
     1
 10
340.2431888604046
 20
-993.4097386311178
 30
0.0
 11
342.8058995461
 21
-993.4097386311178
 31
0.0
  0
LINE
  5
4A8
  8
_0-0_0
  6
CONTINUOUS
 62
     1
 10
310.8058995461
 20
-993.4097386311178
 30
0.0
 11
310.8058995461
 21
-982.4097386311178
 31
0.0
  0
LINE
  5
4A9
  8
_0-0_0
  6
CONTINUOUS
 62
     1
 10
342.8058995461
 20
-993.4097386311178
 30
0.0
 11
342.8058995461
 21
-982.4097386311178
 31
0.0
  0
LINE
  5
4AA
  8
_0-1_250
  6
CONTINUOUS
 62
     1
 10
342.8058995460999
 20
-981.0222083445269
 30
0.0
 11
310.8058995461
 21
-981.0222083445269
 31
0.0
  0
ARC
  5
4AB
  8
_0-0_0
  6
CONTINUOUS
 62
     1
 10
280.8043820567489
 20
-962.9285811036739
 30
0.0
 40
55.34527222373526
 50
0.0000000000004547
 51
1.441368348590231
  0
ARC
  5
4AC
  8
_0-0_0
  6
CONTINUOUS
 62
     1
 10
280.8043820567489
 20
-962.9285811036734
 30
0.0
 40
36.34859394016667
 50
0.0
 51
5.292116287787962
  0
LINE
  5
4AD
  8
_0-0_0
  6
CONTINUOUS
 62
     1
 10
336.1496542804841
 20
-962.9285811036734
 30
0.0
 11
336.1496542804841
 21
-977.0222524180331
 31
0.0
  0
LINE
  5
4AE
  8
_0-0_0
  6
CONTINUOUS
 62
     1
 10
317.1529759969155
 20
-962.9285811036734
 30
0.0
 11
317.1529759969155
 21
-977.0222524180331
 31
0.0
  0
LINE
  5
4AF
  8
_0-0_0
  6
CONTINUOUS
 62
     1
 10
349.3749004651696
 20
-1021.518237190816
 30
0.0
 11
347.3749004651696
 21
-1021.518237190816
 31
0.0
  0
LINE
  5
4B0
  8
_0-0_0
  6
CONTINUOUS
 62
     1
 10
347.3749004651696
 20
-1039.518237190816
 30
0.0
 11
349.3749004651696
 21
-1039.518237190816
 31
0.0
  0
LINE
  5
4B1
  8
_0-1_250
  6
CONTINUOUS
 62
     1
 10
-229.8038526414775
 20
-992.0222083445269
 30
0.0
 11
-229.8038526414775
 21
-1006.022208344527
 31
0.0
  0
LINE
  5
4B2
  8
_0-0_0
  6
CENTER-4
 62
    17
 10
72.80647957115309
 20
-778.0292185286755
 30
0.0
 11
72.80647957115343
 21
-1093.236546168104
 31
0.0
  0
LINE
  5
4B3
  8
_0-0_0
  6
CENTER-4
 62
    17
 10
326.8058995460997
 20
-778.0292185286755
 30
0.0
 11
326.8058995461001
 21
-1093.236546168104
 31
0.0
  0
LINE
  5
4B4
  8
_0-0_0
  6
CENTER-4
 62
    17
 10
-311.3852639520677
 20
-844.3252879614608
 30
0.0
 11
410.2756097710503
 21
-844.3252879614599
 31
0.0
  0
LINE
  5
4B5
  8
_0-0_0
  6
CENTER-4
 62
    17
 10
387.4073715020722
 20
-778.0292185286755
 30
0.0
 11
387.4073715020725
 21
-1093.236546168104
 31
0.0
  0
ARC
  5
4B6
  8
_0-0_0
  6
CONTINUOUS
 62
     1
 10
377.7412163199099
 20
-1011.713739955813
 30
0.0
 40
31.9098935225589
 50
182.9947210932998
 51
197.8939248773807
  0
ARC
  5
4B7
  8
__
  6
CONTINUOUS
 62
     1
 10
349.0585905063108
 20
-1049.427030715523
 30
0.0
 40
9.993218973993033
 50
97.45294380096466
 51
161.3380117289917
  0
ARC
  5
4B8
  8
__
  6
CONTINUOUS
 62
     1
 10
-243.3932831745694
 20
-1030.559688558275
 30
0.0
 40
16.49999999999997
 50
179.8104423504143
 51
207.3578818414688
  0
ARC
  5
4B9
  8
__
  6
CONTINUOUS
 62
     1
 10
-243.3932831745694
 20
-1030.559688558275
 30
0.0
 40
16.49999999999986
 50
255.2812740657106
 51
284.7187259342894
  0
ARC
  5
4BA
  8
__
  6
CONTINUOUS
 62
     1
 10
-243.3932831745694
 20
-1030.559688558275
 30
0.0
 40
25.00000000000001
 50
139.1718899539857
 51
348.8947608428875
  0
ARC
  5
4BB
  8
_0-0_0
  6
CONTINUOUS
 62
     1
 10
-141.5404607371091
 20
240.5780203284233
 30
0.0
 40
9.499999999999886
 50
0.0
 51
180.0
  0
LINE
  5
4BC
  8
_0-0_0
  6
CONTINUOUS
 62
     1
 10
-151.0404607371091
 20
240.5780203284233
 30
0.0
 11
-151.0404607371091
 21
174.8735038240922
 31
0.0
  0
LINE
  5
4BD
  8
_0-0_0
  6
CONTINUOUS
 62
     1
 10
-132.0404607371092
 20
150.5974835790922
 30
0.0
 11
-132.0404607371092
 21
153.8735038240922
 31
0.0
  0
LINE
  5
4BE
  8
_0-0_0
  6
CONTINUOUS
 62
     1
 10
-132.0404607371092
 20
240.635086965005
 30
0.0
 11
-132.0404607371092
 21
174.6980490525625
 31
0.0
  0
LINE
  5
4BF
  8
_0-0_0
  6
CONTINUOUS
 62
     1
 10
-151.0404607371091
 20
150.5974835790922
 30
0.0
 11
-151.0404607371091
 21
153.8735038240922
 31
0.0
  0
LINE
  5
4C0
  8
_0-0_0
  6
CONTINUOUS
 62
     1
 10
-125.5398037207417
 20
150.5974835790922
 30
0.0
 11
-157.5398037207416
 21
150.5974835790922
 31
0.0
  0
LINE
  5
4C1
  8
_0-0_0
  6
CONTINUOUS
 62
     1
 10
-130.6237484881476
 20
153.8735038240922
 30
0.0
 11
-152.4571729860708
 21
153.8735038240922
 31
0.0
  0
LINE
  5
4C2
  8
_0-0_0
  6
CONTINUOUS
 62
     1
 10
-129.5404607371092
 20
171.8735038240922
 30
0.0
 11
-153.5404607371091
 21
171.8735038240922
 31
0.0
  0
LINE
  5
4C3
  8
_0-0_0
  6
CONTINUOUS
 62
     1
 10
-130.6237484881476
 20
153.8735038240922
 30
0.0
 11
-129.5404607371092
 21
171.8735038240922
 31
0.0
  0
LINE
  5
4C4
  8
_0-0_0
  6
CONTINUOUS
 62
     1
 10
-152.4571729860708
 20
153.8735038240922
 30
0.0
 11
-153.5404607371091
 21
171.8735038240922
 31
0.0
  0
LINE
  5
4C5
  8
_0-0_0
  6
CONTINUOUS
 62
     1
 10
-130.5404607371092
 20
171.8735038240922
 30
0.0
 11
-132.0404607371092
 21
174.6980490525625
 31
0.0
  0
LINE
  5
4C6
  8
_0-0_0
  6
CONTINUOUS
 62
     1
 10
-152.5404607371091
 20
171.8735038240922
 30
0.0
 11
-151.0404607371091
 21
174.8735038240922
 31
0.0
  0
LINE
  5
4C7
  8
_0-0_0
  6
CONTINUOUS
 62
     1
 10
181.650629512506
 20
172.0113472201556
 30
0.0
 11
157.650629512506
 21
172.0113472201556
 31
0.0
  0
LINE
  5
4C8
  8
_0-0_0
  6
CONTINUOUS
 62
     1
 10
180.5673417614676
 20
154.0113472201556
 30
0.0
 11
181.650629512506
 21
172.0113472201556
 31
0.0
  0
LINE
  5
4C9
  8
_0-0_0
  6
CONTINUOUS
 62
     1
 10
158.7339172635444
 20
154.0113472201556
 30
0.0
 11
157.650629512506
 21
172.0113472201556
 31
0.0
  0
LINE
  5
4CA
  8
_0-0_0
  6
CONTINUOUS
 62
     1
 10
180.650629512506
 20
172.0113472201556
 30
0.0
 11
179.150629512506
 21
175.0113472201556
 31
0.0
  0
LINE
  5
4CB
  8
_0-0_0
  6
CONTINUOUS
 62
     1
 10
158.650629512506
 20
172.0113472201556
 30
0.0
 11
160.150629512506
 21
175.0113472201556
 31
0.0
  0
LINE
  5
4CC
  8
_0-0_0
  6
CONTINUOUS
 62
     1
 10
180.3782085699677
 20
154.0113472201556
 30
0.0
 11
158.7339172635444
 21
154.0113472201556
 31
0.0
  0
ARC
  5
4CD
  8
_0-0_0
  6
CONTINUOUS
 62
     1
 10
213.7823362242557
 20
196.5996104051555
 30
0.0
 40
53.63170671174994
 50
74.05479199999992
 51
180.0
  0
LINE
  5
4CE
  8
_0-0_0
  6
CONTINUOUS
 62
     1
 10
160.150629512506
 20
196.5996104051555
 30
0.0
 11
160.150629512506
 21
175.0113472201556
 31
0.0
  0
ARC
  5
4CF
  8
_0-0_0
  6
CONTINUOUS
 62
     1
 10
282.5796262386003
 20
176.9434889351556
 30
0.0
 40
53.56937199507909
 50
2.72763642245993
 51
74.05479200000013
  0
LINE
  5
4D0
  8
_0-0_0
  6
CONTINUOUS
 62
     1
 10
298.2554883706262
 20
228.1679456171438
 30
0.0
 11
228.7715396344068
 21
248.0202528270587
 31
0.0
  0
LINE
  5
4D1
  8
_0-0_0
  6
CONTINUOUS
 62
     1
 10
292.093568987212
 20
210.2427307352092
 30
0.0
 11
223.2963051810294
 21
229.8988522052092
 31
0.0
  0
LINE
  5
4D2
  8
_0-0_0
  6
CONTINUOUS
 62
     1
 10
179.150629512506
 20
196.5996104051555
 30
0.0
 11
179.150629512506
 21
175.0113472201556
 31
0.0
  0
ARC
  5
4D3
  8
_0-0_0
  6
CONTINUOUS
 62
     1
 10
213.7823362242557
 20
196.5996104051555
 30
0.0
 40
34.63170671174992
 50
74.05479199999998
 51
180.0
  0
ARC
  5
4D4
  8
_0-0_0
  6
CONTINUOUS
 62
     1
 10
282.5796262386003
 20
176.9434889351556
 30
0.0
 40
34.62784746314347
 50
4.067195989791984
 51
74.05479199999996
  0
ARC
  5
4D5
  8
_0-0_0
  6
CONTINUOUS
 62
     1
 10
-141.5404607371092
 20
-853.8078600780732
 30
0.0
 40
9.499999999999886
 50
0.0
 51
180.0
  0
LINE
  5
4D6
  8
_0-0_0
  6
CONTINUOUS
 62
     1
 10
-151.0404607371092
 20
-853.8078600780732
 30
0.0
 11
-151.0404607371092
 21
-914.1319757143033
 31
0.0
  0
LINE
  5
4D7
  8
_0-0_0
  6
CONTINUOUS
 62
     1
 10
-132.0404607371093
 20
-982.5475820271813
 30
0.0
 11
-132.0404607371093
 21
-934.9654002122265
 31
0.0
  0
LINE
  5
4D8
  8
_0-0_0
  6
CONTINUOUS
 62
     1
 10
-132.0404607371093
 20
-853.4581908540199
 30
0.0
 11
-132.0404607371093
 21
-913.9840216372327
 31
0.0
  0
LINE
  5
4D9
  8
_0-0_0
  6
CONTINUOUS
 62
     1
 10
-151.0404607371092
 20
-982.5475820271813
 30
0.0
 11
-151.0404607371092
 21
-934.9654002122265
 31
0.0
  0
LINE
  5
4DA
  8
_0-0_0
  6
CONTINUOUS
 62
     1
 10
-125.5398037207418
 20
-982.5475820271813
 30
0.0
 11
-157.5398037207415
 21
-982.5475820271813
 31
0.0
  0
LINE
  5
4DB
  8
_0-0_0
  6
CONTINUOUS
 62
     1
 10
-130.5404607371093
 20
-934.9654002122265
 30
0.0
 11
-152.5404607371092
 21
-934.9654002122265
 31
0.0
  0
LINE
  5
4DC
  8
_0-0_0
  6
CONTINUOUS
 62
     1
 10
-129.4571729860709
 20
-916.9654002122265
 30
0.0
 11
-153.4571729860708
 21
-916.9654002122265
 31
0.0
  0
LINE
  5
4DD
  8
_0-0_0
  6
CONTINUOUS
 62
     1
 10
-130.5404607371093
 20
-934.9654002122265
 30
0.0
 11
-129.4571729860709
 21
-916.9654002122265
 31
0.0
  0
LINE
  5
4DE
  8
_0-0_0
  6
CONTINUOUS
 62
     1
 10
-152.3738852350324
 20
-934.9654002122265
 30
0.0
 11
-153.4571729860708
 21
-916.9654002122265
 31
0.0
  0
LINE
  5
4DF
  8
_0-0_0
  6
CONTINUOUS
 62
     1
 10
-130.4571729860709
 20
-916.9654002122265
 30
0.0
 11
-132.0404607371093
 21
-913.9840216372327
 31
0.0
  0
LINE
  5
4E0
  8
_0-0_0
  6
CONTINUOUS
 62
     1
 10
-152.4571729860708
 20
-916.9654002122265
 30
0.0
 11
-151.0404607371092
 21
-914.1319757143033
 31
0.0
  0
LINE
  5
4E1
  8
_0-0_0
  6
CONTINUOUS
 62
     1
 10
323.529480446681
 20
-978.8450426283155
 30
0.0
 11
330.0823186455189
 21
-978.8450426283155
 31
0.0
  0
LINE
  5
4E2
  8
_0-0_0
  6
CONTINUOUS
 62
     1
 10
83.72319182011483
 20
-934.827556816163
 30
0.0
 11
61.88976732219169
 21
-934.827556816163
 31
0.0
  0
LINE
  5
4E3
  8
_0-0_0
  6
CONTINUOUS
 62
     1
 10
84.8064795711532
 20
-916.827556816163
 30
0.0
 11
60.80647957115332
 21
-916.827556816163
 31
0.0
  0
LINE
  5
4E4
  8
_0-0_0
  6
CONTINUOUS
 62
     1
 10
83.72319182011483
 20
-934.827556816163
 30
0.0
 11
84.8064795711532
 21
-916.827556816163
 31
0.0
  0
LINE
  5
4E5
  8
_0-0_0
  6
CONTINUOUS
 62
     1
 10
61.88976732219169
 20
-934.827556816163
 30
0.0
 11
60.80647957115332
 21
-916.827556816163
 31
0.0
  0
LINE
  5
4E6
  8
_0-0_0
  6
CONTINUOUS
 62
     1
 10
61.80647957115332
 20
-916.827556816163
 30
0.0
 11
63.30647957115332
 21
-913.9929722681334
 31
0.0
  0
ARC
  5
4E7
  8
_0-0_0
  6
CONTINUOUS
 62
     1
 10
118.670763001154
 20
-899.5175457460648
 30
0.0
 40
55.36428343000077
 50
65.00000000000036
 51
179.9999999999984
  0
LINE
  5
4E8
  8
_0-0_0
  6
CONTINUOUS
 62
     1
 10
142.06872022686
 20
-849.3404645497508
 30
0.0
 11
303.5079474243935
 21
-912.2343896899818
 31
0.0
  0
LINE
  5
4E9
  8
_0-0_0
  6
CONTINUOUS
 62
     1
 10
134.1179888008753
 20
-866.5911007247162
 30
0.0
 11
295.6940327932257
 21
-929.5488245841345
 31
0.0
  0
LINE
  5
4EA
  8
_0-0_0
  6
CONTINUOUS
 62
     1
 10
82.3064795711532
 20
-913.9929722681334
 30
0.0
 11
82.3064795711532
 21
-899.5175457460641
 31
0.0
  0
LINE
  5
4EB
  8
_0-0_0
  6
CONTINUOUS
 62
     1
 10
63.30647957115332
 20
-913.9929722681334
 30
0.0
 11
63.30647957115332
 21
-899.5175457460634
 31
0.0
  0
ARC
  5
4EC
  8
_0-0_0
  6
CONTINUOUS
 62
     1
 10
118.670763001154
 20
-899.5175457460648
 30
0.0
 40
36.36428343000068
 50
65.00000000000053
 51
179.9999999999982
  0
ARC
  5
4ED
  8
_0-0_0
  6
CONTINUOUS
 62
     1
 10
280.9416161161007
 20
-962.7907377076099
 30
0.0
 40
36.36837342972874
 50
14.03174812251927
 51
66.1605170253211
  0
ARC
  5
4EE
  8
_0-0_0
  6
CONTINUOUS
 62
     1
 10
280.9416161161007
 20
-962.7907377076103
 30
0.0
 40
55.36410058508324
 50
9.504108435803671
 51
65.96884926579102
  0
LINE
  5
4EF
  8
_0-0_0
  6
CONTINUOUS
 62
     1
 10
83.8064795711532
 20
-916.827556816163
 30
0.0
 11
82.3064795711532
 21
-913.9929722681334
 31
0.0
  0
DIMENSION
  5
4F0
  8
__-1
  6
CONTINUOUS
 62
    17
  2
*D7
 10
-243.2873708083813
 20
284.6930467329797
 30
0.0
 11
-141.5373708083813
 21
284.6930467329797
 31
0.0
 70
    32
  3
STANDARD-1
 13
-39.7873708083813
 23
250.1436765900182
 33
0.0
 14
-243.2873708083813
 24
250.143676590018
 34
0.0
  0
DIMENSION
  5
4F2
  8
__-1
  6
CONTINUOUS
 62
    17
  2
*D8
 10
169.5560629167559
 20
284.0000000000002
 30
0.0
 11
248.1809812314279
 21
284.0000000000002
 31
0.0
 70
    32
  3
STANDARD-1
 13
326.8058995460999
 23
250.1436765900186
 33
0.0
 14
169.5560629167559
 24
250.1436765900185
 34
0.0
  0
DIMENSION
  5
4F4
  8
__-1
  6
CONTINUOUS
 62
    17
  2
*D9
 10
130.408921917075
 20
250.1436765900184
 30
0.0
 11
130.408921917075
 21
176.3918211113546
 31
0.0
 70
    32
  3
STANDARD-1
 13
169.5560629167561
 23
102.6399656326909
 33
0.0
 14
169.5560629167559
 24
250.1436765900185
 34
0.0
 50
-89.99999999999994
  0
DIMENSION
  5
4F6
  8
__-1
  6
CONTINUOUS
 62
    17
  2
*D10
 10
-243.2873708083813
 20
-252.4019911964714
 30
0.0
 11
-141.5373708083813
 21
-252.4019911964714
 31
0.0
 70
    32
  3
STANDARD-1
 13
-39.78737080838131
 23
-290.7505400179218
 33
0.0
 14
-243.2873708083813
 24
-290.750540017922
 34
0.0
  0
DIMENSION
  5
4F8
  8
__-1
  6
CONTINUOUS
 62
    17
  2
*D11
 10
123.6058995460999
 20
-252.4019911964709
 30
0.0
 11
225.2058995460999
 21
-252.4019911964709
 31
0.0
 70
    32
  3
STANDARD-1
 13
326.8058995460999
 23
-290.7505400179215
 33
0.0
 14
123.6058995460999
 24
-290.7505400179217
 34
0.0
  0
DIMENSION
  5
4FA
  8
__-1
  6
CONTINUOUS
 62
    17
  2
*D12
 10
86.32643179534188
 20
-290.6758814449072
 30
0.0
 11
86.32643179534197
 21
-374.0758814449072
 31
0.0
 70
    32
  3
STANDARD-1
 13
123.4880764402885
 23
-457.4758814449071
 33
0.0
 14
123.4880764402883
 24
-290.6758814449072
 34
0.0
 50
-89.99999999999994
  0
DIMENSION
  5
4FC
  8
__-1
  6
CONTINUOUS
 62
    17
  2
*D13
 10
-243.2873708083814
 20
-810.0834251023068
 30
0.0
 11
-141.5373708083814
 21
-810.0834251023068
 31
0.0
 70
    32
  3
STANDARD-1
 13
-39.78737080838134
 23
-844.3252879614606
 33
0.0
 14
-243.2873708083814
 24
-844.3252879614608
 34
0.0
  0
DIMENSION
  5
4FE
  8
__-1
  6
CONTINUOUS
 62
    17
  2
*D14
 10
72.80647957115316
 20
-810.0834251023064
 30
0.0
 11
199.8061895586265
 21
-810.0834251023064
 31
0.0
 70
    32
  3
STANDARD-1
 13
326.8058995460998
 23
-844.3252879614599
 33
0.0
 14
72.80647957115316
 24
-844.3252879614604
 34
0.0
  0
DIMENSION
  5
500
  8
__-1
  6
CONTINUOUS
 62
    17
  2
*D15
 10
43.88437073576497
 20
-844.3252879614605
 30
0.0
 11
43.88437073576509
 21
-937.4151939675216
 31
0.0
 70
    32
  3
STANDARD-1
 13
72.80647957115336
 23
-1030.505099973583
 33
0.0
 14
72.80647957115316
 24
-844.3252879614604
 34
0.0
 50
-89.99999999999994
  0
DIMENSION
  5
502
  8
__-1
  6
CONTINUOUS
 62
    17
  2
*D16
 10
326.8058995461
 20
-1073.65460766826
 30
0.0
 11
357.1066355240862
 21
-1073.65460766826
 31
0.0
 70
    32
  3
STANDARD-1
 13
387.4073715020725
 23
-1060.771034792258
 33
0.0
 14
326.8058995461
 24
-1061.844665865258
 34
0.0
  0
DIMENSION
  5
504
  8
__-1
  6
CONTINUOUS
 62
    17
  2
*D17
 10
326.8058995461
 20
-504.1798852615239
 30
0.0
 11
357.1065286165431
 21
-504.1798852615239
 31
0.0
 70
    32
  3
STANDARD-1
 13
387.4071576869862
 23
-482.5580767850901
 33
0.0
 14
326.8058995461
 24
-487.8534149314986
 34
0.0
  0
DIMENSION
  5
506
  8
__-1
  6
CONTINUOUS
 62
    17
  2
*D18
 10
326.8058995461
 20
56.76017781104957
 30
0.0
 11
357.1066355240862
 21
56.76017781104957
 31
0.0
 70
    32
  3
STANDARD-1
 13
387.4073715020725
 23
77.63996563269086
 33
0.0
 14
326.8058995461
 24
78.15946805240907
 34
0.0
  0
LINE
  5
508
  8
_0-0_0
  6
HIDDEN
 62
     1
 10
417.4073715020725
 20
112.6399656326909
 30
0.0
 11
417.4073715020725
 21
92.63996563269086
 31
0.0
  0
LINE
  5
509
  8
_0-0_0
  6
HIDDEN
 62
     1
 10
387.4073715020725
 20
92.63996563269086
 30
0.0
 11
417.4073715020725
 21
92.63996563269086
 31
0.0
  0
LINE
  5
50A
  8
_0-0_0
  6
HIDDEN
 62
     1
 10
387.4073715020725
 20
112.6399656326909
 30
0.0
 11
417.4073715020725
 21
112.6399656326909
 31
0.0
  0
TEXT
  5
50B
  8
__-3
 62
     2
 10
403.6436581373389
 20
59.9675508055931
 30
0.0
 40
5.31004050925926
  1
ネジ：R1/2
  7
YUGOTHIC_MEDIUM
 11
403.6436581373389
 21
58.45039637437617
 31
0.0
 73
     1
  0
LINE
  5
50C
  8
__-3
 62
     2
 10
412.8283324390159
 20
92.63996563269086
 30
0.0
 11
396.6997903264057
 21
56.57866909950144
 31
0.0
  0
LINE
  5
50D
  8
__-3
 62
     2
 10
396.6997903264057
 20
56.57866909950144
 30
0.0
 11
440.7699934085384
 21
56.57866909950144
 31
0.0
  0
LINE
  5
50E
  8
_0-0_0
  6
HIDDEN
 62
     1
 10
417.4073715020725
 20
-447.4758814449071
 30
0.0
 11
417.4073715020725
 21
-467.4758814449071
 31
0.0
  0
LINE
  5
50F
  8
_0-0_0
  6
HIDDEN
 62
     1
 10
387.4073715020725
 20
-467.4758814449071
 30
0.0
 11
417.4073715020725
 21
-467.4758814449071
 31
0.0
  0
LINE
  5
510
  8
_0-0_0
  6
HIDDEN
 62
     1
 10
387.4073715020725
 20
-447.4758814449071
 30
0.0
 11
417.4073715020725
 21
-447.4758814449071
 31
0.0
  0
TEXT
  5
511
  8
__-3
 62
     2
 10
403.6436581373389
 20
-500.1482962720048
 30
0.0
 40
5.31004050925926
  1
ネジ：R1/2
  7
YUGOTHIC_MEDIUM
 11
403.6436581373389
 21
-501.6654507032217
 31
0.0
 73
     1
  0
LINE
  5
512
  8
__-3
 62
     2
 10
412.8283324390159
 20
-467.4758814449071
 30
0.0
 11
396.6997903264057
 21
-503.5371779780965
 31
0.0
  0
LINE
  5
513
  8
__-3
 62
     2
 10
396.6997903264057
 20
-503.5371779780965
 30
0.0
 11
440.7699934085384
 21
-503.5371779780965
 31
0.0
  0
LINE
  5
514
  8
_0-0_0
  6
HIDDEN
 62
     1
 10
417.4073715020725
 20
-1020.505099973583
 30
0.0
 11
417.4073715020725
 21
-1040.505099973583
 31
0.0
  0
LINE
  5
515
  8
_0-0_0
  6
HIDDEN
 62
     1
 10
387.4073715020725
 20
-1040.505099973583
 30
0.0
 11
417.4073715020725
 21
-1040.505099973583
 31
0.0
  0
LINE
  5
516
  8
_0-0_0
  6
HIDDEN
 62
     1
 10
387.4073715020725
 20
-1020.505099973583
 30
0.0
 11
417.4073715020725
 21
-1020.505099973583
 31
0.0
  0
TEXT
  5
517
  8
__-3
 62
     2
 10
403.6436581373389
 20
-1073.17751480068
 30
0.0
 40
5.31004050925926
  1
ネジ：R1/2
  7
YUGOTHIC_MEDIUM
 11
403.6436581373389
 21
-1074.694669231897
 31
0.0
 73
     1
  0
LINE
  5
518
  8
__-3
 62
     2
 10
412.8283324390159
 20
-1040.505099973583
 30
0.0
 11
396.6997903264057
 21
-1076.566396506772
 31
0.0
  0
LINE
  5
519
  8
__-3
 62
     2
 10
396.6997903264057
 20
-1076.566396506772
 30
0.0
 11
440.7699934085384
 21
-1076.566396506772
 31
0.0
  0
CIRCLE
  5
51A
  8
_0-0_0
  6
CONTINUOUS
 62
     1
 10
-243.3932831745694
 20
480.5000000000001
 30
0.0
 40
10.99999999999996
  0
INSERT
  5
51B
  8
_0-0_0
 62
    17
  2
CALLOUT
 10
-224.5708217207139
 20
494.4647794773388
 30
0.0
  0
INSERT
  5
51C
  8
__
 62
    17
  2
____-4-1
 10
62.91898396813508
 20
267.1473011405615
 30
0.0
  0
INSERT
  5
51D
  8
__
 62
    17
  2
____-5-1
 10
62.91898396813508
 20
267.1473011405615
 30
0.0
  0
INSERT
  5
51E
  8
__
 62
    17
  2
____-6-1
 10
62.91898396813508
 20
267.1473011405615
 30
0.0
  0
VIEWPORT
  5
51F
 67
     1
  8
0
 10
128.5
 20
97.5
 30
0.0
 40
314.226
 41
222.18
 68
     1
 69
     1
1001
ACAD
1000
MVIEW
1002
{
1070
    16
1010
0.0
1020
0.0
1030
0.0
1010
0.0
1020
0.0
1030
1.0
1040
0.0
1040
222.18
1040
128.5
1040
97.5
1040
50.0
1040
0.0
1040
0.0
1070
     0
1070
   100
1070
     0
1070
     3
1070
     0
1070
     0
1070
     0
1070
     0
1040
0.0
1040
0.0
1040
0.0
1040
10.0
1040
10.0
1040
10.0
1040
10.0
1070
     0
1002
{
1002
}
1002
}
  0
ENDSEC
  0
EOF
