  0
SECTION
  2
HEADER
  9
$ACADVER
  1
AC1009
  9
$DWGCODEPAGE
  3
dos932
  9
$INSBASE
 10
0.0
 20
0.0
 30
0.0
  9
$EXTMIN
 10
56.78900000000002
 20
78.47800000000001
 30
0.0
  9
$EXTMAX
 10
258.211
 20
367.022
 30
0.0
  9
$LIMMIN
 10
0.0
 20
0.0
  9
$LIMMAX
 10
12.0
 20
9.0
  9
$ORTHOMODE
 70
     0
  9
$REGENMODE
 70
     1
  9
$FILLMODE
 70
     1
  9
$QTEXTMODE
 70
     0
  9
$MIRRTEXT
 70
     1
  9
$DRAGMODE
 70
     2
  9
$LTSCALE
 40
5.08
  9
$OSMODE
 70
    37
  9
$ATTMODE
 70
     1
  9
$TEXTSIZE
 40
0.2
  9
$TRACEWID
 40
1.0
  9
$TEXTSTYLE
  7
STANDARD
  9
$CLAYER
  8
__
  9
$CELTYPE
  6
BYLAYER
  9
$CECOLOR
 62
   256
  9
$DIMSCALE
 40
1.0
  9
$DIMASZ
 40
2.24482421875
  9
$DIMEXO
 40
1.5875
  9
$DIMDLI
 40
10.16
  9
$DIMRND
 40
0.0
  9
$DIMDLE
 40
1.5875
  9
$DIMEXE
 40
3.175
  9
$DIMTP
 40
0.0
  9
$DIMTM
 40
0.0
  9
$DIMTXT
 40
4.248032407407408
  9
$DIMCEN
 40
0.0
  9
$DIMTSZ
 40
0.0
  9
$DIMTOL
 70
     0
  9
$DIMLIM
 70
     0
  9
$DIMTIH
 70
     0
  9
$DIMTOH
 70
     0
  9
$DIMSE1
 70
     0
  9
$DIMSE2
 70
     0
  9
$DIMTAD
 70
     1
  9
$DIMZIN
 70
     8
  9
$DIMBLK
  1
VW_SLASH
  9
$DIMASO
 70
     1
  9
$DIMSHO
 70
     1
  9
$DIMPOST
  1
<>
  9
$DIMAPOST
  1
[]
  9
$DIMALT
 70
     0
  9
$DIMALTD
 70
     3
  9
$DIMALTF
 40
0.0393700787401575
  9
$DIMLFAC
 40
1.0
  9
$DIMTOFL
 70
     1
  9
$DIMTVP
 40
0.0
  9
$DIMTIX
 70
     1
  9
$DIMSOXD
 70
     0
  9
$DIMSAH
 70
     0
  9
$DIMBLK1
  1
VW_SLASH
  9
$DIMBLK2
  1
VW_SLASH
  9
$DIMSTYLE
  2
ARCH
  9
$DIMCLRD
 70
     0
  9
$DIMCLRE
 70
     0
  9
$DIMCLRT
 70
     0
  9
$DIMTFAC
 40
1.0
  9
$DIMGAP
 40
1.5875
  9
$LUNITS
 70
     2
  9
$LUPREC
 70
     2
  9
$SKETCHINC
 40
0.1
  9
$FILLETRAD
 40
0.5
  9
$AUNITS
 70
     0
  9
$AUPREC
 70
     2
  9
$MENU
  1
.
  9
$ELEVATION
 40
0.0
  9
$PELEVATION
 40
0.0
  9
$THICKNESS
 40
0.0
  9
$LIMCHECK
 70
     0
  9
$CHAMFERA
 40
0.0
  9
$CHAMFERB
 40
0.0
  9
$SKPOLY
 70
     0
  9
$TDCREATE
 40
2460015.460365359
  9
$TDUPDATE
 40
2460015.460381771
  9
$TDINDWG
 40
0.0000000116
  9
$TDUSRTIMER
 40
0.0000000116
  9
$USRTIMER
 70
     1
  9
$ANGBASE
 50
0.0
  9
$ANGDIR
 70
     0
  9
$PDMODE
 70
     1
  9
$PDSIZE
 40
-2.0
  9
$PLINEWID
 40
0.0
  9
$COORDS
 70
     1
  9
$SPLFRAME
 70
     0
  9
$SPLINETYPE
 70
     6
  9
$SPLINESEGS
 70
     8
  9
$ATTDIA
 70
     0
  9
$ATTREQ
 70
     1
  9
$HANDLING
 70
     1
  9
$HANDSEED
  5
55C
  9
$SURFTAB1
 70
     6
  9
$SURFTAB2
 70
     6
  9
$SURFTYPE
 70
     6
  9
$SURFU
 70
     6
  9
$SURFV
 70
     6
  9
$UCSNAME
  2

  9
$UCSORG
 10
0.0
 20
0.0
 30
0.0
  9
$UCSXDIR
 10
1.0
 20
0.0
 30
0.0
  9
$UCSYDIR
 10
0.0
 20
1.0
 30
0.0
  9
$PUCSNAME
  2

  9
$PUCSORG
 10
0.0
 20
0.0
 30
0.0
  9
$PUCSXDIR
 10
1.0
 20
0.0
 30
0.0
  9
$PUCSYDIR
 10
0.0
 20
1.0
 30
0.0
  9
$USERI1
 70
     0
  9
$USERI2
 70
     0
  9
$USERI3
 70
     0
  9
$USERI4
 70
     0
  9
$USERI5
 70
     0
  9
$USERR1
 40
0.0
  9
$USERR2
 40
0.0
  9
$USERR3
 40
0.0
  9
$USERR4
 40
0.0
  9
$USERR5
 40
0.0
  9
$WORLDVIEW
 70
     1
  9
$SHADEDGE
 70
     3
  9
$SHADEDIF
 70
    70
  9
$TILEMODE
 70
     0
  9
$MAXACTVP
 70
    64
  9
$PLIMCHECK
 70
     0
  9
$PEXTMIN
 10
-98.79790902250134
 20
-138.1001716493705
 30
0.0
  9
$PEXTMAX
 10
98.59433333333334
 20
138.0913333333333
 30
0.0
  9
$PLIMMIN
 10
-105.74655
 20
-151.4856
  9
$PLIMMAX
 10
105.74655
 20
151.4856
  9
$UNITMODE
 70
     0
  9
$VISRETAIN
 70
     1
  9
$PLINEGEN
 70
     0
  9
$PSLTSCALE
 70
     1
  0
ENDSEC
  0
SECTION
  2
TABLES
  0
TABLE
  2
VPORT
 70
     1
  0
VPORT
  2
*ACTIVE
 70
     0
 10
0.0
 20
0.0
 11
1.0
 21
1.0
 12
157.5
 22
222.75
 13
0.0
 23
0.0
 14
0.5
 24
0.5
 15
0.5
 25
0.5
 16
0.0
 26
0.0
 36
1.0
 17
0.0
 27
0.0
 37
0.0
 40
288.544
 41
0.6980633802816901
 42
2000.0
 43
0.0
 44
0.0
 50
0.0
 51
0.0
 71
     0
 72
   100
 73
     1
 74
     3
 75
     0
 76
     0
 77
     0
 78
     0
  0
ENDTAB
  0
TABLE
  2
LTYPE
 70
     3
  0
LTYPE
  2
CONTINUOUS
 70
     0
  3
Solid line
 72
    65
 73
     0
 40
0.0
  0
LTYPE
  2
ISO-10______
 70
     0
  3

 72
    65
 73
     4
 40
0.6
 49
0.6
 49
-0.15
 49
0.025
 49
-0.15
  0
LTYPE
  2
ISO-02___
 70
     0
  3

 72
    65
 73
     2
 40
0.6
 49
0.6
 49
-0.15
  0
ENDTAB
  0
TABLE
  2
LAYER
 70
     8
  0
LAYER
  2
0
 70
     0
 62
     7
  6
CONTINUOUS
  0
LAYER
  2
__
 70
     0
 62
     7
  6
CONTINUOUS
  0
LAYER
  2
1
 70
     0
 62
     7
  6
CONTINUOUS
  0
LAYER
  2
__-2
 70
     0
 62
     7
  6
CONTINUOUS
  0
LAYER
  2
_VIEWPORT_CROP
 70
     0
 62
    -7
  6
CONTINUOUS
  0
LAYER
  2
DEFPOINTS
 70
     0
 62
     7
  6
CONTINUOUS
  0
ENDTAB
  0
TABLE
  2
STYLE
 70
     2
  0
STYLE
  2
STANDARD
 70
     0
 40
0.0
 41
1.0
 50
0.0
 71
     0
 42
0.2
  3
txt
  4
BIGFONT.SHX
  0
STYLE
  2
YUGOTHIC_MEDIUM
 70
     0
 40
0.0
 41
1.0
 50
0.0
 71
     0
 42
0.2
  3

  4
YuGothic Medium
  0
ENDTAB
  0
TABLE
  2
VIEW
 70
     0
  0
ENDTAB
  0
TABLE
  2
UCS
 70
     0
  0
ENDTAB
  0
TABLE
  2
APPID
 70
     3
  0
APPID
  2
ACAD
 70
     0
  0
APPID
  2
ACCMTRANSPARENCY
 70
     0
  0
APPID
  2
ACAECLAYERSTANDARD
 70
     0
  0
ENDTAB
  0
TABLE
  2
DIMSTYLE
 70
     3
  0
DIMSTYLE
  2
STANDARD
 70
     0
  3

  4

  5

  6

  7

 40
1.0
 41
0.18
 42
0.0625
 43
0.38
 44
0.18
 45
0.0
 46
0.0
 47
0.0
 48
0.0
140
0.18
141
0.09
142
0.0
143
25.4
144
1.0
145
0.0
146
1.0
147
0.09
 71
     0
 72
     0
 73
     1
 74
     1
 75
     0
 76
     0
 77
     0
 78
     0
170
     0
171
     2
172
     0
173
     0
174
     0
175
     0
176
     0
177
     0
178
     0
  0
DIMSTYLE
  2
TOOLBOX
 70
     0
  3
<>
  4
[]
  5
DOT
  6
DOT
  7
DOT
 40
1.0
 41
0.59996337890625
 42
2.0
 43
2.0
 44
0.0
 45
0.0
 46
0.0
 47
0.0
 48
0.0
140
4.248032407407408
141
0.0
142
0.0
143
0.0393700787401575
144
1.0
145
0.0
146
1.0
147
0.4999999999999999
 71
     0
 72
     0
 73
     0
 74
     0
 75
     0
 76
     0
 77
     1
 78
     8
170
     0
171
     3
172
     1
173
     0
174
     1
175
     0
176
     0
177
     0
178
     0
  0
DIMSTYLE
  2
ARCH
 70
     0
  3
<>
  4
[]
  5
VW_SLASH
  6
VW_SLASH
  7
VW_SLASH
 40
1.0
 41
2.24482421875
 42
1.5875
 43
10.16
 44
3.175
 45
0.0
 46
1.5875
 47
0.0
 48
0.0
140
4.248032407407408
141
0.0
142
0.0
143
0.0393700787401575
144
1.0
145
0.0
146
1.0
147
1.5875
 71
     0
 72
     0
 73
     0
 74
     0
 75
     0
 76
     0
 77
     1
 78
     8
170
     0
171
     3
172
     1
173
     0
174
     1
175
     0
176
     0
177
     0
178
     0
  0
ENDTAB
  0
ENDSEC
  0
SECTION
  2
BLOCKS
  0
BLOCK
  8
0
  2
$MODEL_SPACE
 70
     0
 10
0.0
 20
0.0
 30
0.0
  3
$MODEL_SPACE
  1

  0
ENDBLK
  5
21
  8
0
  0
BLOCK
 67
     1
  8
0
  2
$PAPER_SPACE
 70
     0
 10
0.0
 20
0.0
 30
0.0
  3
$PAPER_SPACE
  1

  0
ENDBLK
  5
1D
 67
     1
  8
0
  0
BLOCK
  8
0
  2
*D1
 70
     1
 10
0.0
 20
0.0
 30
0.0
  3
*D1
  1

  0
LINE
  5
A1
  8
1
 62
     0
 10
280.0037496628185
 20
183.7303964204361
 30
0.0
 11
307.0037496628184
 21
183.7303964204361
 31
0.0
  0
LINE
  5
A2
  8
1
 62
     0
 10
280.0037496628185
 20
229.7303964204359
 30
0.0
 11
307.0037496628184
 21
229.7303964204359
 31
0.0
  0
LINE
  5
A3
  8
1
 62
     0
 10
307.0037496628184
 20
184.3303597993423
 30
0.0
 11
307.0037496628184
 21
229.1304330415297
 31
0.0
  0
INSERT
  5
A4
  8
1
 62
     0
  2
_DOT
 10
307.0037496628184
 20
183.7303964204361
 30
0.0
 41
0.59996337890625
 42
0.59996337890625
 43
0.59996337890625
 50
270.0
  0
INSERT
  5
A5
  8
1
 62
     0
  2
_DOT
 10
307.0037496628184
 20
229.7303964204359
 30
0.0
 41
0.59996337890625
 42
0.59996337890625
 43
0.59996337890625
 50
90.0
  0
TEXT
  5
A6
  8
1
  6
CONTINUOUS
 62
     0
 10
306.5037496628184
 20
202.6846512705242
 30
0.0
 40
4.248032407407408
  1
46
 50
90.0
  7
YUGOTHIC_MEDIUM
  0
POINT
  5
A7
  8
DEFPOINTS
 62
     0
 10
278.0037496628185
 20
183.7303964204361
 30
0.0
  0
POINT
  5
A8
  8
DEFPOINTS
 62
     0
 10
278.0037496628185
 20
229.7303964204359
 30
0.0
  0
POINT
  5
A9
  8
DEFPOINTS
 62
     0
 10
307.0037496628184
 20
229.7303964204359
 30
0.0
  0
ENDBLK
  5
71
  8
0
  0
BLOCK
  8
0
  2
*D2
 70
     1
 10
0.0
 20
0.0
 30
0.0
  3
*D2
  1

  0
LINE
  5
AA
  8
1
 62
     0
 10
278.0037496628185
 20
181.7303964204361
 30
0.0
 11
278.0037496628185
 21
123.4304632910586
 31
0.0
  0
LINE
  5
AB
  8
1
 62
     0
 10
292.0037496628184
 20
195.230396420436
 30
0.0
 11
292.0037496628184
 21
123.4304632910586
 31
0.0
  0
LINE
  5
AC
  8
1
 62
     0
 10
278.6037130417247
 20
123.4304632910586
 30
0.0
 11
291.4037862839122
 21
123.4304632910586
 31
0.0
  0
INSERT
  5
AD
  8
1
 62
     0
  2
_DOT
 10
278.0037496628185
 20
123.4304632910586
 30
0.0
 41
0.59996337890625
 42
0.59996337890625
 43
0.59996337890625
 50
180.0
  0
INSERT
  5
AE
  8
1
 62
     0
  2
_DOT
 10
292.0037496628184
 20
123.4304632910586
 30
0.0
 41
0.59996337890625
 42
0.59996337890625
 43
0.59996337890625
  0
TEXT
  5
AF
  8
1
  6
CONTINUOUS
 62
     0
 10
280.5534299979154
 20
123.9304632910586
 30
0.0
 40
4.248032407407408
  1
14
  7
YUGOTHIC_MEDIUM
  0
POINT
  5
B0
  8
DEFPOINTS
 62
     0
 10
278.0037496628185
 20
183.7303964204361
 30
0.0
  0
POINT
  5
B1
  8
DEFPOINTS
 62
     0
 10
292.0037496628184
 20
197.230396420436
 30
0.0
  0
POINT
  5
B2
  8
DEFPOINTS
 62
     0
 10
292.0037496628184
 20
123.4304632910586
 30
0.0
  0
ENDBLK
  5
74
  8
0
  0
BLOCK
  8
0
  2
*D3
 70
     1
 10
0.0
 20
0.0
 30
0.0
  3
*D3
  1

  0
LINE
  5
B3
  8
1
 62
     0
 10
173.0037496628186
 20
145.4303968839978
 30
0.0
 11
173.0037496628186
 21
123.4304632910586
 31
0.0
  0
LINE
  5
B4
  8
1
 62
     0
 10
278.0037496628185
 20
181.7303964204361
 30
0.0
 11
278.0037496628185
 21
123.4304632910586
 31
0.0
  0
LINE
  5
B5
  8
1
 62
     0
 10
173.6037130417249
 20
123.4304632910586
 30
0.0
 11
277.4037862839123
 21
123.4304632910586
 31
0.0
  0
INSERT
  5
B6
  8
1
 62
     0
  2
_DOT
 10
173.0037496628186
 20
123.4304632910586
 30
0.0
 41
0.59996337890625
 42
0.59996337890625
 43
0.59996337890625
 50
180.0
  0
INSERT
  5
B7
  8
1
 62
     0
  2
_DOT
 10
278.0037496628185
 20
123.4304632910586
 30
0.0
 41
0.59996337890625
 42
0.59996337890625
 43
0.59996337890625
  0
TEXT
  5
B8
  8
1
  6
CONTINUOUS
 62
     0
 10
219.1317010517075
 20
123.9304632910586
 30
0.0
 40
4.248032407407408
  1
105
  7
YUGOTHIC_MEDIUM
  0
POINT
  5
B9
  8
DEFPOINTS
 62
     0
 10
173.0037496628186
 20
147.4303968839978
 30
0.0
  0
POINT
  5
BA
  8
DEFPOINTS
 62
     0
 10
278.0037496628185
 20
183.7303964204361
 30
0.0
  0
POINT
  5
BB
  8
DEFPOINTS
 62
     0
 10
278.0037496628185
 20
123.4304632910586
 30
0.0
  0
ENDBLK
  5
77
  8
0
  0
BLOCK
  8
0
  2
*D4
 70
     1
 10
0.0
 20
0.0
 30
0.0
  3
*D4
  1

  0
LINE
  5
BC
  8
1
 62
     0
 10
156.7537496628187
 20
153.7303964204361
 30
0.0
 11
156.7537496628187
 21
135.4304632910586
 31
0.0
  0
LINE
  5
BD
  8
1
 62
     0
 10
189.2537496628186
 20
153.7303964204361
 30
0.0
 11
189.2537496628186
 21
135.4304632910586
 31
0.0
  0
LINE
  5
BE
  8
1
 62
     0
 10
157.353713041725
 20
135.4304632910586
 30
0.0
 11
188.6537862839123
 21
135.4304632910586
 31
0.0
  0
INSERT
  5
BF
  8
1
 62
     0
  2
_DOT
 10
156.7537496628187
 20
135.4304632910586
 30
0.0
 41
0.59996337890625
 42
0.59996337890625
 43
0.59996337890625
 50
180.0
  0
INSERT
  5
C0
  8
1
 62
     0
  2
_DOT
 10
189.2537496628186
 20
135.4304632910586
 30
0.0
 41
0.59996337890625
 42
0.59996337890625
 43
0.59996337890625
  0
TEXT
  5
C1
  8
1
  6
CONTINUOUS
 62
     0
 10
165.923695650473
 20
135.9304632910586
 30
0.0
 40
4.248032407407408
  1
32.5
  7
YUGOTHIC_MEDIUM
  0
POINT
  5
C2
  8
DEFPOINTS
 62
     0
 10
156.7537496628187
 20
155.7303964204361
 30
0.0
  0
POINT
  5
C3
  8
DEFPOINTS
 62
     0
 10
189.2537496628186
 20
155.7303964204361
 30
0.0
  0
POINT
  5
C4
  8
DEFPOINTS
 62
     0
 10
189.2537496628186
 20
135.4304632910586
 30
0.0
  0
ENDBLK
  5
7A
  8
0
  0
BLOCK
  8
0
  2
*D5
 70
     1
 10
0.0
 20
0.0
 30
0.0
  3
*D5
  1

  0
LINE
  5
C5
  8
1
 62
     0
 10
153.0037496628187
 20
176.7303964204361
 30
0.0
 11
140.0037496628187
 21
176.7303964204361
 31
0.0
  0
LINE
  5
C6
  8
1
 62
     0
 10
156.5030637698965
 20
206.730396420436
 30
0.0
 11
140.0037496628187
 21
206.730396420436
 31
0.0
  0
LINE
  5
C7
  8
1
 62
     0
 10
140.0037496628187
 20
177.3303597993423
 30
0.0
 11
140.0037496628187
 21
206.1304330415298
 31
0.0
  0
INSERT
  5
C8
  8
1
 62
     0
  2
_DOT
 10
140.0037496628187
 20
176.7303964204361
 30
0.0
 41
0.59996337890625
 42
0.59996337890625
 43
0.59996337890625
 50
270.0
  0
INSERT
  5
C9
  8
1
 62
     0
  2
_DOT
 10
140.0037496628187
 20
206.730396420436
 30
0.0
 41
0.59996337890625
 42
0.59996337890625
 43
0.59996337890625
 50
90.0
  0
TEXT
  5
CA
  8
1
  6
CONTINUOUS
 62
     0
 10
139.5037496628186
 20
187.6846512705242
 30
0.0
 40
4.248032407407408
  1
30
 50
90.0
  7
YUGOTHIC_MEDIUM
  0
POINT
  5
CB
  8
DEFPOINTS
 62
     0
 10
155.0037496628187
 20
176.7303964204361
 30
0.0
  0
POINT
  5
CC
  8
DEFPOINTS
 62
     0
 10
158.5030637698965
 20
206.730396420436
 30
0.0
  0
POINT
  5
CD
  8
DEFPOINTS
 62
     0
 10
140.0037496628187
 20
206.730396420436
 30
0.0
  0
ENDBLK
  5
7D
  8
0
  0
BLOCK
  8
0
  2
*D6
 70
     1
 10
0.0
 20
0.0
 30
0.0
  3
*D6
  1

  0
LINE
  5
CE
  8
1
 62
     0
 10
25.75765408293861
 20
206.730396420436
 30
0.0
 11
15.75765408293858
 21
206.730396420436
 31
0.0
  0
LINE
  5
CF
  8
1
 62
     0
 10
44.25765408293861
 20
155.7303964204361
 30
0.0
 11
15.75765408293859
 21
155.7303964204361
 31
0.0
  0
LINE
  5
D0
  8
1
 62
     0
 10
15.75765408293858
 20
206.1304330415298
 30
0.0
 11
15.75765408293859
 21
156.3303597993423
 31
0.0
  0
INSERT
  5
D1
  8
1
 62
     0
  2
_DOT
 10
15.75765408293858
 20
206.730396420436
 30
0.0
 41
0.59996337890625
 42
0.59996337890625
 43
0.59996337890625
 50
90.0
  0
INSERT
  5
D2
  8
1
 62
     0
  2
_DOT
 10
15.75765408293859
 20
155.7303964204361
 30
0.0
 41
0.59996337890625
 42
0.59996337890625
 43
0.59996337890625
 50
270.0
  0
TEXT
  5
D3
  8
1
  6
CONTINUOUS
 62
     0
 10
15.25765408293856
 20
177.791513043011
 30
0.0
 40
4.248032407407408
  1
51
 50
90.0
  7
YUGOTHIC_MEDIUM
  0
POINT
  5
D4
  8
DEFPOINTS
 62
     0
 10
27.75765408293861
 20
206.730396420436
 30
0.0
  0
POINT
  5
D5
  8
DEFPOINTS
 62
     0
 10
46.25765408293861
 20
155.7303964204361
 30
0.0
  0
POINT
  5
D6
  8
DEFPOINTS
 62
     0
 10
15.75765408293859
 20
155.7303964204361
 30
0.0
  0
ENDBLK
  5
80
  8
0
  0
BLOCK
  8
0
  2
____-1
 70
     0
 10
0.0
 20
0.0
 30
0.0
  3
____-1
  1

  0
ENDBLK
  5
83
  8
0
  0
BLOCK
  8
0
  2
_DOT
 70
     0
 10
0.0
 20
0.0
 30
0.0
  3
_DOT
  1

  0
POLYLINE
  5
96
  8
0
  6
BYBLOCK
 62
     0
 66
     1
 10
0.0
 20
0.0
 30
0.0
 70
     1
 40
0.5
 41
0.5
  0
VERTEX
  5
559
  8
0
  6
BYBLOCK
 62
     0
 10
-0.25
 20
0.0
 30
0.0
 42
1.0
  0
VERTEX
  5
55A
  8
0
  6
BYBLOCK
 62
     0
 10
0.25
 20
0.0
 30
0.0
 42
1.0
  0
SEQEND
  5
55B
  8
0
  6
BYBLOCK
 62
     0
  0
LINE
  5
97
  8
0
  6
BYBLOCK
 62
     0
 10
-0.5
 20
0.0
 30
0.0
 11
-1.0
 21
0.0
 31
0.0
  0
ENDBLK
  5
95
  8
0
  0
BLOCK
  8
0
  2
VW_SLASH
 70
     0
 10
0.0
 20
0.0
 30
0.0
  3
VW_SLASH
  1

  0
LINE
  5
9C
  8
0
  6
BYBLOCK
 62
     0
 10
0.7071823204419889
 20
0.0
 30
0.0
 11
-1.0
 21
0.0
 31
0.0
  0
POLYLINE
  5
9D
  8
0
  6
CONTINUOUS
 62
     0
 66
     1
 10
0.0
 20
0.0
 30
0.0
 70
   128
  0
VERTEX
  5
9E
  8
0
  6
CONTINUOUS
 62
     0
 10
0.5000534143197685
 20
0.5000534143197684
 30
0.0
  0
VERTEX
  5
9F
  8
0
  6
CONTINUOUS
 62
     0
 10
-0.5000534143197684
 20
-0.5000534143197685
 30
0.0
  0
SEQEND
  5
A0
  8
0
  6
CONTINUOUS
 62
     0
  0
ENDBLK
  5
9B
  8
0
  0
ENDSEC
  0
SECTION
  2
ENTITIES
  0
LINE
  5
D7
  8
1
  6
CONTINUOUS
 62
     1
 10
275.5037496628186
 20
193.7986776801154
 30
0.0
 11
275.5037496628186
 21
229.2303964204359
 31
0.0
  0
LINE
  5
D8
  8
1
  6
CONTINUOUS
 62
     1
 10
278.0037496628185
 20
229.7303964204359
 30
0.0
 11
276.0037496628186
 21
229.7303964204359
 31
0.0
  0
LINE
  5
D9
  8
1
  6
CONTINUOUS
 62
     1
 10
278.0037496628185
 20
229.7303964204359
 30
0.0
 11
278.0037496628185
 21
196.2303964204361
 31
0.0
  0
LINE
  5
DA
  8
1
  6
CONTINUOUS
 62
     1
 10
278.0037496628185
 20
217.2303964204359
 30
0.0
 11
279.7358004703874
 21
216.2303964204359
 31
0.0
  0
LINE
  5
DB
  8
1
  6
CONTINUOUS
 62
     1
 10
279.7358004703874
 20
216.2303964204359
 30
0.0
 11
292.0037496628185
 21
216.2303964204359
 31
0.0
  0
LINE
  5
DC
  8
1
  6
CONTINUOUS
 62
     1
 10
292.0037496628185
 20
216.2303964204359
 30
0.0
 11
292.0037496628185
 21
197.230396420436
 31
0.0
  0
LINE
  5
DD
  8
1
  6
CONTINUOUS
 62
     1
 10
292.0037496628185
 20
216.2303964204359
 30
0.0
 11
291.0037496628185
 21
217.2303964204359
 31
0.0
  0
LINE
  5
DE
  8
1
  6
CONTINUOUS
 62
     1
 10
279.7358004703874
 20
197.230396420436
 30
0.0
 11
279.7358004703874
 21
217.2303964204359
 31
0.0
  0
LINE
  5
DF
  8
1
  6
CONTINUOUS
 62
     1
 10
291.0037496628185
 20
217.2303964204359
 30
0.0
 11
278.0037496628185
 21
217.2303964204359
 31
0.0
  0
LINE
  5
E0
  8
1
  6
CONTINUOUS
 62
     1
 10
291.0037496628185
 20
196.2303964204361
 30
0.0
 11
278.0037496628185
 21
196.2303964204361
 31
0.0
  0
LINE
  5
E1
  8
1
  6
CONTINUOUS
 62
     1
 10
279.7358004703874
 20
196.2303964204361
 30
0.0
 11
279.7358004703874
 21
197.230396420436
 31
0.0
  0
LINE
  5
E2
  8
1
  6
CONTINUOUS
 62
     1
 10
291.0037496628185
 20
196.2303964204361
 30
0.0
 11
292.0037496628185
 21
197.230396420436
 31
0.0
  0
LINE
  5
E3
  8
1
  6
CONTINUOUS
 62
     1
 10
279.7358004703874
 20
197.230396420436
 30
0.0
 11
292.0037496628185
 21
197.230396420436
 31
0.0
  0
LINE
  5
E4
  8
1
  6
CONTINUOUS
 62
     1
 10
279.7358004703874
 20
197.230396420436
 30
0.0
 11
278.0037496628185
 21
196.2303964204361
 31
0.0
  0
LINE
  5
E5
  8
1
  6
CONTINUOUS
 62
     1
 10
278.0037496628185
 20
196.2303964204361
 30
0.0
 11
278.0037496628185
 21
183.7303964204361
 31
0.0
  0
LINE
  5
E6
  8
1
  6
CONTINUOUS
 62
     1
 10
278.0037496628185
 20
183.7303964204361
 30
0.0
 11
276.0037496628186
 21
183.7303964204361
 31
0.0
  0
LINE
  5
E7
  8
1
  6
CONTINUOUS
 62
     1
 10
275.5037496628186
 20
193.7986776801154
 30
0.0
 11
275.5037496628186
 21
184.2303964204361
 31
0.0
  0
LINE
  5
E8
  8
1
  6
CONTINUOUS
 62
     1
 10
271.5726136274275
 20
197.7980848554825
 30
0.0
 11
201.1759095743409
 21
199.0102135345422
 31
0.0
  0
LINE
  5
E9
  8
1
  6
CONTINUOUS
 62
     1
 10
271.5726136274275
 20
215.6627079853894
 30
0.0
 11
184.4872699282513
 21
214.1632252461984
 31
0.0
  0
LINE
  5
EA
  8
1
  6
CONTINUOUS
 62
     1
 10
191.0037496628186
 20
176.7303964204361
 30
0.0
 11
189.0037496628186
 21
176.7303964204361
 31
0.0
  0
LINE
  5
EB
  8
1
  6
CONTINUOUS
 62
     1
 10
191.0037496628186
 20
176.7303964204361
 30
0.0
 11
191.0037496628186
 21
189.0116955961244
 31
0.0
  0
LINE
  5
EC
  8
1
  6
CONTINUOUS
 62
     1
 10
155.0037496628187
 20
176.7303964204361
 30
0.0
 11
155.0037496628187
 21
184.1676714309448
 31
0.0
  0
LINE
  5
ED
  8
1
  6
CONTINUOUS
 62
     1
 10
189.0037496628186
 20
176.7303964204361
 30
0.0
 11
155.0037496628187
 21
176.7303964204361
 31
0.0
  0
LINE
  5
EE
  8
1
  6
CONTINUOUS
 62
     1
 10
30.75765408293861
 20
418.4214755930231
 30
0.0
 11
30.75765408293861
 21
416.4214755930231
 31
0.0
  0
LINE
  5
EF
  8
1
  6
CONTINUOUS
 62
     1
 10
43.25765408293861
 20
418.4214755930231
 30
0.0
 11
44.25765408293861
 21
420.153526400592
 31
0.0
  0
LINE
  5
F0
  8
1
  6
CONTINUOUS
 62
     1
 10
44.25765408293861
 20
420.153526400592
 30
0.0
 11
44.25765408293861
 21
431.4214755930231
 31
0.0
  0
LINE
  5
F1
  8
1
  6
CONTINUOUS
 62
     1
 10
44.25765408293861
 20
432.4214755930231
 30
0.0
 11
43.25765408293861
 21
431.4214755930231
 31
0.0
  0
LINE
  5
F2
  8
1
  6
CONTINUOUS
 62
     1
 10
43.25765408293861
 20
431.4214755930231
 30
0.0
 11
43.25765408293861
 21
418.4214755930231
 31
0.0
  0
LINE
  5
F3
  8
1
  6
CONTINUOUS
 62
     1
 10
44.25765408293861
 20
431.4214755930231
 30
0.0
 11
44.25765408293861
 21
432.4214755930231
 31
0.0
  0
LINE
  5
F4
  8
1
  6
CONTINUOUS
 62
     1
 10
63.25765408293861
 20
432.4214755930231
 30
0.0
 11
63.25765408293861
 21
431.4214755930231
 31
0.0
  0
LINE
  5
F5
  8
1
  6
CONTINUOUS
 62
     1
 10
64.25765408293861
 20
431.4214755930231
 30
0.0
 11
64.25765408293861
 21
418.4214755930231
 31
0.0
  0
LINE
  5
F6
  8
1
  6
CONTINUOUS
 62
     1
 10
64.25765408293861
 20
431.4214755930231
 30
0.0
 11
63.25765408293861
 21
432.4214755930231
 31
0.0
  0
LINE
  5
F7
  8
1
  6
CONTINUOUS
 62
     1
 10
63.25765408293861
 20
431.4214755930231
 30
0.0
 11
63.25765408293861
 21
420.153526400592
 31
0.0
  0
LINE
  5
F8
  8
1
  6
CONTINUOUS
 62
     1
 10
63.25765408293861
 20
420.153526400592
 30
0.0
 11
64.25765408293861
 21
418.4214755930231
 31
0.0
  0
LINE
  5
F9
  8
1
  6
CONTINUOUS
 62
     1
 10
76.7576540829386
 20
418.4214755930231
 30
0.0
 11
30.75765408293861
 21
418.4214755930231
 31
0.0
  0
LINE
  5
FA
  8
1
  6
CONTINUOUS
 62
     1
 10
76.7576540829386
 20
418.4214755930231
 30
0.0
 11
76.7576540829386
 21
416.4214755930231
 31
0.0
  0
LINE
  5
FB
  8
1
  6
CONTINUOUS
 62
     1
 10
76.2576540829386
 20
415.9214755930231
 30
0.0
 11
31.25765408293861
 21
415.9214755930231
 31
0.0
  0
LINE
  5
FC
  8
1
  6
CONTINUOUS
 62
     1
 10
63.25765408293861
 20
432.4214755930231
 30
0.0
 11
44.25765408293861
 21
432.4214755930231
 31
0.0
  0
LINE
  5
FD
  8
1
  6
CONTINUOUS
 62
     1
 10
44.82534251798512
 20
411.9903395576321
 30
0.0
 11
46.06845662806441
 21
339.7940970107189
 31
0.0
  0
LINE
  5
FE
  8
1
  6
CONTINUOUS
 62
     1
 10
64.25765408293861
 20
431.4214755930231
 30
0.0
 11
43.25765408293861
 21
431.4214755930231
 31
0.0
  0
LINE
  5
FF
  8
1
  6
CONTINUOUS
 62
     1
 10
43.25765408293861
 20
420.153526400592
 30
0.0
 11
64.25765408293861
 21
420.153526400592
 31
0.0
  0
LINE
  5
100
  8
1
  6
CONTINUOUS
 62
     1
 10
61.44685153781282
 20
339.7940970107189
 30
0.0
 11
62.68996564789211
 21
411.9903395576321
 31
0.0
  0
LINE
  5
101
  8
1
  6
CONTINUOUS
 62
     1
 10
35.75765408293861
 20
176.7303964204361
 30
0.0
 11
71.7576540829386
 21
176.7303964204361
 31
0.0
  0
LINE
  5
102
  8
1
  6
CONTINUOUS
 62
     1
 10
35.75765408293861
 20
176.7303964204361
 30
0.0
 11
35.75765408293861
 21
184.1676714309448
 31
0.0
  0
LINE
  5
103
  8
1
  6
CONTINUOUS
 62
     1
 10
71.7576540829386
 20
176.7303964204361
 30
0.0
 11
71.7576540829386
 21
184.1676714309448
 31
0.0
  0
LINE
  5
104
  8
1
  6
CONTINUOUS
 62
     1
 10
291.0037496628185
 20
196.2303964204361
 30
0.0
 11
291.0037496628185
 21
217.2303964204359
 31
0.0
  0
POLYLINE
  5
105
  8
1
  6
CONTINUOUS
 62
     1
 66
     1
 10
0.0
 20
0.0
 30
0.0
 70
   128
  0
VERTEX
  5
106
  8
1
  6
CONTINUOUS
 62
     1
 10
70.4319462243742
 20
203.1647776084228
 30
0.0
 42
0.3337393934068877
 70
     2
 50
16.62043778548736
  0
VERTEX
  5
107
  8
1
  6
CONTINUOUS
 62
     1
 10
53.75765408292611
 20
215.6895476142284
 30
0.0
 42
0.3337393934068857
 70
     2
 50
9.357110891560552E+17
  0
VERTEX
  5
108
  8
1
  6
CONTINUOUS
 62
     1
 10
37.08336194147802
 20
203.1647776084228
 30
0.0
  0
SEQEND
  5
109
  8
1
  6
CONTINUOUS
 62
     1
  0
POLYLINE
  5
10A
  8
1
  6
CONTINUOUS
 62
     1
 66
     1
 10
0.0
 20
0.0
 30
0.0
 70
   128
  0
VERTEX
  5
10B
  8
1
  6
CONTINUOUS
 62
     1
 10
76.7576540829386
 20
206.730396420436
 30
0.0
 42
0.2429624838004862
 70
     2
 50
0.0000000000001386
  0
VERTEX
  5
10C
  8
1
  6
CONTINUOUS
 62
     1
 10
67.07311169543144
 20
225.4840250978388
 30
0.0
 42
0.2429624838004868
 70
     2
 50
80.69597043083013
  0
VERTEX
  5
10D
  8
1
  6
CONTINUOUS
 62
     1
 10
46.17516812033801
 20
228.4445831799479
 30
0.0
 42
0.2429624838004888
 70
     2
 50
-164.0795990939374
  0
VERTEX
  5
10E
  8
1
  6
CONTINUOUS
 62
     1
 10
31.66269469372143
 20
213.1188836896448
 30
0.0
 42
0.2429624838004884
 70
     2
 50
-16.56637387518157
  0
VERTEX
  5
10F
  8
1
  6
CONTINUOUS
 62
     1
 10
35.75714046320255
 20
192.413221090585
 30
0.0
  0
SEQEND
  5
110
  8
1
  6
CONTINUOUS
 62
     1
  0
POLYLINE
  5
111
  8
1
  6
CONTINUOUS
 62
     1
 66
     1
 10
0.0
 20
0.0
 30
0.0
 70
   128
  0
VERTEX
  5
112
  8
1
  6
CONTINUOUS
 62
     1
 10
71.758167702836
 20
192.4132210907879
 30
0.0
 42
0.084187429783503
 70
     2
 50
-45.57168413410782
  0
VERTEX
  5
113
  8
1
  6
CONTINUOUS
 62
     1
 10
75.47184084249328
 20
199.1479104579578
 30
0.0
 42
0.0841874297835023
 70
     2
 50
-20.00740109117974
  0
VERTEX
  5
114
  8
1
  6
CONTINUOUS
 62
     1
 10
76.75765408293857
 20
206.730396420436
 30
0.0
  0
SEQEND
  5
115
  8
1
  6
CONTINUOUS
 62
     1
  0
POLYLINE
  5
116
  8
1
  6
CONTINUOUS
 62
     1
 66
     1
 10
0.0
 20
0.0
 30
0.0
 70
   128
  0
VERTEX
  5
117
  8
1
  6
CONTINUOUS
 62
     1
 10
184.4872699282513
 20
214.1632252461984
 30
0.0
 42
0.196676065556064
 70
     2
 50
-3327.56257941356
  0
VERTEX
  5
118
  8
1
  6
CONTINUOUS
 62
     1
 10
163.6087222961966
 20
205.1974789427003
 30
0.0
 42
0.1966760655560646
 70
     2
 50
-56.31772251321708
  0
VERTEX
  5
119
  8
1
  6
CONTINUOUS
 62
     1
 10
155.0037496628187
 20
184.1676714309448
 30
0.0
  0
SEQEND
  5
11A
  8
1
  6
CONTINUOUS
 62
     1
  0
POLYLINE
  5
11B
  8
1
  6
CONTINUOUS
 62
     1
 66
     1
 10
0.0
 20
0.0
 30
0.0
 70
   128
  0
VERTEX
  5
11C
  8
1
  6
CONTINUOUS
 62
     1
 10
201.1759095743409
 20
199.0102135345422
 30
0.0
 42
0.201150584659879
 70
     2
 50
3327.562579414609
  0
VERTEX
  5
11D
  8
1
  6
CONTINUOUS
 62
     1
 10
193.9938138255667
 20
196.1433713849984
 30
0.0
 42
0.2011505846598813
 70
     2
 50
-58.29082220505834
  0
VERTEX
  5
11E
  8
1
  6
CONTINUOUS
 62
     1
 10
191.0037496628186
 20
189.0116955961244
 30
0.0
  0
SEQEND
  5
11F
  8
1
  6
CONTINUOUS
 62
     1
  0
POLYLINE
  5
120
  8
1
  6
CONTINUOUS
 62
     1
 66
     1
 10
0.0
 20
0.0
 30
0.0
 70
   128
  0
VERTEX
  5
121
  8
1
  6
CONTINUOUS
 62
     1
 10
61.44685153781282
 20
339.7940970107189
 30
0.0
 42
0.0967702813216281
 70
     2
 50
-0.9865498459204622
  0
VERTEX
  5
122
  8
1
  6
CONTINUOUS
 62
     1
 10
62.78768581114704
 20
332.2424100033616
 30
0.0
 42
0.0967702813216286
 70
     2
 50
22.1348230383988
  0
VERTEX
  5
123
  8
1
  6
CONTINUOUS
 62
     1
 10
66.87218566111703
 20
325.7506710852263
 30
0.0
  0
SEQEND
  5
124
  8
1
  6
CONTINUOUS
 62
     1
  0
POLYLINE
  5
125
  8
1
  6
CONTINUOUS
 62
     1
 66
     1
 10
0.0
 20
0.0
 30
0.0
 70
   128
  0
VERTEX
  5
126
  8
1
  6
CONTINUOUS
 62
     1
 10
40.64312250476021
 20
325.7506710852263
 30
0.0
 42
0.0967702813216276
 70
     2
 50
-53.86474250215448
  0
VERTEX
  5
127
  8
1
  6
CONTINUOUS
 62
     1
 10
44.72762235473019
 20
332.2424100033616
 30
0.0
 42
0.0967702813216268
 70
     2
 50
-22.13482303839842
  0
VERTEX
  5
128
  8
1
  6
CONTINUOUS
 62
     1
 10
46.06845662806441
 20
339.7940970107189
 30
0.0
  0
SEQEND
  5
129
  8
1
  6
CONTINUOUS
 62
     1
  0
POLYLINE
  5
12A
  8
1
  6
CONTINUOUS
 62
     1
 66
     1
 10
0.0
 20
0.0
 30
0.0
 70
   128
  0
VERTEX
  5
12B
  8
1
  6
CONTINUOUS
 62
     1
 10
71.7576540829386
 20
313.4214755930232
 30
0.0
 42
0.0945984716938352
 70
     2
 50
-0.000000000000014
  0
VERTEX
  5
12C
  8
1
  6
CONTINUOUS
 62
     1
 10
70.49177444236011
 20
320.0524043210668
 30
0.0
 42
0.0945984716938346
 70
     2
 50
22.70356745432685
  0
VERTEX
  5
12D
  8
1
  6
CONTINUOUS
 62
     1
 10
66.87218566111702
 20
325.7506710852263
 30
0.0
  0
SEQEND
  5
12E
  8
1
  6
CONTINUOUS
 62
     1
  0
POLYLINE
  5
12F
  8
1
  6
CONTINUOUS
 62
     1
 66
     1
 10
0.0
 20
0.0
 30
0.0
 70
   128
  0
VERTEX
  5
130
  8
1
  6
CONTINUOUS
 62
     1
 10
35.75765408293861
 20
313.4214755930232
 30
0.0
 42
0.4142135623730951
 70
     2
 50
-0.000000000000007
  0
VERTEX
  5
131
  8
1
  6
CONTINUOUS
 62
     1
 10
53.75765408293861
 20
295.4214755930232
 30
0.0
 42
0.4142135623730951
 70
     2
 50
3.119036963853517E+17
  0
VERTEX
  5
132
  8
1
  6
CONTINUOUS
 62
     1
 10
71.75765408293861
 20
313.4214755930232
 30
0.0
  0
SEQEND
  5
133
  8
1
  6
CONTINUOUS
 62
     1
  0
POLYLINE
  5
134
  8
1
  6
CONTINUOUS
 62
     1
 66
     1
 10
0.0
 20
0.0
 30
0.0
 70
   128
  0
VERTEX
  5
135
  8
1
  6
CONTINUOUS
 62
     1
 10
40.64312250476021
 20
325.7506710852263
 30
0.0
 42
0.094598471693835
 70
     2
 50
-53.86474250215477
  0
VERTEX
  5
136
  8
1
  6
CONTINUOUS
 62
     1
 10
37.02353372351712
 20
320.0524043210668
 30
0.0
 42
0.0945984716938345
 70
     2
 50
-22.70356745432686
  0
VERTEX
  5
137
  8
1
  6
CONTINUOUS
 62
     1
 10
35.75765408293863
 20
313.4214755930232
 30
0.0
  0
SEQEND
  5
138
  8
1
  6
CONTINUOUS
 62
     1
  0
POLYLINE
  5
139
  8
1
  6
CONTINUOUS
 62
     1
 66
     1
 10
0.0
 20
0.0
 30
0.0
 70
   128
  0
VERTEX
  5
13A
  8
1
  6
CONTINUOUS
 62
     1
 10
71.75765408293861
 20
184.1676714309448
 30
0.0
  0
VERTEX
  5
13B
  8
1
  6
CONTINUOUS
 62
     1
 10
71.75813486326987
 20
184.2051434769152
 30
0.0
  0
VERTEX
  5
13C
  8
1
  6
CONTINUOUS
 62
     1
 10
71.75861809125661
 20
184.2429071260557
 30
0.0
  0
VERTEX
  5
13D
  8
1
  6
CONTINUOUS
 62
     1
 10
71.75910376689883
 20
184.2809623783661
 30
0.0
  0
VERTEX
  5
13E
  8
1
  6
CONTINUOUS
 62
     1
 10
71.75959189019655
 20
184.3193092338466
 30
0.0
  0
VERTEX
  5
13F
  8
1
  6
CONTINUOUS
 62
     1
 10
71.76008246114975
 20
184.357947692497
 30
0.0
  0
VERTEX
  5
140
  8
1
  6
CONTINUOUS
 62
     1
 10
71.76057547975844
 20
184.3968777543175
 30
0.0
  0
VERTEX
  5
141
  8
1
  6
CONTINUOUS
 62
     1
 10
71.76107094602264
 20
184.4360994193079
 30
0.0
  0
VERTEX
  5
142
  8
1
  6
CONTINUOUS
 62
     1
 10
71.76156885994232
 20
184.4756126874684
 30
0.0
  0
VERTEX
  5
143
  8
1
  6
CONTINUOUS
 62
     1
 10
71.76206922151749
 20
184.5154175587989
 30
0.0
  0
VERTEX
  5
144
  8
1
  6
CONTINUOUS
 62
     1
 10
71.76257203074815
 20
184.5555140332993
 30
0.0
  0
VERTEX
  5
145
  8
1
  6
CONTINUOUS
 62
     1
 10
71.7630772876343
 20
184.5959021109698
 30
0.0
  0
VERTEX
  5
146
  8
1
  6
CONTINUOUS
 62
     1
 10
71.76358499217594
 20
184.6365817918102
 30
0.0
  0
VERTEX
  5
147
  8
1
  6
CONTINUOUS
 62
     1
 10
71.76409514437307
 20
184.6775530758207
 30
0.0
  0
VERTEX
  5
148
  8
1
  6
CONTINUOUS
 62
     1
 10
71.76460774422569
 20
184.7188159630012
 30
0.0
  0
VERTEX
  5
149
  8
1
  6
CONTINUOUS
 62
     1
 10
71.7651227917338
 20
184.7603704533516
 30
0.0
  0
VERTEX
  5
14A
  8
1
  6
CONTINUOUS
 62
     1
 10
71.7656402868974
 20
184.8022165468721
 30
0.0
  0
VERTEX
  5
14B
  8
1
  6
CONTINUOUS
 62
     1
 10
71.76616022971649
 20
184.8443542435626
 30
0.0
  0
VERTEX
  5
14C
  8
1
  6
CONTINUOUS
 62
     1
 10
71.76668262019106
 20
184.8867835434231
 30
0.0
  0
VERTEX
  5
14D
  8
1
  6
CONTINUOUS
 62
     1
 10
71.76720745832114
 20
184.9295044464536
 30
0.0
  0
VERTEX
  5
14E
  8
1
  6
CONTINUOUS
 62
     1
 10
71.76773474410669
 20
184.972516952654
 30
0.0
  0
VERTEX
  5
14F
  8
1
  6
CONTINUOUS
 62
     1
 10
71.76826447754775
 20
185.0158210620245
 30
0.0
  0
VERTEX
  5
150
  8
1
  6
CONTINUOUS
 62
     1
 10
71.76879665864428
 20
185.059416774565
 30
0.0
  0
VERTEX
  5
151
  8
1
  6
CONTINUOUS
 62
     1
 10
71.76933128739631
 20
185.1033040902755
 30
0.0
  0
VERTEX
  5
152
  8
1
  6
CONTINUOUS
 62
     1
 10
71.76986836380384
 20
185.1474830091559
 30
0.0
  0
VERTEX
  5
153
  8
1
  6
CONTINUOUS
 62
     1
 10
71.77040788786685
 20
185.1919535312064
 30
0.0
  0
VERTEX
  5
154
  8
1
  6
CONTINUOUS
 62
     1
 10
71.77094985958536
 20
185.2367156564269
 30
0.0
  0
VERTEX
  5
155
  8
1
  6
CONTINUOUS
 62
     1
 10
71.77149427895935
 20
185.2817693848174
 30
0.0
  0
VERTEX
  5
156
  8
1
  6
CONTINUOUS
 62
     1
 10
71.77204114598882
 20
185.3271147163778
 30
0.0
  0
VERTEX
  5
157
  8
1
  6
CONTINUOUS
 62
     1
 10
71.7725904606738
 20
185.3727516511083
 30
0.0
  0
VERTEX
  5
158
  8
1
  6
CONTINUOUS
 62
     1
 10
71.77314222301425
 20
185.4186801890088
 30
0.0
  0
VERTEX
  5
159
  8
1
  6
CONTINUOUS
 62
     1
 10
71.7736964330102
 20
185.4649003300793
 30
0.0
  0
VERTEX
  5
15A
  8
1
  6
CONTINUOUS
 62
     1
 10
71.77425309066165
 20
185.5114120743198
 30
0.0
  0
VERTEX
  5
15B
  8
1
  6
CONTINUOUS
 62
     1
 10
71.77481219596858
 20
185.5582154217303
 30
0.0
  0
VERTEX
  5
15C
  8
1
  6
CONTINUOUS
 62
     1
 10
71.775373748931
 20
185.6053103723108
 30
0.0
  0
VERTEX
  5
15D
  8
1
  6
CONTINUOUS
 62
     1
 10
71.77593774954892
 20
185.6526969260613
 30
0.0
  0
VERTEX
  5
15E
  8
1
  6
CONTINUOUS
 62
     1
 10
71.7765041978223
 20
185.7003750829818
 30
0.0
  0
VERTEX
  5
15F
  8
1
  6
CONTINUOUS
 62
     1
 10
71.7770730937512
 20
185.7483448430723
 30
0.0
  0
VERTEX
  5
160
  8
1
  6
CONTINUOUS
 62
     1
 10
71.77764443733558
 20
185.7966062063327
 30
0.0
  0
VERTEX
  5
161
  8
1
  6
CONTINUOUS
 62
     1
 10
71.77821822857547
 20
185.8451591727633
 30
0.0
  0
VERTEX
  5
162
  8
1
  6
CONTINUOUS
 62
     1
 10
71.77879446747082
 20
185.8940037423637
 30
0.0
  0
VERTEX
  5
163
  8
1
  6
CONTINUOUS
 62
     1
 10
71.77937315402167
 20
185.9431399151343
 30
0.0
  0
VERTEX
  5
164
  8
1
  6
CONTINUOUS
 62
     1
 10
71.77995428822801
 20
185.9925676910748
 30
0.0
  0
VERTEX
  5
165
  8
1
  6
CONTINUOUS
 62
     1
 10
71.78053787008986
 20
186.0422870701852
 30
0.0
  0
VERTEX
  5
166
  8
1
  6
CONTINUOUS
 62
     1
 10
71.78112389960717
 20
186.0922980524658
 30
0.0
  0
VERTEX
  5
167
  8
1
  6
CONTINUOUS
 62
     1
 10
71.78171237677998
 20
186.1426006379162
 30
0.0
  0
VERTEX
  5
168
  8
1
  6
CONTINUOUS
 62
     1
 10
71.78230330160828
 20
186.1931948265368
 30
0.0
  0
VERTEX
  5
169
  8
1
  6
CONTINUOUS
 62
     1
 10
71.78289667409209
 20
186.2440806183273
 30
0.0
  0
VERTEX
  5
16A
  8
1
  6
CONTINUOUS
 62
     1
 10
71.78349249423135
 20
186.2952580132878
 30
0.0
  0
VERTEX
  5
16B
  8
1
  6
CONTINUOUS
 62
     1
 10
71.78409076202612
 20
186.3467270114183
 30
0.0
  0
VERTEX
  5
16C
  8
1
  6
CONTINUOUS
 62
     1
 10
71.78469147747639
 20
186.3984876127188
 30
0.0
  0
VERTEX
  5
16D
  8
1
  6
CONTINUOUS
 62
     1
 10
71.78529464058215
 20
186.4505398171893
 30
0.0
  0
VERTEX
  5
16E
  8
1
  6
CONTINUOUS
 62
     1
 10
71.78590025134338
 20
186.5028836248298
 30
0.0
  0
VERTEX
  5
16F
  8
1
  6
CONTINUOUS
 62
     1
 10
71.78650830976012
 20
186.5555190356403
 30
0.0
  0
VERTEX
  5
170
  8
1
  6
CONTINUOUS
 62
     1
 10
71.78711881583234
 20
186.6084460496209
 30
0.0
  0
VERTEX
  5
171
  8
1
  6
CONTINUOUS
 62
     1
 10
71.78773176956005
 20
186.6616646667714
 30
0.0
  0
VERTEX
  5
172
  8
1
  6
CONTINUOUS
 62
     1
 10
71.78834717094325
 20
186.7151748870919
 30
0.0
  0
VERTEX
  5
173
  8
1
  6
CONTINUOUS
 62
     1
 10
71.78896501998194
 20
186.7689767105824
 30
0.0
  0
VERTEX
  5
174
  8
1
  6
CONTINUOUS
 62
     1
 10
71.78958531667612
 20
186.8230701372429
 30
0.0
  0
VERTEX
  5
175
  8
1
  6
CONTINUOUS
 62
     1
 10
71.7902080610258
 20
186.8774551670734
 30
0.0
  0
VERTEX
  5
176
  8
1
  6
CONTINUOUS
 62
     1
 10
71.79083325303097
 20
186.932131800074
 30
0.0
  0
VERTEX
  5
177
  8
1
  6
CONTINUOUS
 62
     1
 10
71.79146089269163
 20
186.9871000362445
 30
0.0
  0
VERTEX
  5
178
  8
1
  6
CONTINUOUS
 62
     1
 10
71.79209098000777
 20
187.042359875585
 30
0.0
  0
VERTEX
  5
179
  8
1
  6
CONTINUOUS
 62
     1
 10
71.7927235149794
 20
187.0979113180956
 30
0.0
  0
VERTEX
  5
17A
  8
1
  6
CONTINUOUS
 62
     1
 10
71.79335849760652
 20
187.1537543637761
 30
0.0
  0
VERTEX
  5
17B
  8
1
  6
CONTINUOUS
 62
     1
 10
71.79398252158018
 20
187.2098163153487
 30
0.0
  0
VERTEX
  5
17C
  8
1
  6
CONTINUOUS
 62
     1
 10
71.79458218059143
 20
187.2660244755357
 30
0.0
  0
VERTEX
  5
17D
  8
1
  6
CONTINUOUS
 62
     1
 10
71.79515747464028
 20
187.3223788443369
 30
0.0
  0
VERTEX
  5
17E
  8
1
  6
CONTINUOUS
 62
     1
 10
71.79570840372669
 20
187.3788794217525
 30
0.0
  0
VERTEX
  5
17F
  8
1
  6
CONTINUOUS
 62
     1
 10
71.7962349678507
 20
187.4355262077823
 30
0.0
  0
VERTEX
  5
180
  8
1
  6
CONTINUOUS
 62
     1
 10
71.79673716701231
 20
187.4923192024264
 30
0.0
  0
VERTEX
  5
181
  8
1
  6
CONTINUOUS
 62
     1
 10
71.7972150012115
 20
187.5492584056847
 30
0.0
  0
VERTEX
  5
182
  8
1
  6
CONTINUOUS
 62
     1
 10
71.79766847044827
 20
187.6063438175574
 30
0.0
  0
VERTEX
  5
183
  8
1
  6
CONTINUOUS
 62
     1
 10
71.79809757472262
 20
187.6635754380443
 30
0.0
  0
VERTEX
  5
184
  8
1
  6
CONTINUOUS
 62
     1
 10
71.79850231403458
 20
187.7209532671455
 30
0.0
  0
VERTEX
  5
185
  8
1
  6
CONTINUOUS
 62
     1
 10
71.79888268838411
 20
187.778477304861
 30
0.0
  0
VERTEX
  5
186
  8
1
  6
CONTINUOUS
 62
     1
 10
71.79923869777124
 20
187.8361475511908
 30
0.0
  0
VERTEX
  5
187
  8
1
  6
CONTINUOUS
 62
     1
 10
71.79957034219595
 20
187.8939640061348
 30
0.0
  0
VERTEX
  5
188
  8
1
  6
CONTINUOUS
 62
     1
 10
71.79987762165825
 20
187.9519266696932
 30
0.0
  0
VERTEX
  5
189
  8
1
  6
CONTINUOUS
 62
     1
 10
71.80016053615813
 20
188.0100355418658
 30
0.0
  0
VERTEX
  5
18A
  8
1
  6
CONTINUOUS
 62
     1
 10
71.80041908569562
 20
188.0682906226527
 30
0.0
  0
VERTEX
  5
18B
  8
1
  6
CONTINUOUS
 62
     1
 10
71.80065327027069
 20
188.1266919120539
 30
0.0
  0
VERTEX
  5
18C
  8
1
  6
CONTINUOUS
 62
     1
 10
71.80086308988334
 20
188.1852394100694
 30
0.0
  0
VERTEX
  5
18D
  8
1
  6
CONTINUOUS
 62
     1
 10
71.80104854453356
 20
188.2439331166991
 30
0.0
  0
VERTEX
  5
18E
  8
1
  6
CONTINUOUS
 62
     1
 10
71.8012096342214
 20
188.3027730319432
 30
0.0
  0
VERTEX
  5
18F
  8
1
  6
CONTINUOUS
 62
     1
 10
71.80134635894682
 20
188.3617591558015
 30
0.0
  0
VERTEX
  5
190
  8
1
  6
CONTINUOUS
 62
     1
 10
71.80145871870981
 20
188.4208914882741
 30
0.0
  0
VERTEX
  5
191
  8
1
  6
CONTINUOUS
 62
     1
 10
71.80154671351039
 20
188.480170029361
 30
0.0
  0
VERTEX
  5
192
  8
1
  6
CONTINUOUS
 62
     1
 10
71.80161034334857
 20
188.5395947790622
 30
0.0
  0
VERTEX
  5
193
  8
1
  6
CONTINUOUS
 62
     1
 10
71.80164960822434
 20
188.5991657373776
 30
0.0
  0
VERTEX
  5
194
  8
1
  6
CONTINUOUS
 62
     1
 10
71.80166450813769
 20
188.6588829043073
 30
0.0
  0
VERTEX
  5
195
  8
1
  6
CONTINUOUS
 62
     1
 10
71.80165504308863
 20
188.7187462798514
 30
0.0
  0
VERTEX
  5
196
  8
1
  6
CONTINUOUS
 62
     1
 10
71.80162121307715
 20
188.7787558640097
 30
0.0
  0
VERTEX
  5
197
  8
1
  6
CONTINUOUS
 62
     1
 10
71.80156301810327
 20
188.8389116567823
 30
0.0
  0
VERTEX
  5
198
  8
1
  6
CONTINUOUS
 62
     1
 10
71.80148045816696
 20
188.8992136581691
 30
0.0
  0
VERTEX
  5
199
  8
1
  6
CONTINUOUS
 62
     1
 10
71.80137353326825
 20
188.9596618681703
 30
0.0
  0
VERTEX
  5
19A
  8
1
  6
CONTINUOUS
 62
     1
 10
71.80124224340713
 20
189.0202562867857
 30
0.0
  0
VERTEX
  5
19B
  8
1
  6
CONTINUOUS
 62
     1
 10
71.80108658858359
 20
189.0809969140154
 30
0.0
  0
VERTEX
  5
19C
  8
1
  6
CONTINUOUS
 62
     1
 10
71.80090656879764
 20
189.1418837498594
 30
0.0
  0
VERTEX
  5
19D
  8
1
  6
CONTINUOUS
 62
     1
 10
71.80070218404929
 20
189.2029167943177
 30
0.0
  0
VERTEX
  5
19E
  8
1
  6
CONTINUOUS
 62
     1
 10
71.80047343433851
 20
189.2640960473903
 30
0.0
  0
VERTEX
  5
19F
  8
1
  6
CONTINUOUS
 62
     1
 10
71.80022031966533
 20
189.3254215090771
 30
0.0
  0
VERTEX
  5
1A0
  8
1
  6
CONTINUOUS
 62
     1
 10
71.79994284002973
 20
189.3868931793782
 30
0.0
  0
VERTEX
  5
1A1
  8
1
  6
CONTINUOUS
 62
     1
 10
71.79964099543172
 20
189.4485110582937
 30
0.0
  0
VERTEX
  5
1A2
  8
1
  6
CONTINUOUS
 62
     1
 10
71.79931478587129
 20
189.5102751458234
 30
0.0
  0
VERTEX
  5
1A3
  8
1
  6
CONTINUOUS
 62
     1
 10
71.79896421134845
 20
189.5721854419673
 30
0.0
  0
VERTEX
  5
1A4
  8
1
  6
CONTINUOUS
 62
     1
 10
71.7985892718632
 20
189.6342419467256
 30
0.0
  0
VERTEX
  5
1A5
  8
1
  6
CONTINUOUS
 62
     1
 10
71.79818996741552
 20
189.6964446600981
 30
0.0
  0
VERTEX
  5
1A6
  8
1
  6
CONTINUOUS
 62
     1
 10
71.79776629800546
 20
189.7587935820849
 30
0.0
  0
VERTEX
  5
1A7
  8
1
  6
CONTINUOUS
 62
     1
 10
71.79731826363297
 20
189.8212887126861
 30
0.0
  0
VERTEX
  5
1A8
  8
1
  6
CONTINUOUS
 62
     1
 10
71.79684586429808
 20
189.8839300519014
 30
0.0
  0
VERTEX
  5
1A9
  8
1
  6
CONTINUOUS
 62
     1
 10
71.79634910000077
 20
189.9467175997311
 30
0.0
  0
VERTEX
  5
1AA
  8
1
  6
CONTINUOUS
 62
     1
 10
71.79582797074104
 20
190.0096513561751
 30
0.0
  0
VERTEX
  5
1AB
  8
1
  6
CONTINUOUS
 62
     1
 10
71.7952824765189
 20
190.0727313212333
 30
0.0
  0
VERTEX
  5
1AC
  8
1
  6
CONTINUOUS
 62
     1
 10
71.79471261733435
 20
190.1359574949058
 30
0.0
  0
VERTEX
  5
1AD
  8
1
  6
CONTINUOUS
 62
     1
 10
71.79411839318739
 20
190.1993298771926
 30
0.0
  0
VERTEX
  5
1AE
  8
1
  6
CONTINUOUS
 62
     1
 10
71.79349980407801
 20
190.2628484680937
 30
0.0
  0
VERTEX
  5
1AF
  8
1
  6
CONTINUOUS
 62
     1
 10
71.79285685000622
 20
190.3265132676091
 30
0.0
  0
VERTEX
  5
1B0
  8
1
  6
CONTINUOUS
 62
     1
 10
71.79218953097202
 20
190.3903242757387
 30
0.0
  0
VERTEX
  5
1B1
  8
1
  6
CONTINUOUS
 62
     1
 10
71.7914978469754
 20
190.4542814924826
 30
0.0
  0
VERTEX
  5
1B2
  8
1
  6
CONTINUOUS
 62
     1
 10
71.7907817980164
 20
190.5183849178409
 30
0.0
  0
VERTEX
  5
1B3
  8
1
  6
CONTINUOUS
 62
     1
 10
71.79004138409496
 20
190.5826345518134
 30
0.0
  0
VERTEX
  5
1B4
  8
1
  6
CONTINUOUS
 62
     1
 10
71.78927660521111
 20
190.6470303944001
 30
0.0
  0
VERTEX
  5
1B5
  8
1
  6
CONTINUOUS
 62
     1
 10
71.78848746136484
 20
190.7115724456012
 30
0.0
  0
VERTEX
  5
1B6
  8
1
  6
CONTINUOUS
 62
     1
 10
71.78767395255618
 20
190.7762607054165
 30
0.0
  0
VERTEX
  5
1B7
  8
1
  6
CONTINUOUS
 62
     1
 10
71.7868360787851
 20
190.8410951738462
 30
0.0
  0
VERTEX
  5
1B8
  8
1
  6
CONTINUOUS
 62
     1
 10
71.7859738400516
 20
190.9060758508901
 30
0.0
  0
VERTEX
  5
1B9
  8
1
  6
CONTINUOUS
 62
     1
 10
71.78508723635568
 20
190.9712027365483
 30
0.0
  0
VERTEX
  5
1BA
  8
1
  6
CONTINUOUS
 62
     1
 10
71.78417626769736
 20
191.0364758308208
 30
0.0
  0
VERTEX
  5
1BB
  8
1
  6
CONTINUOUS
 62
     1
 10
71.78324146299474
 20
191.1016756689067
 30
0.0
  0
VERTEX
  5
1BC
  8
1
  6
CONTINUOUS
 62
     1
 10
71.78228335116589
 20
191.1665827860053
 30
0.0
  0
VERTEX
  5
1BD
  8
1
  6
CONTINUOUS
 62
     1
 10
71.78130193221084
 20
191.2311971821165
 30
0.0
  0
VERTEX
  5
1BE
  8
1
  6
CONTINUOUS
 62
     1
 10
71.78029720612957
 20
191.2955188572403
 30
0.0
  0
VERTEX
  5
1BF
  8
1
  6
CONTINUOUS
 62
     1
 10
71.7792691729221
 20
191.3595478113768
 30
0.0
  0
VERTEX
  5
1C0
  8
1
  6
CONTINUOUS
 62
     1
 10
71.77821783258841
 20
191.4232840445259
 30
0.0
  0
VERTEX
  5
1C1
  8
1
  6
CONTINUOUS
 62
     1
 10
71.77714318512851
 20
191.4867275566877
 30
0.0
  0
VERTEX
  5
1C2
  8
1
  6
CONTINUOUS
 62
     1
 10
71.7760452305424
 20
191.5498783478621
 30
0.0
  0
VERTEX
  5
1C3
  8
1
  6
CONTINUOUS
 62
     1
 10
71.77492396883008
 20
191.6127364180491
 30
0.0
  0
VERTEX
  5
1C4
  8
1
  6
CONTINUOUS
 62
     1
 10
71.77377939999155
 20
191.6753017672488
 30
0.0
  0
VERTEX
  5
1C5
  8
1
  6
CONTINUOUS
 62
     1
 10
71.77261152402683
 20
191.7375743954611
 30
0.0
  0
VERTEX
  5
1C6
  8
1
  6
CONTINUOUS
 62
     1
 10
71.77142034093588
 20
191.799554302686
 30
0.0
  0
VERTEX
  5
1C7
  8
1
  6
CONTINUOUS
 62
     1
 10
71.77020585071871
 20
191.8612414889236
 30
0.0
  0
VERTEX
  5
1C8
  8
1
  6
CONTINUOUS
 62
     1
 10
71.76896805337535
 20
191.9226359541738
 30
0.0
  0
VERTEX
  5
1C9
  8
1
  6
CONTINUOUS
 62
     1
 10
71.76770694890577
 20
191.9837376984367
 30
0.0
  0
VERTEX
  5
1CA
  8
1
  6
CONTINUOUS
 62
     1
 10
71.76642253730998
 20
192.0445467217122
 30
0.0
  0
VERTEX
  5
1CB
  8
1
  6
CONTINUOUS
 62
     1
 10
71.76511481858797
 20
192.1050630240003
 30
0.0
  0
VERTEX
  5
1CC
  8
1
  6
CONTINUOUS
 62
     1
 10
71.76378379273976
 20
192.1652866053011
 30
0.0
  0
VERTEX
  5
1CD
  8
1
  6
CONTINUOUS
 62
     1
 10
71.76242945976534
 20
192.2252174656145
 30
0.0
  0
VERTEX
  5
1CE
  8
1
  6
CONTINUOUS
 62
     1
 10
71.76105181966471
 20
192.2848556049405
 30
0.0
  0
VERTEX
  5
1CF
  8
1
  6
CONTINUOUS
 62
     1
 10
71.75965087243787
 20
192.3442010232792
 30
0.0
  0
VERTEX
  5
1D0
  8
1
  6
CONTINUOUS
 62
     1
 10
71.75822661808482
 20
192.4032537206305
 30
0.0
  0
VERTEX
  5
1D1
  8
1
  6
CONTINUOUS
 62
     1
 10
71.75677905660557
 20
192.4620136969945
 30
0.0
  0
VERTEX
  5
1D2
  8
1
  6
CONTINUOUS
 62
     1
 10
71.7553081880001
 20
192.5204809523711
 30
0.0
  0
VERTEX
  5
1D3
  8
1
  6
CONTINUOUS
 62
     1
 10
71.75381401226842
 20
192.5786554867603
 30
0.0
  0
VERTEX
  5
1D4
  8
1
  6
CONTINUOUS
 62
     1
 10
71.75229652941053
 20
192.6365373001622
 30
0.0
  0
VERTEX
  5
1D5
  8
1
  6
CONTINUOUS
 62
     1
 10
71.75075573942644
 20
192.6941263925767
 30
0.0
  0
VERTEX
  5
1D6
  8
1
  6
CONTINUOUS
 62
     1
 10
71.74919164231613
 20
192.7514227640038
 30
0.0
  0
VERTEX
  5
1D7
  8
1
  6
CONTINUOUS
 62
     1
 10
71.74760423807962
 20
192.8084264144436
 30
0.0
  0
VERTEX
  5
1D8
  8
1
  6
CONTINUOUS
 62
     1
 10
71.74599352671687
 20
192.865137343896
 30
0.0
  0
VERTEX
  5
1D9
  8
1
  6
CONTINUOUS
 62
     1
 10
71.74435950822793
 20
192.921555552361
 30
0.0
  0
VERTEX
  5
1DA
  8
1
  6
CONTINUOUS
 62
     1
 10
71.74270218261279
 20
192.9776810398387
 30
0.0
  0
VERTEX
  5
1DB
  8
1
  6
CONTINUOUS
 62
     1
 10
71.74102154987143
 20
193.0335138063291
 30
0.0
  0
VERTEX
  5
1DC
  8
1
  6
CONTINUOUS
 62
     1
 10
71.73931761000387
 20
193.089053851832
 30
0.0
  0
VERTEX
  5
1DD
  8
1
  6
CONTINUOUS
 62
     1
 10
71.73759036301009
 20
193.1443011763476
 30
0.0
  0
VERTEX
  5
1DE
  8
1
  6
CONTINUOUS
 62
     1
 10
71.73583980889009
 20
193.1992557798758
 30
0.0
  0
VERTEX
  5
1DF
  8
1
  6
CONTINUOUS
 62
     1
 10
71.73406594764388
 20
193.2539176624167
 30
0.0
  0
VERTEX
  5
1E0
  8
1
  6
CONTINUOUS
 62
     1
 10
71.73226877927146
 20
193.3082868239702
 30
0.0
  0
VERTEX
  5
1E1
  8
1
  6
CONTINUOUS
 62
     1
 10
71.73044830377285
 20
193.3623632645364
 30
0.0
  0
VERTEX
  5
1E2
  8
1
  6
CONTINUOUS
 62
     1
 10
71.72860452114801
 20
193.4161469841152
 30
0.0
  0
VERTEX
  5
1E3
  8
1
  6
CONTINUOUS
 62
     1
 10
71.72673743139697
 20
193.4696379827066
 30
0.0
  0
VERTEX
  5
1E4
  8
1
  6
CONTINUOUS
 62
     1
 10
71.72484703451971
 20
193.5228362603106
 30
0.0
  0
VERTEX
  5
1E5
  8
1
  6
CONTINUOUS
 62
     1
 10
71.72293333051626
 20
193.5757418169273
 30
0.0
  0
VERTEX
  5
1E6
  8
1
  6
CONTINUOUS
 62
     1
 10
71.72099631938659
 20
193.6283546525567
 30
0.0
  0
VERTEX
  5
1E7
  8
1
  6
CONTINUOUS
 62
     1
 10
71.7190360011307
 20
193.6806747671986
 30
0.0
  0
VERTEX
  5
1E8
  8
1
  6
CONTINUOUS
 62
     1
 10
71.71705237574861
 20
193.7327021608533
 30
0.0
  0
VERTEX
  5
1E9
  8
1
  6
CONTINUOUS
 62
     1
 10
71.71504544324031
 20
193.7844368335205
 30
0.0
  0
VERTEX
  5
1EA
  8
1
  6
CONTINUOUS
 62
     1
 10
71.71301520360579
 20
193.8358787852004
 30
0.0
  0
VERTEX
  5
1EB
  8
1
  6
CONTINUOUS
 62
     1
 10
71.71096165684507
 20
193.8870280158929
 30
0.0
  0
VERTEX
  5
1EC
  8
1
  6
CONTINUOUS
 62
     1
 10
71.70888480295814
 20
193.9378845255981
 30
0.0
  0
VERTEX
  5
1ED
  8
1
  6
CONTINUOUS
 62
     1
 10
71.70678464194499
 20
193.9884483143159
 30
0.0
  0
VERTEX
  5
1EE
  8
1
  6
CONTINUOUS
 62
     1
 10
71.70466117380563
 20
194.0387193820463
 30
0.0
  0
VERTEX
  5
1EF
  8
1
  6
CONTINUOUS
 62
     1
 10
71.70251439854006
 20
194.0886977287893
 30
0.0
  0
VERTEX
  5
1F0
  8
1
  6
CONTINUOUS
 62
     1
 10
71.70034431614829
 20
194.1383833545451
 30
0.0
  0
VERTEX
  5
1F1
  8
1
  6
CONTINUOUS
 62
     1
 10
71.6981509266303
 20
194.1877762593134
 30
0.0
  0
VERTEX
  5
1F2
  8
1
  6
CONTINUOUS
 62
     1
 10
71.69593422998611
 20
194.2368764430944
 30
0.0
  0
VERTEX
  5
1F3
  8
1
  6
CONTINUOUS
 62
     1
 10
71.6936942262157
 20
194.285683905888
 30
0.0
  0
VERTEX
  5
1F4
  8
1
  6
CONTINUOUS
 62
     1
 10
71.69143091531907
 20
194.3341986476942
 30
0.0
  0
VERTEX
  5
1F5
  8
1
  6
CONTINUOUS
 62
     1
 10
71.68914429729625
 20
194.3824206685131
 30
0.0
  0
VERTEX
  5
1F6
  8
1
  6
CONTINUOUS
 62
     1
 10
71.68683437214722
 20
194.4303499683446
 30
0.0
  0
VERTEX
  5
1F7
  8
1
  6
CONTINUOUS
 62
     1
 10
71.68450113987197
 20
194.4779865471888
 30
0.0
  0
VERTEX
  5
1F8
  8
1
  6
CONTINUOUS
 62
     1
 10
71.68214460047051
 20
194.5253304050456
 30
0.0
  0
VERTEX
  5
1F9
  8
1
  6
CONTINUOUS
 62
     1
 10
71.67976475394285
 20
194.5723815419151
 30
0.0
  0
VERTEX
  5
1FA
  8
1
  6
CONTINUOUS
 62
     1
 10
71.67736160028898
 20
194.6191399577971
 30
0.0
  0
VERTEX
  5
1FB
  8
1
  6
CONTINUOUS
 62
     1
 10
71.67494184445043
 20
194.665678539649
 30
0.0
  0
VERTEX
  5
1FC
  8
1
  6
CONTINUOUS
 62
     1
 10
71.67251219136875
 20
194.7120701744279
 30
0.0
  0
VERTEX
  5
1FD
  8
1
  6
CONTINUOUS
 62
     1
 10
71.67007264104396
 20
194.7583148621337
 30
0.0
  0
VERTEX
  5
1FE
  8
1
  6
CONTINUOUS
 62
     1
 10
71.66762319347603
 20
194.8044126027664
 30
0.0
  0
VERTEX
  5
1FF
  8
1
  6
CONTINUOUS
 62
     1
 10
71.66516384866497
 20
194.8503633963262
 30
0.0
  0
VERTEX
  5
200
  8
1
  6
CONTINUOUS
 62
     1
 10
71.6626946066108
 20
194.8961672428129
 30
0.0
  0
VERTEX
  5
201
  8
1
  6
CONTINUOUS
 62
     1
 10
71.66021546731349
 20
194.9418241422266
 30
0.0
  0
VERTEX
  5
202
  8
1
  6
CONTINUOUS
 62
     1
 10
71.65772643077307
 20
194.9873340945672
 30
0.0
  0
VERTEX
  5
203
  8
1
  6
CONTINUOUS
 62
     1
 10
71.65522749698951
 20
195.0326970998348
 30
0.0
  0
VERTEX
  5
204
  8
1
  6
CONTINUOUS
 62
     1
 10
71.65271866596282
 20
195.0779131580294
 30
0.0
  0
VERTEX
  5
205
  8
1
  6
CONTINUOUS
 62
     1
 10
71.65019993769303
 20
195.1229822691509
 30
0.0
  0
VERTEX
  5
206
  8
1
  6
CONTINUOUS
 62
     1
 10
71.6476713121801
 20
195.1679044331994
 30
0.0
  0
VERTEX
  5
207
  8
1
  6
CONTINUOUS
 62
     1
 10
71.64513278942404
 20
195.2126796501749
 30
0.0
  0
VERTEX
  5
208
  8
1
  6
CONTINUOUS
 62
     1
 10
71.64258436942485
 20
195.2573079200773
 30
0.0
  0
VERTEX
  5
209
  8
1
  6
CONTINUOUS
 62
     1
 10
71.64002605218253
 20
195.3017892429067
 30
0.0
  0
VERTEX
  5
20A
  8
1
  6
CONTINUOUS
 62
     1
 10
71.63745783769708
 20
195.3461236186631
 30
0.0
  0
VERTEX
  5
20B
  8
1
  6
CONTINUOUS
 62
     1
 10
71.6348797259685
 20
195.3903110473464
 30
0.0
  0
VERTEX
  5
20C
  8
1
  6
CONTINUOUS
 62
     1
 10
71.63229171699682
 20
195.4343515289567
 30
0.0
  0
VERTEX
  5
20D
  8
1
  6
CONTINUOUS
 62
     1
 10
71.629693810782
 20
195.4782450634939
 30
0.0
  0
VERTEX
  5
20E
  8
1
  6
CONTINUOUS
 62
     1
 10
71.62708600732405
 20
195.5219916509582
 30
0.0
  0
VERTEX
  5
20F
  8
1
  6
CONTINUOUS
 62
     1
 10
71.62446830662299
 20
195.5655912913494
 30
0.0
  0
VERTEX
  5
210
  8
1
  6
CONTINUOUS
 62
     1
 10
71.62184070867877
 20
195.6090439846676
 30
0.0
  0
VERTEX
  5
211
  8
1
  6
CONTINUOUS
 62
     1
 10
71.61920321349146
 20
195.6523497309126
 30
0.0
  0
VERTEX
  5
212
  8
1
  6
CONTINUOUS
 62
     1
 10
71.61655582106101
 20
195.6955085300847
 30
0.0
  0
VERTEX
  5
213
  8
1
  6
CONTINUOUS
 62
     1
 10
71.61389853138743
 20
195.7385203821838
 30
0.0
  0
VERTEX
  5
214
  8
1
  6
CONTINUOUS
 62
     1
 10
71.61123134447072
 20
195.7813852872098
 30
0.0
  0
VERTEX
  5
215
  8
1
  6
CONTINUOUS
 62
     1
 10
71.6085542603109
 20
195.8241032451628
 30
0.0
  0
VERTEX
  5
216
  8
1
  6
CONTINUOUS
 62
     1
 10
71.60586727890795
 20
195.8666742560428
 30
0.0
  0
VERTEX
  5
217
  8
1
  6
CONTINUOUS
 62
     1
 10
71.60317040026187
 20
195.9090983198497
 30
0.0
  0
VERTEX
  5
218
  8
1
  6
CONTINUOUS
 62
     1
 10
71.60046362437267
 20
195.9513754365836
 30
0.0
  0
VERTEX
  5
219
  8
1
  6
CONTINUOUS
 62
     1
 10
71.59774695124034
 20
195.9935056062444
 30
0.0
  0
VERTEX
  5
21A
  8
1
  6
CONTINUOUS
 62
     1
 10
71.59502038086487
 20
196.0354888288323
 30
0.0
  0
VERTEX
  5
21B
  8
1
  6
CONTINUOUS
 62
     1
 10
71.59228391324629
 20
196.077325104347
 30
0.0
  0
VERTEX
  5
21C
  8
1
  6
CONTINUOUS
 62
     1
 10
71.58953754838457
 20
196.1190144327888
 30
0.0
  0
VERTEX
  5
21D
  8
1
  6
CONTINUOUS
 62
     1
 10
71.58678128627973
 20
196.1605568141575
 30
0.0
  0
VERTEX
  5
21E
  8
1
  6
CONTINUOUS
 62
     1
 10
71.58401512693176
 20
196.2019522484532
 30
0.0
  0
VERTEX
  5
21F
  8
1
  6
CONTINUOUS
 62
     1
 10
71.58123907034066
 20
196.2432007356759
 30
0.0
  0
VERTEX
  5
220
  8
1
  6
CONTINUOUS
 62
     1
 10
71.57845311650644
 20
196.2843022758255
 30
0.0
  0
VERTEX
  5
221
  8
1
  6
CONTINUOUS
 62
     1
 10
71.5756572654291
 20
196.325256868902
 30
0.0
  0
VERTEX
  5
222
  8
1
  6
CONTINUOUS
 62
     1
 10
71.57285151710863
 20
196.3660645149056
 30
0.0
  0
VERTEX
  5
223
  8
1
  6
CONTINUOUS
 62
     1
 10
71.57003587154503
 20
196.4067252138361
 30
0.0
  0
VERTEX
  5
224
  8
1
  6
CONTINUOUS
 62
     1
 10
71.5672103287383
 20
196.4472389656936
 30
0.0
  0
VERTEX
  5
225
  8
1
  6
CONTINUOUS
 62
     1
 10
71.56437488868846
 20
196.487605770478
 30
0.0
  0
VERTEX
  5
226
  8
1
  6
CONTINUOUS
 62
     1
 10
71.56152955139548
 20
196.5278256281894
 30
0.0
  0
VERTEX
  5
227
  8
1
  6
CONTINUOUS
 62
     1
 10
71.55867431685938
 20
196.5678985388278
 30
0.0
  0
VERTEX
  5
228
  8
1
  6
CONTINUOUS
 62
     1
 10
71.55580918508015
 20
196.6078245023932
 30
0.0
  0
VERTEX
  5
229
  8
1
  6
CONTINUOUS
 62
     1
 10
71.55293415605779
 20
196.6476035188855
 30
0.0
  0
VERTEX
  5
22A
  8
1
  6
CONTINUOUS
 62
     1
 10
71.55004922979231
 20
196.6872355883047
 30
0.0
  0
VERTEX
  5
22B
  8
1
  6
CONTINUOUS
 62
     1
 10
71.5471544062837
 20
196.726720710651
 30
0.0
  0
VERTEX
  5
22C
  8
1
  6
CONTINUOUS
 62
     1
 10
71.54424968553197
 20
196.7660588859242
 30
0.0
  0
VERTEX
  5
22D
  8
1
  6
CONTINUOUS
 62
     1
 10
71.5413350675371
 20
196.8052501141243
 30
0.0
  0
VERTEX
  5
22E
  8
1
  6
CONTINUOUS
 62
     1
 10
71.53841055229911
 20
196.8442943952515
 30
0.0
  0
VERTEX
  5
22F
  8
1
  6
CONTINUOUS
 62
     1
 10
71.535476139818
 20
196.8831917293056
 30
0.0
  0
VERTEX
  5
230
  8
1
  6
CONTINUOUS
 62
     1
 10
71.53253183009375
 20
196.9219421162866
 30
0.0
  0
VERTEX
  5
231
  8
1
  6
CONTINUOUS
 62
     1
 10
71.52957762312639
 20
196.9605455561947
 30
0.0
  0
VERTEX
  5
232
  8
1
  6
CONTINUOUS
 62
     1
 10
71.5266135189159
 20
196.9990020490297
 30
0.0
  0
VERTEX
  5
233
  8
1
  6
CONTINUOUS
 62
     1
 10
71.52363951746227
 20
197.0373115947916
 30
0.0
  0
VERTEX
  5
234
  8
1
  6
CONTINUOUS
 62
     1
 10
71.52065561876553
 20
197.0754741934806
 30
0.0
  0
VERTEX
  5
235
  8
1
  6
CONTINUOUS
 62
     1
 10
71.51766182282566
 20
197.1134898450965
 30
0.0
  0
VERTEX
  5
236
  8
1
  6
CONTINUOUS
 62
     1
 10
71.51465812964267
 20
197.1513585496393
 30
0.0
  0
VERTEX
  5
237
  8
1
  6
CONTINUOUS
 62
     1
 10
71.51164453921655
 20
197.1890803071092
 30
0.0
  0
VERTEX
  5
238
  8
1
  6
CONTINUOUS
 62
     1
 10
71.5086210515473
 20
197.226655117506
 30
0.0
  0
VERTEX
  5
239
  8
1
  6
CONTINUOUS
 62
     1
 10
71.50558766663492
 20
197.2640829808297
 30
0.0
  0
VERTEX
  5
23A
  8
1
  6
CONTINUOUS
 62
     1
 10
71.50254438447942
 20
197.3013638970804
 30
0.0
  0
VERTEX
  5
23B
  8
1
  6
CONTINUOUS
 62
     1
 10
71.49947931006264
 20
197.3385699274347
 30
0.0
  0
VERTEX
  5
23C
  8
1
  6
CONTINUOUS
 62
     1
 10
71.49638054836646
 20
197.3757731330691
 30
0.0
  0
VERTEX
  5
23D
  8
1
  6
CONTINUOUS
 62
     1
 10
71.49324809939085
 20
197.4129735139836
 30
0.0
  0
VERTEX
  5
23E
  8
1
  6
CONTINUOUS
 62
     1
 10
71.49008196313582
 20
197.4501710701782
 30
0.0
  0
VERTEX
  5
23F
  8
1
  6
CONTINUOUS
 62
     1
 10
71.48688213960138
 20
197.487365801653
 30
0.0
  0
VERTEX
  5
240
  8
1
  6
CONTINUOUS
 62
     1
 10
71.48364862878753
 20
197.5245577084079
 30
0.0
  0
VERTEX
  5
241
  8
1
  6
CONTINUOUS
 62
     1
 10
71.48038143069425
 20
197.5617467904429
 30
0.0
  0
VERTEX
  5
242
  8
1
  6
CONTINUOUS
 62
     1
 10
71.47708054532157
 20
197.598933047758
 30
0.0
  0
VERTEX
  5
243
  8
1
  6
CONTINUOUS
 62
     1
 10
71.47374597266946
 20
197.6361164803532
 30
0.0
  0
VERTEX
  5
244
  8
1
  6
CONTINUOUS
 62
     1
 10
71.47037771273796
 20
197.6732970882286
 30
0.0
  0
VERTEX
  5
245
  8
1
  6
CONTINUOUS
 62
     1
 10
71.46697576552701
 20
197.7104748713841
 30
0.0
  0
VERTEX
  5
246
  8
1
  6
CONTINUOUS
 62
     1
 10
71.46354013103667
 20
197.7476498298197
 30
0.0
  0
VERTEX
  5
247
  8
1
  6
CONTINUOUS
 62
     1
 10
71.46007080926688
 20
197.7848219635354
 30
0.0
  0
VERTEX
  5
248
  8
1
  6
CONTINUOUS
 62
     1
 10
71.4565678002177
 20
197.8219912725312
 30
0.0
  0
VERTEX
  5
249
  8
1
  6
CONTINUOUS
 62
     1
 10
71.45303110388909
 20
197.8591577568072
 30
0.0
  0
VERTEX
  5
24A
  8
1
  6
CONTINUOUS
 62
     1
 10
71.44946072028108
 20
197.8963214163633
 30
0.0
  0
VERTEX
  5
24B
  8
1
  6
CONTINUOUS
 62
     1
 10
71.44585664939365
 20
197.9334822511995
 30
0.0
  0
VERTEX
  5
24C
  8
1
  6
CONTINUOUS
 62
     1
 10
71.4422188912268
 20
197.9706402613158
 30
0.0
  0
VERTEX
  5
24D
  8
1
  6
CONTINUOUS
 62
     1
 10
71.43854744578053
 20
198.0077954467122
 30
0.0
  0
VERTEX
  5
24E
  8
1
  6
CONTINUOUS
 62
     1
 10
71.43484231305484
 20
198.0449478073888
 30
0.0
  0
VERTEX
  5
24F
  8
1
  6
CONTINUOUS
 62
     1
 10
71.43110349304973
 20
198.0820973433455
 30
0.0
  0
VERTEX
  5
250
  8
1
  6
CONTINUOUS
 62
     1
 10
71.42733098576522
 20
198.1192440545823
 30
0.0
  0
VERTEX
  5
251
  8
1
  6
CONTINUOUS
 62
     1
 10
71.42352479120129
 20
198.1563879410992
 30
0.0
  0
VERTEX
  5
252
  8
1
  6
CONTINUOUS
 62
     1
 10
71.41968490935794
 20
198.1935290028962
 30
0.0
  0
VERTEX
  5
253
  8
1
  6
CONTINUOUS
 62
     1
 10
71.41581134023517
 20
198.2306672399734
 30
0.0
  0
VERTEX
  5
254
  8
1
  6
CONTINUOUS
 62
     1
 10
71.411904083833
 20
198.2678026523307
 30
0.0
  0
VERTEX
  5
255
  8
1
  6
CONTINUOUS
 62
     1
 10
71.4079631401514
 20
198.3049352399681
 30
0.0
  0
VERTEX
  5
256
  8
1
  6
CONTINUOUS
 62
     1
 10
71.40398850919038
 20
198.3420650028856
 30
0.0
  0
VERTEX
  5
257
  8
1
  6
CONTINUOUS
 62
     1
 10
71.39998019094995
 20
198.3791919410833
 30
0.0
  0
VERTEX
  5
258
  8
1
  6
CONTINUOUS
 62
     1
 10
71.39593818543011
 20
198.416316054561
 30
0.0
  0
VERTEX
  5
259
  8
1
  6
CONTINUOUS
 62
     1
 10
71.39186249263085
 20
198.4534373433189
 30
0.0
  0
VERTEX
  5
25A
  8
1
  6
CONTINUOUS
 62
     1
 10
71.38775311255216
 20
198.4905558073569
 30
0.0
  0
VERTEX
  5
25B
  8
1
  6
CONTINUOUS
 62
     1
 10
71.38361004519406
 20
198.5276714466751
 30
0.0
  0
VERTEX
  5
25C
  8
1
  6
CONTINUOUS
 62
     1
 10
71.37943329055656
 20
198.5647842612733
 30
0.0
  0
VERTEX
  5
25D
  8
1
  6
CONTINUOUS
 62
     1
 10
71.37522284863962
 20
198.6018942511517
 30
0.0
  0
VERTEX
  5
25E
  8
1
  6
CONTINUOUS
 62
     1
 10
71.37097871944329
 20
198.6390014163102
 30
0.0
  0
VERTEX
  5
25F
  8
1
  6
CONTINUOUS
 62
     1
 10
71.36670090296752
 20
198.6761057567488
 30
0.0
  0
VERTEX
  5
260
  8
1
  6
CONTINUOUS
 62
     1
 10
71.36238939921235
 20
198.7132072724675
 30
0.0
  0
VERTEX
  5
261
  8
1
  6
CONTINUOUS
 62
     1
 10
71.35804420817774
 20
198.7503059634664
 30
0.0
  0
VERTEX
  5
262
  8
1
  6
CONTINUOUS
 62
     1
 10
71.35366532986373
 20
198.7874018297454
 30
0.0
  0
VERTEX
  5
263
  8
1
  6
CONTINUOUS
 62
     1
 10
71.34925276427029
 20
198.8244948713045
 30
0.0
  0
VERTEX
  5
264
  8
1
  6
CONTINUOUS
 62
     1
 10
71.34480651139745
 20
198.8615850881437
 30
0.0
  0
VERTEX
  5
265
  8
1
  6
CONTINUOUS
 62
     1
 10
71.34032657124519
 20
198.898672480263
 30
0.0
  0
VERTEX
  5
266
  8
1
  6
CONTINUOUS
 62
     1
 10
71.33581294381352
 20
198.9357570476625
 30
0.0
  0
VERTEX
  5
267
  8
1
  6
CONTINUOUS
 62
     1
 10
71.33126562910242
 20
198.9728387903421
 30
0.0
  0
VERTEX
  5
268
  8
1
  6
CONTINUOUS
 62
     1
 10
71.32668462711192
 20
199.0099177083017
 30
0.0
  0
VERTEX
  5
269
  8
1
  6
CONTINUOUS
 62
     1
 10
71.32206993784197
 20
199.0469938015416
 30
0.0
  0
VERTEX
  5
26A
  8
1
  6
CONTINUOUS
 62
     1
 10
71.31742156129265
 20
199.0840670700615
 30
0.0
  0
VERTEX
  5
26B
  8
1
  6
CONTINUOUS
 62
     1
 10
71.3127394974639
 20
199.1211375138616
 30
0.0
  0
VERTEX
  5
26C
  8
1
  6
CONTINUOUS
 62
     1
 10
71.30802374635573
 20
199.1582051329418
 30
0.0
  0
VERTEX
  5
26D
  8
1
  6
CONTINUOUS
 62
     1
 10
71.30327430796812
 20
199.1952699273021
 30
0.0
  0
VERTEX
  5
26E
  8
1
  6
CONTINUOUS
 62
     1
 10
71.29849118230112
 20
199.2323318969425
 30
0.0
  0
VERTEX
  5
26F
  8
1
  6
CONTINUOUS
 62
     1
 10
71.2936743693547
 20
199.269391041863
 30
0.0
  0
VERTEX
  5
270
  8
1
  6
CONTINUOUS
 62
     1
 10
71.28882386912886
 20
199.3064473620637
 30
0.0
  0
VERTEX
  5
271
  8
1
  6
CONTINUOUS
 62
     1
 10
71.2839396816236
 20
199.3435008575445
 30
0.0
  0
VERTEX
  5
272
  8
1
  6
CONTINUOUS
 62
     1
 10
71.27902180683893
 20
199.3805515283054
 30
0.0
  0
VERTEX
  5
273
  8
1
  6
CONTINUOUS
 62
     1
 10
71.27407024477483
 20
199.4175993743464
 30
0.0
  0
VERTEX
  5
274
  8
1
  6
CONTINUOUS
 62
     1
 10
71.26908499543134
 20
199.4546443956675
 30
0.0
  0
VERTEX
  5
275
  8
1
  6
CONTINUOUS
 62
     1
 10
71.26406605880842
 20
199.4916865922688
 30
0.0
  0
VERTEX
  5
276
  8
1
  6
CONTINUOUS
 62
     1
 10
71.25901343490608
 20
199.5287259641502
 30
0.0
  0
VERTEX
  5
277
  8
1
  6
CONTINUOUS
 62
     1
 10
71.25392712372431
 20
199.5657625113117
 30
0.0
  0
VERTEX
  5
278
  8
1
  6
CONTINUOUS
 62
     1
 10
71.24880712526314
 20
199.6027962337533
 30
0.0
  0
VERTEX
  5
279
  8
1
  6
CONTINUOUS
 62
     1
 10
71.24365343952255
 20
199.6398271314751
 30
0.0
  0
VERTEX
  5
27A
  8
1
  6
CONTINUOUS
 62
     1
 10
71.23846606650255
 20
199.676855204477
 30
0.0
  0
VERTEX
  5
27B
  8
1
  6
CONTINUOUS
 62
     1
 10
71.2332458736064
 20
199.7138040599445
 30
0.0
  0
VERTEX
  5
27C
  8
1
  6
CONTINUOUS
 62
     1
 10
71.22799372823737
 20
199.7505973050634
 30
0.0
  0
VERTEX
  5
27D
  8
1
  6
CONTINUOUS
 62
     1
 10
71.22270963039543
 20
199.7872349398335
 30
0.0
  0
VERTEX
  5
27E
  8
1
  6
CONTINUOUS
 62
     1
 10
71.21739358008062
 20
199.8237169642549
 30
0.0
  0
VERTEX
  5
27F
  8
1
  6
CONTINUOUS
 62
     1
 10
71.21204557729294
 20
199.8600433783275
 30
0.0
  0
VERTEX
  5
280
  8
1
  6
CONTINUOUS
 62
     1
 10
71.20666562203238
 20
199.8962141820514
 30
0.0
  0
VERTEX
  5
281
  8
1
  6
CONTINUOUS
 62
     1
 10
71.20125371429891
 20
199.9322293754266
 30
0.0
  0
VERTEX
  5
282
  8
1
  6
CONTINUOUS
 62
     1
 10
71.19580985409257
 20
199.9680889584531
 30
0.0
  0
VERTEX
  5
283
  8
1
  6
CONTINUOUS
 62
     1
 10
71.19033404141335
 20
200.0037929311308
 30
0.0
  0
VERTEX
  5
284
  8
1
  6
CONTINUOUS
 62
     1
 10
71.18482627626125
 20
200.0393412934598
 30
0.0
  0
VERTEX
  5
285
  8
1
  6
CONTINUOUS
 62
     1
 10
71.17928655863625
 20
200.07473404544
 30
0.0
  0
VERTEX
  5
286
  8
1
  6
CONTINUOUS
 62
     1
 10
71.17371488853837
 20
200.1099711870716
 30
0.0
  0
VERTEX
  5
287
  8
1
  6
CONTINUOUS
 62
     1
 10
71.16811126596761
 20
200.1450527183543
 30
0.0
  0
VERTEX
  5
288
  8
1
  6
CONTINUOUS
 62
     1
 10
71.16247569092398
 20
200.1799786392884
 30
0.0
  0
VERTEX
  5
289
  8
1
  6
CONTINUOUS
 62
     1
 10
71.15680816340746
 20
200.2147489498738
 30
0.0
  0
VERTEX
  5
28A
  8
1
  6
CONTINUOUS
 62
     1
 10
71.15110868341804
 20
200.2493636501104
 30
0.0
  0
VERTEX
  5
28B
  8
1
  6
CONTINUOUS
 62
     1
 10
71.14537725095575
 20
200.2838227399982
 30
0.0
  0
VERTEX
  5
28C
  8
1
  6
CONTINUOUS
 62
     1
 10
71.13961386602057
 20
200.3181262195374
 30
0.0
  0
VERTEX
  5
28D
  8
1
  6
CONTINUOUS
 62
     1
 10
71.13381852861251
 20
200.3522740887278
 30
0.0
  0
VERTEX
  5
28E
  8
1
  6
CONTINUOUS
 62
     1
 10
71.12799123873157
 20
200.3862663475695
 30
0.0
  0
VERTEX
  5
28F
  8
1
  6
CONTINUOUS
 62
     1
 10
71.12213199637775
 20
200.4201029960624
 30
0.0
  0
VERTEX
  5
290
  8
1
  6
CONTINUOUS
 62
     1
 10
71.11624080155103
 20
200.4537840342066
 30
0.0
  0
VERTEX
  5
291
  8
1
  6
CONTINUOUS
 62
     1
 10
71.11031765425143
 20
200.4873094620021
 30
0.0
  0
VERTEX
  5
292
  8
1
  6
CONTINUOUS
 62
     1
 10
71.10436255447895
 20
200.5206792794489
 30
0.0
  0
VERTEX
  5
293
  8
1
  6
CONTINUOUS
 62
     1
 10
71.09837550223358
 20
200.5538934865469
 30
0.0
  0
VERTEX
  5
294
  8
1
  6
CONTINUOUS
 62
     1
 10
71.09235649751534
 20
200.5869520832962
 30
0.0
  0
VERTEX
  5
295
  8
1
  6
CONTINUOUS
 62
     1
 10
71.0863055403242
 20
200.6198550696968
 30
0.0
  0
VERTEX
  5
296
  8
1
  6
CONTINUOUS
 62
     1
 10
71.08022263066019
 20
200.6526024457486
 30
0.0
  0
VERTEX
  5
297
  8
1
  6
CONTINUOUS
 62
     1
 10
71.07410776852329
 20
200.6851942114517
 30
0.0
  0
VERTEX
  5
298
  8
1
  6
CONTINUOUS
 62
     1
 10
71.06796095391351
 20
200.7176303668061
 30
0.0
  0
VERTEX
  5
299
  8
1
  6
CONTINUOUS
 62
     1
 10
71.06178218683084
 20
200.7499109118118
 30
0.0
  0
VERTEX
  5
29A
  8
1
  6
CONTINUOUS
 62
     1
 10
71.0555714672753
 20
200.7820358464687
 30
0.0
  0
VERTEX
  5
29B
  8
1
  6
CONTINUOUS
 62
     1
 10
71.04932879524686
 20
200.8140051707769
 30
0.0
  0
VERTEX
  5
29C
  8
1
  6
CONTINUOUS
 62
     1
 10
71.04305417074555
 20
200.8458188847363
 30
0.0
  0
VERTEX
  5
29D
  8
1
  6
CONTINUOUS
 62
     1
 10
71.03674759377135
 20
200.8774769883471
 30
0.0
  0
VERTEX
  5
29E
  8
1
  6
CONTINUOUS
 62
     1
 10
71.03040906432426
 20
200.9089794816091
 30
0.0
  0
VERTEX
  5
29F
  8
1
  6
CONTINUOUS
 62
     1
 10
71.02403858240429
 20
200.9403263645223
 30
0.0
  0
VERTEX
  5
2A0
  8
1
  6
CONTINUOUS
 62
     1
 10
71.01763614801143
 20
200.9715176370869
 30
0.0
  0
VERTEX
  5
2A1
  8
1
  6
CONTINUOUS
 62
     1
 10
71.0112017611457
 20
201.0025532993027
 30
0.0
  0
VERTEX
  5
2A2
  8
1
  6
CONTINUOUS
 62
     1
 10
71.00473542180708
 20
201.0334333511697
 30
0.0
  0
VERTEX
  5
2A3
  8
1
  6
CONTINUOUS
 62
     1
 10
70.99823712999559
 20
201.0641577926881
 30
0.0
  0
VERTEX
  5
2A4
  8
1
  6
CONTINUOUS
 62
     1
 10
70.9917068857112
 20
201.0947266238577
 30
0.0
  0
VERTEX
  5
2A5
  8
1
  6
CONTINUOUS
 62
     1
 10
70.98514468895391
 20
201.1251398446786
 30
0.0
  0
VERTEX
  5
2A6
  8
1
  6
CONTINUOUS
 62
     1
 10
70.97855053972376
 20
201.1553974551507
 30
0.0
  0
VERTEX
  5
2A7
  8
1
  6
CONTINUOUS
 62
     1
 10
70.97192443802072
 20
201.1854994552741
 30
0.0
  0
VERTEX
  5
2A8
  8
1
  6
CONTINUOUS
 62
     1
 10
70.9652663838448
 20
201.2154458450488
 30
0.0
  0
VERTEX
  5
2A9
  8
1
  6
CONTINUOUS
 62
     1
 10
70.958576377196
 20
201.2452366244748
 30
0.0
  0
VERTEX
  5
2AA
  8
1
  6
CONTINUOUS
 62
     1
 10
70.9518544180743
 20
201.274871793552
 30
0.0
  0
VERTEX
  5
2AB
  8
1
  6
CONTINUOUS
 62
     1
 10
70.94510050647973
 20
201.3043513522805
 30
0.0
  0
VERTEX
  5
2AC
  8
1
  6
CONTINUOUS
 62
     1
 10
70.93831464241228
 20
201.3336753006603
 30
0.0
  0
VERTEX
  5
2AD
  8
1
  6
CONTINUOUS
 62
     1
 10
70.93149682587193
 20
201.3628436386913
 30
0.0
  0
VERTEX
  5
2AE
  8
1
  6
CONTINUOUS
 62
     1
 10
70.9246470568587
 20
201.3918563663736
 30
0.0
  0
VERTEX
  5
2AF
  8
1
  6
CONTINUOUS
 62
     1
 10
70.9177653353726
 20
201.4207134837072
 30
0.0
  0
VERTEX
  5
2B0
  8
1
  6
CONTINUOUS
 62
     1
 10
70.91085166141362
 20
201.449414990692
 30
0.0
  0
VERTEX
  5
2B1
  8
1
  6
CONTINUOUS
 62
     1
 10
70.90390603498174
 20
201.4779608873282
 30
0.0
  0
VERTEX
  5
2B2
  8
1
  6
CONTINUOUS
 62
     1
 10
70.89692845607698
 20
201.5063511736155
 30
0.0
  0
VERTEX
  5
2B3
  8
1
  6
CONTINUOUS
 62
     1
 10
70.88991892469933
 20
201.5345858495542
 30
0.0
  0
VERTEX
  5
2B4
  8
1
  6
CONTINUOUS
 62
     1
 10
70.8828774408488
 20
201.5626649151441
 30
0.0
  0
VERTEX
  5
2B5
  8
1
  6
CONTINUOUS
 62
     1
 10
70.87580400452539
 20
201.5905883703853
 30
0.0
  0
VERTEX
  5
2B6
  8
1
  6
CONTINUOUS
 62
     1
 10
70.86869861572909
 20
201.6183562152777
 30
0.0
  0
VERTEX
  5
2B7
  8
1
  6
CONTINUOUS
 62
     1
 10
70.8615612744599
 20
201.6459684498215
 30
0.0
  0
VERTEX
  5
2B8
  8
1
  6
CONTINUOUS
 62
     1
 10
70.85439198071785
 20
201.6734250740165
 30
0.0
  0
VERTEX
  5
2B9
  8
1
  6
CONTINUOUS
 62
     1
 10
70.8471907345029
 20
201.7007260878628
 30
0.0
  0
VERTEX
  5
2BA
  8
1
  6
CONTINUOUS
 62
     1
 10
70.83995753581507
 20
201.7278714913603
 30
0.0
  0
VERTEX
  5
2BB
  8
1
  6
CONTINUOUS
 62
     1
 10
70.83272201711242
 20
201.7548669656172
 30
0.0
  0
VERTEX
  5
2BC
  8
1
  6
CONTINUOUS
 62
     1
 10
70.82551381085298
 20
201.7817181917414
 30
0.0
  0
VERTEX
  5
2BD
  8
1
  6
CONTINUOUS
 62
     1
 10
70.81833291703674
 20
201.808425169733
 30
0.0
  0
VERTEX
  5
2BE
  8
1
  6
CONTINUOUS
 62
     1
 10
70.81117933566374
 20
201.834987899592
 30
0.0
  0
VERTEX
  5
2BF
  8
1
  6
CONTINUOUS
 62
     1
 10
70.80405306673396
 20
201.8614063813183
 30
0.0
  0
VERTEX
  5
2C0
  8
1
  6
CONTINUOUS
 62
     1
 10
70.79695411024738
 20
201.887680614912
 30
0.0
  0
VERTEX
  5
2C1
  8
1
  6
CONTINUOUS
 62
     1
 10
70.78988246620403
 20
201.9138106003731
 30
0.0
  0
VERTEX
  5
2C2
  8
1
  6
CONTINUOUS
 62
     1
 10
70.7828381346039
 20
201.9397963377016
 30
0.0
  0
VERTEX
  5
2C3
  8
1
  6
CONTINUOUS
 62
     1
 10
70.775821115447
 20
201.9656378268974
 30
0.0
  0
VERTEX
  5
2C4
  8
1
  6
CONTINUOUS
 62
     1
 10
70.76883140873332
 20
201.9913350679606
 30
0.0
  0
VERTEX
  5
2C5
  8
1
  6
CONTINUOUS
 62
     1
 10
70.76186901446285
 20
202.0168880608912
 30
0.0
  0
VERTEX
  5
2C6
  8
1
  6
CONTINUOUS
 62
     1
 10
70.75493393263558
 20
202.0422968056892
 30
0.0
  0
VERTEX
  5
2C7
  8
1
  6
CONTINUOUS
 62
     1
 10
70.74802616325154
 20
202.0675613023545
 30
0.0
  0
VERTEX
  5
2C8
  8
1
  6
CONTINUOUS
 62
     1
 10
70.74114570631073
 20
202.0926815508872
 30
0.0
  0
VERTEX
  5
2C9
  8
1
  6
CONTINUOUS
 62
     1
 10
70.73429256181313
 20
202.1176575512873
 30
0.0
  0
VERTEX
  5
2CA
  8
1
  6
CONTINUOUS
 62
     1
 10
70.72746672975876
 20
202.1424893035548
 30
0.0
  0
VERTEX
  5
2CB
  8
1
  6
CONTINUOUS
 62
     1
 10
70.7206682101476
 20
202.1671768076896
 30
0.0
  0
VERTEX
  5
2CC
  8
1
  6
CONTINUOUS
 62
     1
 10
70.71389700297965
 20
202.1917200636918
 30
0.0
  0
VERTEX
  5
2CD
  8
1
  6
CONTINUOUS
 62
     1
 10
70.70715310825493
 20
202.2161190715614
 30
0.0
  0
VERTEX
  5
2CE
  8
1
  6
CONTINUOUS
 62
     1
 10
70.70043652597343
 20
202.2403738312983
 30
0.0
  0
VERTEX
  5
2CF
  8
1
  6
CONTINUOUS
 62
     1
 10
70.69374725613514
 20
202.2644843429026
 30
0.0
  0
VERTEX
  5
2D0
  8
1
  6
CONTINUOUS
 62
     1
 10
70.68708529874009
 20
202.2884506063743
 30
0.0
  0
VERTEX
  5
2D1
  8
1
  6
CONTINUOUS
 62
     1
 10
70.68045065378824
 20
202.3122726217134
 30
0.0
  0
VERTEX
  5
2D2
  8
1
  6
CONTINUOUS
 62
     1
 10
70.67384332127962
 20
202.3359503889198
 30
0.0
  0
VERTEX
  5
2D3
  8
1
  6
CONTINUOUS
 62
     1
 10
70.66726330121422
 20
202.3594839079936
 30
0.0
  0
VERTEX
  5
2D4
  8
1
  6
CONTINUOUS
 62
     1
 10
70.66071059359203
 20
202.3828731789348
 30
0.0
  0
VERTEX
  5
2D5
  8
1
  6
CONTINUOUS
 62
     1
 10
70.65418519841306
 20
202.4061182017433
 30
0.0
  0
VERTEX
  5
2D6
  8
1
  6
CONTINUOUS
 62
     1
 10
70.64768711567731
 20
202.4292189764193
 30
0.0
  0
VERTEX
  5
2D7
  8
1
  6
CONTINUOUS
 62
     1
 10
70.64121634538479
 20
202.4521755029625
 30
0.0
  0
VERTEX
  5
2D8
  8
1
  6
CONTINUOUS
 62
     1
 10
70.63477288753548
 20
202.4749877813732
 30
0.0
  0
VERTEX
  5
2D9
  8
1
  6
CONTINUOUS
 62
     1
 10
70.62835674212937
 20
202.4976558116513
 30
0.0
  0
VERTEX
  5
2DA
  8
1
  6
CONTINUOUS
 62
     1
 10
70.6219679091665
 20
202.5201795937967
 30
0.0
  0
VERTEX
  5
2DB
  8
1
  6
CONTINUOUS
 62
     1
 10
70.61560638864684
 20
202.5425591278095
 30
0.0
  0
VERTEX
  5
2DC
  8
1
  6
CONTINUOUS
 62
     1
 10
70.6092721805704
 20
202.5647944136896
 30
0.0
  0
VERTEX
  5
2DD
  8
1
  6
CONTINUOUS
 62
     1
 10
70.60296528493718
 20
202.5868854514372
 30
0.0
  0
VERTEX
  5
2DE
  8
1
  6
CONTINUOUS
 62
     1
 10
70.59668570174719
 20
202.6088322410521
 30
0.0
  0
VERTEX
  5
2DF
  8
1
  6
CONTINUOUS
 62
     1
 10
70.5904334310004
 20
202.6306347825343
 30
0.0
  0
VERTEX
  5
2E0
  8
1
  6
CONTINUOUS
 62
     1
 10
70.58420847269686
 20
202.652293075884
 30
0.0
  0
VERTEX
  5
2E1
  8
1
  6
CONTINUOUS
 62
     1
 10
70.57801082683652
 20
202.673807121101
 30
0.0
  0
VERTEX
  5
2E2
  8
1
  6
CONTINUOUS
 62
     1
 10
70.5718404934194
 20
202.6951769181854
 30
0.0
  0
VERTEX
  5
2E3
  8
1
  6
CONTINUOUS
 62
     1
 10
70.5656974724455
 20
202.7164024671372
 30
0.0
  0
VERTEX
  5
2E4
  8
1
  6
CONTINUOUS
 62
     1
 10
70.55958176391482
 20
202.7374837679563
 30
0.0
  0
VERTEX
  5
2E5
  8
1
  6
CONTINUOUS
 62
     1
 10
70.55349336782736
 20
202.7584208206429
 30
0.0
  0
VERTEX
  5
2E6
  8
1
  6
CONTINUOUS
 62
     1
 10
70.54743228418312
 20
202.7792136251967
 30
0.0
  0
VERTEX
  5
2E7
  8
1
  6
CONTINUOUS
 62
     1
 10
70.5413985129821
 20
202.799862181618
 30
0.0
  0
VERTEX
  5
2E8
  8
1
  6
CONTINUOUS
 62
     1
 10
70.53539205422429
 20
202.8203664899066
 30
0.0
  0
VERTEX
  5
2E9
  8
1
  6
CONTINUOUS
 62
     1
 10
70.52941290790969
 20
202.8407265500626
 30
0.0
  0
VERTEX
  5
2EA
  8
1
  6
CONTINUOUS
 62
     1
 10
70.52346107403832
 20
202.860942362086
 30
0.0
  0
VERTEX
  5
2EB
  8
1
  6
CONTINUOUS
 62
     1
 10
70.51753655261017
 20
202.8810139259768
 30
0.0
  0
VERTEX
  5
2EC
  8
1
  6
CONTINUOUS
 62
     1
 10
70.51163934362523
 20
202.9009412417349
 30
0.0
  0
VERTEX
  5
2ED
  8
1
  6
CONTINUOUS
 62
     1
 10
70.50576944708352
 20
202.9207243093604
 30
0.0
  0
VERTEX
  5
2EE
  8
1
  6
CONTINUOUS
 62
     1
 10
70.49992686298503
 20
202.9403631288533
 30
0.0
  0
VERTEX
  5
2EF
  8
1
  6
CONTINUOUS
 62
     1
 10
70.49411159132976
 20
202.9598577002135
 30
0.0
  0
VERTEX
  5
2F0
  8
1
  6
CONTINUOUS
 62
     1
 10
70.48832363211771
 20
202.9792080234411
 30
0.0
  0
VERTEX
  5
2F1
  8
1
  6
CONTINUOUS
 62
     1
 10
70.48256298534888
 20
202.9984140985361
 30
0.0
  0
VERTEX
  5
2F2
  8
1
  6
CONTINUOUS
 62
     1
 10
70.47682965102325
 20
203.0174759254985
 30
0.0
  0
VERTEX
  5
2F3
  8
1
  6
CONTINUOUS
 62
     1
 10
70.47112362914085
 20
203.0363935043282
 30
0.0
  0
VERTEX
  5
2F4
  8
1
  6
CONTINUOUS
 62
     1
 10
70.46544491970167
 20
203.0551668350253
 30
0.0
  0
VERTEX
  5
2F5
  8
1
  6
CONTINUOUS
 62
     1
 10
70.45979352270571
 20
203.0737959175898
 30
0.0
  0
VERTEX
  5
2F6
  8
1
  6
CONTINUOUS
 62
     1
 10
70.45416943815297
 20
203.0922807520217
 30
0.0
  0
VERTEX
  5
2F7
  8
1
  6
CONTINUOUS
 62
     1
 10
70.44857266604346
 20
203.1106213383209
 30
0.0
  0
VERTEX
  5
2F8
  8
1
  6
CONTINUOUS
 62
     1
 10
70.44300320637716
 20
203.1288176764875
 30
0.0
  0
VERTEX
  5
2F9
  8
1
  6
CONTINUOUS
 62
     1
 10
70.43746105915406
 20
203.1468697665214
 30
0.0
  0
VERTEX
  5
2FA
  8
1
  6
CONTINUOUS
 62
     1
 10
70.4319462243742
 20
203.1647776084228
 30
0.0
  0
VERTEX
  5
2FB
  8
1
  6
CONTINUOUS
 62
     1
 10
70.4319462243742
 20
203.1647776084228
 30
0.0
  0
SEQEND
  5
2FC
  8
1
  6
CONTINUOUS
 62
     1
  0
POLYLINE
  5
2FD
  8
1
  6
CONTINUOUS
 62
     1
 66
     1
 10
0.0
 20
0.0
 30
0.0
 70
   128
  0
VERTEX
  5
2FE
  8
1
  6
CONTINUOUS
 62
     1
 10
35.75765408293861
 20
184.1676714309448
 30
0.0
  0
VERTEX
  5
2FF
  8
1
  6
CONTINUOUS
 62
     1
 10
35.75717330260723
 20
184.2051434769152
 30
0.0
  0
VERTEX
  5
300
  8
1
  6
CONTINUOUS
 62
     1
 10
35.75669007462037
 20
184.2429071260556
 30
0.0
  0
VERTEX
  5
301
  8
1
  6
CONTINUOUS
 62
     1
 10
35.75620439897801
 20
184.2809623783661
 30
0.0
  0
VERTEX
  5
302
  8
1
  6
CONTINUOUS
 62
     1
 10
35.75571627568016
 20
184.3193092338465
 30
0.0
  0
VERTEX
  5
303
  8
1
  6
CONTINUOUS
 62
     1
 10
35.75522570472681
 20
184.357947692497
 30
0.0
  0
VERTEX
  5
304
  8
1
  6
CONTINUOUS
 62
     1
 10
35.75473268611799
 20
184.3968777543174
 30
0.0
  0
VERTEX
  5
305
  8
1
  6
CONTINUOUS
 62
     1
 10
35.75423721985368
 20
184.4360994193078
 30
0.0
  0
VERTEX
  5
306
  8
1
  6
CONTINUOUS
 62
     1
 10
35.75373930593386
 20
184.4756126874683
 30
0.0
  0
VERTEX
  5
307
  8
1
  6
CONTINUOUS
 62
     1
 10
35.75323894435856
 20
184.5154175587987
 30
0.0
  0
VERTEX
  5
308
  8
1
  6
CONTINUOUS
 62
     1
 10
35.75273613512776
 20
184.5555140332992
 30
0.0
  0
VERTEX
  5
309
  8
1
  6
CONTINUOUS
 62
     1
 10
35.75223087824148
 20
184.5959021109696
 30
0.0
  0
VERTEX
  5
30A
  8
1
  6
CONTINUOUS
 62
     1
 10
35.7517231736997
 20
184.63658179181
 30
0.0
  0
VERTEX
  5
30B
  8
1
  6
CONTINUOUS
 62
     1
 10
35.75121302150242
 20
184.6775530758205
 30
0.0
  0
VERTEX
  5
30C
  8
1
  6
CONTINUOUS
 62
     1
 10
35.75070042164967
 20
184.718815963001
 30
0.0
  0
VERTEX
  5
30D
  8
1
  6
CONTINUOUS
 62
     1
 10
35.75018537414141
 20
184.7603704533514
 30
0.0
  0
VERTEX
  5
30E
  8
1
  6
CONTINUOUS
 62
     1
 10
35.74966787897766
 20
184.8022165468718
 30
0.0
  0
VERTEX
  5
30F
  8
1
  6
CONTINUOUS
 62
     1
 10
35.74914793615841
 20
184.8443542435623
 30
0.0
  0
VERTEX
  5
310
  8
1
  6
CONTINUOUS
 62
     1
 10
35.74862554568369
 20
184.8867835434228
 30
0.0
  0
VERTEX
  5
311
  8
1
  6
CONTINUOUS
 62
     1
 10
35.74810070755348
 20
184.9295044464532
 30
0.0
  0
VERTEX
  5
312
  8
1
  6
CONTINUOUS
 62
     1
 10
35.74757342176778
 20
184.9725169526537
 30
0.0
  0
VERTEX
  5
313
  8
1
  6
CONTINUOUS
 62
     1
 10
35.74704368832658
 20
185.0158210620241
 30
0.0
  0
VERTEX
  5
314
  8
1
  6
CONTINUOUS
 62
     1
 10
35.7465115072299
 20
185.0594167745646
 30
0.0
  0
VERTEX
  5
315
  8
1
  6
CONTINUOUS
 62
     1
 10
35.74597687847772
 20
185.103304090275
 30
0.0
  0
VERTEX
  5
316
  8
1
  6
CONTINUOUS
 62
     1
 10
35.74543980207005
 20
185.1474830091555
 30
0.0
  0
VERTEX
  5
317
  8
1
  6
CONTINUOUS
 62
     1
 10
35.7449002780069
 20
185.191953531206
 30
0.0
  0
VERTEX
  5
318
  8
1
  6
CONTINUOUS
 62
     1
 10
35.74435830628823
 20
185.2367156564264
 30
0.0
  0
VERTEX
  5
319
  8
1
  6
CONTINUOUS
 62
     1
 10
35.74381388691408
 20
185.2817693848169
 30
0.0
  0
VERTEX
  5
31A
  8
1
  6
CONTINUOUS
 62
     1
 10
35.74326701988446
 20
185.3271147163773
 30
0.0
  0
VERTEX
  5
31B
  8
1
  6
CONTINUOUS
 62
     1
 10
35.74271770519934
 20
185.3727516511078
 30
0.0
  0
VERTEX
  5
31C
  8
1
  6
CONTINUOUS
 62
     1
 10
35.74216594285872
 20
185.4186801890083
 30
0.0
  0
VERTEX
  5
31D
  8
1
  6
CONTINUOUS
 62
     1
 10
35.74161173286261
 20
185.4649003300787
 30
0.0
  0
VERTEX
  5
31E
  8
1
  6
CONTINUOUS
 62
     1
 10
35.74105507521102
 20
185.5114120743192
 30
0.0
  0
VERTEX
  5
31F
  8
1
  6
CONTINUOUS
 62
     1
 10
35.74049596990395
 20
185.5582154217297
 30
0.0
  0
VERTEX
  5
320
  8
1
  6
CONTINUOUS
 62
     1
 10
35.73993441694137
 20
185.6053103723102
 30
0.0
  0
VERTEX
  5
321
  8
1
  6
CONTINUOUS
 62
     1
 10
35.7393704163233
 20
185.6526969260606
 30
0.0
  0
VERTEX
  5
322
  8
1
  6
CONTINUOUS
 62
     1
 10
35.73880396804974
 20
185.7003750829811
 30
0.0
  0
VERTEX
  5
323
  8
1
  6
CONTINUOUS
 62
     1
 10
35.73823507212069
 20
185.7483448430715
 30
0.0
  0
VERTEX
  5
324
  8
1
  6
CONTINUOUS
 62
     1
 10
35.73766372853615
 20
185.796606206332
 30
0.0
  0
VERTEX
  5
325
  8
1
  6
CONTINUOUS
 62
     1
 10
35.7370899372961
 20
185.8451591727625
 30
0.0
  0
VERTEX
  5
326
  8
1
  6
CONTINUOUS
 62
     1
 10
35.73651369840059
 20
185.894003742363
 30
0.0
  0
VERTEX
  5
327
  8
1
  6
CONTINUOUS
 62
     1
 10
35.73593501184956
 20
185.9431399151335
 30
0.0
  0
VERTEX
  5
328
  8
1
  6
CONTINUOUS
 62
     1
 10
35.73535387764306
 20
185.9925676910739
 30
0.0
  0
VERTEX
  5
329
  8
1
  6
CONTINUOUS
 62
     1
 10
35.73477029578106
 20
186.0422870701844
 30
0.0
  0
VERTEX
  5
32A
  8
1
  6
CONTINUOUS
 62
     1
 10
35.73418426626357
 20
186.0922980524649
 30
0.0
  0
VERTEX
  5
32B
  8
1
  6
CONTINUOUS
 62
     1
 10
35.73359578909059
 20
186.1426006379154
 30
0.0
  0
VERTEX
  5
32C
  8
1
  6
CONTINUOUS
 62
     1
 10
35.73300486426211
 20
186.1931948265359
 30
0.0
  0
VERTEX
  5
32D
  8
1
  6
CONTINUOUS
 62
     1
 10
35.73241149177815
 20
186.2440806183264
 30
0.0
  0
VERTEX
  5
32E
  8
1
  6
CONTINUOUS
 62
     1
 10
35.7318156716387
 20
186.2952580132869
 30
0.0
  0
VERTEX
  5
32F
  8
1
  6
CONTINUOUS
 62
     1
 10
35.73121740384376
 20
186.3467270114173
 30
0.0
  0
VERTEX
  5
330
  8
1
  6
CONTINUOUS
 62
     1
 10
35.73061668839333
 20
186.3984876127178
 30
0.0
  0
VERTEX
  5
331
  8
1
  6
CONTINUOUS
 62
     1
 10
35.7300135252874
 20
186.4505398171883
 30
0.0
  0
VERTEX
  5
332
  8
1
  6
CONTINUOUS
 62
     1
 10
35.72940791452598
 20
186.5028836248288
 30
0.0
  0
VERTEX
  5
333
  8
1
  6
CONTINUOUS
 62
     1
 10
35.72879985610906
 20
186.5555190356393
 30
0.0
  0
VERTEX
  5
334
  8
1
  6
CONTINUOUS
 62
     1
 10
35.72818935003667
 20
186.6084460496198
 30
0.0
  0
VERTEX
  5
335
  8
1
  6
CONTINUOUS
 62
     1
 10
35.72757639630879
 20
186.6616646667703
 30
0.0
  0
VERTEX
  5
336
  8
1
  6
CONTINUOUS
 62
     1
 10
35.72696099492541
 20
186.7151748870908
 30
0.0
  0
VERTEX
  5
337
  8
1
  6
CONTINUOUS
 62
     1
 10
35.72634314588653
 20
186.7689767105813
 30
0.0
  0
VERTEX
  5
338
  8
1
  6
CONTINUOUS
 62
     1
 10
35.72572284919218
 20
186.8230701372418
 30
0.0
  0
VERTEX
  5
339
  8
1
  6
CONTINUOUS
 62
     1
 10
35.72510010484231
 20
186.8774551670722
 30
0.0
  0
VERTEX
  5
33A
  8
1
  6
CONTINUOUS
 62
     1
 10
35.72447491283698
 20
186.9321318000727
 30
0.0
  0
VERTEX
  5
33B
  8
1
  6
CONTINUOUS
 62
     1
 10
35.72384727317615
 20
186.9871000362432
 30
0.0
  0
VERTEX
  5
33C
  8
1
  6
CONTINUOUS
 62
     1
 10
35.72321718585982
 20
187.0423598755838
 30
0.0
  0
VERTEX
  5
33D
  8
1
  6
CONTINUOUS
 62
     1
 10
35.722584650888
 20
187.0979113180942
 30
0.0
  0
VERTEX
  5
33E
  8
1
  6
CONTINUOUS
 62
     1
 10
35.72194966826069
 20
187.1537543637748
 30
0.0
  0
VERTEX
  5
33F
  8
1
  6
CONTINUOUS
 62
     1
 10
35.72132564428685
 20
187.2098163153474
 30
0.0
  0
VERTEX
  5
340
  8
1
  6
CONTINUOUS
 62
     1
 10
35.72072598527541
 20
187.2660244755343
 30
0.0
  0
VERTEX
  5
341
  8
1
  6
CONTINUOUS
 62
     1
 10
35.72015069122639
 20
187.3223788443356
 30
0.0
  0
VERTEX
  5
342
  8
1
  6
CONTINUOUS
 62
     1
 10
35.71959976213979
 20
187.378879421751
 30
0.0
  0
VERTEX
  5
343
  8
1
  6
CONTINUOUS
 62
     1
 10
35.71907319801562
 20
187.4355262077808
 30
0.0
  0
VERTEX
  5
344
  8
1
  6
CONTINUOUS
 62
     1
 10
35.71857099885383
 20
187.4923192024249
 30
0.0
  0
VERTEX
  5
345
  8
1
  6
CONTINUOUS
 62
     1
 10
35.71809316465449
 20
187.5492584056832
 30
0.0
  0
VERTEX
  5
346
  8
1
  6
CONTINUOUS
 62
     1
 10
35.71763969541755
 20
187.6063438175559
 30
0.0
  0
VERTEX
  5
347
  8
1
  6
CONTINUOUS
 62
     1
 10
35.71721059114302
 20
187.6635754380428
 30
0.0
  0
VERTEX
  5
348
  8
1
  6
CONTINUOUS
 62
     1
 10
35.7168058518309
 20
187.7209532671439
 30
0.0
  0
VERTEX
  5
349
  8
1
  6
CONTINUOUS
 62
     1
 10
35.7164254774812
 20
187.7784773048594
 30
0.0
  0
VERTEX
  5
34A
  8
1
  6
CONTINUOUS
 62
     1
 10
35.71606946809391
 20
187.8361475511892
 30
0.0
  0
VERTEX
  5
34B
  8
1
  6
CONTINUOUS
 62
     1
 10
35.71573782366903
 20
187.8939640061332
 30
0.0
  0
VERTEX
  5
34C
  8
1
  6
CONTINUOUS
 62
     1
 10
35.71543054420658
 20
187.9519266696915
 30
0.0
  0
VERTEX
  5
34D
  8
1
  6
CONTINUOUS
 62
     1
 10
35.71514762970655
 20
188.0100355418641
 30
0.0
  0
VERTEX
  5
34E
  8
1
  6
CONTINUOUS
 62
     1
 10
35.71488908016893
 20
188.068290622651
 30
0.0
  0
VERTEX
  5
34F
  8
1
  6
CONTINUOUS
 62
     1
 10
35.71465489559372
 20
188.1266919120522
 30
0.0
  0
VERTEX
  5
350
  8
1
  6
CONTINUOUS
 62
     1
 10
35.71444507598093
 20
188.1852394100676
 30
0.0
  0
VERTEX
  5
351
  8
1
  6
CONTINUOUS
 62
     1
 10
35.71425962133056
 20
188.2439331166973
 30
0.0
  0
VERTEX
  5
352
  8
1
  6
CONTINUOUS
 62
     1
 10
35.71409853164258
 20
188.3027730319414
 30
0.0
  0
VERTEX
  5
353
  8
1
  6
CONTINUOUS
 62
     1
 10
35.71396180691704
 20
188.3617591557997
 30
0.0
  0
VERTEX
  5
354
  8
1
  6
CONTINUOUS
 62
     1
 10
35.71384944715389
 20
188.4208914882722
 30
0.0
  0
VERTEX
  5
355
  8
1
  6
CONTINUOUS
 62
     1
 10
35.71376145235317
 20
188.4801700293591
 30
0.0
  0
VERTEX
  5
356
  8
1
  6
CONTINUOUS
 62
     1
 10
35.71369782251486
 20
188.5395947790603
 30
0.0
  0
VERTEX
  5
357
  8
1
  6
CONTINUOUS
 62
     1
 10
35.71365855763898
 20
188.5991657373757
 30
0.0
  0
VERTEX
  5
358
  8
1
  6
CONTINUOUS
 62
     1
 10
35.71364365772548
 20
188.6588829043054
 30
0.0
  0
VERTEX
  5
359
  8
1
  6
CONTINUOUS
 62
     1
 10
35.71365312277442
 20
188.7187462798494
 30
0.0
  0
VERTEX
  5
35A
  8
1
  6
CONTINUOUS
 62
     1
 10
35.71368695278576
 20
188.7787558640077
 30
0.0
  0
VERTEX
  5
35B
  8
1
  6
CONTINUOUS
 62
     1
 10
35.71374514775954
 20
188.8389116567802
 30
0.0
  0
VERTEX
  5
35C
  8
1
  6
CONTINUOUS
 62
     1
 10
35.71382770769571
 20
188.8992136581671
 30
0.0
  0
VERTEX
  5
35D
  8
1
  6
CONTINUOUS
 62
     1
 10
35.71393463259432
 20
188.9596618681682
 30
0.0
  0
VERTEX
  5
35E
  8
1
  6
CONTINUOUS
 62
     1
 10
35.71406592245532
 20
189.0202562867836
 30
0.0
  0
VERTEX
  5
35F
  8
1
  6
CONTINUOUS
 62
     1
 10
35.71422157727875
 20
189.0809969140133
 30
0.0
  0
VERTEX
  5
360
  8
1
  6
CONTINUOUS
 62
     1
 10
35.71440159706458
 20
189.1418837498573
 30
0.0
  0
VERTEX
  5
361
  8
1
  6
CONTINUOUS
 62
     1
 10
35.71460598181284
 20
189.2029167943155
 30
0.0
  0
VERTEX
  5
362
  8
1
  6
CONTINUOUS
 62
     1
 10
35.71483473152351
 20
189.2640960473881
 30
0.0
  0
VERTEX
  5
363
  8
1
  6
CONTINUOUS
 62
     1
 10
35.7150878461966
 20
189.3254215090749
 30
0.0
  0
VERTEX
  5
364
  8
1
  6
CONTINUOUS
 62
     1
 10
35.7153653258321
 20
189.386893179376
 30
0.0
  0
VERTEX
  5
365
  8
1
  6
CONTINUOUS
 62
     1
 10
35.71566717043001
 20
189.4485110582914
 30
0.0
  0
VERTEX
  5
366
  8
1
  6
CONTINUOUS
 62
     1
 10
35.71599337999034
 20
189.5102751458211
 30
0.0
  0
VERTEX
  5
367
  8
1
  6
CONTINUOUS
 62
     1
 10
35.71634395451308
 20
189.572185441965
 30
0.0
  0
VERTEX
  5
368
  8
1
  6
CONTINUOUS
 62
     1
 10
35.71671889399823
 20
189.6342419467233
 30
0.0
  0
VERTEX
  5
369
  8
1
  6
CONTINUOUS
 62
     1
 10
35.7171181984458
 20
189.6964446600958
 30
0.0
  0
VERTEX
  5
36A
  8
1
  6
CONTINUOUS
 62
     1
 10
35.7175418678558
 20
189.7587935820826
 30
0.0
  0
VERTEX
  5
36B
  8
1
  6
CONTINUOUS
 62
     1
 10
35.71798990222821
 20
189.8212887126837
 30
0.0
  0
VERTEX
  5
36C
  8
1
  6
CONTINUOUS
 62
     1
 10
35.71846230156302
 20
189.883930051899
 30
0.0
  0
VERTEX
  5
36D
  8
1
  6
CONTINUOUS
 62
     1
 10
35.71895906586025
 20
189.9467175997287
 30
0.0
  0
VERTEX
  5
36E
  8
1
  6
CONTINUOUS
 62
     1
 10
35.7194801951199
 20
190.0096513561726
 30
0.0
  0
VERTEX
  5
36F
  8
1
  6
CONTINUOUS
 62
     1
 10
35.72002568934197
 20
190.0727313212308
 30
0.0
  0
VERTEX
  5
370
  8
1
  6
CONTINUOUS
 62
     1
 10
35.72059554852643
 20
190.1359574949033
 30
0.0
  0
VERTEX
  5
371
  8
1
  6
CONTINUOUS
 62
     1
 10
35.72118977267331
 20
190.1993298771901
 30
0.0
  0
VERTEX
  5
372
  8
1
  6
CONTINUOUS
 62
     1
 10
35.72180836178262
 20
190.2628484680912
 30
0.0
  0
VERTEX
  5
373
  8
1
  6
CONTINUOUS
 62
     1
 10
35.72245131585434
 20
190.3265132676065
 30
0.0
  0
VERTEX
  5
374
  8
1
  6
CONTINUOUS
 62
     1
 10
35.72311863488848
 20
190.3903242757362
 30
0.0
  0
VERTEX
  5
375
  8
1
  6
CONTINUOUS
 62
     1
 10
35.72381031888503
 20
190.4542814924801
 30
0.0
  0
VERTEX
  5
376
  8
1
  6
CONTINUOUS
 62
     1
 10
35.72452636784399
 20
190.5183849178383
 30
0.0
  0
VERTEX
  5
377
  8
1
  6
CONTINUOUS
 62
     1
 10
35.72526678176537
 20
190.5826345518107
 30
0.0
  0
VERTEX
  5
378
  8
1
  6
CONTINUOUS
 62
     1
 10
35.72603156064916
 20
190.6470303943975
 30
0.0
  0
VERTEX
  5
379
  8
1
  6
CONTINUOUS
 62
     1
 10
35.72682070449537
 20
190.7115724455986
 30
0.0
  0
VERTEX
  5
37A
  8
1
  6
CONTINUOUS
 62
     1
 10
35.72763421330399
 20
190.7762607054139
 30
0.0
  0
VERTEX
  5
37B
  8
1
  6
CONTINUOUS
 62
     1
 10
35.72847208707503
 20
190.8410951738435
 30
0.0
  0
VERTEX
  5
37C
  8
1
  6
CONTINUOUS
 62
     1
 10
35.72933432580848
 20
190.9060758508874
 30
0.0
  0
VERTEX
  5
37D
  8
1
  6
CONTINUOUS
 62
     1
 10
35.73022092950436
 20
190.9712027365455
 30
0.0
  0
VERTEX
  5
37E
  8
1
  6
CONTINUOUS
 62
     1
 10
35.73113189816263
 20
191.036475830818
 30
0.0
  0
VERTEX
  5
37F
  8
1
  6
CONTINUOUS
 62
     1
 10
35.73206670286523
 20
191.1016756689039
 30
0.0
  0
VERTEX
  5
380
  8
1
  6
CONTINUOUS
 62
     1
 10
35.73302481469403
 20
191.1665827860025
 30
0.0
  0
VERTEX
  5
381
  8
1
  6
CONTINUOUS
 62
     1
 10
35.73400623364905
 20
191.2311971821137
 30
0.0
  0
VERTEX
  5
382
  8
1
  6
CONTINUOUS
 62
     1
 10
35.73501095973029
 20
191.2955188572375
 30
0.0
  0
VERTEX
  5
383
  8
1
  6
CONTINUOUS
 62
     1
 10
35.73603899293774
 20
191.3595478113739
 30
0.0
  0
VERTEX
  5
384
  8
1
  6
CONTINUOUS
 62
     1
 10
35.7370903332714
 20
191.4232840445231
 30
0.0
  0
VERTEX
  5
385
  8
1
  6
CONTINUOUS
 62
     1
 10
35.73816498073127
 20
191.4867275566848
 30
0.0
  0
VERTEX
  5
386
  8
1
  6
CONTINUOUS
 62
     1
 10
35.73926293531736
 20
191.5498783478592
 30
0.0
  0
VERTEX
  5
387
  8
1
  6
CONTINUOUS
 62
     1
 10
35.74038419702966
 20
191.6127364180462
 30
0.0
  0
VERTEX
  5
388
  8
1
  6
CONTINUOUS
 62
     1
 10
35.74152876586817
 20
191.6753017672458
 30
0.0
  0
VERTEX
  5
389
  8
1
  6
CONTINUOUS
 62
     1
 10
35.74269664183289
 20
191.7375743954581
 30
0.0
  0
VERTEX
  5
38A
  8
1
  6
CONTINUOUS
 62
     1
 10
35.74388782492385
 20
191.799554302683
 30
0.0
  0
VERTEX
  5
38B
  8
1
  6
CONTINUOUS
 62
     1
 10
35.74510231514101
 20
191.8612414889206
 30
0.0
  0
VERTEX
  5
38C
  8
1
  6
CONTINUOUS
 62
     1
 10
35.74634011248438
 20
191.9226359541708
 30
0.0
  0
VERTEX
  5
38D
  8
1
  6
CONTINUOUS
 62
     1
 10
35.74760121695395
 20
191.9837376984336
 30
0.0
  0
VERTEX
  5
38E
  8
1
  6
CONTINUOUS
 62
     1
 10
35.74888562854974
 20
192.0445467217091
 30
0.0
  0
VERTEX
  5
38F
  8
1
  6
CONTINUOUS
 62
     1
 10
35.75019334727175
 20
192.1050630239972
 30
0.0
  0
VERTEX
  5
390
  8
1
  6
CONTINUOUS
 62
     1
 10
35.75152437311996
 20
192.165286605298
 30
0.0
  0
VERTEX
  5
391
  8
1
  6
CONTINUOUS
 62
     1
 10
35.75287870609439
 20
192.2252174656114
 30
0.0
  0
VERTEX
  5
392
  8
1
  6
CONTINUOUS
 62
     1
 10
35.75425634619505
 20
192.2848556049374
 30
0.0
  0
VERTEX
  5
393
  8
1
  6
CONTINUOUS
 62
     1
 10
35.75565729342192
 20
192.344201023276
 30
0.0
  0
VERTEX
  5
394
  8
1
  6
CONTINUOUS
 62
     1
 10
35.75708154777499
 20
192.4032537206273
 30
0.0
  0
VERTEX
  5
395
  8
1
  6
CONTINUOUS
 62
     1
 10
35.75852910925427
 20
192.4620136969912
 30
0.0
  0
VERTEX
  5
396
  8
1
  6
CONTINUOUS
 62
     1
 10
35.75999997785976
 20
192.5204809523678
 30
0.0
  0
VERTEX
  5
397
  8
1
  6
CONTINUOUS
 62
     1
 10
35.76149415359147
 20
192.578655486757
 30
0.0
  0
VERTEX
  5
398
  8
1
  6
CONTINUOUS
 62
     1
 10
35.76301163644941
 20
192.6365373001589
 30
0.0
  0
VERTEX
  5
399
  8
1
  6
CONTINUOUS
 62
     1
 10
35.76455242643355
 20
192.6941263925734
 30
0.0
  0
VERTEX
  5
39A
  8
1
  6
CONTINUOUS
 62
     1
 10
35.7661165235439
 20
192.7514227640005
 30
0.0
  0
VERTEX
  5
39B
  8
1
  6
CONTINUOUS
 62
     1
 10
35.76770392778047
 20
192.8084264144402
 30
0.0
  0
VERTEX
  5
39C
  8
1
  6
CONTINUOUS
 62
     1
 10
35.76931463914326
 20
192.8651373438926
 30
0.0
  0
VERTEX
  5
39D
  8
1
  6
CONTINUOUS
 62
     1
 10
35.77094865763225
 20
192.9215555523576
 30
0.0
  0
VERTEX
  5
39E
  8
1
  6
CONTINUOUS
 62
     1
 10
35.77260598324746
 20
192.9776810398353
 30
0.0
  0
VERTEX
  5
39F
  8
1
  6
CONTINUOUS
 62
     1
 10
35.77428661598888
 20
193.0335138063256
 30
0.0
  0
VERTEX
  5
3A0
  8
1
  6
CONTINUOUS
 62
     1
 10
35.77599055585651
 20
193.0890538518285
 30
0.0
  0
VERTEX
  5
3A1
  8
1
  6
CONTINUOUS
 62
     1
 10
35.77771780285036
 20
193.1443011763441
 30
0.0
  0
VERTEX
  5
3A2
  8
1
  6
CONTINUOUS
 62
     1
 10
35.77946835697043
 20
193.1992557798723
 30
0.0
  0
VERTEX
  5
3A3
  8
1
  6
CONTINUOUS
 62
     1
 10
35.78124221821669
 20
193.2539176624132
 30
0.0
  0
VERTEX
  5
3A4
  8
1
  6
CONTINUOUS
 62
     1
 10
35.78303938658918
 20
193.3082868239667
 30
0.0
  0
VERTEX
  5
3A5
  8
1
  6
CONTINUOUS
 62
     1
 10
35.78485986208788
 20
193.3623632645328
 30
0.0
  0
VERTEX
  5
3A6
  8
1
  6
CONTINUOUS
 62
     1
 10
35.78670364471279
 20
193.4161469841115
 30
0.0
  0
VERTEX
  5
3A7
  8
1
  6
CONTINUOUS
 62
     1
 10
35.78857073446392
 20
193.4696379827029
 30
0.0
  0
VERTEX
  5
3A8
  8
1
  6
CONTINUOUS
 62
     1
 10
35.79046113134126
 20
193.522836260307
 30
0.0
  0
VERTEX
  5
3A9
  8
1
  6
CONTINUOUS
 62
     1
 10
35.7923748353448
 20
193.5757418169237
 30
0.0
  0
VERTEX
  5
3AA
  8
1
  6
CONTINUOUS
 62
     1
 10
35.79431184647457
 20
193.628354652553
 30
0.0
  0
VERTEX
  5
3AB
  8
1
  6
CONTINUOUS
 62
     1
 10
35.79627216473055
 20
193.6806747671949
 30
0.0
  0
VERTEX
  5
3AC
  8
1
  6
CONTINUOUS
 62
     1
 10
35.79825579011273
 20
193.7327021608495
 30
0.0
  0
VERTEX
  5
3AD
  8
1
  6
CONTINUOUS
 62
     1
 10
35.80026272262114
 20
193.7844368335167
 30
0.0
  0
VERTEX
  5
3AE
  8
1
  6
CONTINUOUS
 62
     1
 10
35.80229296225576
 20
193.8358787851966
 30
0.0
  0
VERTEX
  5
3AF
  8
1
  6
CONTINUOUS
 62
     1
 10
35.8043465090166
 20
193.8870280158891
 30
0.0
  0
VERTEX
  5
3B0
  8
1
  6
CONTINUOUS
 62
     1
 10
35.80642336290364
 20
193.9378845255942
 30
0.0
  0
VERTEX
  5
3B1
  8
1
  6
CONTINUOUS
 62
     1
 10
35.8085235239169
 20
193.988448314312
 30
0.0
  0
VERTEX
  5
3B2
  8
1
  6
CONTINUOUS
 62
     1
 10
35.81064699205638
 20
194.0387193820424
 30
0.0
  0
VERTEX
  5
3B3
  8
1
  6
CONTINUOUS
 62
     1
 10
35.81279376732206
 20
194.0886977287854
 30
0.0
  0
VERTEX
  5
3B4
  8
1
  6
CONTINUOUS
 62
     1
 10
35.81496384971396
 20
194.1383833545411
 30
0.0
  0
VERTEX
  5
3B5
  8
1
  6
CONTINUOUS
 62
     1
 10
35.81715723923207
 20
194.1877762593094
 30
0.0
  0
VERTEX
  5
3B6
  8
1
  6
CONTINUOUS
 62
     1
 10
35.8193739358764
 20
194.2368764430904
 30
0.0
  0
VERTEX
  5
3B7
  8
1
  6
CONTINUOUS
 62
     1
 10
35.82161393964694
 20
194.285683905884
 30
0.0
  0
VERTEX
  5
3B8
  8
1
  6
CONTINUOUS
 62
     1
 10
35.82387725054369
 20
194.3341986476902
 30
0.0
  0
VERTEX
  5
3B9
  8
1
  6
CONTINUOUS
 62
     1
 10
35.82616386856665
 20
194.382420668509
 30
0.0
  0
VERTEX
  5
3BA
  8
1
  6
CONTINUOUS
 62
     1
 10
35.82847379371583
 20
194.4303499683406
 30
0.0
  0
VERTEX
  5
3BB
  8
1
  6
CONTINUOUS
 62
     1
 10
35.83080702599122
 20
194.4779865471847
 30
0.0
  0
VERTEX
  5
3BC
  8
1
  6
CONTINUOUS
 62
     1
 10
35.83316356539282
 20
194.5253304050415
 30
0.0
  0
VERTEX
  5
3BD
  8
1
  6
CONTINUOUS
 62
     1
 10
35.83554341192064
 20
194.5723815419109
 30
0.0
  0
VERTEX
  5
3BE
  8
1
  6
CONTINUOUS
 62
     1
 10
35.83794656557467
 20
194.6191399577929
 30
0.0
  0
VERTEX
  5
3BF
  8
1
  6
CONTINUOUS
 62
     1
 10
35.84036632141337
 20
194.6656785396448
 30
0.0
  0
VERTEX
  5
3C0
  8
1
  6
CONTINUOUS
 62
     1
 10
35.8427959744952
 20
194.7120701744236
 30
0.0
  0
VERTEX
  5
3C1
  8
1
  6
CONTINUOUS
 62
     1
 10
35.84523552482015
 20
194.7583148621294
 30
0.0
  0
VERTEX
  5
3C2
  8
1
  6
CONTINUOUS
 62
     1
 10
35.84768497238824
 20
194.8044126027621
 30
0.0
  0
VERTEX
  5
3C3
  8
1
  6
CONTINUOUS
 62
     1
 10
35.85014431719945
 20
194.8503633963218
 30
0.0
  0
VERTEX
  5
3C4
  8
1
  6
CONTINUOUS
 62
     1
 10
35.8526135592538
 20
194.8961672428085
 30
0.0
  0
VERTEX
  5
3C5
  8
1
  6
CONTINUOUS
 62
     1
 10
35.85509269855127
 20
194.9418241422222
 30
0.0
  0
VERTEX
  5
3C6
  8
1
  6
CONTINUOUS
 62
     1
 10
35.85758173509187
 20
194.9873340945628
 30
0.0
  0
VERTEX
  5
3C7
  8
1
  6
CONTINUOUS
 62
     1
 10
35.8600806688756
 20
195.0326970998304
 30
0.0
  0
VERTEX
  5
3C8
  8
1
  6
CONTINUOUS
 62
     1
 10
35.86258949990246
 20
195.0779131580249
 30
0.0
  0
VERTEX
  5
3C9
  8
1
  6
CONTINUOUS
 62
     1
 10
35.86510822817243
 20
195.1229822691464
 30
0.0
  0
VERTEX
  5
3CA
  8
1
  6
CONTINUOUS
 62
     1
 10
35.86763685368555
 20
195.1679044331949
 30
0.0
  0
VERTEX
  5
3CB
  8
1
  6
CONTINUOUS
 62
     1
 10
35.87017537644179
 20
195.2126796501703
 30
0.0
  0
VERTEX
  5
3CC
  8
1
  6
CONTINUOUS
 62
     1
 10
35.87272379644116
 20
195.2573079200727
 30
0.0
  0
VERTEX
  5
3CD
  8
1
  6
CONTINUOUS
 62
     1
 10
35.87528211368367
 20
195.3017892429021
 30
0.0
  0
VERTEX
  5
3CE
  8
1
  6
CONTINUOUS
 62
     1
 10
35.8778503281693
 20
195.3461236186584
 30
0.0
  0
VERTEX
  5
3CF
  8
1
  6
CONTINUOUS
 62
     1
 10
35.88042843989805
 20
195.3903110473417
 30
0.0
  0
VERTEX
  5
3D0
  8
1
  6
CONTINUOUS
 62
     1
 10
35.88301644886995
 20
195.434351528952
 30
0.0
  0
VERTEX
  5
3D1
  8
1
  6
CONTINUOUS
 62
     1
 10
35.88561435508497
 20
195.4782450634892
 30
0.0
  0
VERTEX
  5
3D2
  8
1
  6
CONTINUOUS
 62
     1
 10
35.8882221585431
 20
195.5219916509534
 30
0.0
  0
VERTEX
  5
3D3
  8
1
  6
CONTINUOUS
 62
     1
 10
35.89083985924437
 20
195.5655912913446
 30
0.0
  0
VERTEX
  5
3D4
  8
1
  6
CONTINUOUS
 62
     1
 10
35.89346745718876
 20
195.6090439846627
 30
0.0
  0
VERTEX
  5
3D5
  8
1
  6
CONTINUOUS
 62
     1
 10
35.89610495237629
 20
195.6523497309078
 30
0.0
  0
VERTEX
  5
3D6
  8
1
  6
CONTINUOUS
 62
     1
 10
35.89875234480695
 20
195.6955085300799
 30
0.0
  0
VERTEX
  5
3D7
  8
1
  6
CONTINUOUS
 62
     1
 10
35.90140963448074
 20
195.7385203821789
 30
0.0
  0
VERTEX
  5
3D8
  8
1
  6
CONTINUOUS
 62
     1
 10
35.90407682139765
 20
195.7813852872049
 30
0.0
  0
VERTEX
  5
3D9
  8
1
  6
CONTINUOUS
 62
     1
 10
35.90675390555768
 20
195.8241032451579
 30
0.0
  0
VERTEX
  5
3DA
  8
1
  6
CONTINUOUS
 62
     1
 10
35.90944088696085
 20
195.8666742560378
 30
0.0
  0
VERTEX
  5
3DB
  8
1
  6
CONTINUOUS
 62
     1
 10
35.91213776560714
 20
195.9090983198447
 30
0.0
  0
VERTEX
  5
3DC
  8
1
  6
CONTINUOUS
 62
     1
 10
35.91484454149656
 20
195.9513754365785
 30
0.0
  0
VERTEX
  5
3DD
  8
1
  6
CONTINUOUS
 62
     1
 10
35.91756121462912
 20
195.9935056062394
 30
0.0
  0
VERTEX
  5
3DE
  8
1
  6
CONTINUOUS
 62
     1
 10
35.9202877850048
 20
196.0354888288271
 30
0.0
  0
VERTEX
  5
3DF
  8
1
  6
CONTINUOUS
 62
     1
 10
35.92302425262361
 20
196.0773251043419
 30
0.0
  0
VERTEX
  5
3E0
  8
1
  6
CONTINUOUS
 62
     1
 10
35.92577061748555
 20
196.1190144327836
 30
0.0
  0
VERTEX
  5
3E1
  8
1
  6
CONTINUOUS
 62
     1
 10
35.92852687959062
 20
196.1605568141523
 30
0.0
  0
VERTEX
  5
3E2
  8
1
  6
CONTINUOUS
 62
     1
 10
35.9312930389388
 20
196.201952248448
 30
0.0
  0
VERTEX
  5
3E3
  8
1
  6
CONTINUOUS
 62
     1
 10
35.93406909553013
 20
196.2432007356706
 30
0.0
  0
VERTEX
  5
3E4
  8
1
  6
CONTINUOUS
 62
     1
 10
35.9368550493646
 20
196.2843022758202
 30
0.0
  0
VERTEX
  5
3E5
  8
1
  6
CONTINUOUS
 62
     1
 10
35.93965090044217
 20
196.3252568688967
 30
0.0
  0
VERTEX
  5
3E6
  8
1
  6
CONTINUOUS
 62
     1
 10
35.94245664876287
 20
196.3660645149002
 30
0.0
  0
VERTEX
  5
3E7
  8
1
  6
CONTINUOUS
 62
     1
 10
35.9452722943267
 20
196.4067252138307
 30
0.0
  0
VERTEX
  5
3E8
  8
1
  6
CONTINUOUS
 62
     1
 10
35.94809783713367
 20
196.4472389656881
 30
0.0
  0
VERTEX
  5
3E9
  8
1
  6
CONTINUOUS
 62
     1
 10
35.95093327718376
 20
196.4876057704726
 30
0.0
  0
VERTEX
  5
3EA
  8
1
  6
CONTINUOUS
 62
     1
 10
35.95377861447699
 20
196.5278256281839
 30
0.0
  0
VERTEX
  5
3EB
  8
1
  6
CONTINUOUS
 62
     1
 10
35.95663384901334
 20
196.5678985388223
 30
0.0
  0
VERTEX
  5
3EC
  8
1
  6
CONTINUOUS
 62
     1
 10
35.95949898079283
 20
196.6078245023876
 30
0.0
  0
VERTEX
  5
3ED
  8
1
  6
CONTINUOUS
 62
     1
 10
35.96237400981543
 20
196.6476035188799
 30
0.0
  0
VERTEX
  5
3EE
  8
1
  6
CONTINUOUS
 62
     1
 10
35.96525893608117
 20
196.6872355882991
 30
0.0
  0
VERTEX
  5
3EF
  8
1
  6
CONTINUOUS
 62
     1
 10
35.96815375959004
 20
196.7267207106453
 30
0.0
  0
VERTEX
  5
3F0
  8
1
  6
CONTINUOUS
 62
     1
 10
35.97105848034204
 20
196.7660588859185
 30
0.0
  0
VERTEX
  5
3F1
  8
1
  6
CONTINUOUS
 62
     1
 10
35.97397309833715
 20
196.8052501141186
 30
0.0
  0
VERTEX
  5
3F2
  8
1
  6
CONTINUOUS
 62
     1
 10
35.9768976135754
 20
196.8442943952457
 30
0.0
  0
VERTEX
  5
3F3
  8
1
  6
CONTINUOUS
 62
     1
 10
35.97983202605678
 20
196.8831917292998
 30
0.0
  0
VERTEX
  5
3F4
  8
1
  6
CONTINUOUS
 62
     1
 10
35.9827763357813
 20
196.9219421162808
 30
0.0
  0
VERTEX
  5
3F5
  8
1
  6
CONTINUOUS
 62
     1
 10
35.98573054274893
 20
196.9605455561888
 30
0.0
  0
VERTEX
  5
3F6
  8
1
  6
CONTINUOUS
 62
     1
 10
35.98869464695969
 20
196.9990020490238
 30
0.0
  0
VERTEX
  5
3F7
  8
1
  6
CONTINUOUS
 62
     1
 10
35.99166864841358
 20
197.0373115947857
 30
0.0
  0
VERTEX
  5
3F8
  8
1
  6
CONTINUOUS
 62
     1
 10
35.9946525471106
 20
197.0754741934746
 30
0.0
  0
VERTEX
  5
3F9
  8
1
  6
CONTINUOUS
 62
     1
 10
35.99764634305075
 20
197.1134898450905
 30
0.0
  0
VERTEX
  5
3FA
  8
1
  6
CONTINUOUS
 62
     1
 10
36.00065003623402
 20
197.1513585496333
 30
0.0
  0
VERTEX
  5
3FB
  8
1
  6
CONTINUOUS
 62
     1
 10
36.00366362666043
 20
197.1890803071031
 30
0.0
  0
VERTEX
  5
3FC
  8
1
  6
CONTINUOUS
 62
     1
 10
36.00668711432996
 20
197.2266551174999
 30
0.0
  0
VERTEX
  5
3FD
  8
1
  6
CONTINUOUS
 62
     1
 10
36.00972049924262
 20
197.2640829808236
 30
0.0
  0
VERTEX
  5
3FE
  8
1
  6
CONTINUOUS
 62
     1
 10
36.01276378139841
 20
197.3013638970743
 30
0.0
  0
VERTEX
  5
3FF
  8
1
  6
CONTINUOUS
 62
     1
 10
36.01582885581547
 20
197.3385699274285
 30
0.0
  0
VERTEX
  5
400
  8
1
  6
CONTINUOUS
 62
     1
 10
36.01892761751193
 20
197.3757731330629
 30
0.0
  0
VERTEX
  5
401
  8
1
  6
CONTINUOUS
 62
     1
 10
36.02206006648782
 20
197.4129735139773
 30
0.0
  0
VERTEX
  5
402
  8
1
  6
CONTINUOUS
 62
     1
 10
36.02522620274313
 20
197.4501710701719
 30
0.0
  0
VERTEX
  5
403
  8
1
  6
CONTINUOUS
 62
     1
 10
36.02842602627784
 20
197.4873658016466
 30
0.0
  0
VERTEX
  5
404
  8
1
  6
CONTINUOUS
 62
     1
 10
36.03165953709198
 20
197.5245577084015
 30
0.0
  0
VERTEX
  5
405
  8
1
  6
CONTINUOUS
 62
     1
 10
36.03492673518554
 20
197.5617467904364
 30
0.0
  0
VERTEX
  5
406
  8
1
  6
CONTINUOUS
 62
     1
 10
36.03822762055849
 20
197.5989330477515
 30
0.0
  0
VERTEX
  5
407
  8
1
  6
CONTINUOUS
 62
     1
 10
36.04156219321086
 20
197.6361164803467
 30
0.0
  0
VERTEX
  5
408
  8
1
  6
CONTINUOUS
 62
     1
 10
36.04493045314265
 20
197.673297088222
 30
0.0
  0
VERTEX
  5
409
  8
1
  6
CONTINUOUS
 62
     1
 10
36.04833240035387
 20
197.7104748713775
 30
0.0
  0
VERTEX
  5
40A
  8
1
  6
CONTINUOUS
 62
     1
 10
36.05176803484449
 20
197.747649829813
 30
0.0
  0
VERTEX
  5
40B
  8
1
  6
CONTINUOUS
 62
     1
 10
36.05523735661453
 20
197.7848219635287
 30
0.0
  0
VERTEX
  5
40C
  8
1
  6
CONTINUOUS
 62
     1
 10
36.05874036566397
 20
197.8219912725245
 30
0.0
  0
VERTEX
  5
40D
  8
1
  6
CONTINUOUS
 62
     1
 10
36.06227706199283
 20
197.8591577568004
 30
0.0
  0
VERTEX
  5
40E
  8
1
  6
CONTINUOUS
 62
     1
 10
36.06584744560109
 20
197.8963214163564
 30
0.0
  0
VERTEX
  5
40F
  8
1
  6
CONTINUOUS
 62
     1
 10
36.06945151648878
 20
197.9334822511926
 30
0.0
  0
VERTEX
  5
410
  8
1
  6
CONTINUOUS
 62
     1
 10
36.07308927465589
 20
197.9706402613089
 30
0.0
  0
VERTEX
  5
411
  8
1
  6
CONTINUOUS
 62
     1
 10
36.0767607201024
 20
198.0077954467053
 30
0.0
  0
VERTEX
  5
412
  8
1
  6
CONTINUOUS
 62
     1
 10
36.08046585282834
 20
198.0449478073818
 30
0.0
  0
VERTEX
  5
413
  8
1
  6
CONTINUOUS
 62
     1
 10
36.08420467283369
 20
198.0820973433385
 30
0.0
  0
VERTEX
  5
414
  8
1
  6
CONTINUOUS
 62
     1
 10
36.08797718011844
 20
198.1192440545752
 30
0.0
  0
VERTEX
  5
415
  8
1
  6
CONTINUOUS
 62
     1
 10
36.09178337468262
 20
198.1563879410921
 30
0.0
  0
VERTEX
  5
416
  8
1
  6
CONTINUOUS
 62
     1
 10
36.09562325652621
 20
198.1935290028891
 30
0.0
  0
VERTEX
  5
417
  8
1
  6
CONTINUOUS
 62
     1
 10
36.09949682564923
 20
198.2306672399662
 30
0.0
  0
VERTEX
  5
418
  8
1
  6
CONTINUOUS
 62
     1
 10
36.10340408205164
 20
198.2678026523235
 30
0.0
  0
VERTEX
  5
419
  8
1
  6
CONTINUOUS
 62
     1
 10
36.10734502573348
 20
198.3049352399608
 30
0.0
  0
VERTEX
  5
41A
  8
1
  6
CONTINUOUS
 62
     1
 10
36.11131965669472
 20
198.3420650028783
 30
0.0
  0
VERTEX
  5
41B
  8
1
  6
CONTINUOUS
 62
     1
 10
36.11532797493538
 20
198.3791919410759
 30
0.0
  0
VERTEX
  5
41C
  8
1
  6
CONTINUOUS
 62
     1
 10
36.11936998045545
 20
198.4163160545536
 30
0.0
  0
VERTEX
  5
41D
  8
1
  6
CONTINUOUS
 62
     1
 10
36.12344567325493
 20
198.4534373433115
 30
0.0
  0
VERTEX
  5
41E
  8
1
  6
CONTINUOUS
 62
     1
 10
36.12755505333385
 20
198.4905558073494
 30
0.0
  0
VERTEX
  5
41F
  8
1
  6
CONTINUOUS
 62
     1
 10
36.13169812069218
 20
198.5276714466675
 30
0.0
  0
VERTEX
  5
420
  8
1
  6
CONTINUOUS
 62
     1
 10
36.1358748753299
 20
198.5647842612657
 30
0.0
  0
VERTEX
  5
421
  8
1
  6
CONTINUOUS
 62
     1
 10
36.14008531724707
 20
198.601894251144
 30
0.0
  0
VERTEX
  5
422
  8
1
  6
CONTINUOUS
 62
     1
 10
36.14432944644362
 20
198.6390014163025
 30
0.0
  0
VERTEX
  5
423
  8
1
  6
CONTINUOUS
 62
     1
 10
36.1486072629196
 20
198.6761057567411
 30
0.0
  0
VERTEX
  5
424
  8
1
  6
CONTINUOUS
 62
     1
 10
36.15291876667499
 20
198.7132072724598
 30
0.0
  0
VERTEX
  5
425
  8
1
  6
CONTINUOUS
 62
     1
 10
36.1572639577098
 20
198.7503059634585
 30
0.0
  0
VERTEX
  5
426
  8
1
  6
CONTINUOUS
 62
     1
 10
36.16164283602401
 20
198.7874018297375
 30
0.0
  0
VERTEX
  5
427
  8
1
  6
CONTINUOUS
 62
     1
 10
36.16605540161765
 20
198.8244948712965
 30
0.0
  0
VERTEX
  5
428
  8
1
  6
CONTINUOUS
 62
     1
 10
36.17050165449069
 20
198.8615850881357
 30
0.0
  0
VERTEX
  5
429
  8
1
  6
CONTINUOUS
 62
     1
 10
36.17498159464317
 20
198.898672480255
 30
0.0
  0
VERTEX
  5
42A
  8
1
  6
CONTINUOUS
 62
     1
 10
36.17949522207505
 20
198.9357570476544
 30
0.0
  0
VERTEX
  5
42B
  8
1
  6
CONTINUOUS
 62
     1
 10
36.18404253678634
 20
198.9728387903339
 30
0.0
  0
VERTEX
  5
42C
  8
1
  6
CONTINUOUS
 62
     1
 10
36.18862353877704
 20
199.0099177082936
 30
0.0
  0
VERTEX
  5
42D
  8
1
  6
CONTINUOUS
 62
     1
 10
36.19323822804716
 20
199.0469938015333
 30
0.0
  0
VERTEX
  5
42E
  8
1
  6
CONTINUOUS
 62
     1
 10
36.1978866045967
 20
199.0840670700532
 30
0.0
  0
VERTEX
  5
42F
  8
1
  6
CONTINUOUS
 62
     1
 10
36.20256866842564
 20
199.1211375138532
 30
0.0
  0
VERTEX
  5
430
  8
1
  6
CONTINUOUS
 62
     1
 10
36.20728441953401
 20
199.1582051329333
 30
0.0
  0
VERTEX
  5
431
  8
1
  6
CONTINUOUS
 62
     1
 10
36.2120338579218
 20
199.1952699272936
 30
0.0
  0
VERTEX
  5
432
  8
1
  6
CONTINUOUS
 62
     1
 10
36.21681698358898
 20
199.232331896934
 30
0.0
  0
VERTEX
  5
433
  8
1
  6
CONTINUOUS
 62
     1
 10
36.2216337965356
 20
199.2693910418545
 30
0.0
  0
VERTEX
  5
434
  8
1
  6
CONTINUOUS
 62
     1
 10
36.22648429676161
 20
199.3064473620551
 30
0.0
  0
VERTEX
  5
435
  8
1
  6
CONTINUOUS
 62
     1
 10
36.23136848426705
 20
199.3435008575358
 30
0.0
  0
VERTEX
  5
436
  8
1
  6
CONTINUOUS
 62
     1
 10
36.23628635905189
 20
199.3805515282966
 30
0.0
  0
VERTEX
  5
437
  8
1
  6
CONTINUOUS
 62
     1
 10
36.24123792111615
 20
199.4175993743376
 30
0.0
  0
VERTEX
  5
438
  8
1
  6
CONTINUOUS
 62
     1
 10
36.24622317045983
 20
199.4546443956587
 30
0.0
  0
VERTEX
  5
439
  8
1
  6
CONTINUOUS
 62
     1
 10
36.25124210708293
 20
199.4916865922599
 30
0.0
  0
VERTEX
  5
43A
  8
1
  6
CONTINUOUS
 62
     1
 10
36.25629473098545
 20
199.5287259641413
 30
0.0
  0
VERTEX
  5
43B
  8
1
  6
CONTINUOUS
 62
     1
 10
36.26138104216737
 20
199.5657625113027
 30
0.0
  0
VERTEX
  5
43C
  8
1
  6
CONTINUOUS
 62
     1
 10
36.2665010406287
 20
199.6027962337443
 30
0.0
  0
VERTEX
  5
43D
  8
1
  6
CONTINUOUS
 62
     1
 10
36.27165472636946
 20
199.639827131466
 30
0.0
  0
VERTEX
  5
43E
  8
1
  6
CONTINUOUS
 62
     1
 10
36.27684209938961
 20
199.6768552044678
 30
0.0
  0
VERTEX
  5
43F
  8
1
  6
CONTINUOUS
 62
     1
 10
36.28206229228591
 20
199.7138040599353
 30
0.0
  0
VERTEX
  5
440
  8
1
  6
CONTINUOUS
 62
     1
 10
36.2873144376551
 20
199.7505973050541
 30
0.0
  0
VERTEX
  5
441
  8
1
  6
CONTINUOUS
 62
     1
 10
36.29259853549715
 20
199.7872349398241
 30
0.0
  0
VERTEX
  5
442
  8
1
  6
CONTINUOUS
 62
     1
 10
36.29791458581209
 20
199.8237169642455
 30
0.0
  0
VERTEX
  5
443
  8
1
  6
CONTINUOUS
 62
     1
 10
36.30326258859989
 20
199.8600433783181
 30
0.0
  0
VERTEX
  5
444
  8
1
  6
CONTINUOUS
 62
     1
 10
36.30864254386057
 20
199.8962141820419
 30
0.0
  0
VERTEX
  5
445
  8
1
  6
CONTINUOUS
 62
     1
 10
36.31405445159412
 20
199.9322293754171
 30
0.0
  0
VERTEX
  5
446
  8
1
  6
CONTINUOUS
 62
     1
 10
36.31949831180054
 20
199.9680889584435
 30
0.0
  0
VERTEX
  5
447
  8
1
  6
CONTINUOUS
 62
     1
 10
36.32497412447985
 20
200.0037929311212
 30
0.0
  0
VERTEX
  5
448
  8
1
  6
CONTINUOUS
 62
     1
 10
36.33048188963203
 20
200.0393412934501
 30
0.0
  0
VERTEX
  5
449
  8
1
  6
CONTINUOUS
 62
     1
 10
36.33602160725707
 20
200.0747340454304
 30
0.0
  0
VERTEX
  5
44A
  8
1
  6
CONTINUOUS
 62
     1
 10
36.34159327735499
 20
200.1099711870619
 30
0.0
  0
VERTEX
  5
44B
  8
1
  6
CONTINUOUS
 62
     1
 10
36.34719689992578
 20
200.1450527183446
 30
0.0
  0
VERTEX
  5
44C
  8
1
  6
CONTINUOUS
 62
     1
 10
36.35283247496945
 20
200.1799786392787
 30
0.0
  0
VERTEX
  5
44D
  8
1
  6
CONTINUOUS
 62
     1
 10
36.358500002486
 20
200.214748949864
 30
0.0
  0
VERTEX
  5
44E
  8
1
  6
CONTINUOUS
 62
     1
 10
36.36419948247541
 20
200.2493636501006
 30
0.0
  0
VERTEX
  5
44F
  8
1
  6
CONTINUOUS
 62
     1
 10
36.36993091493771
 20
200.2838227399885
 30
0.0
  0
VERTEX
  5
450
  8
1
  6
CONTINUOUS
 62
     1
 10
36.37569429987288
 20
200.3181262195276
 30
0.0
  0
VERTEX
  5
451
  8
1
  6
CONTINUOUS
 62
     1
 10
36.38148963728091
 20
200.352274088718
 30
0.0
  0
VERTEX
  5
452
  8
1
  6
CONTINUOUS
 62
     1
 10
36.38731692716182
 20
200.3862663475597
 30
0.0
  0
VERTEX
  5
453
  8
1
  6
CONTINUOUS
 62
     1
 10
36.3931761695156
 20
200.4201029960526
 30
0.0
  0
VERTEX
  5
454
  8
1
  6
CONTINUOUS
 62
     1
 10
36.39906736434226
 20
200.4537840341968
 30
0.0
  0
VERTEX
  5
455
  8
1
  6
CONTINUOUS
 62
     1
 10
36.4049905116418
 20
200.4873094619923
 30
0.0
  0
VERTEX
  5
456
  8
1
  6
CONTINUOUS
 62
     1
 10
36.41094561141421
 20
200.5206792794391
 30
0.0
  0
VERTEX
  5
457
  8
1
  6
CONTINUOUS
 62
     1
 10
36.41693266365949
 20
200.5538934865371
 30
0.0
  0
VERTEX
  5
458
  8
1
  6
CONTINUOUS
 62
     1
 10
36.42295166837765
 20
200.5869520832864
 30
0.0
  0
VERTEX
  5
459
  8
1
  6
CONTINUOUS
 62
     1
 10
36.42900262556867
 20
200.619855069687
 30
0.0
  0
VERTEX
  5
45A
  8
1
  6
CONTINUOUS
 62
     1
 10
36.43508553523257
 20
200.6526024457389
 30
0.0
  0
VERTEX
  5
45B
  8
1
  6
CONTINUOUS
 62
     1
 10
36.44120039736934
 20
200.685194211442
 30
0.0
  0
VERTEX
  5
45C
  8
1
  6
CONTINUOUS
 62
     1
 10
36.44734721197899
 20
200.7176303667964
 30
0.0
  0
VERTEX
  5
45D
  8
1
  6
CONTINUOUS
 62
     1
 10
36.45352597906152
 20
200.7499109118021
 30
0.0
  0
VERTEX
  5
45E
  8
1
  6
CONTINUOUS
 62
     1
 10
36.45973669861692
 20
200.782035846459
 30
0.0
  0
VERTEX
  5
45F
  8
1
  6
CONTINUOUS
 62
     1
 10
36.4659793706452
 20
200.8140051707672
 30
0.0
  0
VERTEX
  5
460
  8
1
  6
CONTINUOUS
 62
     1
 10
36.47225399514635
 20
200.8458188847267
 30
0.0
  0
VERTEX
  5
461
  8
1
  6
CONTINUOUS
 62
     1
 10
36.47856057212036
 20
200.8774769883375
 30
0.0
  0
VERTEX
  5
462
  8
1
  6
CONTINUOUS
 62
     1
 10
36.48489910156725
 20
200.9089794815995
 30
0.0
  0
VERTEX
  5
463
  8
1
  6
CONTINUOUS
 62
     1
 10
36.49126958348701
 20
200.9403263645128
 30
0.0
  0
VERTEX
  5
464
  8
1
  6
CONTINUOUS
 62
     1
 10
36.49767201787965
 20
200.9715176370773
 30
0.0
  0
VERTEX
  5
465
  8
1
  6
CONTINUOUS
 62
     1
 10
36.50410640474517
 20
201.0025532992932
 30
0.0
  0
VERTEX
  5
466
  8
1
  6
CONTINUOUS
 62
     1
 10
36.51057274408356
 20
201.0334333511603
 30
0.0
  0
VERTEX
  5
467
  8
1
  6
CONTINUOUS
 62
     1
 10
36.51707103589483
 20
201.0641577926787
 30
0.0
  0
VERTEX
  5
468
  8
1
  6
CONTINUOUS
 62
     1
 10
36.52360128017897
 20
201.0947266238484
 30
0.0
  0
VERTEX
  5
469
  8
1
  6
CONTINUOUS
 62
     1
 10
36.53016347693597
 20
201.1251398446693
 30
0.0
  0
VERTEX
  5
46A
  8
1
  6
CONTINUOUS
 62
     1
 10
36.53675762616585
 20
201.1553974551415
 30
0.0
  0
VERTEX
  5
46B
  8
1
  6
CONTINUOUS
 62
     1
 10
36.5433837278686
 20
201.185499455265
 30
0.0
  0
VERTEX
  5
46C
  8
1
  6
CONTINUOUS
 62
     1
 10
36.55004178204423
 20
201.2154458450397
 30
0.0
  0
VERTEX
  5
46D
  8
1
  6
CONTINUOUS
 62
     1
 10
36.55673178869274
 20
201.2452366244657
 30
0.0
  0
VERTEX
  5
46E
  8
1
  6
CONTINUOUS
 62
     1
 10
36.56345374781412
 20
201.274871793543
 30
0.0
  0
VERTEX
  5
46F
  8
1
  6
CONTINUOUS
 62
     1
 10
36.57020765940838
 20
201.3043513522716
 30
0.0
  0
VERTEX
  5
470
  8
1
  6
CONTINUOUS
 62
     1
 10
36.57699352347551
 20
201.3336753006514
 30
0.0
  0
VERTEX
  5
471
  8
1
  6
CONTINUOUS
 62
     1
 10
36.5838113400155
 20
201.3628436386825
 30
0.0
  0
VERTEX
  5
472
  8
1
  6
CONTINUOUS
 62
     1
 10
36.59066110902837
 20
201.3918563663649
 30
0.0
  0
VERTEX
  5
473
  8
1
  6
CONTINUOUS
 62
     1
 10
36.59754283051412
 20
201.4207134836986
 30
0.0
  0
VERTEX
  5
474
  8
1
  6
CONTINUOUS
 62
     1
 10
36.60445650447274
 20
201.4494149906835
 30
0.0
  0
VERTEX
  5
475
  8
1
  6
CONTINUOUS
 62
     1
 10
36.61140213090424
 20
201.4779608873197
 30
0.0
  0
VERTEX
  5
476
  8
1
  6
CONTINUOUS
 62
     1
 10
36.61837970980861
 20
201.5063511736072
 30
0.0
  0
VERTEX
  5
477
  8
1
  6
CONTINUOUS
 62
     1
 10
36.62538924118586
 20
201.5345858495459
 30
0.0
  0
VERTEX
  5
478
  8
1
  6
CONTINUOUS
 62
     1
 10
36.63243072503597
 20
201.5626649151359
 30
0.0
  0
VERTEX
  5
479
  8
1
  6
CONTINUOUS
 62
     1
 10
36.63950416135896
 20
201.5905883703772
 30
0.0
  0
VERTEX
  5
47A
  8
1
  6
CONTINUOUS
 62
     1
 10
36.64660955015482
 20
201.6183562152697
 30
0.0
  0
VERTEX
  5
47B
  8
1
  6
CONTINUOUS
 62
     1
 10
36.65374689142355
 20
201.6459684498136
 30
0.0
  0
VERTEX
  5
47C
  8
1
  6
CONTINUOUS
 62
     1
 10
36.66091618516516
 20
201.6734250740087
 30
0.0
  0
VERTEX
  5
47D
  8
1
  6
CONTINUOUS
 62
     1
 10
36.66811743137966
 20
201.700726087855
 30
0.0
  0
VERTEX
  5
47E
  8
1
  6
CONTINUOUS
 62
     1
 10
36.67535063006702
 20
201.7278714913527
 30
0.0
  0
VERTEX
  5
47F
  8
1
  6
CONTINUOUS
 62
     1
 10
36.6825861487692
 20
201.7548669656096
 30
0.0
  0
VERTEX
  5
480
  8
1
  6
CONTINUOUS
 62
     1
 10
36.68979435502817
 20
201.781718191734
 30
0.0
  0
VERTEX
  5
481
  8
1
  6
CONTINUOUS
 62
     1
 10
36.69697524884393
 20
201.8084251697257
 30
0.0
  0
VERTEX
  5
482
  8
1
  6
CONTINUOUS
 62
     1
 10
36.70412883021646
 20
201.8349878995848
 30
0.0
  0
VERTEX
  5
483
  8
1
  6
CONTINUOUS
 62
     1
 10
36.71125509914577
 20
201.8614063813112
 30
0.0
  0
VERTEX
  5
484
  8
1
  6
CONTINUOUS
 62
     1
 10
36.71835405563186
 20
201.8876806149051
 30
0.0
  0
VERTEX
  5
485
  8
1
  6
CONTINUOUS
 62
     1
 10
36.72542569967473
 20
201.9138106003663
 30
0.0
  0
VERTEX
  5
486
  8
1
  6
CONTINUOUS
 62
     1
 10
36.73247003127439
 20
201.9397963376948
 30
0.0
  0
VERTEX
  5
487
  8
1
  6
CONTINUOUS
 62
     1
 10
36.73948705043082
 20
201.9656378268908
 30
0.0
  0
VERTEX
  5
488
  8
1
  6
CONTINUOUS
 62
     1
 10
36.74647675714405
 20
201.9913350679541
 30
0.0
  0
VERTEX
  5
489
  8
1
  6
CONTINUOUS
 62
     1
 10
36.75343915141406
 20
202.0168880608848
 30
0.0
  0
VERTEX
  5
48A
  8
1
  6
CONTINUOUS
 62
     1
 10
36.76037423324084
 20
202.0422968056829
 30
0.0
  0
VERTEX
  5
48B
  8
1
  6
CONTINUOUS
 62
     1
 10
36.7672820026244
 20
202.0675613023483
 30
0.0
  0
VERTEX
  5
48C
  8
1
  6
CONTINUOUS
 62
     1
 10
36.77416245956474
 20
202.0926815508811
 30
0.0
  0
VERTEX
  5
48D
  8
1
  6
CONTINUOUS
 62
     1
 10
36.78101560406186
 20
202.1176575512813
 30
0.0
  0
VERTEX
  5
48E
  8
1
  6
CONTINUOUS
 62
     1
 10
36.78784143611577
 20
202.1424893035489
 30
0.0
  0
VERTEX
  5
48F
  8
1
  6
CONTINUOUS
 62
     1
 10
36.79463995572645
 20
202.1671768076838
 30
0.0
  0
VERTEX
  5
490
  8
1
  6
CONTINUOUS
 62
     1
 10
36.80141116289391
 20
202.1917200636861
 30
0.0
  0
VERTEX
  5
491
  8
1
  6
CONTINUOUS
 62
     1
 10
36.80815505761817
 20
202.2161190715558
 30
0.0
  0
VERTEX
  5
492
  8
1
  6
CONTINUOUS
 62
     1
 10
36.8148716398992
 20
202.2403738312929
 30
0.0
  0
VERTEX
  5
493
  8
1
  6
CONTINUOUS
 62
     1
 10
36.82156090973702
 20
202.2644843428973
 30
0.0
  0
VERTEX
  5
494
  8
1
  6
CONTINUOUS
 62
     1
 10
36.82822286713161
 20
202.2884506063691
 30
0.0
  0
VERTEX
  5
495
  8
1
  6
CONTINUOUS
 62
     1
 10
36.83485751208299
 20
202.3122726217083
 30
0.0
  0
VERTEX
  5
496
  8
1
  6
CONTINUOUS
 62
     1
 10
36.84146484459114
 20
202.3359503889149
 30
0.0
  0
VERTEX
  5
497
  8
1
  6
CONTINUOUS
 62
     1
 10
36.84804486465609
 20
202.3594839079888
 30
0.0
  0
VERTEX
  5
498
  8
1
  6
CONTINUOUS
 62
     1
 10
36.8545975722778
 20
202.3828731789301
 30
0.0
  0
VERTEX
  5
499
  8
1
  6
CONTINUOUS
 62
     1
 10
36.8611229674563
 20
202.4061182017387
 30
0.0
  0
VERTEX
  5
49A
  8
1
  6
CONTINUOUS
 62
     1
 10
36.86762105019159
 20
202.4292189764148
 30
0.0
  0
VERTEX
  5
49B
  8
1
  6
CONTINUOUS
 62
     1
 10
36.87409182048366
 20
202.4521755029582
 30
0.0
  0
VERTEX
  5
49C
  8
1
  6
CONTINUOUS
 62
     1
 10
36.8805352783325
 20
202.474987781369
 30
0.0
  0
VERTEX
  5
49D
  8
1
  6
CONTINUOUS
 62
     1
 10
36.88695142373813
 20
202.4976558116471
 30
0.0
  0
VERTEX
  5
49E
  8
1
  6
CONTINUOUS
 62
     1
 10
36.89334025670053
 20
202.5201795937926
 30
0.0
  0
VERTEX
  5
49F
  8
1
  6
CONTINUOUS
 62
     1
 10
36.8997017772197
 20
202.5425591278056
 30
0.0
  0
VERTEX
  5
4A0
  8
1
  6
CONTINUOUS
 62
     1
 10
36.90603598529567
 20
202.5647944136859
 30
0.0
  0
VERTEX
  5
4A1
  8
1
  6
CONTINUOUS
 62
     1
 10
36.91234288092843
 20
202.5868854514335
 30
0.0
  0
VERTEX
  5
4A2
  8
1
  6
CONTINUOUS
 62
     1
 10
36.91862246411796
 20
202.6088322410485
 30
0.0
  0
VERTEX
  5
4A3
  8
1
  6
CONTINUOUS
 62
     1
 10
36.92487473486428
 20
202.6306347825309
 30
0.0
  0
VERTEX
  5
4A4
  8
1
  6
CONTINUOUS
 62
     1
 10
36.93109969316737
 20
202.6522930758807
 30
0.0
  0
VERTEX
  5
4A5
  8
1
  6
CONTINUOUS
 62
     1
 10
36.93729733902725
 20
202.6738071210978
 30
0.0
  0
VERTEX
  5
4A6
  8
1
  6
CONTINUOUS
 62
     1
 10
36.94346767244392
 20
202.6951769181824
 30
0.0
  0
VERTEX
  5
4A7
  8
1
  6
CONTINUOUS
 62
     1
 10
36.94961069341736
 20
202.7164024671343
 30
0.0
  0
VERTEX
  5
4A8
  8
1
  6
CONTINUOUS
 62
     1
 10
36.95572640194757
 20
202.7374837679535
 30
0.0
  0
VERTEX
  5
4A9
  8
1
  6
CONTINUOUS
 62
     1
 10
36.96181479803458
 20
202.7584208206402
 30
0.0
  0
VERTEX
  5
4AA
  8
1
  6
CONTINUOUS
 62
     1
 10
36.96787588167837
 20
202.7792136251942
 30
0.0
  0
VERTEX
  5
4AB
  8
1
  6
CONTINUOUS
 62
     1
 10
36.97390965287893
 20
202.7998621816156
 30
0.0
  0
VERTEX
  5
4AC
  8
1
  6
CONTINUOUS
 62
     1
 10
36.97991611163627
 20
202.8203664899043
 30
0.0
  0
VERTEX
  5
4AD
  8
1
  6
CONTINUOUS
 62
     1
 10
36.9858952579504
 20
202.8407265500605
 30
0.0
  0
VERTEX
  5
4AE
  8
1
  6
CONTINUOUS
 62
     1
 10
36.99184709182131
 20
202.860942362084
 30
0.0
  0
VERTEX
  5
4AF
  8
1
  6
CONTINUOUS
 62
     1
 10
36.997771613249
 20
202.8810139259748
 30
0.0
  0
VERTEX
  5
4B0
  8
1
  6
CONTINUOUS
 62
     1
 10
37.00366882223346
 20
202.9009412417331
 30
0.0
  0
VERTEX
  5
4B1
  8
1
  6
CONTINUOUS
 62
     1
 10
37.00953871877472
 20
202.9207243093587
 30
0.0
  0
VERTEX
  5
4B2
  8
1
  6
CONTINUOUS
 62
     1
 10
37.01538130287275
 20
202.9403631288517
 30
0.0
  0
VERTEX
  5
4B3
  8
1
  6
CONTINUOUS
 62
     1
 10
37.02119657452758
 20
202.9598577002121
 30
0.0
  0
VERTEX
  5
4B4
  8
1
  6
CONTINUOUS
 62
     1
 10
37.02698453373917
 20
202.9792080234398
 30
0.0
  0
VERTEX
  5
4B5
  8
1
  6
CONTINUOUS
 62
     1
 10
37.03274518050755
 20
202.9984140985349
 30
0.0
  0
VERTEX
  5
4B6
  8
1
  6
CONTINUOUS
 62
     1
 10
37.0384785148327
 20
203.0174759254974
 30
0.0
  0
VERTEX
  5
4B7
  8
1
  6
CONTINUOUS
 62
     1
 10
37.04418453671464
 20
203.0363935043273
 30
0.0
  0
VERTEX
  5
4B8
  8
1
  6
CONTINUOUS
 62
     1
 10
37.04986324615336
 20
203.0551668350245
 30
0.0
  0
VERTEX
  5
4B9
  8
1
  6
CONTINUOUS
 62
     1
 10
37.05551464314887
 20
203.0737959175891
 30
0.0
  0
VERTEX
  5
4BA
  8
1
  6
CONTINUOUS
 62
     1
 10
37.06113872770115
 20
203.0922807520211
 30
0.0
  0
VERTEX
  5
4BB
  8
1
  6
CONTINUOUS
 62
     1
 10
37.06673549981021
 20
203.1106213383205
 30
0.0
  0
VERTEX
  5
4BC
  8
1
  6
CONTINUOUS
 62
     1
 10
37.07230495947606
 20
203.1288176764872
 30
0.0
  0
VERTEX
  5
4BD
  8
1
  6
CONTINUOUS
 62
     1
 10
37.0778471066987
 20
203.1468697665213
 30
0.0
  0
VERTEX
  5
4BE
  8
1
  6
CONTINUOUS
 62
     1
 10
37.0833619414781
 20
203.1647776084228
 30
0.0
  0
VERTEX
  5
4BF
  8
1
  6
CONTINUOUS
 62
     1
 10
37.0833619414781
 20
203.1647776084228
 30
0.0
  0
SEQEND
  5
4C0
  8
1
  6
CONTINUOUS
 62
     1
  0
POLYLINE
  5
4C1
  8
1
  6
CONTINUOUS
 62
     1
 66
     1
 10
0.0
 20
0.0
 30
0.0
 70
   128
  0
VERTEX
  5
4C2
  8
1
  6
CONTINUOUS
 62
     1
 10
276.0037496628186
 20
229.7303964204359
 30
0.0
 42
0.1989123673796538
 70
     2
 50
9.357110891560552E+17
  0
VERTEX
  5
4C3
  8
1
  6
CONTINUOUS
 62
     1
 10
275.6501962722253
 20
229.5839498110292
 30
0.0
 42
0.1989123673796636
 70
     2
 50
-57.29577951308274
  0
VERTEX
  5
4C4
  8
1
  6
CONTINUOUS
 62
     1
 10
275.5037496628186
 20
229.2303964204359
 30
0.0
  0
SEQEND
  5
4C5
  8
1
  6
CONTINUOUS
 62
     1
  0
POLYLINE
  5
4C6
  8
1
  6
CONTINUOUS
 62
     1
 66
     1
 10
0.0
 20
0.0
 30
0.0
 70
   128
  0
VERTEX
  5
4C7
  8
1
  6
CONTINUOUS
 62
     1
 10
275.5037496628186
 20
184.2303964204361
 30
0.0
 42
0.1989123673796528
 70
     2
 50
-0.000000000000007
  0
VERTEX
  5
4C8
  8
1
  6
CONTINUOUS
 62
     1
 10
275.6501962722253
 20
183.8768430298428
 30
0.0
 42
0.1989123673796628
 70
     2
 50
57.29577951308342
  0
VERTEX
  5
4C9
  8
1
  6
CONTINUOUS
 62
     1
 10
276.0037496628186
 20
183.7303964204361
 30
0.0
  0
SEQEND
  5
4CA
  8
1
  6
CONTINUOUS
 62
     1
  0
POLYLINE
  5
4CB
  8
1
  6
CONTINUOUS
 62
     1
 66
     1
 10
0.0
 20
0.0
 30
0.0
 70
   128
  0
VERTEX
  5
4CC
  8
1
  6
CONTINUOUS
 62
     1
 10
275.5037496628186
 20
193.7986776801154
 30
0.0
 42
0.1966760655560657
 70
     2
 50
-0.000000000000014
  0
VERTEX
  5
4CD
  8
1
  6
CONTINUOUS
 62
     1
 10
274.3564199783682
 20
196.6026520150161
 30
0.0
 42
0.1966760655560632
 70
     2
 50
56.31772251321729
  0
VERTEX
  5
4CE
  8
1
  6
CONTINUOUS
 62
     1
 10
271.5726136274275
 20
197.7980848554825
 30
0.0
  0
SEQEND
  5
4CF
  8
1
  6
CONTINUOUS
 62
     1
  0
POLYLINE
  5
4D0
  8
1
  6
CONTINUOUS
 62
     1
 66
     1
 10
0.0
 20
0.0
 30
0.0
 70
   128
  0
VERTEX
  5
4D1
  8
1
  6
CONTINUOUS
 62
     1
 10
271.5726136274275
 20
215.6627079853894
 30
0.0
 42
0.1966760655560617
 70
     2
 50
-3327.562579411996
  0
VERTEX
  5
4D2
  8
1
  6
CONTINUOUS
 62
     1
 10
274.3564199783682
 20
216.8581408258559
 30
0.0
 42
0.1966760655560618
 70
     2
 50
-56.31772251321588
  0
VERTEX
  5
4D3
  8
1
  6
CONTINUOUS
 62
     1
 10
275.5037496628186
 20
219.6621151607566
 30
0.0
  0
SEQEND
  5
4D4
  8
1
  6
CONTINUOUS
 62
     1
  0
POLYLINE
  5
4D5
  8
1
  6
CONTINUOUS
 62
     1
 66
     1
 10
0.0
 20
0.0
 30
0.0
 70
   128
  0
VERTEX
  5
4D6
  8
1
  6
CONTINUOUS
 62
     1
 10
30.75765408293861
 20
416.4214755930231
 30
0.0
 42
0.1989123673796528
 70
     2
 50
-0.000000000000007
  0
VERTEX
  5
4D7
  8
1
  6
CONTINUOUS
 62
     1
 10
30.90410069234534
 20
416.0679222024298
 30
0.0
 42
0.1989123673796602
 70
     2
 50
57.29577951308458
  0
VERTEX
  5
4D8
  8
1
  6
CONTINUOUS
 62
     1
 10
31.25765408293861
 20
415.9214755930231
 30
0.0
  0
SEQEND
  5
4D9
  8
1
  6
CONTINUOUS
 62
     1
  0
POLYLINE
  5
4DA
  8
1
  6
CONTINUOUS
 62
     1
 66
     1
 10
0.0
 20
0.0
 30
0.0
 70
   128
  0
VERTEX
  5
4DB
  8
1
  6
CONTINUOUS
 62
     1
 10
76.2576540829386
 20
415.9214755930231
 30
0.0
 42
0.198912367379658
 70
     2
 50
3.119036963853517E+17
  0
VERTEX
  5
4DC
  8
1
  6
CONTINUOUS
 62
     1
 10
76.61120747353188
 20
416.0679222024298
 30
0.0
 42
0.1989123673796633
 70
     2
 50
-57.2957795130847
  0
VERTEX
  5
4DD
  8
1
  6
CONTINUOUS
 62
     1
 10
76.7576540829386
 20
416.4214755930231
 30
0.0
  0
SEQEND
  5
4DE
  8
1
  6
CONTINUOUS
 62
     1
  0
POLYLINE
  5
4DF
  8
1
  6
CONTINUOUS
 62
     1
 66
     1
 10
0.0
 20
0.0
 30
0.0
 70
   128
  0
VERTEX
  5
4E0
  8
1
  6
CONTINUOUS
 62
     1
 10
66.6893728232593
 20
415.9214755930231
 30
0.0
 42
0.1966760655560662
 70
     2
 50
9.357110891560552E+17
  0
VERTEX
  5
4E1
  8
1
  6
CONTINUOUS
 62
     1
 10
63.88539848835856
 20
414.7741459085727
 30
0.0
 42
0.1966760655560633
 70
     2
 50
-58.29082220505856
  0
VERTEX
  5
4E2
  8
1
  6
CONTINUOUS
 62
     1
 10
62.68996564789214
 20
411.9903395576321
 30
0.0
  0
SEQEND
  5
4E3
  8
1
  6
CONTINUOUS
 62
     1
  0
POLYLINE
  5
4E4
  8
1
  6
CONTINUOUS
 62
     1
 66
     1
 10
0.0
 20
0.0
 30
0.0
 70
   128
  0
VERTEX
  5
4E5
  8
1
  6
CONTINUOUS
 62
     1
 10
44.82534251798512
 20
411.9903395576321
 30
0.0
 42
0.1966760655560595
 70
     2
 50
0.9865498459209215
  0
VERTEX
  5
4E6
  8
1
  6
CONTINUOUS
 62
     1
 10
43.6299096775187
 20
414.7741459085727
 30
0.0
 42
0.1966760655560696
 70
     2
 50
58.29082220505713
  0
VERTEX
  5
4E7
  8
1
  6
CONTINUOUS
 62
     1
 10
40.82593534261792
 20
415.9214755930232
 30
0.0
  0
SEQEND
  5
4E8
  8
1
  6
CONTINUOUS
 62
     1
  0
LINE
  5
4E9
  8
1
  6
CONTINUOUS
 62
     1
 10
168.5296089310499
 20
153.2303964204361
 30
0.0
 11
158.0954372676409
 21
153.2303964204361
 31
0.0
  0
LINE
  5
4EA
  8
1
  6
CONTINUOUS
 62
     1
 10
177.5296089310498
 20
158.2303964204361
 30
0.0
 11
187.9120620579964
 21
158.2303964204361
 31
0.0
  0
LINE
  5
4EB
  8
1
  6
CONTINUOUS
 62
     1
 10
187.9120620579964
 20
153.2303964204361
 30
0.0
 11
177.5296089310498
 21
153.2303964204361
 31
0.0
  0
LINE
  5
4EC
  8
1
  6
CONTINUOUS
 62
     1
 10
158.095437267641
 20
158.2303964204361
 30
0.0
 11
168.5296089310499
 21
158.2303964204361
 31
0.0
  0
LINE
  5
4ED
  8
1
  6
CONTINUOUS
 62
     1
 10
158.095437267641
 20
155.7303964204361
 30
0.0
 11
158.0954372676409
 21
153.2303964204361
 31
0.0
  0
LINE
  5
4EE
  8
1
  6
CONTINUOUS
 62
     1
 10
158.095437267641
 20
158.2303964204361
 30
0.0
 11
158.095437267641
 21
155.7303964204361
 31
0.0
  0
LINE
  5
4EF
  8
1
  6
CONTINUOUS
 62
     1
 10
187.9120620579964
 20
155.7303964204361
 30
0.0
 11
187.9120620579964
 21
153.2303964204361
 31
0.0
  0
LINE
  5
4F0
  8
1
  6
CONTINUOUS
 62
     1
 10
187.9120620579964
 20
158.2303964204361
 30
0.0
 11
187.9120620579964
 21
155.7303964204361
 31
0.0
  0
POLYLINE
  5
4F1
  8
1
  6
CONTINUOUS
 62
     1
 66
     1
 10
0.0
 20
0.0
 30
0.0
 70
   128
  0
VERTEX
  5
4F2
  8
1
  6
CONTINUOUS
 62
     1
 10
156.7537496628187
 20
155.7303964204361
 30
0.0
 42
0.1237650382073528
 70
     2
 50
-0.000000000000007
  0
VERTEX
  5
4F3
  8
1
  6
CONTINUOUS
 62
     1
 10
157.1103676259639
 20
154.3117592549729
 30
0.0
 42
0.1237650382073514
 70
     2
 50
30.74921487253265
  0
VERTEX
  5
4F4
  8
1
  6
CONTINUOUS
 62
     1
 10
158.0954372676409
 20
153.2303964204361
 30
0.0
  0
SEQEND
  5
4F5
  8
1
  6
CONTINUOUS
 62
     1
  0
POLYLINE
  5
4F6
  8
1
  6
CONTINUOUS
 62
     1
 66
     1
 10
0.0
 20
0.0
 30
0.0
 70
   128
  0
VERTEX
  5
4F7
  8
1
  6
CONTINUOUS
 62
     1
 10
158.095437267641
 20
158.2303964204361
 30
0.0
 42
0.1237650382073513
 70
     2
 50
-86.37663759810107
  0
VERTEX
  5
4F8
  8
1
  6
CONTINUOUS
 62
     1
 10
157.1103676259639
 20
157.1490335858993
 30
0.0
 42
0.1237650382073593
 70
     2
 50
-30.74921487253372
  0
VERTEX
  5
4F9
  8
1
  6
CONTINUOUS
 62
     1
 10
156.7537496628187
 20
155.7303964204361
 30
0.0
  0
SEQEND
  5
4FA
  8
1
  6
CONTINUOUS
 62
     1
  0
POLYLINE
  5
4FB
  8
1
  6
CONTINUOUS
 62
     1
 66
     1
 10
0.0
 20
0.0
 30
0.0
 70
   128
  0
VERTEX
  5
4FC
  8
1
  6
CONTINUOUS
 62
     1
 10
187.9120620579964
 20
153.2303964204361
 30
0.0
 42
0.1237650382073463
 70
     2
 50
-86.37663759809503
  0
VERTEX
  5
4FD
  8
1
  6
CONTINUOUS
 62
     1
 10
188.8971316996734
 20
154.3117592549729
 30
0.0
 42
0.1237650382073547
 70
     2
 50
-30.74921487253309
  0
VERTEX
  5
4FE
  8
1
  6
CONTINUOUS
 62
     1
 10
189.2537496628186
 20
155.7303964204361
 30
0.0
  0
SEQEND
  5
4FF
  8
1
  6
CONTINUOUS
 62
     1
  0
POLYLINE
  5
500
  8
1
  6
CONTINUOUS
 62
     1
 66
     1
 10
0.0
 20
0.0
 30
0.0
 70
   128
  0
VERTEX
  5
501
  8
1
  6
CONTINUOUS
 62
     1
 10
189.2537496628186
 20
155.7303964204361
 30
0.0
 42
0.1237650382073528
 70
     2
 50
-0.000000000000014
  0
VERTEX
  5
502
  8
1
  6
CONTINUOUS
 62
     1
 10
188.8971316996734
 20
157.1490335858992
 30
0.0
 42
0.1237650382073518
 70
     2
 50
30.74921487253258
  0
VERTEX
  5
503
  8
1
  6
CONTINUOUS
 62
     1
 10
187.9120620579963
 20
158.230396420436
 30
0.0
  0
SEQEND
  5
504
  8
1
  6
CONTINUOUS
 62
     1
  0
CIRCLE
  5
505
  8
1
  6
CONTINUOUS
 62
     1
 10
53.75765408293861
 20
155.7303964204361
 30
0.0
 40
2.5
  0
LINE
  5
506
  8
1
  6
CONTINUOUS
 62
     1
 10
169.851369609589
 20
169.2303964204361
 30
0.0
 11
176.1561297160482
 21
169.2303964204361
 31
0.0
  0
LINE
  5
507
  8
1
  6
CONTINUOUS
 62
     1
 10
166.0037496628187
 20
176.7303964204361
 30
0.0
 11
166.0037496628187
 21
169.2303964204361
 31
0.0
  0
LINE
  5
508
  8
1
  6
CONTINUOUS
 62
     1
 10
169.851369609589
 20
175.7303964204361
 30
0.0
 11
169.851369609589
 21
169.2303964204361
 31
0.0
  0
LINE
  5
509
  8
1
  6
CONTINUOUS
 62
     1
 10
166.0037496628187
 20
169.2303964204361
 30
0.0
 11
169.851369609589
 21
169.2303964204361
 31
0.0
  0
LINE
  5
50A
  8
1
  6
CONTINUOUS
 62
     1
 10
176.1561297160482
 20
175.7303964204361
 30
0.0
 11
169.851369609589
 21
175.7303964204361
 31
0.0
  0
LINE
  5
50B
  8
1
  6
CONTINUOUS
 62
     1
 10
173.0037496628187
 20
172.4803964204361
 30
0.0
 11
169.851369609589
 21
169.2303964204361
 31
0.0
  0
LINE
  5
50C
  8
1
  6
CONTINUOUS
 62
     1
 10
173.0037496628187
 20
172.4803964204361
 30
0.0
 11
169.851369609589
 21
175.7303964204361
 31
0.0
  0
LINE
  5
50D
  8
1
  6
CONTINUOUS
 62
     1
 10
180.0037496628186
 20
169.2303964204361
 30
0.0
 11
180.0037496628186
 21
176.7303964204361
 31
0.0
  0
LINE
  5
50E
  8
1
  6
CONTINUOUS
 62
     1
 10
176.1561297160482
 20
169.2303964204361
 30
0.0
 11
176.1561297160482
 21
175.7303964204361
 31
0.0
  0
LINE
  5
50F
  8
1
  6
CONTINUOUS
 62
     1
 10
176.1561297160482
 20
169.2303964204361
 30
0.0
 11
180.0037496628186
 21
169.2303964204361
 31
0.0
  0
LINE
  5
510
  8
1
  6
CONTINUOUS
 62
     1
 10
176.1561297160482
 20
169.2303964204361
 30
0.0
 11
173.0037496628187
 21
172.4803964204361
 31
0.0
  0
LINE
  5
511
  8
1
  6
CONTINUOUS
 62
     1
 10
176.1561297160482
 20
175.7303964204361
 30
0.0
 11
173.0037496628187
 21
172.4803964204361
 31
0.0
  0
LINE
  5
512
  8
1
  6
CONTINUOUS
 62
     1
 10
46.75765408293864
 20
169.2303964204361
 30
0.0
 11
60.75765408293864
 21
169.2303964204361
 31
0.0
  0
LINE
  5
513
  8
1
  6
CONTINUOUS
 62
     1
 10
60.75765408293864
 20
176.7303964204361
 30
0.0
 11
60.75765408293864
 21
169.2303964204361
 31
0.0
  0
LINE
  5
514
  8
1
  6
CONTINUOUS
 62
     1
 10
46.75765408293864
 20
176.7303964204361
 30
0.0
 11
46.75765408293864
 21
169.2303964204361
 31
0.0
  0
LINE
  5
515
  8
1
  6
CONTINUOUS
 62
     1
 10
177.5296089310498
 20
153.2303964204361
 30
0.0
 11
177.5296089310498
 21
153.2509469486658
 31
0.0
  0
LINE
  5
516
  8
1
  6
CONTINUOUS
 62
     1
 10
177.5296089310498
 20
169.2303964204361
 30
0.0
 11
177.5296089310498
 21
153.2509469486658
 31
0.0
  0
LINE
  5
517
  8
1
  6
CONTINUOUS
 62
     1
 10
168.5296089310499
 20
153.2509469486658
 30
0.0
 11
168.5296089310499
 21
153.2303964204361
 31
0.0
  0
LINE
  5
518
  8
1
  6
CONTINUOUS
 62
     1
 10
168.5296089310499
 20
153.2509469486658
 30
0.0
 11
168.5296089310499
 21
169.2303964204361
 31
0.0
  0
LINE
  5
519
  8
1
  6
CONTINUOUS
 62
     1
 10
49.25765408293861
 20
169.2303964204361
 30
0.0
 11
49.25765408293861
 21
153.2303964204361
 31
0.0
  0
LINE
  5
51A
  8
1
  6
CONTINUOUS
 62
     1
 10
58.25765408293861
 20
169.2303964204361
 30
0.0
 11
58.25765408293861
 21
153.2303964204361
 31
0.0
  0
POLYLINE
  5
51B
  8
0
  6
CONTINUOUS
 62
     1
 66
     1
 10
0.0
 20
0.0
 30
0.0
 70
   128
  0
VERTEX
  5
51C
  8
0
  6
CONTINUOUS
 62
     1
 10
168.5296089310499
 20
153.2509469486658
 30
0.0
 42
0.287491940968664
 70
     2
 50
27.7496125321004
  0
VERTEX
  5
51D
  8
0
  6
CONTINUOUS
 62
     1
 10
173.0296089310498
 20
150.4303964204361
 30
0.0
 42
0.287491940968662
 70
     2
 50
3.119036963853517E+17
  0
VERTEX
  5
51E
  8
0
  6
CONTINUOUS
 62
     1
 10
177.5296089310498
 20
153.2509469486658
 30
0.0
  0
SEQEND
  5
51F
  8
0
  6
CONTINUOUS
 62
     1
  0
POLYLINE
  5
520
  8
0
  6
CONTINUOUS
 62
     1
 66
     1
 10
0.0
 20
0.0
 30
0.0
 70
   128
  0
VERTEX
  5
521
  8
0
  6
CONTINUOUS
 62
     1
 10
49.25765408293861
 20
153.2303964204361
 30
0.0
 42
0.2857084921188707
 70
     2
 50
28.21742307999027
  0
VERTEX
  5
522
  8
0
  6
CONTINUOUS
 62
     1
 10
53.75765408293861
 20
150.4304632910584
 30
0.0
 42
0.2857084921188714
 70
     2
 50
3.119036963853517E+17
  0
VERTEX
  5
523
  8
0
  6
CONTINUOUS
 62
     1
 10
58.25765408293861
 20
153.2303964204361
 30
0.0
  0
SEQEND
  5
524
  8
0
  6
CONTINUOUS
 62
     1
  0
LINE
  5
525
  8
1
  6
ISO-10______
 62
     3
 10
46.25765408293861
 20
155.7303964204361
 30
0.0
 11
61.25765408293861
 21
155.7303964204361
 31
0.0
  0
LINE
  5
526
  8
1
  6
ISO-10______
 62
     3
 10
27.75765408293861
 20
206.730396420436
 30
0.0
 11
79.7576540829386
 21
206.730396420436
 31
0.0
  0
LINE
  5
527
  8
1
  6
ISO-10______
 62
     3
 10
53.75765408293861
 20
232.7303964204359
 30
0.0
 11
53.75765408293861
 21
147.4303964204362
 31
0.0
  0
LINE
  5
528
  8
1
  6
ISO-10______
 62
     3
 10
173.0037496628186
 20
147.4303968839978
 30
0.0
 11
173.0037496628186
 21
216.9659404425638
 31
0.0
  0
LINE
  5
529
  8
1
  6
ISO-10______
 62
     3
 10
295.0415561945715
 20
206.730396420436
 30
0.0
 11
158.5030637698965
 21
206.730396420436
 31
0.0
  0
LINE
  5
52A
  8
1
  6
ISO-10______
 62
     3
 10
190.0497928282861
 20
155.7303964204361
 30
0.0
 11
156.337562612459
 21
155.7303964204361
 31
0.0
  0
LINE
  5
52B
  8
1
  6
ISO-10______
 62
     3
 10
53.75765408293861
 20
292.4214755930232
 30
0.0
 11
53.75765408293861
 21
435.4592821247762
 31
0.0
  0
LINE
  5
52C
  8
1
  6
ISO-10______
 62
     3
 10
74.7576540829386
 20
313.4214755930232
 30
0.0
 11
32.75765408293861
 21
313.4214755930232
 31
0.0
  0
POLYLINE
  5
52D
  8
1
 62
     1
 66
     1
 10
0.0
 20
0.0
 30
0.0
 70
   129
  0
VERTEX
  5
52E
  8
1
 62
     1
 10
286.5301740240611
 20
222.1226175964711
 30
0.0
  0
VERTEX
  5
52F
  8
1
 62
     1
 10
287.7273253015758
 20
221.4314419841373
 30
0.0
  0
VERTEX
  5
530
  8
1
 62
     1
 10
284.5037496628185
 20
217.2303964204359
 30
0.0
  0
SEQEND
  5
531
  8
1
 62
     1
  0
POLYLINE
  5
532
  8
1
  6
CONTINUOUS
 62
     1
 66
     1
 10
0.0
 20
0.0
 30
0.0
 70
   128
  0
VERTEX
  5
533
  8
1
  6
CONTINUOUS
 62
     1
 10
284.5037496628185
 20
217.2303964204359
 30
0.0
  0
VERTEX
  5
534
  8
1
  6
CONTINUOUS
 62
     1
 10
297.7828058541798
 20
240.2303964204359
 30
0.0
  0
VERTEX
  5
535
  8
1
  6
CONTINUOUS
 62
     1
 10
272.3435335626613
 20
240.2303964204359
 30
0.0
  0
SEQEND
  5
536
  8
1
  6
CONTINUOUS
 62
     1
  0
TEXT
  5
537
  8
1
 62
    17
 10
274.948806833641
 20
242.6063802167322
 30
0.0
 40
4.248032407407408
  1
PJ1/2
  7
YUGOTHIC_MEDIUM
 72
     1
 11
285.0631697084205
 21
244.7303964204359
 31
0.0
 73
     2
  0
DIMENSION
  5
538
  8
1
 62
    17
  2
*D1
 10
307.0037496628184
 20
229.7303964204359
 30
0.0
 11
304.3797334591147
 21
206.730396420436
 31
0.0
 70
    32
  3
TOOLBOX
 13
278.0037496628185
 23
183.7303964204361
 33
0.0
 14
278.0037496628185
 24
229.7303964204359
 34
0.0
 50
-90.0
  0
DIMENSION
  5
539
  8
1
 62
    17
  2
*D2
 10
292.0037496628184
 20
123.4304632910586
 30
0.0
 11
285.0037496628184
 21
126.0544794947623
 31
0.0
 70
    32
  3
TOOLBOX
 13
278.0037496628185
 23
183.7303964204361
 33
0.0
 14
292.0037496628184
 24
197.230396420436
 34
0.0
  0
DIMENSION
  5
53A
  8
1
 62
    17
  2
*D3
 10
278.0037496628185
 20
123.4304632910586
 30
0.0
 11
225.5037496628186
 21
126.0544794947623
 31
0.0
 70
    32
  3
TOOLBOX
 13
173.0037496628186
 23
147.4303968839978
 33
0.0
 14
278.0037496628185
 24
183.7303964204361
 34
0.0
  0
DIMENSION
  5
53B
  8
1
 62
    17
  2
*D4
 10
189.2537496628186
 20
135.4304632910586
 30
0.0
 11
173.0037496628186
 21
138.0544794947623
 31
0.0
 70
    32
  3
TOOLBOX
 13
156.7537496628187
 23
155.7303964204361
 33
0.0
 14
189.2537496628186
 24
155.7303964204361
 34
0.0
  0
DIMENSION
  5
53C
  8
1
 62
    17
  2
*D5
 10
140.0037496628187
 20
206.730396420436
 30
0.0
 11
137.379733459115
 21
191.730396420436
 31
0.0
 70
    32
  3
TOOLBOX
 13
155.0037496628187
 23
176.7303964204361
 33
0.0
 14
158.5030637698965
 24
206.730396420436
 34
0.0
 50
-90.0
  0
DIMENSION
  5
53D
  8
1
 62
    17
  2
*D6
 10
15.75765408293859
 20
155.7303964204361
 30
0.0
 11
13.13363787923487
 21
181.230396420436
 31
0.0
 70
    32
  3
TOOLBOX
 13
27.75765408293861
 23
206.730396420436
 33
0.0
 14
46.25765408293861
 24
155.7303964204361
 34
0.0
 50
-90.0
  0
VIEWPORT
  5
84
 67
     1
  8
0
 10
0.0
 20
0.0
 30
0.0
 40
223.7596998
 41
320.5435295999999
 68
     1
 69
     1
1001
ACAD
1000
MVIEW
1002
{
1070
    16
1010
0.0
1020
0.0
1030
0.0
1010
0.0
1020
0.0
1030
1.0
1040
0.0
1040
317.3984
1040
0.0
1040
0.0
1040
50.0
1040
0.0
1040
0.0
1070
     0
1070
  2000
1070
     0
1070
     3
1070
     0
1070
     0
1070
     0
1070
     0
1040
0.0
1040
0.0
1040
0.0
1040
10.0
1040
10.0
1040
10.0
1040
10.0
1070
     0
1002
{
1002
}
1002
}
  0
VIEWPORT
  5
53E
 67
     1
  8
__
  6
CONTINUOUS
 62
    17
 10
0.0
 20
0.0
 30
0.0
 40
197.1886666666667
 41
276.1826666666666
 68
     2
 69
     2
1001
ACAD
1000
MVIEW
1002
{
1070
    16
1010
0.0
1020
0.0
1030
0.0
1010
0.0
1020
0.0
1030
1.0
1040
0.0
1040
552.3653333333333
1040
157.5
1040
222.75
1040
50.0
1040
0.0
1040
0.0
1070
     0
1070
   100
1070
     0
1070
     3
1070
     0
1070
     0
1070
     0
1070
     0
1040
0.0
1040
0.0
1040
0.0
1040
10.0
1040
10.0
1040
10.0
1040
10.0
1070
     0
1002
{
1002
}
1002
}
  0
POLYLINE
  5
53F
 67
     1
  8
_VIEWPORT_CROP
  6
CONTINUOUS
 62
    17
 66
     1
 10
0.0
 20
0.0
 30
0.0
 70
   129
  0
VERTEX
  5
540
 67
     1
  8
_VIEWPORT_CROP
  6
CONTINUOUS
 62
    17
 10
-98.59433333333334
 20
138.0913333333333
 30
0.0
  0
VERTEX
  5
541
 67
     1
  8
_VIEWPORT_CROP
  6
CONTINUOUS
 62
    17
 10
98.59433333333334
 20
138.0913333333333
 30
0.0
  0
VERTEX
  5
542
 67
     1
  8
_VIEWPORT_CROP
  6
CONTINUOUS
 62
    17
 10
98.59433333333334
 20
-138.0913333333333
 30
0.0
  0
VERTEX
  5
543
 67
     1
  8
_VIEWPORT_CROP
  6
CONTINUOUS
 62
    17
 10
-98.59433333333334
 20
-138.0913333333333
 30
0.0
  0
SEQEND
  5
544
 67
     1
  8
_VIEWPORT_CROP
  6
CONTINUOUS
 62
    17
  0
LINE
  5
546
 67
     1
  8
__-2
  6
CONTINUOUS
 62
     7
 10
98.59433333333334
 20
-132.0055831952403
 30
0.0
 11
-98.79790902250134
 21
-132.0055831952403
 31
0.0
  0
TEXT
  5
547
 67
     1
  8
__-2
 62
     2
 10
50.87056200027955
 20
-136.3407437053316
 30
0.0
 40
2.389518229166667
  1
2023.02.15
  7
YUGOTHIC_MEDIUM
 11
50.87056200027955
 21
-135.1459845907483
 31
0.0
 73
     2
  0
TEXT
  5
548
 67
     1
  8
__-2
 62
     2
 10
83.77132063157663
 20
-136.3407437053316
 30
0.0
 40
2.389518229166667
  1
1:2(A4)
  7
YUGOTHIC_MEDIUM
 11
83.77132063157663
 21
-135.1459845907483
 31
0.0
 73
     2
  0
INSERT
  5
549
 67
     1
  8
__-2
 62
    17
  2
____-1
 10
0.0
 20
0.0
 30
0.0
  0
TEXT
  5
54A
 67
     1
  8
__-2
 62
     2
 10
71.14137709813545
 20
-135.5587345907484
 30
0.0
 40
2.389518229166667
  1
SCALE:
  7
YUGOTHIC_MEDIUM
 11
71.14137709813545
 21
-133.1692163615817
 31
0.0
 73
     3
  0
TEXT
  5
54B
 67
     1
  8
__-2
 62
     2
 10
-63.27167978538825
 20
-135.5587345907484
 30
0.0
 40
2.389518229166667
  1
NAME:
  7
YUGOTHIC_MEDIUM
 11
-63.27167978538825
 21
-133.1692163615817
 31
0.0
 73
     3
  0
TEXT
  5
54C
 67
     1
  8
__-2
 62
     2
 10
40.21814041354712
 20
-135.5587345907484
 30
0.0
 40
2.389518229166667
  1
DATE:
  7
YUGOTHIC_MEDIUM
 11
40.21814041354712
 21
-133.1692163615817
 31
0.0
 73
     3
  0
TEXT
  5
54D
 67
     1
  8
__-2
 62
     2
 10
9.84209401434168
 20
-135.5587345907484
 30
0.0
 40
2.389518229166667
  1
ID:
  7
YUGOTHIC_MEDIUM
 11
9.84209401434168
 21
-133.1692163615817
 31
0.0
 73
     3
  0
TEXT
  5
54E
 67
     1
  8
__-2
 62
     2
 10
-50.89040189825057
 20
-136.3407437053316
 30
0.0
 40
2.389518229166667
  1
洗面水栓 WT-3：壁付けつまみ単水栓
  7
YUGOTHIC_MEDIUM
 11
-50.89040189825057
 21
-135.1459845907483
 31
0.0
 73
     2
  0
TEXT
  5
54F
 67
     1
  8
__-2
 62
     2
 10
14.08520928026939
 20
-136.3138764847787
 30
0.0
 40
2.389518229166667
  1
KB-PT011-15
  7
YUGOTHIC_MEDIUM
 11
14.08520928026939
 21
-135.1191173701953
 31
0.0
 73
     2
  0
ENDSEC
  0
EOF
